osu file format v14

[General]
AudioFilename: audio.mp3
AudioLeadIn: 0
PreviewTime: 39163
Countdown: 0
SampleSet: Soft
StackLeniency: 0.7
Mode: 2
LetterboxInBreaks: 0
WidescreenStoryboard: 1

[Editor]
Bookmarks: 447,19906,32879,39365,52338,65311,71798,78284,84771,97744,110717,125514
DistanceSpacing: 0.9
BeatDivisor: 8
GridSize: 8
TimelineZoom: 2.2

[Metadata]
Title:Turii ~Panta rhei~
TitleUnicode:Turii ~Panta rhei~
Artist:Zektbach
ArtistUnicode:Zektbach
Creator:Kyuare
Version:Cup
Source:beatmania IIDX 16 EMPRESS
Tags:ゼクトバッハ iidx16 tomosuke funaki 舟木智介 maya takamura 高村真耶 Akiko Shikata 志方あきこ elemental chant malchut REFLEC BEAT
BeatmapID:1570267
BeatmapSetID:685428

[Difficulty]
HPDrainRate:3
CircleSize:3
OverallDifficulty:6
ApproachRate:6
SliderMultiplier:1.4
SliderTickRate:1

[Events]
//Background and Video events
0,0,"65165749_p0.png",0,0
Video,-11550,"stare2.avi"
//Break Periods
//Storyboard Layer 0 (Background)
//Storyboard Layer 1 (Fail)
//Storyboard Layer 2 (Pass)
//Storyboard Layer 3 (Foreground)
//Storyboard Sound Samples

[TimingPoints]
447,405.405405405405,4,2,0,50,1,0
6933,-100,4,2,0,70,0,0
19906,-100,4,2,0,50,0,0
32879,-100,4,2,0,70,0,0
39365,-100,4,2,0,60,0,0
52338,-100,4,2,0,70,0,0
65311,-100,4,2,0,80,0,1
78284,-100,4,2,0,70,0,0
84771,-100,4,2,0,50,0,0
96528,-117.647058823529,4,2,0,50,0,0
97744,-100,4,2,0,60,0,0
110717,-100,4,2,0,70,0,0
112338,-66.6666666666667,4,2,0,70,0,0
112946,-100,4,2,0,70,0,0
118825,-66.6666666666667,4,2,0,70,0,0
119433,-100,4,2,0,70,0,0
123892,-100,4,2,0,10,0,0

[Colours]
Combo1 : 174,170,115
Combo2 : 177,90,90
Combo3 : 66,97,130
Combo4 : 87,118,80

[HitObjects]
325,283,447,5,4,0:0:0:0:
332,214,649,1,0,0:0:0:0:
339,145,852,1,2,0:0:0:0:
346,76,1055,1,2,0:0:0:0:
166,76,1460,1,0,0:0:0:0:
159,145,1662,1,0,0:0:0:0:
152,214,1865,1,0,0:0:0:0:
145,283,2068,5,2,0:0:0:0:
354,287,2676,1,2,0:0:0:0:
200,287,3082,1,0,0:0:0:0:
130,226,3284,1,0,0:0:0:0:
130,226,3487,1,0,0:0:0:0:
200,287,3690,5,2,0:0:0:0:
354,287,4095,1,0,0:0:0:0:
200,287,4501,1,2,0:0:0:0:
46,287,4906,1,0,0:0:0:0:
242,292,5311,2,0,L|249:151,1,140,2|2,0:0|0:0,0:0:0:0:
109,277,6122,2,0,L|102:136,1,140,2|2,0:0|0:0,0:0:0:0:
312,108,6933,6,0,P|380:110|436:151,1,140,2|8,0:0|0:0,0:0:0:0:
436,224,7744,2,0,P|380:265|312:268,1,140,2|8,0:0|0:0,0:0:0:0:
157,112,8555,1,2,0:0:0:0:
206,224,8960,1,8,0:0:0:0:
361,168,9365,1,2,0:0:0:0:
410,275,9771,1,8,0:0:0:0:
214,110,10176,6,0,P|146:112|90:153,1,140,2|8,0:0|0:0,0:0:0:0:
90,226,10987,2,0,P|146:267|214:270,1,140,2|8,0:0|0:0,0:0:0:0:
369,114,11798,1,2,0:0:0:0:
320,226,12203,1,8,0:0:0:0:
165,170,12608,1,2,0:0:0:0:
116,277,13014,1,8,0:0:0:0:
312,315,13419,6,0,P|341:255|311:193,1,140,2|8,0:0|0:0,0:0:0:0:
116,277,14230,2,0,P|87:217|117:155,1,140,2|8,0:0|0:0,0:0:0:0:
271,143,15041,1,2,0:0:0:0:
425,170,15446,1,8,0:0:0:0:
269,143,15852,1,2,0:0:0:0:
425,170,16257,1,8,0:0:0:0:
229,316,16663,6,0,P|200:256|230:194,1,140,2|8,0:0|0:0,0:0:0:0:
425,275,17474,2,0,P|454:215|424:153,1,140,2|8,0:0|0:0,0:0:0:0:
270,141,18285,1,2,0:0:0:0:
116,168,18690,1,8,0:0:0:0:
272,141,19096,1,2,0:0:0:0:
426,168,19501,1,8,0:0:0:0:
230,45,19906,6,0,P|131:143|199:238,1,280,4|2,0:0|0:0,0:0:0:0:
312,233,21122,1,0,0:0:0:0:
438,239,21528,2,0,P|490:115|407:13,1,280,8|2,0:0|0:0,0:0:0:0:
271,45,22744,1,0,0:0:0:0:
135,45,23149,5,2,0:0:0:0:
407,45,24365,1,2,0:0:0:0:
412,184,24771,2,0,L|407:45,1,140,8|2,0:0|0:0,0:0:0:0:
135,45,26392,6,0,P|70:163|130:283,1,280,2|2,0:0|0:0,0:0:0:0:
407,333,28014,2,0,P|454:151|270:94,1,420,8|2,0:0|0:0,0:0:0:0:
74,112,29636,2,0,P|216:242|356:111,1,420,2|2,0:0|0:0,0:0:0:0:
157,113,31257,1,8,0:0:0:0:
360,102,32879,5,4,0:0:0:0:
192,152,33284,1,2,0:0:0:0:
136,151,33487,1,0,0:0:0:0:
192,152,33690,1,2,0:0:0:0:
360,102,34095,1,2,0:0:0:0:
416,102,34298,1,2,0:0:0:0:
360,102,34501,5,4,0:0:0:0:
192,152,34906,1,2,0:0:0:0:
388,234,35311,1,4,0:0:0:0:
444,234,35514,1,0,0:0:0:0:
388,234,35717,1,4,0:0:0:0:
192,293,36122,5,4,0:0:0:0:
360,243,36527,1,2,0:0:0:0:
415,243,36730,1,0,0:0:0:0:
360,243,36933,1,2,0:0:0:0:
192,293,37338,1,2,0:0:0:0:
136,292,37541,1,2,0:0:0:0:
192,293,37744,5,4,0:0:0:0:
360,243,38149,1,2,0:0:0:0:
164,174,38554,1,4,0:0:0:0:
107,176,38757,1,0,0:0:0:0:
164,174,38960,1,4,0:0:0:0:
360,42,39365,6,0,B|420:77|420:77|421:148,1,140,4|8,0:0|0:0,0:0:0:0:
253,273,40176,2,0,B|193:238|193:238|192:167,1,140,2|8,0:0|0:0,0:0:0:0:
360,178,40987,1,2,0:0:0:0:
472,113,41392,1,8,0:0:0:0:
276,146,41798,6,0,P|255:213|277:277,1,140,2|8,0:0|0:0,0:0:0:0:
431,250,42609,1,2,0:0:0:0:
291,263,43014,1,8,0:0:0:0:
151,271,43419,1,2,0:0:0:0:
291,263,43825,1,8,0:0:0:0:
123,300,44230,2,0,B|63:265|63:265|62:194,1,140,2|8,0:0|0:0,0:0:0:0:
258,225,45041,6,0,B|318:190|318:190|319:119,1,140,2|8,0:0|0:0,0:0:0:0:
151,139,45852,1,2,0:0:0:0:
291,177,46257,1,8,0:0:0:0:
431,215,46663,1,2,0:0:0:0:
152,322,47474,6,0,P|121:260|152:202,1,140,2|8,0:0|0:0,0:0:0:0:
347,296,48284,2,0,P|378:234|347:176,1,140,2|8,0:0|0:0,0:0:0:0:
207,166,49095,1,2,0:0:0:0:
81,190,49501,1,8,0:0:0:0:
207,166,49906,1,2,0:0:0:0:
333,140,50312,1,8,0:0:0:0:
165,144,50717,5,2,0:0:0:0:
333,140,51122,1,8,0:0:0:0:
389,194,51325,1,2,0:0:0:0:
339,254,51528,1,2,0:0:0:0:
173,254,51933,1,8,0:0:0:0:
369,337,52338,6,0,P|408:279|387:217,1,140,4|8,0:0|0:0,0:0:0:0:
219,308,53149,2,0,P|180:250|201:188,1,140,2|8,0:0|0:0,0:0:0:0:
369,156,53960,1,2,0:0:0:0:
383,137,54365,1,8,0:0:0:0:
187,104,54771,2,0,B|119:121|119:121|111:191,1,140,2|8,0:0|0:0,0:0:0:0:
280,236,55582,5,2,0:0:0:0:
110,202,55987,1,8,0:0:0:0:
112,157,56392,1,2,0:0:0:0:
282,118,56797,1,8,0:0:0:0:
100,131,57203,2,0,L|96:271,1,140,2|8,0:0|0:0,0:0:0:0:
292,312,58014,2,0,B|360:295|360:295|368:225,1,140,2|8,0:0|0:0,0:0:0:0:
213,226,58825,5,2,0:0:0:0:
367,225,59230,1,8,0:0:0:0:
171,270,59636,2,0,B|103:253|103:253|95:183,1,140,2|8,0:0|0:0,0:0:0:0:
291,275,60446,2,0,L|267:135,1,140,2|10,0:0|0:0,0:0:0:0:
71,203,61257,2,0,B|87:135|87:135|157:123,1,140,2|8,0:0|0:0,0:0:0:0:
355,123,62068,6,0,B|425:135|425:135|441:203,1,140,4|8,0:0|0:0,0:0:0:0:
279,229,62879,1,2,0:0:0:0:
125,253,63284,1,8,0:0:0:0:
307,308,63690,2,0,L|403:193,1,140,2|8,0:0|0:0,0:0:0:0:
229,170,64501,1,2,0:0:0:0:
173,168,64703,1,2,0:0:0:0:
229,170,64906,1,8,0:0:0:0:
453,92,65311,5,4,0:0:0:0:
291,85,65717,1,8,0:0:0:0:
129,73,66122,1,2,0:0:0:0:
298,77,66528,1,8,0:0:0:0:
88,62,66933,6,0,B|46:118|46:118|88:174,1,140,2|8,0:0|0:0,0:0:0:0:
256,171,67744,2,0,B|298:227|298:227|256:283,1,140,2|8,0:0|0:0,0:0:0:0:
186,283,68352,1,2,0:0:0:0:
116,283,68555,5,2,0:0:0:0:
256,282,68960,1,2,0:0:0:0:
396,279,69365,1,2,0:0:0:0:
466,223,69568,1,2,0:0:0:0:
396,279,69771,1,8,0:0:0:0:
228,279,70176,6,0,L|111:190,1,140,2|8,0:0|0:0,0:0:0:0:
284,132,70987,1,2,0:0:0:0:
343,152,71189,1,2,0:0:0:0:
284,132,71392,1,8,0:0:0:0:
59,80,71798,5,4,0:0:0:0:
221,79,72204,1,8,0:0:0:0:
383,73,72609,1,2,0:0:0:0:
214,77,73015,1,8,0:0:0:0:
424,62,73420,6,0,B|466:118|466:118|424:174,1,140,2|8,0:0|0:0,0:0:0:0:
256,171,74231,2,0,B|214:227|214:227|256:283,1,140,2|8,0:0|0:0,0:0:0:0:
326,283,74839,1,2,0:0:0:0:
396,283,75042,5,2,0:0:0:0:
256,282,75447,1,2,0:0:0:0:
116,279,75852,1,2,0:0:0:0:
46,223,76055,1,2,0:0:0:0:
116,279,76258,1,8,0:0:0:0:
299,278,76663,6,0,B|365:257|365:257|365:185,1,140,2|8,0:0|0:0,0:0:0:0:
183,218,77474,2,0,B|117:197|117:197|117:125,1,140,2|8,0:0|0:0,0:0:0:0:
327,281,78284,5,4,0:0:0:0:
159,231,78689,1,8,0:0:0:0:
103,232,78892,1,0,0:0:0:0:
159,231,79095,1,2,0:0:0:0:
320,300,79500,1,8,0:0:0:0:
264,304,79703,1,0,0:0:0:0:
208,302,79906,5,2,0:0:0:0:
40,303,80311,1,8,0:0:0:0:
208,234,80716,1,2,0:0:0:0:
264,234,80919,1,2,0:0:0:0:
320,236,81122,1,10,0:0:0:0:
110,247,81528,5,4,0:0:0:0:
278,197,81933,1,8,0:0:0:0:
334,198,82136,1,0,0:0:0:0:
390,199,82339,1,2,0:0:0:0:
229,268,82744,1,8,0:0:0:0:
173,270,82947,1,0,0:0:0:0:
229,268,83150,5,2,0:0:0:0:
397,269,83555,1,8,0:0:0:0:
229,200,83960,1,2,0:0:0:0:
173,200,84163,1,2,0:0:0:0:
117,202,84366,1,8,0:0:0:0:
327,37,84771,6,0,P|423:138|380:256,1,280,4|2,0:0|0:0,0:0:0:0:
256,272,85987,1,0,0:0:0:0:
132,256,86392,2,0,P|90:130|185:37,1,280,8|0,0:0|0:0,0:0:0:0:
327,63,87609,1,0,0:0:0:0:
117,63,88014,6,2,B|34:177|34:177|112:293,1,280
256,296,89230,1,0,0:0:0:0:
400,293,89636,2,0,B|478:177|478:177|395:63,1,280,8|0,0:0|0:0,0:0:0:0:
256,64,90852,1,0,0:0:0:0:
48,64,91257,6,0,L|37:205,1,140,4|0,0:0|0:0,0:0:0:0:
219,174,92068,2,0,L|230:315,1,140,2|0,0:0|0:0,0:0:0:0:
439,66,92879,2,0,L|450:207,1,140,8|0,0:0|0:0,0:0:0:0:
268,176,93690,2,0,L|257:317,1,140,2|0,0:0|0:0,0:0:0:0:
439,312,94501,5,2,0:0:0:0:
317,313,94906,1,0,0:0:0:0:
195,313,95311,1,2,0:0:0:0:
73,312,95717,1,2,0:0:0:0:
256,312,96122,1,8,0:0:0:0:
439,312,96528,2,0,P|447:200|354:131,1,238.00000453949,2|0,0:0|0:0,0:0:0:0:
159,130,97744,5,4,0:0:0:0:
54,234,98149,1,8,0:0:0:0:
236,181,98555,2,0,B|303:201|303:201|304:272,1,140,2|8,0:0|0:0,0:0:0:0:
121,324,99365,6,0,B|54:304|54:304|53:233,1,140,2|8,0:0|0:0,0:0:0:0:
103,218,99974,1,0,0:0:0:0:
153,199,100176,1,2,0:0:0:0:
293,164,100582,1,8,0:0:0:0:
433,129,100987,6,0,L|441:269,1,140,2|8,0:0|0:0,0:0:0:0:
259,169,101798,2,0,L|251:309,1,140,2|8,0:0|0:0,0:0:0:0:
68,299,102609,2,0,P|62:191|142:151,1,210,8|2,0:0|0:0,0:0:0:0:
212,151,103419,1,2,0:0:0:0:
353,153,103825,1,2,0:0:0:0:
213,161,104230,5,2,0:0:0:0:
353,153,104636,1,8,0:0:0:0:
493,145,105041,1,2,0:0:0:0:
353,153,105446,1,8,0:0:0:0:
171,154,105852,6,0,P|104:223|158:305,1,210,8|2,0:0|0:0,0:0:0:0:
227,305,106663,1,2,0:0:0:0:
367,298,107068,1,8,0:0:0:0:
157,326,107474,6,0,P|143:261|188:207,1,140,2|8,0:0|0:0,0:0:0:0:
355,326,108284,2,0,P|369:261|324:207,1,140,2|8,0:0|0:0,0:0:0:0:
160,160,109095,2,0,P|256:123|352:160,1,210,8|2,0:0|0:0,0:0:0:0:
281,161,109906,1,2,0:0:0:0:
152,158,110311,1,8,0:0:0:0:
363,72,110717,5,4,0:0:0:0:
374,140,110919,1,0,0:0:0:0:
385,208,111122,1,2,0:0:0:0:
396,276,111325,1,2,0:0:0:0:
256,288,111730,1,2,0:0:0:0:
116,276,112136,1,0,0:0:0:0:
43,275,112338,6,0,P|60:126|194:52,1,315.000012016297,2|0,0:0|0:0,0:0:0:0:
272,66,113149,1,8,0:0:0:0:
440,65,113555,1,2,0:0:0:0:
370,65,113757,1,0,0:0:0:0:
299,69,113960,6,0,L|255:203,1,140,4|0,0:0|0:0,0:0:0:0:
326,205,114568,1,2,0:0:0:0:
494,207,114974,1,2,0:0:0:0:
326,205,115379,1,0,0:0:0:0:
255,205,115582,2,0,P|256:304|349:328,1,210,2|8,0:0|0:0,0:0:0:0:
419,304,116392,1,2,0:0:0:0:
141,311,117204,5,4,0:0:0:0:
131,243,117406,1,0,0:0:0:0:
123,176,117609,1,2,0:0:0:0:
115,112,117812,1,2,0:0:0:0:
256,96,118217,1,2,0:0:0:0:
397,112,118623,1,0,0:0:0:0:
469,109,118825,6,0,P|452:258|318:332,1,315.000012016297,2|0,0:0|0:0,0:0:0:0:
240,318,119636,1,8,0:0:0:0:
72,319,120042,1,2,0:0:0:0:
142,319,120244,1,0,0:0:0:0:
213,315,120447,6,0,L|257:181,1,140,4|0,0:0|0:0,0:0:0:0:
186,179,121055,1,2,0:0:0:0:
18,177,121461,1,2,0:0:0:0:
186,179,121866,1,0,0:0:0:0:
257,179,122069,2,0,P|256:80|163:56,1,210,2|8,0:0|0:0,0:0:0:0:
93,80,122879,5,2,0:0:0:0:
208,89,123183,1,0,0:0:0:0:
323,97,123487,1,2,0:0:0:0:
400,106,123690,1,4,0:0:0:0:
256,192,124095,12,0,125514,0:0:0:0:
