osu file format v14

[General]
AudioFilename: audio.mp3
AudioLeadIn: 0
PreviewTime: 76418
Countdown: 0
SampleSet: Soft
StackLeniency: 0.7
Mode: 0
LetterboxInBreaks: 0
WidescreenStoryboard: 1

[Editor]
Bookmarks: 1874,12384,20286,34335,48383,62432,76481,90530,104579,118627,123896,127115
DistanceSpacing: 1
BeatDivisor: 4
GridSize: 32
TimelineZoom: 1.4

[Metadata]
Title:The Sealer ~A Milia to Milia no Min~
TitleUnicode:The Sealer ~ア・ミリアとミリアの民~
Artist:Zektbach
ArtistUnicode:Zektbach
Creator:celerih
Version:Normal
Source:pop'n music 20 fantasia
Tags:封印者 The Epic of Zektbach -Masinowa- ELEMENTAL JIG エレメンタルジグ beatmania IIDX 26 Rootage REFLEC BEAT colette -All Seasons- plus ポップンリズミン popn rhythmin 舟木智介 Tomosuke Funaki Chie Fukami
BeatmapID:2234040
BeatmapSetID:1067056

[Difficulty]
HPDrainRate:3.5
CircleSize:3
OverallDifficulty:4
ApproachRate:5.5
SliderMultiplier:1
SliderTickRate:1

[Events]
//Background and Video events
0,0,"The Sealer BG.jpg",0,0
//Break Periods
2,104789,110488
//Storyboard Layer 0 (Background)
//Storyboard Layer 1 (Fail)
//Storyboard Layer 2 (Pass)
//Storyboard Layer 3 (Foreground)
//Storyboard Layer 4 (Overlay)
//Storyboard Sound Samples

[TimingPoints]
1884,437.956204379562,3,2,2,40,1,0
1884,-100,3,2,2,40,0,0
9109,-100,3,2,2,60,0,0
9766,-100,3,2,2,40,0,0
10643,-100,3,2,2,40,0,0
12394,292.682926829268,3,2,1,50,1,0
19418,-100,3,2,1,50,0,0
28783,-100,3,2,1,50,0,0
34637,-100,3,2,1,50,0,0
55271,-100,3,2,1,60,0,0
55418,-100,3,2,1,50,0,0
59515,-100,3,2,1,60,0,0
59808,-100,3,2,1,50,0,0
62442,-100,3,2,1,65,0,0
63320,-100,3,2,1,65,0,0
65954,-100,3,2,1,65,0,0
67711,-100,3,2,1,65,0,0
69467,-100,3,2,1,65,0,0
70345,-100,3,2,1,65,0,0
72979,-100,3,2,1,65,0,0
74296,-100,3,2,1,65,0,0
76491,-100,3,2,1,60,0,0
104589,-100,3,2,2,35,0,0
111174,-100,3,2,1,60,0,0
111613,-100,3,2,1,40,0,0
118637,-100,3,2,1,50,0,0
122150,-100,3,2,1,60,0,0
123027,-100,3,2,1,50,0,0
127125,-100,3,2,1,5,0,0

[Colours]
Combo1 : 241,194,234
Combo2 : 180,224,152
Combo3 : 254,153,148
Combo4 : 223,218,157

[HitObjects]
47,233,1884,6,0,P|77:281|165:277,1,150,8|2,0:0|0:0,0:0:0:0:
209,136,3197,2,0,P|194:94|186:37,2,100
309,136,4511,5,8,0:0:0:0:
426,228,5168,1,2,0:0:0:0:
338,349,5825,2,0,P|273:335|137:351,1,200
63,286,7139,5,0,0:0:0:0:
177,189,7796,1,2,0:0:0:0:
45,116,8453,2,0,P|32:191|25:288,2,150,8|0|8,0:0|0:0|0:0,0:0:0:0:
220,32,10862,5,0,0:0:0:0:
220,32,11081,1,2,0:0:0:0:
372,37,11519,1,0,0:0:0:0:
453,168,12394,5,12,0:0:0:0:
316,231,12833,1,8,0:0:0:0:
316,231,12979,2,0,B|277:200|277:200|227:208,1,100,8|0,0:1|0:1,0:0:0:0:
114,103,13711,2,0,P|127:57|132:5,1,100,8|0,0:0|0:0,0:0:0:0:
182,1,14150,5,0,0:0:0:0:
262,60,14442,1,8,0:1:0:0:
253,159,14735,1,0,0:0:0:0:
253,159,14881,1,8,0:1:0:0:
253,159,15028,6,0,P|172:172|119:226,1,150,4|8,0:0|0:1,0:0:0:0:
211,338,15906,2,0,P|252:308|311:290,1,100,12|8,0:0|0:1,0:0:0:0:
346,204,16491,1,0,0:0:0:0:
438,243,16784,5,4,0:0:0:0:
413,95,17223,1,4,0:0:0:0:
263,102,17662,1,4,0:0:0:0:
244,83,19418,6,0,B|237:129|242:198|282:155|297:214|287:289,1,200,2|2,0:0|0:0,0:0:0:0:
208,329,20296,5,4,0:0:0:0:
76,257,20735,1,2,0:0:0:0:
147,125,21174,2,0,P|186:96|203:45,1,100,8|8,0:1|0:1,0:0:0:0:
302,50,21759,2,0,P|315:74|339:97,1,50,2|2,0:0|0:0,0:0:0:0:
380,91,22052,5,8,0:1:0:0:
494,187,22491,2,0,P|481:232|477:296,1,100,8|8,0:1|0:0,0:0:0:0:
444,323,22930,2,0,P|396:326|336:342,2,100,8|8|2,0:1|0:1|0:0,0:0:0:0:
390,238,23808,6,0,P|298:205|244:218,1,150,8|0,0:1|0:0,0:0:0:0:
179,144,24540,1,8,0:0:0:0:
179,144,24686,2,0,P|169:98|168:34,1,100,8|8,0:1|0:1,0:0:0:0:
67,59,25272,1,2,0:0:0:0:
49,157,25564,5,2,0:0:0:0:
151,266,26003,1,4,0:0:0:0:
102,353,26296,1,2,0:0:0:0:
102,353,26442,2,0,P|153:358|206:382,1,100,8|8,0:1|0:1,0:0:0:0:
288,333,27028,1,10,0:0:0:0:
385,352,27320,5,4,0:0:0:0:
321,216,27759,1,0,0:0:0:0:
432,118,28198,2,0,P|489:94|540:86,1,100,8|0,0:1|0:0,0:0:0:0:
471,11,28783,2,0,P|448:4|412:4,1,50,2|0,0:0|0:0,0:0:0:0:
373,15,29076,5,0,0:0:0:0:
259,113,29515,2,0,P|255:167|230:214,1,100,8|0,0:0|0:0,0:0:0:0:
191,232,29954,2,0,P|151:210|84:197,2,100,8|8|2,0:1|0:1|0:0,0:0:0:0:
178,132,30832,6,0,P|148:72|92:-1,1,150,2|0,0:0|0:0,0:0:0:0:
198,0,31564,1,8,0:0:0:0:
198,0,31710,2,0,P|244:22|307:19,1,100,8|8,0:1|0:1,0:0:0:0:
392,18,32296,1,2,0:0:0:0:
433,108,32588,5,2,0:0:0:0:
304,198,33027,1,12,0:0:0:0:
354,284,33320,1,0,0:0:0:0:
354,284,33466,2,0,P|408:281|455:264,1,100,2|8,0:0|0:1,0:0:0:0:
508,348,34052,1,2,0:0:0:0:
413,380,34344,5,4,0:0:0:0:
305,355,34637,2,0,P|268:340|199:330,1,100
121,262,35223,2,0,P|94:300|43:349,1,100,8|8,0:1|0:1,0:0:0:0:
27,119,36101,5,8,0:1:0:0:
153,13,36540,1,8,0:1:0:0:
244,74,36833,1,8,0:0:0:0:
244,74,36979,2,0,P|245:120|256:197,1,100,8|8,0:1|0:1,0:0:0:0:
350,221,37564,2,0,L|341:282,2,50,0|2|8,0:0|0:0|0:1,0:0:0:0:
449,204,38150,5,0,0:0:0:0:
462,302,38442,1,0,0:0:0:0:
386,367,38735,2,0,P|345:355|265:344,1,100,8|8,0:1|0:1,0:0:0:0:
127,226,39613,5,8,0:1:0:0:
170,82,40052,1,8,0:1:0:0:
92,18,40345,1,0,0:0:0:0:
92,18,40491,2,0,P|52:53|25:95,1,100,8|8,0:1|0:0,0:0:0:0:
88,180,41076,1,2,0:0:0:0:
187,172,41369,5,8,0:1:0:0:
256,243,41662,2,0,P|293:228|362:218,1,100
385,123,42248,2,0,P|373:80|338:13,1,100,8|8,0:1|0:1,0:0:0:0:
202,166,43126,5,8,0:1:0:0:
274,297,43565,1,0,0:0:0:0:
365,323,43858,1,8,0:0:0:0:
365,323,44004,2,0,P|404:302|463:291,1,100,8|8,0:1|0:1,0:0:0:0:
497,199,44589,2,0,P|501:171|512:137,2,50,8|2|8,0:0|0:0|0:1,0:0:0:0:
398,178,45175,5,2,0:0:0:0:
304,212,45467,1,0,0:0:0:0:
253,298,45760,2,0,P|220:264|165:236,1,100,8|8,0:1|0:1,0:0:0:0:
83,188,46345,1,2,0:0:0:0:
5,251,46638,5,8,0:1:0:0:
110,357,47077,1,8,0:0:0:0:
205,326,47370,1,8,0:1:0:0:
205,326,47516,2,0,P|218:278|240:233,1,100,4|8,0:0|0:0,0:0:0:0:
211,192,47954,1,8,0:1:0:0:
81,115,48394,5,8,0:1:0:0:
207,34,48833,1,8,0:1:0:0:
343,95,49272,2,0,P|393:81|458:73,2,100,8|8|2,0:1|0:1|0:0,0:0:0:0:
268,162,50150,5,8,0:1:0:0:
298,308,50589,1,8,0:1:0:0:
165,378,51028,2,0,P|126:362|49:344,2,100,8|8|10,0:1|0:1|0:0,0:0:0:0:
201,284,51906,5,8,0:1:0:0:
147,199,52198,1,2,0:0:0:0:
215,126,52491,1,2,0:0:0:0:
189,29,52784,2,0,P|223:8|292:4,1,100,8|0,0:1|0:0,0:0:0:0:
337,84,53369,1,10,0:0:0:0:
434,107,53662,6,0,P|456:153|466:206,1,100,8|2,0:1|0:0,0:0:0:0:
495,240,54101,1,8,0:1:0:0:
446,327,54393,1,8,0:0:0:0:
446,327,54540,2,0,P|399:305|337:295,1,100,8|8,0:1|0:0,0:0:0:0:
252,285,55125,2,0,P|226:296|198:318,1,50,10|0,0:0|0:0,0:0:0:0:
159,322,55418,5,8,0:1:0:0:
40,230,55857,1,8,0:1:0:0:
111,97,56296,2,0,P|106:49|93:-15,2,100,8|8|2,0:1|0:1|0:0,0:0:0:0:
207,122,57174,5,8,0:1:0:0:
340,54,57613,1,8,0:1:0:0:
464,137,58052,2,0,P|476:178|482:239,2,100,8|8|10,0:1|0:1|0:0,0:0:0:0:
368,167,58930,5,8,0:0:0:0:
272,137,59222,1,0,0:0:0:0:
224,224,59515,1,0,0:0:0:0:
125,208,59808,2,0,P|116:171|82:104,1,100,8|8,0:1|0:0,0:0:0:0:
0,161,60393,1,2,0:0:0:0:
20,259,60686,6,0,P|71:280|112:316,1,100,8|0,0:1|0:0,0:0:0:0:
154,297,61125,1,8,0:1:0:0:
245,335,61417,1,0,0:0:0:0:
245,335,61564,2,0,P|262:290|266:228,1,100,8|8,0:1|0:1,0:0:0:0:
193,170,62150,2,0,P|175:147|168:114,1,50,2|2,0:0|0:0,0:0:0:0:
189,82,62442,5,12,0:1:0:0:
327,139,62881,1,8,0:0:0:0:
321,288,63320,6,0,P|277:317|241:360,1,100,8|0,0:1|0:0,0:0:0:0:
195,353,63759,1,8,0:1:0:0:
100,320,64052,1,0,0:0:0:0:
100,320,64198,2,0,P|79:266|59:169,1,150,0|8,0:0|0:0,0:0:0:0:
178,84,65076,1,2,0:0:0:0:
266,131,65370,2,0,P|309:110|370:100,1,100,8|0,0:0|0:0,0:0:0:0:
427,26,65954,5,12,0:1:0:0:
512,143,66393,1,8,0:0:0:0:
426,266,66833,1,4,0:0:0:0:
288,205,67272,1,8,0:1:0:0:
185,314,67711,6,0,P|116:311|30:331,1,150,2|8,0:0|0:1,0:0:0:0:
24,229,68442,1,8,0:0:0:0:
24,229,68589,2,0,P|43:184|56:121,1,100,8|8,0:1|0:1,0:0:0:0:
133,72,69174,1,2,0:0:0:0:
220,121,69467,5,4,0:0:0:0:
355,55,69906,1,8,0:0:0:0:
462,159,70345,6,0,P|471:237|488:278,1,100,8|0,0:1|0:0,0:0:0:0:
408,328,70930,2,0,P|354:327|298:352,1,100,2|8,0:0|0:1,0:0:0:0:
266,321,71369,1,0,0:0:0:0:
170,289,71662,2,0,P|159:251|160:164,1,100,8|2,0:0|0:0,0:0:0:0:
126,149,72101,2,0,P|132:98|15:115,1,200,8|2,0:0|0:0,0:0:0:0:
37,193,72979,5,12,0:1:0:0:
185,217,73418,1,8,0:0:0:0:
264,344,73857,1,4,0:0:0:0:
406,298,74296,1,0,0:0:0:0:
396,148,74735,6,0,P|402:99|420:42,1,100,8|8,0:1|0:0,0:0:0:0:
456,20,75174,1,8,0:1:0:0:
511,159,75613,2,0,P|499:182|492:216,1,50,2|2,0:0|0:0,0:0:0:0:
444,217,75906,2,0,P|457:243|465:276,1,50,2|2,0:0|0:0,0:0:0:0:
315,307,76491,6,0,P|305:323|297:363,2,50,2|2|8,0:0|0:0|0:1,0:0:0:0:
263,221,77076,1,0,0:0:0:0:
166,247,77369,2,0,P|125:229|61:218,1,100,2|8,0:0|0:1,0:0:0:0:
20,131,77954,1,8,0:0:0:0:
68,43,78247,5,8,0:0:0:0:
209,93,78686,1,8,0:1:0:0:
286,29,78979,1,8,0:1:0:0:
286,29,79125,1,4,0:0:0:0:
363,91,79418,1,4,0:0:0:0:
449,41,79711,2,0,P|471:53|492:73,1,50,2|0,0:0|0:0,0:0:0:0:
494,119,80003,5,12,0:0:0:0:
451,209,80296,2,0,P|442:258|420:312,1,100,0|8,0:0|0:0,0:0:0:0:
341,360,80881,2,0,P|307:339|238:330,2,100,0|8|2,0:0|0:1|0:0,0:0:0:0:
342,259,81759,5,8,0:1:0:0:
209,188,82198,1,8,0:1:0:0:
143,263,82491,1,8,0:0:0:0:
143,263,82637,1,4,0:0:0:0:
43,253,82930,1,4,0:0:0:0:
37,58,83515,6,0,P|41:33|56:10,1,50,4|0,0:0|0:0,0:0:0:0:
109,5,83808,1,8,0:1:0:0:
201,64,84101,1,8,0:1:0:0:
145,158,84393,2,0,P|135:207|139:273,1,100,8|2,0:1|0:0,0:0:0:0:
246,267,84979,1,2,0:0:0:0:
331,335,85272,6,0,P|371:311|431:295,1,100,8|0,0:0|0:0,0:0:0:0:
474,312,85711,1,8,0:1:0:0:
502,206,86003,1,8,0:1:0:0:
502,206,86150,1,4,0:0:0:0:
424,127,86442,1,4,0:0:0:0:
280,293,87028,6,0,P|315:337|340:385,1,100,4|0,0:0|0:0,0:0:0:0:
388,290,87613,1,8,0:1:0:0:
333,205,87906,2,0,P|286:187|252:147,1,100,8|0,0:1|0:0,0:0:0:0:
212,68,88491,1,2,0:0:0:0:
117,100,88784,5,10,0:0:0:0:
129,249,89223,1,8,0:1:0:0:
228,245,89515,1,8,0:1:0:0:
228,245,89662,1,4,0:0:0:0:
297,316,89954,1,4,0:0:0:0:
399,138,90540,5,4,0:0:0:0:
415,39,90833,2,0,P|367:19|316:12,1,100,8|8,0:0|0:1,0:0:0:0:
274,33,91272,1,8,0:0:0:0:
274,33,91418,1,8,0:1:0:0:
191,89,91711,1,8,0:0:0:0:
106,35,92003,1,2,0:0:0:0:
43,113,92296,6,0,P|23:159|12:221,1,100,8|8,0:1|0:0,0:0:0:0:
36,304,92881,2,0,P|49:326|62:371,2,50,8|8|4,0:1|0:0|0:0,0:0:0:0:
131,271,93467,1,4,0:0:0:0:
298,379,94052,5,8,0:1:0:0:
376,316,94345,1,8,0:0:0:0:
349,219,94637,2,0,P|320:224|291:246,1,50,0|8,0:0|0:0,0:0:0:0:
261,205,94930,1,8,0:0:0:0:
202,123,95223,2,0,P|208:100|221:71,2,50,0|8|2,0:0|0:1|0:0,0:0:0:0:
124,186,95808,5,8,0:1:0:0:
37,136,96101,2,0,P|27:90|34:21,1,100,0|2,0:0|0:0,0:0:0:0:
74,14,96540,1,8,0:0:0:0:
74,14,96686,1,4,0:0:0:0:
170,41,96979,1,4,0:0:0:0:
367,12,97564,5,12,0:1:0:0:
434,85,97857,2,0,P|402:117|378:171,1,100,8|8,0:0|0:1,0:0:0:0:
337,194,98296,1,8,0:0:0:0:
337,194,98442,1,8,0:1:0:0:
253,138,98735,1,8,0:1:0:0:
166,188,99027,1,0,0:0:0:0:
184,286,99320,6,0,P|233:296|292:323,1,100,8|0,0:1|0:0,0:0:0:0:
378,303,99905,2,0,P|391:325|404:370,2,50,2|8|4,0:0|0:0|0:0,0:0:0:0:
442,226,100491,1,4,0:0:0:0:
270,124,101076,5,12,0:1:0:0:
177,162,101369,1,8,0:0:0:0:
53,77,101808,1,8,0:0:0:0:
53,77,101954,1,8,0:1:0:0:
0,162,102247,2,0,P|13:194|20:230,2,50,0|8|2,0:0|0:1|0:0,0:0:0:0:
99,169,102832,5,8,0:1:0:0:
164,244,103125,2,0,P|212:246|275:262,1,100,0|2,0:0|0:0,0:0:0:0:
304,229,103564,1,8,0:0:0:0:
304,229,103710,1,4,0:0:0:0:
274,133,104003,1,4,0:0:0:0:
373,0,104589,5,8,0:0:0:0:
97,121,111613,6,0,P|163:149|203:148,1,100,4|0,0:0|0:0,0:0:0:0:
254,73,112198,1,0,0:0:0:0:
344,113,112491,2,8,P|364:109|397:92,2,50,8|8|8,0:1|0:0|0:1,0:0:0:0:
217,245,113369,6,0,P|198:283|187:342,1,100,8|0,0:1|0:0,0:0:0:0:
89,317,113954,2,0,P|73:292|41:264,1,50,0|8,0:0|0:1,0:0:0:0:
53,227,114247,1,4,0:0:0:0:
108,143,114540,1,4,0:0:0:0:
289,55,115125,6,0,P|332:83|401:88,2,100,8|0|8,0:1|0:0|0:1,0:0:0:0:
259,150,116003,1,8,0:1:0:0:
331,219,116296,1,8,0:1:0:0:
477,354,116881,6,0,P|482:306|481:232,1,100,8|0,0:1|0:0,0:0:0:0:
425,172,117467,2,0,P|412:147|412:112,1,50,0|8,0:0|0:0,0:0:0:0:
445,90,117759,1,4,0:0:0:0:
362,32,118052,1,4,0:0:0:0:
273,78,118345,1,8,0:0:0:0:
175,57,118637,6,0,P|193:131|202:208,1,150,12|8,0:1|0:1,0:0:0:0:
188,353,119515,2,0,P|229:323|288:305,1,100,4|8,0:0|0:1,0:0:0:0:
354,246,120100,1,0,0:0:0:0:
328,149,120393,5,4,0:0:0:0:
192,213,120832,1,4,0:0:0:0:
106,89,121271,1,12,0:0:0:0:
92,117,123027,6,0,B|138:124|207:119|164:79|223:64|298:74,1,200,2|2,0:0|0:0,0:0:0:0:
256,192,123906,12,0,127125,0:0:0:0:
