osu file format v14

[General]
AudioFilename: audio.mp3
AudioLeadIn: 0
PreviewTime: 76418
Countdown: 0
SampleSet: Soft
StackLeniency: 0.7
Mode: 0
LetterboxInBreaks: 0
WidescreenStoryboard: 0

[Editor]
Bookmarks: 1874,12384,20286,34335,48383,62432,76481,90530,104579,118627,123896,127115
DistanceSpacing: 0.4
BeatDivisor: 4
GridSize: 32
TimelineZoom: 1.4

[Metadata]
Title:The Sealer ~A Milia to Milia no Min~
TitleUnicode:The Sealer ~ア・ミリアとミリアの民~
Artist:Zektbach
ArtistUnicode:Zektbach
Creator:celerih
Version:EX
Source:pop'n music 20 fantasia
Tags:封印者 The Epic of Zektbach -Masinowa- ELEMENTAL JIG エレメンタルジグ beatmania IIDX 26 Rootage REFLEC BEAT colette -All Seasons- plus ポップンリズミン popn rhythmin 舟木智介 Tomosuke Funaki Chie Fukami
BeatmapID:2234038
BeatmapSetID:1067056

[Difficulty]
HPDrainRate:8
CircleSize:4
OverallDifficulty:8
ApproachRate:8.5
SliderMultiplier:1.8
SliderTickRate:1

[Events]
//Background and Video events
0,0,"The Sealer BG.jpg",0,0
//Break Periods
//Storyboard Layer 0 (Background)
//Storyboard Layer 1 (Fail)
//Storyboard Layer 2 (Pass)
//Storyboard Layer 3 (Foreground)
//Storyboard Layer 4 (Overlay)
//Storyboard Sound Samples

[TimingPoints]
1884,437.956204379562,3,2,1,40,1,0
1884,-125,3,2,2,40,0,0
3197,-250,3,2,2,40,0,0
4511,-125,3,2,2,40,0,0
5825,-250,3,2,2,40,0,0
7139,-125,3,2,2,40,0,0
8453,-250,3,2,2,40,0,0
9767,-100,3,2,2,40,0,0
12394,292.682926829268,3,2,1,50,1,0
18540,-200,3,2,1,50,0,0
19418,-100,3,2,1,50,0,0
34345,-125,3,2,1,50,0,0
62442,-83.3333333333333,3,2,1,65,0,0
63320,-125,3,2,1,65,0,0
65954,-83.3333333333333,3,2,1,65,0,0
67711,-111.111111111111,3,2,1,65,0,0
69467,-83.3333333333333,3,2,1,65,0,0
70345,-111.111111111111,3,2,1,65,0,0
72979,-83.3333333333333,3,2,1,65,0,0
74296,-111.111111111111,3,2,1,65,0,0
76491,-90.9090909090908,3,2,1,60,0,0
104589,-142.857142857143,3,2,2,35,0,0
111028,-142.857142857143,3,2,1,40,0,0
111613,-125,3,2,1,40,0,0
118637,-100,3,2,1,50,0,0
122150,-200,3,2,1,50,0,0
127125,-200,3,2,1,5,0,0

[Colours]
Combo1 : 241,194,234
Combo2 : 180,224,152
Combo3 : 254,153,148
Combo4 : 223,218,157

[HitObjects]
165,355,1884,6,0,P|199:309|288:318,1,144,8|0,0:0|0:0,0:0:0:0:
446,357,2540,1,2,0:0:0:0:
431,330,3197,2,0,P|438:296|442:249,2,72
265,48,4511,6,0,P|296:119|317:188,1,144,8|0,0:0|0:0,0:0:0:0:
412,48,5168,1,2,0:0:0:0:
394,57,5825,2,0,P|363:41|314:24,2,72
171,292,7139,6,0,P|142:237|50:217,1,144
19,49,7796,1,2,0:0:0:0:
314,109,8453,2,0,P|349:91|382:86,2,72,8|0|2,0:0|0:0|0:0,0:0:0:0:
192,304,9767,6,0,P|275:330|348:176,1,270,8|0,0:0|0:0,0:0:0:0:
370,36,10643,1,0,0:0:0:0:
423,88,10862,1,0,0:0:0:0:
498,81,11081,1,2,0:0:0:0:
329,260,11519,1,2,0:0:0:0:
265,213,11956,1,0,0:0:0:0:
192,238,12175,1,0,0:0:0:0:
19,368,12394,6,0,P|34:288|41:181,1,180,12|0,0:0|0:0,0:0:0:0:
47,48,12833,1,8,0:0:0:0:
122,77,12979,1,8,0:1:0:0:
294,56,13125,2,0,P|280:101|233:109,1,90,8|0,0:1|0:0,0:0:0:0:
195,49,13418,1,2,0:0:0:0:
254,363,13711,6,0,L|265:336,1,22.5,8|0,0:0|0:0,0:0:0:0:
319,39,14003,1,0,0:0:0:0:
270,95,14150,2,0,P|234:111|180:117,1,90
45,215,14442,2,0,P|86:282|184:285,1,180,8|0,0:1|0:0,0:0:0:0:
239,221,14881,1,8,0:1:0:0:
455,178,15028,6,0,P|494:154|480:94,1,90,4|0,0:0|0:0,0:0:0:0:
394,133,15320,1,8,0:0:0:0:
405,322,15467,2,0,P|436:358|481:369,1,90,8|0,0:1|0:0,0:0:0:0:
399,244,15759,1,8,0:1:0:0:
286,379,15906,6,0,P|242:370|203:349,1,90,12|0,0:0|0:0,0:0:0:0:
134,241,16198,2,0,P|142:198|171:155,1,90,8|0,0:1|0:0,0:0:0:0:
298,97,16491,2,8,P|338:92|395:67,1,90
235,231,16784,6,0,P|151:214|49:203,1,180,4|8,0:0|0:0,0:0:0:0:
177,299,17223,2,0,P|86:281|-9:271,1,180,4|8,0:0|0:0,0:0:0:0:
24,14,17662,1,4,0:0:0:0:
234,364,18247,5,2,0:0:0:0:
290,242,18540,1,2,0:0:0:0:
262,264,18686,2,0,L|207:257,1,45
373,315,18979,1,2,0:0:0:0:
345,337,19125,2,0,L|290:330,1,45
491,283,19418,5,2,0:0:0:0:
459,212,19515,1,2,0:0:0:0:
392,184,19613,1,2,0:0:0:0:
340,200,19711,1,2,0:0:0:0:
298,194,19808,1,2,0:0:0:0:
281,168,19906,1,2,0:0:0:0:
283,144,20003,1,2,0:0:0:0:
356,180,20296,5,4,0:0:0:0:
311,272,20442,2,0,P|268:269|240:220,1,90,8|0,0:1|0:0,0:0:0:0:
160,288,20735,2,0,B|128:270|131:234|131:234|158:266|154:315|137:359,1,180,2|0,0:0|0:0,0:0:0:0:
62,370,21174,6,0,P|53:323|55:278,1,90,8|0,0:1|0:0,0:0:0:0:
124,219,21467,2,0,P|133:173|152:117,1,90,8|0,0:1|0:0,0:0:0:0:
59,97,21759,2,0,P|72:56|81:4,1,90,2|2,0:0|0:0,0:0:0:0:
66,11,21979,1,2,0:0:0:0:
57,21,22052,5,8,0:1:0:0:
171,91,22198,2,0,P|214:80|255:55,1,90
446,226,22491,2,0,P|434:268|411:311,1,90,8|0,0:1|0:0,0:0:0:0:
242,153,22784,1,8,0:0:0:0:
273,225,22930,6,0,P|312:239|368:237,1,90,8|0,0:1|0:0,0:0:0:0:
397,135,23223,2,0,P|419:170|440:220,1,90,8|0,0:1|0:0,0:0:0:0:
258,238,23515,2,0,B|251:263|267:283|267:283|291:271|296:249,1,90,2|0,0:0|0:0,0:0:0:0:
380,14,23808,5,8,0:1:0:0:
453,26,23954,2,0,P|469:106|485:215,1,180,8|0,0:1|0:0,0:0:0:0:
414,263,24393,1,8,0:1:0:0:
420,275,24467,1,8,0:1:0:0:
431,282,24540,1,8,0:0:0:0:
329,96,24686,6,0,P|244:95|214:99,1,90,8|0,0:1|0:0,0:0:0:0:
154,42,24979,2,0,P|74:101|57:127,1,90,8|0,0:1|0:0,0:0:0:0:
142,276,25272,2,0,P|144:213|139:167,1,90,2|0,0:0|0:0,0:0:0:0:
17,32,25564,5,2,0:0:0:0:
258,283,26003,2,0,P|293:253|302:179,1,90,4|0,0:0|0:0,0:0:0:0:
171,206,26296,1,2,0:0:0:0:
128,271,26442,6,0,P|138:313|196:342,1,90,8|0,0:1|0:0,0:0:0:0:
383,206,26735,2,0,P|394:164|417:110,1,90,8|8,0:1|0:0,0:0:0:0:
512,26,27028,1,10,0:0:0:0:
480,364,27320,6,0,P|469:312|455:275,1,90,4|0,0:0|0:0,0:0:0:0:
482,190,27613,1,0,0:0:0:0:
316,55,27759,2,0,P|266:73|221:113,1,90,0|8,0:0|0:1,0:0:0:0:
231,82,27979,1,8,0:1:0:0:
234,68,28052,1,8,0:0:0:0:
385,10,28198,5,8,0:1:0:0:
69,79,28491,2,0,P|104:52|155:39,1,90,8|0,0:1|0:0,0:0:0:0:
178,146,28784,2,0,P|219:164|280:158,1,90,2|0,0:0|0:0,0:0:0:0:
45,192,29076,5,0,0:0:0:0:
20,267,29223,2,0,P|55:312|94:338,1,90,8|0,0:1|0:0,0:0:0:0:
85,363,29515,2,0,P|138:290|254:294,1,180,8|0,0:0|0:0,0:0:0:0:
485,147,29954,6,0,P|495:91|490:49,1,90,8|0,0:1|0:0,0:0:0:0:
396,37,30247,2,0,P|377:91|379:145,1,90,8|0,0:1|0:0,0:0:0:0:
446,277,30540,2,0,B|460:255|484:257|484:257|497:279|476:313,1,90,2|0,0:0|0:0,0:0:0:0:
326,349,30833,5,2,0:0:0:0:
271,303,30979,2,0,P|174:334|159:347,1,90,8|0,0:1|0:0,0:0:0:0:
48,256,31272,1,0,0:0:0:0:
27,349,31418,1,8,0:1:0:0:
36,339,31491,1,8,0:1:0:0:
49,336,31564,1,8,0:0:0:0:
196,215,31711,5,8,0:1:0:0:
145,144,31857,1,2,0:0:0:0:
64,309,32003,2,0,P|52:249|20:226,1,90,8|8,0:1|0:0,0:0:0:0:
217,362,32296,2,0,P|227:338|231:320,1,45,2|0,0:0|0:0,0:0:0:0:
230,91,32589,6,0,P|295:37|399:50,1,180,2|8,0:0|0:1,0:0:0:0:
478,15,33028,2,0,P|490:59|496:108,2,90,12|0|0,0:0|0:0|0:0,0:0:0:0:
296,165,33467,1,2,0:0:0:0:
362,223,33613,1,8,0:0:0:0:
430,172,33759,1,8,0:1:0:0:
502,253,33906,2,0,P|510:213|515:137,1,90,8|2,0:0|0:0,0:0:0:0:
419,285,34198,1,8,0:1:0:0:
308,362,34345,6,0,P|239:347|203:278,1,144,4|0,0:0|0:0,0:0:0:0:
139,243,34784,2,0,P|127:201|114:174,1,72,8|0,0:1|0:0,0:0:0:0:
197,142,35076,1,0,0:0:0:0:
60,259,35223,2,0,L|79:91,2,144,8|8|2,0:1|0:1|0:0,0:0:0:0:
0,335,35954,1,0,0:0:0:0:
13,329,36028,1,0,0:0:0:0:
27,329,36101,6,0,P|63:349|93:375,1,72,8|0,0:1|0:0,0:0:0:0:
187,233,36393,1,2,0:0:0:0:
210,130,36540,2,0,P|202:92|189:51,1,72,8|0,0:1|0:0,0:0:0:0:
255,18,36833,1,8,0:0:0:0:
268,41,36979,5,8,0:1:0:0:
133,223,37272,1,8,0:1:0:0:
317,355,37564,2,0,P|347:364|399:384,1,72,0|2,0:0|0:0,0:0:0:0:
385,363,37784,1,2,0:0:0:0:
379,349,37857,1,8,0:1:0:0:
303,150,38150,5,0,0:0:0:0:
358,98,38296,2,0,P|361:54|342:21,1,72
434,44,38589,1,8,0:0:0:0:
288,161,38735,2,0,L|127:131,2,144,8|8|2,0:1|0:1|0:0,0:0:0:0:
221,38,39467,1,0,0:0:0:0:
207,42,39540,1,0,0:0:0:0:
197,52,39613,5,8,0:1:0:0:
144,110,39759,2,0,P|114:124|66:130,1,72,8|0,0:0|0:0,0:0:0:0:
164,311,40052,2,0,P|192:245|175:156,1,144,8|0,0:1|0:0,0:0:0:0:
74,293,40491,2,0,P|85:334|93:386,1,72,8|0,0:1|0:0,0:0:0:0:
118,228,40784,1,8,0:0:0:0:
64,163,40930,2,0,P|101:146|126:113,1,72,0|2,0:0|0:0,0:0:0:0:
201,6,41223,1,0,0:0:0:0:
197,19,41296,1,0,0:0:0:0:
196,33,41369,6,0,P|231:100|262:177,1,144,8|0,0:1|0:0,0:0:0:0:
336,130,41808,2,0,P|346:103|350:56,1,72,8|0,0:1|0:0,0:0:0:0:
291,13,42101,1,8,0:0:0:0:
411,186,42247,2,0,L|438:40,2,144,8|8|2,0:1|0:1|0:0,0:0:0:0:
467,274,42979,1,2,0:0:0:0:
453,280,43052,1,2,0:0:0:0:
438,282,43125,6,0,P|405:275|365:246,1,72,8|0,0:1|0:0,0:0:0:0:
323,315,43418,1,2,0:0:0:0:
504,375,43564,2,0,P|520:312|506:217,1,144,0|8,0:0|0:0,0:0:0:0:
474,141,44003,5,8,0:1:0:0:
288,280,44296,1,8,0:1:0:0:
76,96,44589,2,0,P|84:64|91:12,1,72,8|2,0:0|0:0,0:0:0:0:
76,19,44808,1,2,0:0:0:0:
62,22,44881,1,8,0:1:0:0:
79,275,45174,5,2,0:0:0:0:
92,199,45320,2,0,P|110:184|179:168,1,72,8|0,0:1|0:0,0:0:0:0:
62,119,45613,1,8,0:0:0:0:
64,291,45759,2,0,L|228:312,2,144,8|8|2,0:1|0:1|0:0,0:0:0:0:
137,224,46491,1,0,0:0:0:0:
268,364,46637,6,0,P|336:354|412:331,1,144,8|0,0:1|0:0,0:0:0:0:
458,134,47076,2,0,P|463:105|483:45,1,72,8|0,0:0|0:0,0:0:0:0:
507,193,47369,1,8,0:1:0:0:
331,61,47515,5,4,0:0:0:0:
288,127,47662,1,8,0:0:0:0:
212,138,47808,1,8,0:0:0:0:
97,65,47954,5,8,0:1:0:0:
33,156,48101,1,8,0:1:0:0:
102,266,48247,1,0,0:0:0:0:
240,72,48393,6,0,P|245:34|254:-5,1,72,8|0,0:1|0:0,0:0:0:0:
227,15,48686,1,0,0:0:0:0:
337,130,48833,2,0,P|342:92|351:53,1,72,8|0,0:1|0:0,0:0:0:0:
324,73,49126,1,0,0:0:0:0:
448,189,49272,2,0,P|454:116|470:26,2,144,8|8|2,0:1|0:1|0:0,0:0:0:0:
205,358,50150,6,0,P|174:349|128:342,1,72,8|0,0:1|0:0,0:0:0:0:
159,320,50442,1,0,0:0:0:0:
276,270,50589,2,0,P|245:261|199:254,1,72,8|0,0:1|0:0,0:0:0:0:
230,232,50881,1,0,0:0:0:0:
155,150,51028,2,0,P|87:159|3:180,2,144,8|8|10,0:1|0:1|0:0,0:0:0:0:
454,22,51906,5,8,0:1:0:0:
467,49,52052,1,0,0:0:0:0:
286,100,52198,2,0,P|287:60|299:6,1,72,2|8,0:0|0:0,0:0:0:0:
369,110,52491,2,0,P|374:74|375:38,1,72,2|0,0:0|0:0,0:0:0:0:
254,180,52784,6,0,P|184:195|128:240,1,144,8|0,0:1|0:0,0:0:0:0:
93,159,53223,1,0,0:0:0:0:
176,17,53369,1,10,0:0:0:0:
57,60,53515,1,0,0:0:0:0:
68,68,53589,1,0,0:0:0:0:
81,71,53662,6,0,P|91:32|95:-14,1,72,8|0,0:1|0:0,0:0:0:0:
163,92,53954,1,2,0:0:0:0:
73,216,54101,2,0,P|63:177|59:131,1,72,8|0,0:1|0:0,0:0:0:0:
0,232,54393,1,8,0:0:0:0:
176,313,54540,5,8,0:1:0:0:
283,338,54686,1,8,0:1:0:0:
339,243,54833,1,8,0:0:0:0:
268,159,54979,1,8,0:0:0:0:
168,202,55125,1,10,0:0:0:0:
75,125,55418,6,0,P|86:86|89:48,1,72,8|0,0:1|0:0,0:0:0:0:
66,40,55711,1,0,0:0:0:0:
189,180,55857,2,0,P|178:141|175:103,1,72,8|0,0:1|0:0,0:0:0:0:
198,95,56150,1,0,0:0:0:0:
68,280,56297,2,0,P|74:207|90:117,2,144,8|8|2,0:1|0:1|0:0,0:0:0:0:
361,220,57175,6,0,P|329:221|287:234,1,72,8|0,0:1|0:0,0:0:0:0:
289,254,57467,1,0,0:0:0:0:
417,128,57613,2,0,P|385:127|343:114,1,72,8|0,0:1|0:0,0:0:0:0:
345,94,57905,1,0,0:0:0:0:
372,309,58053,2,0,P|441:291|524:279,2,144,8|8|10,0:1|0:1|0:0,0:0:0:0:
466,40,58931,5,8,0:0:0:0:
510,103,59076,2,0,P|507:144|494:198,1,72
320,141,59369,2,0,P|311:67|285:-31,1,144,8|0,0:1|0:0,0:0:0:0:
379,28,59809,6,0,P|345:69|255:137,1,144,8|8,0:1|0:0,0:0:0:0:
104,221,60248,1,0,0:0:0:0:
86,150,60393,2,0,P|65:120|35:89,1,72,2|0,0:0|0:0,0:0:0:0:
47,81,60614,1,0,0:0:0:0:
52,67,60687,6,0,P|86:52|129:46,1,72,8|0,0:1|0:0,0:0:0:0:
176,100,60979,1,0,0:0:0:0:
403,176,61125,2,0,P|423:153|448:100,1,72,8|0,0:1|0:0,0:0:0:0:
404,51,61418,1,0,0:0:0:0:
253,306,61565,5,8,0:1:0:0:
330,321,61711,1,8,0:0:0:0:
393,262,61858,1,8,0:1:0:0:
354,169,62004,1,8,0:0:0:0:
426,45,62150,1,2,0:0:0:0:
503,120,62296,1,2,0:0:0:0:
377,278,62442,6,0,P|268:252|153:241,1,215.999993408203,12|0,0:1|0:0,0:0:0:0:
163,245,62881,2,0,B|186:171|243:120|243:120|201:110|174:157,1,215.999993408203,8|0,0:0|0:0,0:0:0:0:
250,171,63320,5,8,0:1:0:0:
319,142,63467,2,0,P|319:116|315:65,1,72,8|0,0:1|0:0,0:0:0:0:
395,143,63759,1,8,0:1:0:0:
407,51,63906,1,10,0:0:0:0:
488,98,64052,5,0,0:0:0:0:
504,89,64125,1,0,0:0:0:0:
505,71,64198,2,0,P|474:93|470:144,1,72
365,71,64491,2,0,P|335:57|325:11,1,72,8|8,0:1|0:0,0:0:0:0:
106,191,64930,1,8,0:1:0:0:
118,183,65003,1,8,0:1:0:0:
132,180,65076,6,0,P|148:213|162:262,1,72,2|0,0:0|0:0,0:0:0:0:
215,175,65369,2,0,P|213:104|204:23,1,144,8|0,0:0|0:0,0:0:0:0:
123,91,65808,1,8,0:1:0:0:
135,104,65881,1,8,0:1:0:0:
145,120,65954,6,0,P|270:138|382:170,1,215.999993408203,12|0,0:1|0:0,0:0:0:0:
142,354,66393,2,0,P|234:345|265:236,1,215.999993408203,8|0,0:0|0:0,0:0:0:0:
126,230,66833,2,0,P|88:188|80:129,1,107.999996704102,4|0,0:0|0:0,0:0:0:0:
88,125,67052,1,0,0:0:0:0:
102,117,67125,1,0,0:0:0:0:
143,219,67272,5,8,0:1:0:0:
232,234,67418,1,2,0:0:0:0:
279,159,67564,1,8,0:0:0:0:
362,373,67711,6,0,P|376:321|376:282,1,80.9999975280763,2|8,0:0|0:1,0:0:0:0:
367,281,67930,1,8,0:1:0:0:
354,270,68003,1,8,0:0:0:0:
449,278,68150,2,0,P|463:240|498:205,1,80.9999975280763,8|0,0:1|0:0,0:0:0:0:
455,146,68442,1,8,0:0:0:0:
303,197,68589,5,8,0:1:0:0:
264,135,68735,1,8,0:0:0:0:
311,79,68881,1,8,0:1:0:0:
378,106,69028,1,8,0:0:0:0:
292,69,69174,5,2,0:0:0:0:
373,179,69320,1,2,0:0:0:0:
209,315,69467,6,0,P|110:316|-22:375,1,215.999993408203,4|0,0:0|0:0,0:0:0:0:
2,364,69906,2,0,B|66:294|54:247|54:247|29:285|45:334,1,215.999993408203,8|0,0:0|0:0,0:0:0:0:
106,371,70345,5,8,0:1:0:0:
168,334,70491,2,0,P|206:339|258:356,1,80.9999975280763,8|0,0:1|0:0,0:0:0:0:
210,264,70784,1,8,0:0:0:0:
137,219,70930,1,2,0:0:0:0:
134,311,71076,5,8,0:1:0:0:
144,323,71150,1,8,0:1:0:0:
155,334,71223,2,0,P|107:351|89:391,1,80.9999975280763,8|0,0:1|0:0,0:0:0:0:
304,371,71515,2,0,P|279:339|280:281,1,80.9999975280763,8|8,0:1|0:0,0:0:0:0:
352,34,71954,1,2,0:0:0:0:
425,116,72101,5,8,0:0:0:0:
494,74,72247,1,8,0:0:0:0:
399,91,72393,2,0,P|391:127|384:177,1,80.9999975280763,8|0,0:1|0:0,0:0:0:0:
321,263,72686,1,2,0:0:0:0:
248,98,72833,1,8,0:1:0:0:
254,83,72906,1,8,0:1:0:0:
264,70,72979,6,0,P|257:177|230:312,1,215.999993408203,12|0,0:1|0:0,0:0:0:0:
24,57,73418,2,0,P|66:126|197:112,1,215.999993408203,8|0,0:0|0:0,0:0:0:0:
54,166,73857,2,0,P|26:215|10:277,1,107.999996704102,4|0,0:0|0:0,0:0:0:0:
20,277,74076,1,0,0:0:0:0:
31,288,74150,1,8,0:0:0:0:
192,360,74296,6,2,P|240:323|287:313,1,80.9999975280763
331,327,74589,1,8,0:1:0:0:
167,244,74735,5,8,0:1:0:0:
218,188,74881,2,0,P|225:153|232:76,1,80.9999975280763,2|8,0:0|0:0,0:0:0:0:
106,11,75174,2,0,P|103:81|118:185,1,161.999995056153,8|0,0:1|0:0,0:0:0:0:
341,126,75613,5,2,0:0:0:0:
423,199,75759,1,2,0:0:0:0:
339,285,75906,1,2,0:0:0:0:
407,369,76052,2,0,P|447:353|505:341,2,80.9999975280763,2|0|0,0:0|0:0|0:0,0:0:0:0:
258,240,76491,5,2,0:0:0:0:
174,196,76637,1,2,0:0:0:0:
120,273,76784,1,8,0:1:0:0:
208,366,76930,1,10,0:0:0:0:
289,272,77076,5,0,0:0:0:0:
309,348,77223,1,2,0:0:0:0:
236,143,77369,5,2,0:0:0:0:
267,269,77515,1,8,0:0:0:0:
430,334,77662,5,8,0:1:0:0:
458,252,77808,1,8,0:1:0:0:
380,108,77954,2,0,P|403:61|410:4,1,99.0000030212403,0|2,0:0|0:0,0:0:0:0:
429,20,78174,1,8,0:1:0:0:
443,33,78247,6,0,P|362:42|237:113,1,198.000006042481,8|0,0:0|0:0,0:0:0:0:
75,104,78686,2,0,P|139:35|253:7,1,198.000006042481,8|8,0:1|0:1,0:0:0:0:
13,169,79125,5,4,0:0:0:0:
492,340,79418,1,4,0:0:0:0:
389,291,79711,2,0,B|388:315|413:330|413:330|430:306|417:279,1,99.0000030212403,2|0,0:0|0:0,0:0:0:0:
441,88,80003,6,0,P|409:38|249:25,1,198.000006042481,12|0,0:0|0:0,0:0:0:0:
227,111,80442,1,8,0:1:0:0:
254,23,80589,1,8,0:0:0:0:
403,135,80735,1,0,0:0:0:0:
421,127,80808,1,0,0:0:0:0:
432,110,80881,2,0,P|418:67|382:23,1,99.0000030212403,0|8,0:0|0:0,0:0:0:0:
330,197,81174,5,8,0:1:0:0:
304,298,81320,1,8,0:1:0:0:
452,346,81467,1,2,0:0:0:0:
446,212,81613,1,8,0:0:0:0:
312,382,81759,6,0,P|270:228|218:98,1,297.000009063721,8|8,0:1|0:1,0:0:0:0:
374,180,82345,1,8,0:1:0:0:
365,168,82418,1,8,0:1:0:0:
360,153,82491,1,8,0:0:0:0:
257,320,82637,5,4,0:0:0:0:
390,0,82930,1,4,0:0:0:0:
314,69,83223,2,0,B|289:68|274:43|274:43|298:26|320:37,1,99.0000030212403,2|0,0:0|0:0,0:0:0:0:
374,180,83515,6,0,P|345:221|327:285,1,99.0000030212403,4|0,0:0|0:0,0:0:0:0:
202,128,83808,1,8,0:1:0:0:
231,52,83954,1,8,0:0:0:0:
59,155,84101,1,8,0:1:0:0:
104,253,84247,1,8,0:1:0:0:
258,144,84393,6,0,P|251:78|236:35,1,99.0000030212403,8|0,0:1|0:0,0:0:0:0:
340,217,84686,1,2,0:0:0:0:
313,301,84833,1,8,0:1:0:0:
73,192,84979,1,2,0:0:0:0:
162,271,85125,1,8,0:1:0:0:
156,257,85198,1,8,0:1:0:0:
144,246,85272,6,0,P|61:301|-16:382,1,198.000006042481,8|0,0:0|0:0,0:0:0:0:
39,168,85711,2,0,P|85:82|154:-13,1,198.000006042481,8|8,0:1|0:1,0:0:0:0:
299,266,86150,5,4,0:0:0:0:
57,51,86442,1,4,0:0:0:0:
167,50,86735,2,0,B|198:60|187:90|187:90|157:100|142:70,1,99.0000030212403,2|0,0:0|0:0,0:0:0:0:
21,171,87028,6,0,P|129:196|213:229,1,198.000006042481,4|0,0:0|0:0,0:0:0:0:
364,117,87467,1,8,0:1:0:0:
287,38,87613,1,8,0:1:0:0:
227,86,87759,1,8,0:0:0:0:
416,25,87906,6,0,P|402:98|390:232,1,198.000006042481,8|0,0:1|0:0,0:0:0:0:
493,286,88345,1,8,0:1:0:0:
467,215,88491,1,2,0:0:0:0:
345,323,88637,1,8,0:1:0:0:
353,310,88711,1,8,0:1:0:0:
365,302,88784,6,0,P|273:305|161:359,1,198.000006042481,10|0,0:0|0:0,0:0:0:0:
150,127,89223,2,0,P|121:227|72:336,1,198.000006042481,8|8,0:1|0:1,0:0:0:0:
19,76,89662,5,4,0:0:0:0:
318,342,89954,1,4,0:0:0:0:
207,335,90247,2,0,B|185:359|209:379|209:379|240:373|238:339,1,99.0000030212403,2|0,0:0|0:0,0:0:0:0:
372,102,90540,6,0,P|387:56|375:-8,1,99.0000030212403,4|0,0:0|0:0,0:0:0:0:
168,96,90833,2,0,B|238:87|293:136|293:136|284:93|268:80,1,198.000006042481,8|8,0:0|0:1,0:0:0:0:
261,62,91198,1,8,0:1:0:0:
242,50,91272,1,8,0:0:0:0:
76,260,91418,6,0,P|29:291|-16:345,1,99.0000030212403,8|0,0:1|0:1,0:1:0:0:
148,375,91711,2,0,B|159:284|202:263|202:263|179:302|133:310,1,198.000006042481,8|2,0:0|0:0,0:0:0:0:
0,345,92150,1,2,0:0:0:0:
171,74,92296,6,0,P|255:95|382:109,1,198.000006042481,8|8,0:1|0:0,0:0:0:0:
330,134,92735,1,8,0:1:0:0:
372,230,92881,1,8,0:1:0:0:
219,301,93028,1,8,0:0:0:0:
195,104,93174,5,4,0:0:0:0:
372,371,93467,1,4,0:0:0:0:
425,319,93613,5,8,0:1:0:0:
249,291,93759,2,0,B|242:323|255:340|255:340|283:331|298:301,1,99.0000030212403,2|0,0:0|0:0,0:0:0:0:
459,89,94052,6,0,P|498:31|492:-2,1,99.0000030212403,8|0,0:1|0:0,0:0:0:0:
461,169,94345,2,0,B|491:203|511:250|503:286|503:286|488:256|505:216,1,198.000006042481,8|0,0:0|0:0,0:0:0:0:
412,320,94784,1,8,0:0:0:0:
467,76,94930,6,0,P|387:40|256:37,1,198.000006042481,8|0,0:0|0:0,0:0:0:0:
275,102,95369,1,8,0:1:0:0:
161,164,95515,1,2,0:0:0:0:
82,84,95662,1,8,0:0:0:0:
204,43,95808,6,0,P|188:147|177:252,1,198.000006042481,8|0,0:1|0:0,0:0:0:0:
109,108,96247,1,8,0:1:0:0:
190,209,96393,1,2,0:0:0:0:
48,368,96540,1,8,0:0:0:0:
153,321,96686,5,4,0:0:0:0:
302,1,96979,1,4,0:0:0:0:
210,71,97272,2,0,B|200:101|219:119|219:119|246:113|254:79,1,99.0000030212403,2|0,0:0|0:0,0:0:0:0:
107,199,97564,6,0,P|77:249|39:284,1,99.0000030212403,12|0,0:1|0:0,0:0:0:0:
22,140,97857,2,0,B|-8:109|-18:51|4:24|4:24|9:62|45:86,1,198.000006042481,8|8,0:0|0:1,0:0:0:0:
60,77,98223,1,8,0:1:0:0:
76,66,98296,1,8,0:0:0:0:
264,23,98442,6,0,P|308:54|365:69,1,99.0000030212403,8|8,0:1|0:0,0:0:0:0:
302,196,98735,2,0,B|343:172|396:169|424:188|424:188|389:190|353:159,1,198.000006042481,8|0,0:1|0:0,0:0:0:0:
495,42,99174,1,0,0:0:0:0:
505,31,99247,1,0,0:0:0:0:
506,16,99320,6,0,P|449:105|435:212,1,198.000006042481,8|0,0:1|0:0,0:0:0:0:
468,224,99759,1,8,0:1:0:0:
427,338,99906,1,2,0:0:0:0:
253,271,100052,1,8,0:0:0:0:
272,92,100198,5,4,0:0:0:0:
34,361,100491,1,4,0:0:0:0:
143,368,100784,2,0,B|169:353|169:328|169:328|145:315|116:333,1,99.0000030212403,2|0,0:0|0:0,0:0:0:0:
138,120,101076,6,0,P|154:63|180:16,1,99.0000030212403,12|0,0:1|0:0,0:0:0:0:
261,119,101369,2,0,B|310:126|360:149|373:183|373:183|336:163|331:120,1,198.000006042481,8|0,0:0|0:0,0:0:0:0:
275,28,101808,1,8,0:0:0:0:
317,274,101954,6,0,P|379:314|514:308,1,198.000006042481,8|0,0:1|0:0,0:0:0:0:
505,242,102393,1,8,0:1:0:0:
341,371,102540,1,2,0:0:0:0:
290,278,102686,1,8,0:0:0:0:
409,142,102833,6,0,P|349:64|273:-3,1,198.000006042481,8|0,0:1|0:0,0:0:0:0:
362,0,103272,1,8,0:1:0:0:
451,78,103418,1,2,0:0:0:0:
388,238,103564,1,8,0:0:0:0:
192,141,103711,5,4,0:0:0:0:
512,268,104003,1,4,0:0:0:0:
458,326,104150,5,8,0:0:0:0:
445,185,104296,2,0,P|454:144|477:81,1,99.0000030212403,2|0,0:0|0:0,0:0:0:0:
343,40,104589,5,8,0:0:0:0:
212,126,104784,1,0,0:0:0:0:
192,138,104881,2,0,P|177:99|175:59,1,62.9999980773926,2|0,0:0|0:0,0:0:0:0:
254,45,105174,1,0,0:0:0:0:
282,218,105369,1,0,0:0:0:0:
264,240,105467,6,0,P|210:249|119:276,2,125.999996154785,10|2|2,0:0|0:0|0:0,0:0:0:0:
79,130,106345,5,8,0:0:0:0:
11,212,106540,1,0,0:0:0:0:
25,233,106637,2,0,P|39:278|53:368,1,125.999996154785,2|0,0:0|0:0,0:0:0:0:
207,210,107223,5,8,0:0:0:0:
290,291,107515,1,2,0:0:0:0:
240,69,107808,1,2,0:0:0:0:
468,143,108101,5,8,0:0:0:0:
445,20,108296,1,0,0:0:0:0:
415,34,108393,2,0,P|401:61|393:103,1,62.9999980773926,2|0,0:0|0:0,0:0:0:0:
298,55,108686,1,0,0:0:0:0:
376,256,108881,1,0,0:0:0:0:
387,236,108979,6,0,P|447:235|528:250,2,125.999996154785,10|2|2,0:0|0:0|0:0,0:0:0:0:
162,351,109857,5,8,0:0:0:0:
53,256,110052,1,0,0:0:0:0:
38,235,110150,2,0,P|42:175|60:111,1,125.999996154785,2|0,0:0|0:0,0:0:0:0:
208,116,110637,1,0,0:0:0:0:
189,144,110735,5,10,0:0:0:0:
283,339,111028,1,2,0:0:0:0:
134,343,111174,1,8,0:0:0:0:
85,279,111320,2,0,P|78:240|80:177,1,83.9999974365235,2|0,0:0|0:0,0:0:0:0:
168,254,111613,6,0,P|237:270|333:274,1,144,4|0,0:0|0:0,0:0:0:0:
341,199,112052,2,0,P|309:154|303:133,1,72,8|0,0:0|0:0,0:0:0:0:
378,110,112345,1,0,0:0:0:0:
432,289,112491,5,8,0:1:0:0:
491,240,112637,1,8,0:0:0:0:
500,161,112784,1,8,0:1:0:0:
295,76,113076,2,0,P|305:40|322:4,1,72,0|2,0:0|0:0,0:0:0:0:
339,15,113296,1,2,0:0:0:0:
353,25,113369,6,0,P|386:85|424:179,1,144,8|0,0:1|0:0,0:0:0:0:
286,184,113808,2,0,P|231:157|198:153,1,72,8|0,0:1|0:0,0:0:0:0:
171,84,114101,1,8,0:1:0:0:
198,267,114247,5,4,0:0:0:0:
312,79,114540,1,4,0:0:0:0:
132,11,114833,2,0,P|100:35|64:84,1,72,8|0,0:0|0:0,0:0:0:0:
66,217,115125,6,0,P|94:288|108:357,1,144,8|0,0:1|0:0,0:0:0:0:
17,331,115564,1,8,0:0:0:0:
29,239,115711,1,8,0:1:0:0:
8,216,115857,1,8,0:1:0:0:
138,279,116003,5,8,0:1:0:0:
206,309,116150,1,8,0:0:0:0:
278,282,116296,1,8,0:1:0:0:
396,171,116589,2,0,P|427:182|479:209,1,72,8|2,0:0|0:0,0:0:0:0:
479,192,116808,1,2,0:0:0:0:
487,175,116881,6,0,P|460:116|408:39,1,144,8|0,0:1|0:0,0:0:0:0:
365,155,117320,2,0,P|375:216|390:238,1,72,8|0,0:1|0:0,0:0:0:0:
447,256,117613,1,8,0:0:0:0:
299,352,117759,5,4,0:0:0:0:
211,98,118052,1,4,0:0:0:0:
11,218,118345,2,0,P|45:231|86:233,1,72,8|0,0:0|0:0,0:0:0:0:
358,86,118637,6,0,P|363:43|383:-3,1,90,12|0,0:1|0:0,0:0:0:0:
430,118,118930,1,8,0:0:0:0:
176,126,119076,2,0,P|141:67|145:33,1,90,8|0,0:1|0:0,0:0:0:0:
255,100,119369,1,8,0:0:0:0:
69,251,119515,6,0,P|68:323|86:347,1,90,4|0,0:0|0:0,0:0:0:0:
266,343,119808,2,0,P|316:318|333:283,1,90,8|0,0:1|0:0,0:0:0:0:
419,137,120101,2,8,P|480:119|517:126,1,90
208,208,120393,6,0,P|217:125|238:3,1,180,4|8,0:0|0:0,0:0:0:0:
302,185,120833,2,0,P|311:102|332:-20,1,180,4|8,0:0|0:0,0:0:0:0:
8,202,121272,1,12,0:0:0:0:
278,361,121857,5,0,0:0:0:0:
200,239,122150,1,2,0:0:0:0:
179,261,122296,2,0,L|180:310,1,45
116,200,122589,1,2,0:0:0:0:
95,222,122735,2,0,L|96:271,1,45
30,57,123028,5,2,0:0:0:0:
87,115,123125,1,2,0:0:0:0:
157,126,123223,1,2,0:0:0:0:
208,96,123320,1,2,0:0:0:0:
251,77,123418,1,2,0:0:0:0:
281,85,123515,1,2,0:0:0:0:
300,109,123613,1,2,0:0:0:0:
301,132,123711,1,2,0:0:0:0:
176,25,123906,5,4,0:0:0:0:
256,192,123979,12,0,127125,0:0:0:0:
