osu file format v14

[General]
AudioFilename: audio.mp3
AudioLeadIn: 0
PreviewTime:83981
Countdown: 0
SampleSet: Soft
StackLeniency: 0.7
Mode: 0
LetterboxInBreaks: 0
WidescreenStoryboard: 1

[Editor]
Bookmarks: 45045,61455,75814,100429,108634,125044,141455,157865,166070,198890,214275
DistanceSpacing: 1
BeatDivisor: 2
GridSize: 4
TimelineZoom: 3.299999

[Metadata]
Title:L'erisia (Primary Logic)
TitleUnicode:L'erisia (Primary Logic)
Artist:Zektbach
ArtistUnicode:Zektbach
Creator:Luscent
Version:Normal
Source:REFLEC BEAT
Tags:tomosuke the epic of zektbach ristaccia 赤き天使 akai tenshi konami bemani lerisia rollpan roll_pan enon elcheer zekk nanoya sstari perchance instrumental rhythm video game electronic
BeatmapID:4396042
BeatmapSetID:2018522

[Difficulty]
HPDrainRate:2
CircleSize:2
OverallDifficulty:5
ApproachRate:6
SliderMultiplier:1.2
SliderTickRate:1

[Events]
//Background and Video events
0,0,"L'Erisia.jpg",0,0
//Break Periods
2,61654,74764
2,141654,156815
2,190885,197840
//Storyboard Layer 0 (Background)
//Storyboard Layer 1 (Fail)
//Storyboard Layer 2 (Pass)
//Storyboard Layer 3 (Foreground)
//Storyboard Layer 4 (Overlay)
//Storyboard Sound Samples

[TimingPoints]
36840,256.410256410256,4,2,1,70,1,0
36840,-125,4,2,1,70,0,0
45045,-125,4,2,1,85,0,0
53250,-111.111111111111,4,2,1,90,0,1
61455,-100,4,2,1,90,0,0
75814,256.410256410256,4,2,0,50,1,0
75814,-125,4,2,0,50,0,0
84019,-111.111111111111,4,2,2,70,0,0
100429,-111.111111111111,4,2,1,85,0,1
108634,-111.111111111111,4,2,2,70,0,0
125044,-111.111111111111,4,2,1,90,0,1
141455,-111.111111111111,4,2,1,90,0,0
153763,-111.111111111111,4,2,0,50,0,0
157865,-111.111111111111,4,2,0,60,0,0
166070,-111.111111111111,4,2,2,70,0,0
182352,-111.111111111111,4,2,2,70,0,0
182480,-111.111111111111,4,2,2,70,0,0
190685,-111.111111111111,4,2,3,50,0,0
198890,-111.111111111111,4,2,2,70,0,0
207096,-111.111111111111,4,2,1,85,0,1
214275,-111.111111111111,4,2,1,85,0,0

[Colours]
Combo1 : 255,94,55
Combo2 : 254,214,205
Combo3 : 255,88,100

[HitObjects]
53,254,36839,6,0,P|108:278|178:271,1,120,4|8,0:0|0:0,0:0:0:0:
256,328,37481,1,4,0:0:0:0:
256,328,37609,2,0,P|307:305|359:308,1,96,8|4,0:0|0:0,0:0:0:0:
442,307,38122,2,0,P|487:242|462:162,1,144,8|0,0:0|0:0,0:0:0:0:
448,142,38634,1,8,0:0:0:0:
364,189,38891,6,0,P|300:197|254:190,1,96,4|8,0:0|0:0,0:0:0:0:
175,214,39404,2,0,P|162:129|58:97,1,192,0|4,0:0|0:0,0:0:0:0:
78,189,40173,2,0,P|75:262|23:318,1,144,8|4,0:0|0:0,0:0:0:0:
54,355,40686,1,8,0:0:0:0:
147,333,40942,6,0,P|204:324|253:331,1,96,4|8,0:0|0:0,0:0:0:0:
279,239,41455,2,0,P|297:171|282:125,2,96,0|8|4,0:0|0:0|0:0,0:0:0:0:
201,181,42224,1,8,0:0:0:0:
114,66,42609,1,4,0:0:0:0:
114,66,42737,1,8,0:0:0:0:
191,9,42993,6,0,P|242:14|298:6,1,96,4|8,0:0|0:0,0:0:0:0:
415,73,43634,1,4,0:0:0:0:
415,73,43763,1,8,0:0:0:0:
461,157,44019,2,0,P|457:209|464:262,1,96,4|8,0:0|0:0,0:0:0:0:
338,327,44660,1,4,0:0:0:0:
338,327,44788,1,8,0:0:0:0:
259,270,45045,5,4,0:0:0:0:
164,286,45301,2,0,P|92:302|-6:280,1,144,8|4,0:0|0:0,0:0:0:0:
32,244,45814,2,0,P|38:171|23:135,1,96,8|4,0:0|0:0,0:0:0:0:
94,78,46327,2,0,P|147:110|243:105,1,144,8|4,0:0|0:0,0:0:0:0:
268,86,46839,1,8,0:0:0:0:
358,53,47096,5,4,0:0:0:0:
386,144,47352,1,8,0:0:0:0:
333,224,47609,2,0,P|271:213|198:216,1,96,0|8,0:0|0:0,0:0:0:0:
142,226,48122,2,0,P|133:298|73:358,2,144,4|2|8,0:0|0:0|0:0,0:0:0:0:
66,166,49147,6,0,P|49:106|58:52,1,96,4|8,0:0|0:0,0:0:0:0:
147,85,49660,1,0,0:0:0:0:
147,85,49788,2,0,P|183:89|221:84,1,48,4|8,0:0|0:0,0:0:0:0:
286,60,50173,2,0,P|305:120|298:175,1,96,4|8,0:0|0:0,0:0:0:0:
275,244,50686,1,0,0:0:0:0:
275,244,50814,2,0,P|317:245|359:238,1,48,4|8,0:0|0:0,0:0:0:0:
411,281,51198,5,4,0:0:0:0:
481,215,51455,2,0,P|499:137|477:61,1,144,8|4,0:0|0:0,0:0:0:0:
437,86,51968,2,0,P|387:95|333:87,1,96,8|4,0:0|0:0,0:0:0:0:
276,159,52481,2,0,P|231:145|183:143,1,96,8|4,0:0|0:0,0:0:0:0:
140,122,52865,1,4,0:0:0:0:
101,150,52993,2,0,P|82:214|96:269,1,96,8|4,0:0|0:0,0:0:0:0:
32,349,53506,6,0,P|105:362|160:344,1,107.999996704102,8|0,0:0|0:0,0:0:0:0:
184,328,53891,1,4,0:0:0:0:
231,302,54019,2,0,P|314:280|357:292,1,107.999996704102,8|4,0:0|0:0,0:0:0:0:
419,217,54532,1,8,0:0:0:0:
376,118,54788,2,0,P|369:82|372:41,2,53.9999983520508,0|4|8,0:0|0:0|0:0,0:0:0:0:
268,106,55301,6,0,P|211:113|154:106,1,107.999996704102,4|8,0:0|0:0,0:0:0:0:
86,186,55814,1,0,0:0:0:0:
86,186,55942,2,0,P|104:247|97:302,1,107.999996704102,4|0,0:0|0:0,0:0:0:0:
153,300,56327,2,0,L|230:282,1,53.9999983520508,4|0,0:0|0:0,0:0:0:0:
252,260,56583,2,0,P|317:295|387:289,1,107.999996704102,8|0,0:0|0:0,0:0:0:0:
399,331,56968,1,4,0:0:0:0:
399,331,57096,1,8,0:0:0:0:
486,267,57352,6,0,P|473:189|485:131,1,107.999996704102,4|8,0:0|0:0,0:0:0:0:
374,182,57865,1,0,0:0:0:0:
374,182,57993,2,0,L|290:190,1,53.9999983520508,4|8,0:0|0:0,0:0:0:0:
215,159,58378,2,0,P|202:81|215:25,1,107.999996704102,4|8,0:0|0:0,0:0:0:0:
88,85,58891,1,0,0:0:0:0:
88,85,59019,2,0,L|0:95,1,53.9999983520508,4|8,0:0|0:0,0:0:0:0:
18,198,59404,5,4,0:0:0:0:
97,271,59660,2,0,P|168:249|228:260,1,107.999996704102,8|0,0:0|0:0,0:0:0:0:
243,218,60045,2,0,P|317:238|377:221,1,107.999996704102,4|0,0:0|0:0,0:0:0:0:
395,257,60429,1,4,0:0:0:0:
458,169,60686,1,8,0:0:0:0:
406,81,60942,1,4,0:0:0:0:
406,81,61070,2,0,P|313:109|226:88,1,161.999995056153,4|4,0:0|0:1,0:0:0:0:
315,303,75814,5,8,0:0:0:0:
244,237,76070,2,0,P|175:247|86:236,2,144,8|8|8,0:0|0:0|0:0,0:0:0:0:
318,176,77096,2,0,P|323:105|309:57,1,96,8|0,0:0|0:0,0:0:0:0:
406,45,77608,1,8,0:0:0:0:
478,108,77865,6,0,B|456:217|497:184|474:306,1,192,8|0,0:0|0:0,0:0:0:0:
386,334,78634,1,8,0:0:0:0:
296,300,78890,2,0,P|234:307|185:300,1,96,8|0,0:0|0:0,0:0:0:0:
111,339,79403,2,0,P|93:275|103:216,1,96,0|8,0:0|0:0,0:0:0:0:
35,170,79916,5,8,0:0:0:0:
90,92,80172,2,0,P|163:100|267:85,2,144,8|8|8,0:0|0:0|0:0,0:0:0:0:
232,220,81455,2,0,P|294:210|360:216,1,96,0|8,0:0|0:0,0:0:0:0:
415,247,81967,6,0,P|481:172|444:76,1,192,8|0,0:0|0:0,0:0:0:0:
376,40,82737,1,8,0:0:0:0:
294,90,82993,2,0,P|234:101|164:78,1,96,8|0,0:0|0:0,0:0:0:0:
110,59,83506,2,0,P|103:119|123:178,1,96,0|8,0:0|0:0,0:0:0:0:
54,245,84019,5,4,0:0:0:0:
138,312,84275,2,0,P|206:295|263:307,1,107.999996704102,8|0,0:0|0:0,0:0:0:0:
291,275,84660,2,0,P|318:195|291:132,1,107.999996704102,4|0,0:0|0:0,0:0:0:0:
300,121,85044,1,4,0:0:0:0:
380,48,85301,1,8,0:0:0:0:
473,101,85557,2,0,P|487:177|468:241,1,107.999996704102,0|8,0:0|0:0,0:0:0:0:
453,310,86070,6,0,P|384:280|323:286,1,107.999996704102,4|8,0:0|0:0,0:0:0:0:
244,273,86583,2,0,P|183:299|109:298,1,107.999996704102,4|8,0:0|0:0,0:0:0:0:
54,238,87096,2,0,P|34:179|47:117,1,107.999996704102,4|8,0:0|0:0,0:0:0:0:
82,102,87480,1,0,0:0:0:0:
135,92,87608,2,0,P|153:129|155:161,1,53.9999983520508,0|4,0:0|0:0,0:0:0:0:
203,165,87865,2,0,P|261:112|250:51,1,107.999996704102,8|4,0:0|0:0,0:0:0:0:
371,84,88378,5,8,0:0:0:0:
461,142,88634,2,0,P|469:216|450:271,1,107.999996704102,0|8,0:0|0:0,0:0:0:0:
382,322,89147,2,0,P|319:290|247:297,1,107.999996704102,4|8,0:0|0:0,0:0:0:0:
235,315,89531,1,0,0:0:0:0:
190,345,89660,2,0,P|111:351|56:315,1,107.999996704102,0|8,0:0|0:0,0:0:0:0:
40,249,90172,5,4,0:0:0:0:
90,153,90429,1,8,0:0:0:0:
193,182,90685,2,0,P|262:186|322:175,1,107.999996704102,0|8,0:0|0:0,0:0:0:0:
391,125,91198,2,0,P|397:86|394:48,1,53.9999983520508,4|0,0:0|0:0,0:0:0:0:
366,26,91455,2,0,P|303:17|239:26,1,107.999996704102,8|4,0:0|0:0,0:0:0:0:
161,67,91967,1,8,0:0:0:0:
61,110,92224,5,4,0:0:0:0:
96,211,92480,2,0,P|101:272|95:330,2,107.999996704102,8|0|8,0:0|0:0|0:0,0:0:0:0:
203,225,93249,2,0,P|248:252|324:242,1,107.999996704102,4|8,0:0|0:0,0:0:0:0:
354,265,93634,1,0,0:0:0:0:
402,288,93762,2,0,P|470:257|519:262,1,107.999996704102,0|8,0:0|0:0,0:0:0:0:
477,152,94275,6,0,L|430:31,1,107.999996704102,4|8,0:0|0:0,0:0:0:0:
351,116,94788,2,0,P|312:161|305:210,1,107.999996704102,4|8,0:0|0:0,0:0:0:0:
222,277,95301,1,4,0:0:0:0:
120,239,95557,1,8,0:0:0:0:
48,158,95813,2,0,P|39:95|51:29,1,107.999996704102,0|8,0:0|0:0,0:0:0:0:
142,96,96326,6,0,P|197:102|270:87,1,107.999996704102,4|8,0:0|0:0,0:0:0:0:
300,111,96711,1,0,0:0:0:0:
350,128,96839,2,0,P|412:118|484:128,1,107.999996704102,0|8,0:0|0:0,0:0:0:0:
465,229,97352,2,0,P|475:288|457:345,1,107.999996704102,4|8,0:0|0:0,0:0:0:0:
361,294,97865,1,0,0:0:0:0:
260,332,98121,1,8,0:0:0:0:
154,305,98378,6,0,P|143:238|162:165,2,107.999996704102,4|8|0,0:0|0:0|0:0,0:0:0:0:
53,187,99147,1,8,0:0:0:0:
10,274,99403,2,0,B|-10:342|59:382,1,107.999996704102,4|8,0:0|0:0,0:0:0:0:
147,349,99916,1,4,0:0:0:0:
246,308,100172,1,8,0:0:0:0:
344,352,100429,6,0,P|338:279|352:211,1,107.999996704102,4|8,0:0|0:0,0:0:0:0:
236,177,100942,1,0,0:0:0:0:
236,177,101070,2,0,P|176:213|112:206,1,107.999996704102,4|0,0:0|0:0,0:0:0:0:
98,178,101455,2,0,P|79:110|94:48,1,107.999996704102,4|8,0:0|0:0,0:0:0:0:
181,27,101967,1,0,0:0:0:0:
181,27,102096,2,0,P|245:47|316:41,1,107.999996704102,4|0,0:0|0:0,0:0:0:0:
321,87,102480,6,0,P|387:61|455:69,1,107.999996704102,4|8,0:0|0:0,0:0:0:0:
496,140,102993,1,0,0:0:0:0:
496,140,103121,2,0,P|510:213|490:265,1,107.999996704102,4|0,0:0|0:0,0:0:0:0:
486,296,103506,1,4,0:0:0:0:
384,259,103762,1,8,0:0:0:0:
285,304,104019,2,0,P|224:289|154:294,1,107.999996704102,4|8,0:0|0:0,0:0:0:0:
72,307,104531,6,0,P|46:248|56:172,1,107.999996704102,4|8,0:0|0:0,0:0:0:0:
98,112,105044,1,0,0:0:0:0:
98,112,105172,2,0,P|142:156|151:212,1,107.999996704102,4|0,0:0|0:0,0:0:0:0:
204,187,105557,2,0,P|222:125|278:73,1,107.999996704102,4|8,0:0|0:0,0:0:0:0:
348,55,106070,1,0,0:0:0:0:
348,55,106198,2,0,P|353:116|324:165,1,107.999996704102,4|0,0:0|0:0,0:0:0:0:
328,210,106583,6,0,P|392:266|386:328,1,107.999996704102,4|8,0:0|0:0,0:0:0:0:
307,344,107096,1,0,0:0:0:0:
307,344,107224,2,0,P|245:357|186:349,1,107.999996704102,4|0,0:0|0:0,0:0:0:0:
153,326,107608,2,0,P|136:266|155:204,1,107.999996704102,4|8,0:0|0:0,0:0:0:0:
240,170,108121,2,0,L|328:178,1,53.9999983520508,4|4,0:0|0:0,0:0:0:0:
344,195,108378,2,0,P|374:126|355:55,1,107.999996704102,8|4,0:0|0:0,0:0:0:0:
476,67,108890,5,8,0:0:0:0:
484,174,109147,2,0,P|496:248|484:303,1,107.999996704102,0|8,0:0|0:0,0:0:0:0:
391,321,109660,2,0,P|329:304|259:305,1,107.999996704102,4|8,0:0|0:0,0:0:0:0:
240,331,110044,1,0,0:0:0:0:
194,360,110172,2,0,P|129:345|86:301,1,107.999996704102,0|8,0:0|0:0,0:0:0:0:
19,244,110685,6,0,P|38:158|151:137,1,215.999993408203,4|4,0:0|0:0,0:0:0:0:
248,186,111455,1,8,0:0:0:0:
346,142,111711,2,0,P|351:82|337:22,2,107.999996704102,4|8|0,0:0|0:0|0:0,0:0:0:0:
395,238,112480,1,8,0:0:0:0:
344,333,112737,6,0,P|288:321|193:322,1,107.999996704102,4|8,0:0|0:0,0:0:0:0:
180,226,113249,1,0,0:0:0:0:
180,226,113378,2,0,P|156:161|170:76,1,107.999996704102,4|0,0:0|0:0,0:0:0:0:
118,84,113762,2,0,P|70:94|-1:89,1,107.999996704102,4|8,0:0|0:0,0:0:0:0:
20,199,114275,1,0,0:0:0:0:
20,199,114403,2,0,P|33:259|27:326,1,107.999996704102,4|0,0:0|0:0,0:0:0:0:
72,340,114788,5,4,0:0:0:0:
162,281,115044,1,8,0:0:0:0:
262,321,115301,1,0,0:0:0:0:
352,262,115557,1,8,0:0:0:0:
453,298,115813,2,0,P|442:244|450:183,1,107.999996704102,4|8,0:0|0:0,0:0:0:0:
473,143,116198,1,0,0:0:0:0:
491,92,116326,2,0,P|417:100|353:81,1,107.999996704102,4|8,0:0|0:0,0:0:0:0:
300,24,116839,6,0,P|227:67|225:133,1,107.999996704102,4|8,0:0|0:0,0:0:0:0:
177,176,117352,2,0,B|240:168|219:190|290:179,1,107.999996704102,0|8,0:0|0:0,0:0:0:0:
379,152,117865,2,0,P|374:236|391:289,1,107.999996704102,4|8,0:0|0:0,0:0:0:0:
339,294,118249,1,0,0:0:0:0:
299,330,118378,2,0,P|240:311|166:325,1,107.999996704102,0|8,0:0|0:0,0:0:0:0:
94,354,118890,5,4,0:0:0:0:
42,258,119147,2,0,L|30:195,1,53.9999983520508,8|0,0:0|0:0,0:0:0:0:
60,159,119403,2,0,B|124:148|112:174|171:158,1,107.999996704102,4|8,0:0|0:0,0:0:0:0:
261,202,119916,2,0,P|282:140|262:70,1,107.999996704102,4|8,0:0|0:0,0:0:0:0:
307,54,120301,1,0,0:0:0:0:
351,23,120429,2,0,P|409:34|487:23,1,107.999996704102,0|8,0:0|0:0,0:0:0:0:
461,138,120942,6,0,P|473:190|464:242,1,107.999996704102,4|8,0:0|0:0,0:0:0:0:
369,293,121455,1,0,0:0:0:0:
369,293,121583,2,0,P|312:275|243:280,1,107.999996704102,4|0,0:0|0:0,0:0:0:0:
215,298,121967,2,0,P|189:230|203:168,1,107.999996704102,4|8,0:0|0:0,0:0:0:0:
166,91,122480,1,0,0:0:0:0:
166,91,122608,2,0,P|110:136|44:134,1,107.999996704102,4|0,0:0|0:0,0:0:0:0:
30,170,122993,6,0,P|35:247|178:280,1,215.999993408203,4|0,0:0|0:0,0:0:0:0:
255,323,123762,1,8,0:0:0:0:
316,233,124019,1,4,0:0:0:0:
241,155,124275,2,0,P|229:112|231:79,1,53.9999983520508,8|0,0:0|0:0,0:0:0:0:
254,55,124531,2,0,P|310:71|388:60,1,107.999996704102,4|8,0:0|0:0,0:0:0:0:
452,123,125044,6,0,P|476:184|462:250,1,107.999996704102,4|8,0:0|0:0,0:0:0:0:
385,289,125557,1,0,0:0:0:0:
385,289,125685,2,0,P|315:273|245:283,1,107.999996704102,4|0,0:0|0:0,0:0:0:0:
233,304,126070,1,4,0:0:0:0:
132,343,126326,1,8,0:0:0:0:
35,293,126583,1,0,0:0:0:0:
35,293,126711,2,0,P|23:217|41:142,1,107.999996704102,4|0,0:0|0:0,0:0:0:0:
70,154,127096,6,0,L|194:165,2,107.999996704102,4|8|0,0:0|0:0|0:0,0:0:0:0:
97,107,127737,2,0,P|125:54|195:48,1,107.999996704102,4|0,0:0|0:0,0:0:0:0:
217,63,128121,2,0,P|271:102|338:93,1,107.999996704102,4|8,0:0|0:0,0:0:0:0:
413,70,128634,1,4,0:0:0:0:
413,70,128762,2,0,P|439:145|414:203,1,107.999996704102,4|0,0:0|0:0,0:0:0:0:
394,209,129147,6,0,L|241:195,1,107.999996704102,4|8,0:0|0:0,0:0:0:0:
178,189,129660,1,0,0:0:0:0:
178,189,129788,2,0,P|194:256|180:317,1,107.999996704102,4|0,0:0|0:0,0:0:0:0:
233,324,130172,2,0,P|297:306|360:313,1,107.999996704102,4|8,0:0|0:0,0:0:0:0:
443,332,130685,1,0,0:0:0:0:
443,332,130813,2,0,P|431:255|443:183,1,107.999996704102,4|0,0:0|0:0,0:0:0:0:
389,192,131198,2,0,P|336:201|274:199,2,107.999996704102,4|8|0,0:0|0:0|0:0,0:0:0:0:
410,85,131967,1,8,0:0:0:0:
303,106,132224,2,0,P|263:69|258:12,1,107.999996704102,4|8,0:0|0:0,0:0:0:0:
173,87,132737,2,0,P|121:131|117:179,1,107.999996704102,4|8,0:0|0:0,0:0:0:0:
68,264,133249,6,0,P|129:283|203:276,1,107.999996704102,4|8,0:0|0:0,0:0:0:0:
223,302,133634,1,0,0:0:0:0:
273,321,133762,2,0,P|330:291|417:293,1,107.999996704102,0|8,0:0|0:0,0:0:0:0:
393,179,134275,1,4,0:0:0:0:
325,94,134531,2,0,L|343:27,2,53.9999983520508,8|0|0,0:0|0:0|0:0,0:0:0:0:
225,137,135044,2,0,P|165:149|108:138,1,107.999996704102,8|4,0:0|0:0,0:0:0:0:
31,205,135557,6,0,L|6:86,2,107.999996704102,8|0|8,0:0|0:0|0:0,0:0:0:0:
6,310,136326,1,4,0:0:0:0:
103,357,136583,2,0,P|154:351|181:342,1,53.9999983520508,8|0,0:0|0:0,0:0:0:0:
208,362,136839,2,0,P|208:294|251:228,1,107.999996704102,4|8,0:0|0:0,0:0:0:0:
289,171,137352,6,0,P|363:197|438:184,1,107.999996704102,4|8,0:0|0:0,0:0:0:0:
497,218,137865,1,0,0:0:0:0:
497,218,137993,2,0,L|486:94,1,107.999996704102,4|0,0:0|0:0,0:0:0:0:
455,66,138378,1,4,0:0:0:0:
356,110,138634,2,0,P|287:126|218:99,1,107.999996704102,8|0,0:0|0:0,0:0:0:0:
208,151,139019,1,4,0:0:0:0:
208,151,139147,1,8,0:0:0:0:
103,176,139403,6,0,P|68:120|80:50,2,107.999996704102,4|8|0,0:0|0:0|0:0,0:0:0:0:
70,219,140044,2,0,P|123:265|146:360,1,161.999995056153,4|4,0:0|0:0,0:0:0:0:
249,317,140685,1,8,0:0:0:0:
354,342,140942,1,4,0:0:0:0:
354,342,141070,2,0,P|342:274|362:169,1,161.999995056153,4|4,0:0|0:1,0:0:0:0:
125,314,157865,5,8,0:0:0:0:
212,250,158121,2,0,P|270:262|334:248,1,107.999996704102,8|0,0:0|0:0,0:0:0:0:
364,281,158506,2,0,P|344:197|366:112,1,161.999995056153,8|8,0:0|0:0,0:0:0:0:
170,33,159403,1,0,0:0:0:0:
170,33,159531,1,8,0:0:0:0:
54,146,159916,6,0,P|41:206|54:264,1,107.999996704102,8|8,0:0|0:0,0:0:0:0:
134,317,160429,1,0,0:0:0:0:
134,317,160557,2,0,P|208:298|302:311,1,161.999995056153,8|8,0:0|0:0,0:0:0:0:
478,198,161455,2,0,P|472:146|479:104,2,53.9999983520508,0|8|0,0:0|0:0|0:0,0:0:0:0:
380,244,161967,6,0,P|333:189|338:133,1,107.999996704102,8|8,0:0|0:0,0:0:0:0:
270,66,162480,1,0,0:0:0:0:
270,66,162608,2,0,P|199:104|112:98,1,161.999995056153,8|8,0:0|0:0,0:0:0:0:
77,313,163506,1,0,0:0:0:0:
77,313,163634,2,0,P|157:296|209:299,1,107.999996704102,8|0,0:0|0:0,0:0:0:0:
229,267,164019,6,0,P|278:317|334:337,2,107.999996704102,8|8|0,0:0|0:0|0:0,0:0:0:0:
203,219,164660,2,0,P|232:168|225:81,1,107.999996704102,8|0,0:0|0:0,0:0:0:0:
210,71,165044,1,8,0:0:0:0:
390,189,165557,1,0,0:0:0:0:
390,189,165685,1,8,0:0:0:0:
329,339,166070,6,0,B|245:360|248:312|157:331,1,161.999995056153,4|0,0:0|0:0,0:0:0:0:
67,365,166711,1,4,0:0:0:0:
17,268,166967,2,0,P|1:193|32:151,1,107.999996704102,4|0,0:0|0:0,0:0:0:0:
48,126,167352,1,8,0:0:0:0:
101,117,167480,2,0,P|176:178|166:251,1,161.999995056153,0|8,0:0|0:0,0:0:0:0:
220,264,167993,5,0,0:0:0:0:
317,217,168249,1,0,0:0:0:0:
421,245,168506,2,0,P|410:194|416:129,1,107.999996704102,0|4,0:0|0:0,0:0:0:0:
418,84,168890,2,0,P|380:91|350:93,1,53.9999983520508,8|0,0:0|0:0,0:0:0:0:
327,52,169147,2,0,P|283:115|201:124,1,161.999995056153,4|0,0:0|0:0,0:0:0:0:
101,88,169788,1,4,0:0:0:0:
101,88,169916,2,0,P|32:157|112:278,1,215.999993408203,8|8,0:0|0:0,0:0:0:0:
159,313,170685,1,0,0:0:0:0:
159,313,170813,2,0,B|240:294|226:344|327:325,1,161.999995056153,4|4,0:0|0:0,0:0:0:0:
424,347,171455,1,8,0:0:0:0:
424,347,171583,2,0,P|415:270|429:189,1,107.999996704102,0|4,0:0|0:0,0:0:0:0:
387,194,171967,2,0,L|316:202,1,53.9999983520508,8|0,0:0|0:0,0:0:0:0:
288,230,172224,5,4,0:0:0:0:
210,154,172480,1,8,0:0:0:0:
106,185,172737,2,0,P|80:121|100:41,1,107.999996704102,0|8,0:0|0:0,0:0:0:0:
114,40,173121,1,0,0:0:0:0:
161,13,173249,2,0,P|240:11|342:18,1,161.999995056153,4|0,0:0|0:0,0:0:0:0:
343,122,173890,1,4,0:0:0:0:
343,122,174019,2,0,B|322:208|364:190|350:281,1,161.999995056153,8|0,0:0|0:0,0:0:0:0:
315,323,174531,1,8,0:0:0:0:
260,328,174660,6,0,P|208:351|141:354,1,107.999996704102,0|4,0:0|0:0,0:0:0:0:
114,323,175044,2,0,P|99:291|100:252,1,53.9999983520508,8|0,0:0|0:0,0:0:0:0:
175,197,175429,1,0,0:0:0:0:
175,197,175557,2,0,P|188:135|170:63,2,107.999996704102,8|0|8,0:0|0:0|0:0,0:0:0:0:
276,248,176326,5,4,0:0:0:0:
276,248,176455,2,0,P|342:254|414:253,1,107.999996704102
421,215,176839,1,0,0:0:0:0:
421,215,176967,2,0,P|428:140|420:83,1,107.999996704102,4|0,0:0|0:0,0:0:0:0:
378,79,177352,2,0,P|370:52|371:25,2,53.9999983520508,4|0|8,0:0|0:0|0:0,0:0:0:0:
326,95,177737,1,0,0:0:0:0:
224,58,177993,1,4,0:0:0:0:
224,58,178121,2,0,P|129:92|107:213,1,215.999993408203,8|8,0:0|0:0,0:0:0:0:
86,302,178890,5,0,0:0:0:0:
176,360,179147,1,8,0:0:0:0:
384,302,179660,1,8,0:0:0:0:
466,233,179916,1,0,0:0:0:0:
427,132,180172,1,8,0:0:0:0:
332,184,180429,6,0,P|278:166|212:168,1,107.999996704102,4|8,0:0|0:0,0:0:0:0:
176,148,180813,1,0,0:0:0:0:
123,162,180942,2,0,P|90:119|92:52,2,107.999996704102,0|8|4,0:0|0:0|0:0,0:0:0:0:
71,257,181711,2,0,L|94:352,1,53.9999983520508,8|0,0:0|0:0,0:0:0:0:
103,359,181967,2,0,P|141:319|230:295,1,107.999996704102,4|8,0:0|0:0,0:0:0:0:
296,309,182480,5,4,0:0:0:0:
403,318,182737,2,0,P|400:257|413:198,1,107.999996704102,8|0,0:0|0:0,0:0:0:0:
363,182,183121,2,0,P|324:126|326:64,1,107.999996704102,4|0,0:0|0:0,0:0:0:0:
343,38,183506,1,4,0:0:0:0:
450,33,183762,1,8,0:0:0:0:
461,140,184019,1,0,0:0:0:0:
372,201,184275,1,8,0:0:0:0:
270,163,184531,6,0,P|251:94|256:27,2,107.999996704102,4|8|0,0:0|0:0|0:0,0:0:0:0:
219,182,185172,2,0,P|185:247|194:304,1,107.999996704102,4|0,0:0|0:0,0:0:0:0:
201,331,185557,1,4,0:0:0:0:
94,344,185813,1,8,0:0:0:0:
72,237,186070,1,4,0:0:0:0:
287,225,186583,6,0,B|371:212|347:254|451:237,1,161.999995056153,4|0,0:0|0:0,0:0:0:0:
487,202,187096,2,0,P|474:144|479:87,1,107.999996704102,0|8,0:0|0:0,0:0:0:0:
438,57,187480,1,0,0:0:0:0:
388,35,187608,2,0,P|309:60|292:139,1,161.999995056153,4|0,0:0|0:0,0:0:0:0:
236,139,188121,2,0,P|186:106|186:31,1,107.999996704102,0|8,0:0|0:0,0:0:0:0:
94,133,188634,5,4,0:0:0:0:
118,237,188890,1,8,0:0:0:0:
86,340,189147,2,0,P|149:319|225:312,1,107.999996704102,0|8,0:0|0:0,0:0:0:0:
289,354,189660,2,0,B|321:229|246:262|286:136,1,215.999993408203,4|4,0:0|0:0,0:0:0:0:
364,71,190429,1,8,0:0:0:0:
462,114,190685,1,2,0:0:0:0:
152,250,198890,6,0,P|128:196|144:126,1,107.999996704102,4|8,0:0|0:0,0:0:0:0:
241,154,199403,2,0,P|314:169|379:156,1,107.999996704102,0|8,0:0|0:0,0:0:0:0:
397,185,199788,1,0,0:0:0:0:
447,167,199916,2,0,P|459:97|450:33,2,107.999996704102,4|8|0,0:0|0:0|0:0,0:0:0:0:
417,271,200685,1,8,0:0:0:0:
309,255,200942,2,0,P|235:262|182:293,1,107.999996704102,4|8,0:0|0:0,0:0:0:0:
103,237,201455,2,0,P|76:180|85:115,1,107.999996704102,4|8,0:0|0:0,0:0:0:0:
102,88,201839,1,0,0:0:0:0:
149,64,201967,2,0,P|229:77|279:70,1,107.999996704102,4|8,0:0|0:0,0:0:0:0:
225,178,202480,2,0,P|217:233|234:305,1,107.999996704102,0|8,0:0|0:0,0:0:0:0:
333,272,202993,6,0,P|381:281|418:276,2,53.9999983520508,4|0|8,0:0|0:0|0:0,0:0:0:0:
368,169,203506,1,0,0:0:0:0:
368,169,203634,2,0,P|396:100|385:35,1,107.999996704102,4|0,0:0|0:0,0:0:0:0:
361,24,204019,2,0,L|418:18,2,53.9999983520508,4|0|8,0:0|0:0|0:0,0:0:0:0:
254,7,204531,1,0,0:0:0:0:
254,7,204660,2,0,P|239:73|257:123,1,107.999996704102,4|0,0:0|0:0,0:0:0:0:
210,147,205044,5,4,0:0:0:0:
103,125,205301,1,8,0:0:0:0:
67,226,205557,1,0,0:0:0:0:
36,329,205813,1,8,0:0:0:0:
143,315,206070,2,0,P|202:308|266:314,1,107.999996704102,4|8,0:0|0:0,0:0:0:0:
294,279,206455,1,0,0:0:0:0:
337,246,206583,2,0,P|323:181|338:112,1,107.999996704102,4|8,0:0|0:0,0:0:0:0:
263,61,207096,5,6,0:0:0:0:
263,61,207224,2,0,L|177:79,1,53.9999983520508,0|10,0:0|0:0,0:0:0:0:
103,53,207608,1,2,0:0:0:0:
103,53,207737,2,0,L|114:122,1,53.9999983520508,4|10,0:0|0:0,0:0:0:0:
46,192,208121,2,0,P|98:230|111:292,1,107.999996704102,6|10,0:0|0:0,0:0:0:0:
141,314,208506,1,0,0:0:0:0:
181,349,208634,2,0,P|239:352|290:345,1,107.999996704102,2|10,0:0|0:0,0:0:0:0:
384,295,209147,5,6,0:0:0:0:
384,295,209275,2,0,L|363:213,1,53.9999983520508,0|10,0:0|0:0,0:0:0:0:
313,158,209660,1,2,0:0:0:0:
313,158,209788,2,0,L|384:143,1,53.9999983520508,4|10,0:0|0:0,0:0:0:0:
469,175,210172,2,0,P|497:105|478:52,1,107.999996704102,6|10,0:0|0:0,0:0:0:0:
461,29,210557,1,0,0:0:0:0:
411,7,210685,2,0,P|357:18|285:10,1,107.999996704102,6|10,0:0|0:0,0:0:0:0:
202,49,211198,5,6,0:0:0:0:
185,155,211455,1,10,0:0:0:0:
244,244,211711,1,2,0:0:0:0:
456,205,212224,1,6,0:0:0:0:
473,99,212481,1,10,0:0:0:0:
414,10,212737,1,2,0:0:0:0:
211,83,213249,5,6,0:0:0:0:
273,171,213506,1,10,0:0:0:0:
212,259,213762,1,2,0:0:0:0:
151,348,214019,1,10,0:0:0:0:
53,302,214275,1,6,0:0:0:0:
