osu file format v14

[General]
AudioFilename: audio.mp3
AudioLeadIn: 0
PreviewTime:83981
Countdown: 0
SampleSet: Soft
StackLeniency: 0.4
Mode: 0
LetterboxInBreaks: 0
WidescreenStoryboard: 1

[Editor]
Bookmarks: 36998,100587,141100,141613,148792
DistanceSpacing: 1.2
BeatDivisor: 2
GridSize: 16
TimelineZoom: 4.499998

[Metadata]
Title:L'erisia (Primary Logic)
TitleUnicode:L'erisia (Primary Logic)
Artist:Zektbach
ArtistUnicode:Zektbach
Creator:Luscent
Version:Elcheer's Expert feat. Luscent
Source:REFLEC BEAT
Tags:tomosuke the epic of zektbach ristaccia 赤き天使 akai tenshi konami bemani lerisia rollpan roll_pan enon elcheer zekk nanoya sstari perchance instrumental rhythm video game electronic
BeatmapID:4419503
BeatmapSetID:2018522

[Difficulty]
HPDrainRate:5
CircleSize:4.5
OverallDifficulty:9
ApproachRate:9.5
SliderMultiplier:1.6
SliderTickRate:1

[Events]
//Background and Video events
0,0,"L'erisia.jpg",0,0
//Break Periods
2,61655,75289
2,141655,157340
//Storyboard Layer 0 (Background)
//Storyboard Layer 1 (Fail)
//Storyboard Layer 2 (Pass)
//Storyboard Layer 3 (Foreground)
//Storyboard Layer 4 (Overlay)
//Storyboard Sound Samples

[TimingPoints]
36840,256.410256410256,4,2,1,60,1,0
45045,-100,4,2,1,75,0,0
53250,-100,4,2,1,90,0,0
61455,-100,4,2,1,50,0,0
75814,256.410256410256,4,2,1,60,1,0
75814,-125,4,2,1,60,0,0
84019,-100,4,2,1,75,0,0
100429,-100,4,2,1,90,0,0
108634,-100,4,2,1,75,0,0
125044,-100,4,3,1,90,0,0
157865,-133.333333333333,4,2,1,60,0,0
166070,-100,4,2,1,80,0,0
190686,-125,4,2,1,80,0,0
198891,-100,4,2,1,80,0,0
207096,-100,4,2,1,90,0,0
214275,-100,4,2,1,100,0,0

[Colours]
Combo1 : 255,255,255
Combo2 : 209,12,51
Combo3 : 213,0,106
Combo4 : 138,138,138

[HitObjects]
32,202,36840,6,0,L|125:214,1,80,4|0,1:2|0:0,0:0:0:0:
204,174,37096,1,8,0:0:0:0:
178,276,37224,1,0,0:0:0:0:
135,117,37352,2,0,L|129:73,2,40,0|0|0,0:0|0:0|1:0,0:0:0:0:
283,231,37609,2,0,L|277:271,3,40,8|0|0|0,0:0|0:0|0:0|0:0,0:0:0:0:
253,313,37865,5,0,1:0:0:0:
269,301,37929,1,0,0:0:0:0:
288,293,37993,1,0,0:0:0:0:
308,288,38058,1,0,0:0:0:0:
328,286,38122,1,8,0:0:0:0:
349,289,38186,1,0,0:0:0:0:
371,295,38250,2,0,P|396:301|416:311,1,40
495,338,38378,2,0,L|488:284,3,40,0|0|0|0,0:0|0:0|1:0|0:0,0:0:0:0:
474,266,38634,2,0,L|480:212,3,40,8|0|0|0,0:0|0:0|0:0|0:0,0:0:0:0:
512,186,38891,5,0,1:0:0:0:
492,193,38955,1,0,0:0:0:0:
473,198,39019,1,0,0:0:0:0:
452,202,39083,1,0,0:0:0:0:
432,197,39147,1,8,0:0:0:0:
412,191,39211,1,0,0:0:0:0:
391,178,39275,2,0,P|373:160|355:149,1,40
282,101,39404,5,0,0:0:0:0:
263,93,39468,1,0,0:0:0:0:
243,88,39532,1,0,1:0:0:0:
223,87,39596,1,0,0:0:0:0:
203,89,39660,1,8,0:0:0:0:
183,95,39724,1,0,0:0:0:0:
164,105,39788,2,0,P|155:139|159:170,1,40
237,233,39916,5,0,1:0:0:0:
244,252,39981,1,0,0:0:0:0:
249,272,40045,1,0,0:0:0:0:
250,293,40109,1,0,0:0:0:0:
248,312,40173,1,8,0:0:0:0:
241,332,40237,1,0,0:0:0:0:
232,350,40301,1,0,0:0:0:0:
133,222,40429,5,0,0:0:0:0:
338,283,40558,1,0,1:0:0:0:
237,68,40686,2,0,L|228:165,1,80,8|0,0:0|0:0,0:0:0:0:
160,301,40942,6,0,L|105:307,3,40,0|0|0|0,1:0|0:0|0:0|0:0,0:0:0:0:
87,333,41199,2,0,L|32:326,3,40,8|0|0|0,0:0|0:0|0:0|0:0,0:0:0:0:
5,316,41455,1,0,1:0:0:0:
1,296,41519,1,0,0:0:0:0:
1,275,41583,1,0,0:0:0:0:
1,255,41647,1,0,0:0:0:0:
1,234,41711,1,8,0:0:0:0:
3,214,41775,1,0,0:0:0:0:
9,189,41840,2,0,P|32:178|53:175,1,40
136,211,41968,6,0,L|178:219,3,40,0|0|0|0,1:0|0:0|0:0|0:0,0:0:0:0:
208,243,42224,2,0,L|250:234,3,40,8|0|0|0,0:0|0:0|0:0|0:0,0:0:0:0:
281,212,42481,1,0,0:0:0:0:
289,190,42545,1,0,0:0:0:0:
294,171,42609,1,0,1:0:0:0:
298,150,42673,1,0,0:0:0:0:
299,130,42737,1,8,0:0:0:0:
299,109,42801,1,0,0:0:0:0:
296,89,42865,1,0,0:0:0:0:
291,69,42929,1,0,0:0:0:0:
282,51,42993,6,0,L|336:42,3,40,0|0|0|0,1:0|0:0|0:0|0:0,0:0:0:0:
361,58,43250,2,0,L|415:66,3,40,8|0|0|0,0:0|0:0|0:0|0:0,0:0:0:0:
439,45,43506,1,0,0:0:0:0:
427,61,43570,1,0,0:0:0:0:
417,80,43634,1,0,1:0:0:0:
411,99,43699,1,0,0:0:0:0:
407,120,43763,1,8,0:0:0:0:
407,140,43827,1,0,0:0:0:0:
408,160,43891,1,0,0:0:0:0:
413,180,43955,1,0,0:0:0:0:
424,202,44019,6,0,P|438:238|436:262,3,40,0|0|0|0,1:0|0:0|0:0|0:0,0:0:0:0:
419,275,44275,2,0,P|404:311|406:335,3,40,8|0|0|0,0:0|0:0|0:0|0:0,0:0:0:0:
416,352,44532,1,0,0:0:0:0:
400,339,44596,1,0,0:0:0:0:
383,327,44660,1,0,1:0:0:0:
362,319,44724,1,0,0:0:0:0:
343,314,44788,1,8,0:0:0:0:
322,312,44852,1,0,0:0:0:0:
302,312,44916,1,0,0:0:0:0:
281,316,44981,1,0,0:0:0:0:
261,322,45045,6,0,L|244:209,1,80,4|0,1:2|0:0,0:0:0:0:
144,113,45301,2,0,L|131:194,1,80,8|0,1:0|0:0,0:0:0:0:
118,287,45558,1,0,0:0:0:0:
273,68,45686,2,0,L|260:149,1,80,0|8,1:0|1:0,0:0:0:0:
249,242,45942,1,0,0:0:0:0:
144,113,46070,6,0,P|92:105|49:115,1,80,0|0,1:0|0:0,0:0:0:0:
249,242,46327,2,0,P|289:246|329:238,1,80,8|0,1:0|0:0,0:0:0:0:
144,113,46583,1,0,0:0:0:0:
341,59,46711,1,0,1:0:0:0:
341,59,46775,1,0,0:0:0:0:
341,59,46840,2,0,L|351:176,1,80,8|0,1:0|0:0,0:0:0:0:
190,34,47096,6,0,P|247:15|286:21,1,80,0|0,1:0|0:0,0:0:0:0:
171,203,47352,2,0,P|129:201|92:186,1,80,8|0,1:0|0:0,0:0:0:0:
114,61,47609,1,0,0:0:0:0:
262,106,47737,2,0,L|248:201,1,80,0|8,1:0|1:0,0:0:0:0:
241,280,47993,1,0,0:0:0:0:
119,143,48122,6,0,P|68:134|33:146,1,80,0|0,1:0|0:0,0:0:0:0:
162,282,48378,2,0,L|174:175,1,80,8|0,1:0|0:0,0:0:0:0:
262,106,48634,1,0,0:0:0:0:
281,104,48699,1,0,0:0:0:0:
302,107,48763,1,0,1:0:0:0:
321,115,48827,1,0,0:0:0:0:
338,126,48891,2,0,L|349:230,1,80,8|0,1:0|0:0,0:0:0:0:
450,311,49147,6,0,L|458:228,1,80,4|0,1:0|0:0,0:0:0:0:
290,273,49404,2,0,P|341:297|383:291,1,80,8|0,1:0|0:0,0:0:0:0:
428,159,49660,1,0,0:0:0:0:
266,99,49788,2,0,L|279:199,1,80,0|8,1:0|1:0,0:0:0:0:
290,273,50045,1,0,0:0:0:0:
398,76,50173,6,0,P|455:73|493:93,1,80,0|0,1:0|0:0,0:0:0:0:
351,221,50429,2,0,L|339:138,1,80,8|0,1:0|0:0,0:0:0:0:
328,45,50686,1,0,0:0:0:0:
229,167,50814,1,0,1:0:0:0:
229,167,50878,1,0,0:0:0:0:
229,167,50942,2,0,P|174:156|148:135,1,80,8|0,1:0|0:0,0:0:0:0:
192,5,51199,6,0,L|208:108,1,80,0|0,1:0|0:0,0:0:0:0:
71,240,51455,2,0,L|83:158,1,80,8|0,1:0|0:0,0:0:0:0:
95,65,51711,1,0,0:0:0:0:
229,167,51840,2,0,P|284:178|329:164,1,80,0|8,1:0|1:0,0:0:0:0:
396,106,52096,1,0,0:0:0:0:
286,23,52224,6,0,L|273:126,1,80,0|0,1:0|0:0,0:0:0:0:
395,270,52481,2,0,L|385:188,1,80,8|0,1:0|0:0,0:0:0:0:
275,102,52737,1,0,0:0:0:0:
255,95,52801,1,0,0:0:0:0:
235,92,52865,1,0,1:0:0:0:
215,95,52929,1,0,0:0:0:0:
196,104,52993,1,8,1:0:0:0:
179,114,53058,1,0,0:0:0:0:
158,120,53122,1,0,0:0:0:0:
138,119,53186,1,0,0:0:0:0:
116,115,53250,6,0,P|128:169|122:229,1,80,4|0,1:0|0:0,0:0:0:0:
11,344,53506,2,0,P|12:302|22:262,1,80,12|0,1:0|3:0,0:0:0:0:
161,379,53763,1,2,3:0:0:0:
244,161,53891,2,0,P|192:161|146:176,1,80,4|8,1:0|1:0,0:0:0:0:
20,265,54147,1,0,3:0:0:0:
297,332,54275,6,0,L|285:217,1,80,4|0,1:0|0:0,0:0:0:0:
85,114,54532,2,0,L|77:196,1,80,12|0,1:0|3:0,0:0:0:0:
174,297,54788,1,2,3:0:0:0:
359,137,54916,1,4,1:0:0:0:
359,137,54981,1,0,0:0:0:0:
359,137,55045,2,0,L|454:145,1,80,8|0,1:0|3:0,0:0:0:0:
297,332,55301,6,0,P|294:256|314:228,1,80,4|0,1:0|0:0,0:0:0:0:
506,107,55558,2,0,P|515:146|504:186,1,80,12|0,1:0|0:0,0:0:0:0:
455,284,55814,1,2,3:0:0:0:
276,138,55942,2,0,P|224:125|183:132,1,80,4|8,1:0|1:0,0:0:0:0:
122,211,56199,1,0,0:0:0:0:
7,17,56327,6,0,L|-1:98,1,80,4|0,1:0|3:0,0:0:0:0:
129,290,56583,2,0,L|121:207,1,80,12|0,1:0|3:0,0:0:0:0:
196,66,56840,1,0,3:0:0:0:
214,56,56904,1,0,0:0:0:0:
233,51,56968,1,4,1:0:0:0:
254,49,57032,1,0,0:0:0:0:
277,53,57096,2,0,L|296:150,1,80,8|0,1:0|0:0,0:0:0:0:
218,270,57352,6,0,P|258:229|299:222,1,80,4|0,1:0|0:0,0:0:0:0:
463,290,57609,2,0,L|452:386,1,80,12|0,1:0|3:0,0:0:0:0:
294,306,57865,1,2,3:0:0:0:
413,178,57993,2,0,L|508:201,1,80,4|8,1:0|1:0,0:0:0:0:
380,344,58250,1,0,0:0:0:0:
276,209,58378,6,0,P|266:152|282:96,1,80,4|0,1:0|0:0,0:0:0:0:
456,22,58634,2,0,P|465:78|449:134,1,80,12|0,1:0|0:0,0:0:0:0:
356,247,58891,1,2,3:0:0:0:
200,127,59019,1,4,1:0:0:0:
200,127,59083,1,0,3:0:0:0:
200,127,59147,2,0,L|98:142,1,80,8|0,1:0|3:0,0:0:0:0:
26,7,59404,6,0,P|46:54|48:108,1,80,4|0,1:0|0:0,0:0:0:0:
114,307,59660,2,0,P|120:265|137:228,1,80,12|0,1:0|3:0,0:0:0:0:
200,127,59916,1,2,3:0:0:0:
356,247,60045,2,0,P|407:260|446:248,1,80,4|8,1:0|1:0,0:0:0:0:
501,178,60301,1,0,0:0:0:0:
359,64,60429,6,0,L|345:161,1,80,4|0,1:0|0:0,0:0:0:0:
444,333,60686,2,0,L|432:250,1,80,12|0,1:0|0:0,0:0:0:0:
238,240,60942,1,0,3:0:0:0:
233,260,61006,1,0,3:0:0:0:
235,280,61070,1,4,1:0:0:0:
243,299,61134,1,0,3:0:0:0:
259,312,61199,1,8,1:0:0:0:
277,321,61263,1,0,1:0:0:0:
297,322,61327,1,0,1:0:0:0:
317,318,61391,1,0,1:0:0:0:
334,306,61455,5,6,1:2:0:0:
79,12,75814,6,0,L|92:93,1,64,6|0,1:2|0:0,0:0:0:0:
189,181,76070,2,0,L|199:117,1,64,2|0,1:2|0:0,0:0:0:0:
283,13,76327,1,0,0:0:0:0:
352,58,76455,1,2,1:2:0:0:
363,140,76583,2,0,L|350:222,1,64,0|2,0:0|0:0,0:0:0:0:
263,315,76840,6,0,L|252:251,2,64,0|2|0,1:0|0:0|0:0,0:0:0:0:
323,371,77224,1,0,1:0:0:0:
414,260,77352,2,0,L|477:249,2,64,0|2|2,0:0|0:0|1:2,0:0:0:0:
352,203,77737,1,0,0:0:0:0:
263,315,77865,6,0,L|178:308,1,64,2|2,1:2|0:2,0:0:0:0:
72,259,78122,2,0,L|136:254,1,64,0|2,1:0|0:2,0:0:0:0:
254,198,78378,2,0,L|169:191,1,64,2|0,0:0|1:0,0:0:0:0:
63,142,78634,2,0,L|126:136,1,64,0|2,0:0|0:2,0:0:0:0:
201,24,78891,6,0,P|187:75|194:108,1,64,2|2,1:2|0:0,0:0:0:0:
254,198,79147,2,0,P|266:228|268:260,1,64,0|2,1:0|0:0,0:0:0:0:
224,331,79404,1,0,0:0:0:0:
307,329,79532,1,0,1:2:0:0:
389,232,79660,1,0,1:2:0:0:
472,234,79788,1,2,0:0:0:0:
438,368,79916,6,0,L|429:291,1,64,4|0,1:2|0:0,0:0:0:0:
479,170,80173,2,0,L|471:233,1,64,0|2,1:0|0:0,0:0:0:0:
377,130,80429,1,2,0:0:0:0:
296,105,80558,1,0,1:0:0:0:
232,158,80686,2,0,L|216:236,1,64,2|0,0:0|0:0,0:0:0:0:
132,283,80942,6,0,P|130:244|115:208,2,64,0|2|0,1:0|0:0|1:2,0:0:0:0:
96,360,81327,1,2,0:0:0:0:
4,242,81455,2,0,L|0:175,2,64,2|0|2,0:0|1:0|0:0,0:0:0:0:
14,325,81840,1,2,0:0:0:0:
122,221,81968,6,0,P|153:207|184:206,1,64,0|2,1:0|0:0,0:0:0:0:
307,270,82224,2,0,P|276:256|245:255,1,64,0|2,1:0|0:0,0:0:0:0:
124,317,82481,2,0,P|155:303|186:302,1,64,2|0,0:0|1:0,0:0:0:0:
309,366,82737,2,0,P|278:352|247:351,1,64,2|2,0:0|0:0,0:0:0:0:
110,255,82993,6,0,P|124:305|120:339,1,64,2|0,1:2|0:0,0:0:0:0:
246,254,83250,2,0,P|248:222|259:192,1,64,2|0,1:2|0:0,0:0:0:0:
407,92,83506,1,2,0:0:0:0:
397,104,83570,1,0,0:0:0:0:
385,115,83634,1,0,1:0:0:0:
371,122,83699,1,0,0:0:0:0:
356,127,83763,1,2,1:2:0:0:
340,128,83827,1,0,0:0:0:0:
324,126,83891,1,2,3:2:0:0:
309,121,83955,1,0,0:0:0:0:
295,109,84019,6,0,P|247:98|204:98,1,80,4|0,1:2|0:0,0:0:0:0:
47,174,84275,2,0,P|95:163|138:163,1,80,8|0,1:0|0:0,0:0:0:0:
249,201,84532,1,0,3:0:0:0:
90,69,84660,1,0,1:0:0:0:
150,246,84788,2,0,P|165:308|169:353,1,80,8|0,1:0|0:0,0:0:0:0:
341,181,85045,6,0,P|326:243|322:288,1,80,0|0,1:0|0:0,0:0:0:0:
512,384,85301,2,0,P|505:344|494:306,1,80,8|0,1:0|0:0,0:0:0:0:
430,167,85558,1,0,3:0:0:0:
301,356,85686,1,0,1:0:0:0:
160,136,85814,2,0,P|204:134|245:143,1,80,8|0,1:0|0:0,0:0:0:0:
394,259,86070,6,0,P|354:266|314:264,1,80,4|0,1:2|0:0,0:0:0:0:
188,229,86327,1,8,1:0:0:0:
368,111,86455,1,0,0:0:0:0:
398,295,86583,2,0,P|358:302|318:300,1,80,4|0,1:2|1:0,0:0:0:0:
188,229,86840,1,8,1:0:0:0:
368,111,86968,1,0,0:0:0:0:
402,368,87096,6,0,P|362:375|322:373,1,80,4|0,1:2|0:0,0:0:0:0:
188,229,87352,1,8,1:0:0:0:
368,111,87481,1,0,0:0:0:0:
322,373,87609,1,0,3:0:0:0:
489,243,87737,1,0,1:0:0:0:
288,121,87865,2,0,P|267:174|267:208,1,80,8|0,1:0|0:0,0:0:0:0:
512,319,88122,6,0,P|507:279|489:243,1,80,4|0,1:2|0:0,0:0:0:0:
368,111,88378,2,0,L|274:123,1,80,8|0,1:0|0:0,0:0:0:0:
135,140,88634,1,0,3:0:0:0:
278,305,88763,1,0,1:0:0:0:
52,212,88891,1,8,1:0:0:0:
288,121,89019,1,0,0:0:0:0:
278,305,89147,6,0,L|271:405,1,80,0|0,1:0|0:0,0:0:0:0:
52,212,89404,2,0,L|46:132,1,80,8|0,1:0|0:0,0:0:0:0:
129,18,89660,1,0,3:0:0:0:
209,237,89788,1,0,1:0:0:0:
209,237,89852,1,0,0:0:0:0:
209,237,89916,2,0,P|156:267|128:264,1,80,8|0,1:0|0:0,0:0:0:0:
210,58,90173,6,0,L|245:153,1,80,4|0,1:2|0:0,0:0:0:0:
304,288,90429,1,8,1:0:0:0:
353,115,90558,1,0,0:0:0:0:
498,306,90686,2,0,P|449:311|409:303,1,80,4|0,3:2|1:0,0:0:0:0:
386,302,90878,1,0,0:0:0:0:
386,302,90942,1,8,1:0:0:0:
449,104,91070,1,0,0:0:0:0:
498,306,91199,6,0,P|507:370|504:395,1,80,4|0,1:2|3:0,0:0:0:0:
229,320,91455,2,0,P|228:280|236:241,1,80,8|0,1:0|3:0,0:0:0:0:
429,116,91711,1,0,3:0:0:0:
410,124,91775,1,0,3:0:0:0:
391,127,91840,1,0,1:0:0:0:
371,124,91904,1,0,3:0:0:0:
353,115,91968,1,12,1:1:0:0:
335,106,92032,1,0,0:0:0:0:
315,103,92096,1,0,0:0:0:0:
296,105,92160,1,0,0:0:0:0:
277,109,92224,6,0,P|226:132|207:164,1,80,4|0,1:2|0:0,0:0:0:0:
276,331,92481,2,0,L|264:237,1,80,8|0,1:0|0:0,0:0:0:0:
233,35,92737,1,0,3:0:0:0:
136,245,92865,1,0,1:0:0:0:
342,137,92993,2,0,P|391:134|426:146,1,80,8|0,1:0|0:0,0:0:0:0:
276,331,93250,6,0,L|288:237,1,80,0|0,1:0|0:0,0:0:0:0:
486,60,93506,2,0,L|497:140,1,80,8|0,1:0|0:0,0:0:0:0:
402,287,93763,1,0,3:0:0:0:
299,57,93891,1,0,1:0:0:0:
299,57,93955,1,0,0:0:0:0:
299,57,94019,2,0,P|253:48|220:51,1,80,8|0,1:0|0:0,0:0:0:0:
107,170,94275,6,0,L|121:266,1,80,4|0,1:2|0:0,0:0:0:0:
154,384,94532,1,8,1:0:0:0:
268,196,94660,1,0,0:0:0:0:
75,176,94788,2,0,L|89:272,1,80,4|0,3:2|1:0,0:0:0:0:
154,384,95045,1,8,1:0:0:0:
268,196,95173,1,0,0:0:0:0:
0,193,95301,6,0,L|14:289,1,80,4|0,1:2|0:0,0:0:0:0:
154,384,95558,1,8,1:0:0:0:
268,196,95686,1,0,0:0:0:0:
11,272,95814,1,0,3:0:0:0:
252,337,95942,1,0,1:0:0:0:
74,154,96070,2,0,P|67:107|81:65,1,80,8|0,1:0|0:0,0:0:0:0:
261,0,96327,6,0,L|364:14,1,80,4|0,1:2|0:0,0:0:0:0:
479,157,96583,2,0,L|376:171,1,80,8|0,1:0|0:0,0:0:0:0:
236,97,96840,1,0,3:0:0:0:
438,54,96968,1,0,1:0:0:0:
310,274,97096,1,8,1:0:0:0:
512,232,97224,1,0,0:0:0:0:
239,226,97352,6,0,P|229:279|232:321,1,80,0|0,1:0|0:0,0:0:0:0:
476,384,97609,2,0,P|475:344|466:305,1,80,8|0,1:0|0:0,0:0:0:0:
361,155,97865,1,0,3:0:0:0:
312,369,97993,1,0,1:0:0:0:
312,369,98058,1,0,0:0:0:0:
312,369,98122,2,0,P|260:385|230:382,1,80,8|0,1:0|0:0,0:0:0:0:
204,166,98378,6,0,L|216:259,1,80,4|0,1:2|0:0,0:0:0:0:
0,384,98634,2,0,L|10:304,1,80,8|0,1:0|0:0,0:0:0:0:
30,117,98891,1,4,1:2:0:0:
214,245,99019,1,0,1:0:0:0:
214,245,99083,1,0,0:0:0:0:
214,245,99147,2,0,P|265:253|295:249,1,80,8|0,1:0|3:0,0:0:0:0:
481,142,99404,6,0,L|468:51,1,80,4|0,1:2|3:0,0:0:0:0:
230,11,99660,2,0,L|218:90,1,80,8|0,1:0|3:0,0:0:0:0:
411,227,99916,1,0,1:0:0:0:
302,66,100045,1,0,1:0:0:0:
210,325,100173,1,8,1:0:0:0:
459,296,100301,1,0,1:0:0:0:
316,176,100429,6,0,P|272:166|218:175,1,80,4|0,1:0|0:0,0:0:0:0:
17,309,100686,2,0,P|61:319|115:310,1,80,12|0,1:0|3:0,0:0:0:0:
284,360,100942,1,0,0:0:0:0:
107,110,101070,2,0,L|127:211,1,80,4|8,1:0|1:0,0:0:0:0:
284,360,101327,1,0,0:0:0:0:
483,226,101455,6,0,P|446:230|403:230,1,80,4|0,1:0|3:0,0:0:0:0:
200,97,101711,2,0,P|236:92|279:92,1,80,12|0,1:0|3:0,0:0:0:0:
418,54,101968,1,0,0:0:0:0:
427,76,102032,1,0,0:0:0:0:
429,99,102096,1,4,1:0:0:0:
426,122,102160,1,0,0:0:0:0:
418,144,102224,1,8,1:0:0:0:
301,250,102352,1,0,0:0:0:0:
301,250,102416,1,0,0:0:0:0:
301,250,102481,6,0,P|281:205|284:164,1,80,4|0,1:0|0:0,0:0:0:0:
50,314,102737,2,0,P|97:299|150:301,1,80,12|0,1:0|3:0,0:0:0:0:
279,361,102993,1,0,0:0:0:0:
141,186,103122,2,0,P|122:151|112:97,1,80,4|8,1:0|1:0,0:0:0:0:
7,197,103378,1,0,0:0:0:0:
244,32,103506,6,0,L|227:122,1,80,4|0,1:0|0:0,0:0:0:0:
228,226,103763,1,12,1:0:0:0:
249,236,103827,1,0,3:0:0:0:
272,239,103891,1,0,3:0:0:0:
295,235,103955,1,0,3:0:0:0:
317,227,104019,1,0,3:0:0:0:
340,220,104083,1,0,3:0:0:0:
363,215,104147,1,4,1:0:0:0:
386,213,104211,1,0,3:0:0:0:
409,215,104275,2,0,P|440:218|469:212,3,40,8|0|0|0,1:0|3:0|3:0|0:0,0:0:0:0:
486,194,104532,6,0,L|476:100,1,80,4|0,1:0|0:0,0:0:0:0:
355,305,104788,2,0,L|343:391,1,80,12|0,1:0|3:0,0:0:0:0:
294,160,105045,1,0,3:0:0:0:
83,240,105173,2,0,P|129:250|182:242,1,80,4|8,1:0|1:0,0:0:0:0:
294,160,105429,1,0,0:0:0:0:
144,26,105557,6,0,P|142:74|161:119,1,80,4|0,1:0|3:0,0:0:0:0:
240,322,105814,2,0,L|270:222,1,80,12|0,1:0|0:0,0:0:0:0:
450,206,106070,1,0,3:0:0:0:
459,183,106134,1,0,0:0:0:0:
464,159,106198,1,4,1:0:0:0:
464,134,106263,1,0,0:0:0:0:
460,110,106327,2,0,P|410:104|359:112,1,80,8|0,1:0|3:0,0:0:0:0:
134,192,106583,6,0,P|123:150|132:98,1,80,4|0,1:0|0:0,0:0:0:0:
251,359,106839,1,12,1:0:0:0:
23,288,106968,2,0,P|75:283|114:267,1,80,0|0,3:0|3:0,0:0:0:0:
251,359,107224,1,4,1:0:0:0:
306,131,107352,2,0,P|296:181|301:231,1,80,8|0,1:0|3:0,0:0:0:0:
500,174,107609,6,0,P|460:178|420:173,1,80,4|0,1:0|0:0,0:0:0:0:
174,105,107865,1,12,1:0:0:0:
184,126,107929,1,0,3:0:0:0:
191,148,107993,1,0,3:0:0:0:
197,171,108057,1,0,3:0:0:0:
200,195,108122,1,0,3:0:0:0:
201,218,108186,1,0,0:0:0:0:
200,241,108250,2,0,P|246:233|294:237,2,80,4|8|0,1:0|1:0|3:0,0:0:0:0:
105,315,108634,6,0,P|40:284|35:192,1,160,4|8,1:2|1:0,0:0:0:0:
123,77,109019,2,0,P|140:123|134:168,1,80,0|0,0:0|3:0,0:0:0:0:
250,259,109275,1,0,1:0:0:0:
412,162,109404,2,0,P|362:166|312:160,1,80,8|0,1:0|0:0,0:0:0:0:
300,321,109660,6,0,P|262:343|218:353,2,80,0|0|8,1:0|0:0|1:0,0:0:0:0:
483,358,110045,1,0,0:0:0:0:
412,162,110173,2,0,P|397:211|398:258,1,80,0|0,3:0|1:0,0:0:0:0:
253,235,110429,1,8,1:0:0:0:
208,48,110557,1,0,0:0:0:0:
38,179,110686,6,0,P|81:184|136:178,1,80,4|0,1:2|0:0,0:0:0:0:
253,235,110942,1,8,1:0:0:0:
208,48,111070,1,0,3:0:0:0:
20,204,111198,2,0,P|63:209|118:203,1,80,4|0,1:2|1:0,0:0:0:0:
253,235,111455,1,8,1:0:0:0:
208,48,111583,1,0,3:0:0:0:
13,279,111711,6,0,P|56:284|111:278,1,80,4|0,1:2|0:0,0:0:0:0:
234,340,111968,2,0,P|229:291|241:245,1,80,8|0,1:0|3:0,0:0:0:0:
341,131,112224,1,0,3:0:0:0:
407,252,112352,1,0,1:0:0:0:
209,153,112481,1,8,1:0:0:0:
364,28,112609,1,0,3:0:0:0:
391,225,112737,6,0,P|342:230|296:226,2,80,4|0|8,1:2|0:0|1:0,0:0:0:0:
512,307,113122,1,0,0:0:0:0:
487,102,113250,2,0,P|475:143|478:192,1,80,0|0,0:0|1:0,0:0:0:0:
325,341,113506,1,8,1:0:0:0:
457,252,113634,1,0,3:0:0:0:
227,131,113763,6,0,P|222:170|228:209,2,80,0|0|8,1:0|0:0|1:0,0:0:0:0:
224,299,114147,1,0,0:0:0:0:
302,93,114275,1,0,3:0:0:0:
121,218,114404,1,0,1:0:0:0:
15,124,114532,2,0,P|30:172|32:211,1,80,8|0,1:0|3:0,0:0:0:0:
0,324,114788,6,0,P|48:327|98:316,1,80,4|0,1:2|3:0,0:0:0:0:
207,331,115045,1,8,1:0:0:0:
306,182,115173,1,0,3:0:0:0:
290,384,115301,1,4,1:2:0:0:
139,258,115429,5,0,1:0:0:0:
386,189,115557,1,8,1:0:0:0:
228,90,115686,1,0,3:0:0:0:
365,275,115814,6,0,P|410:278|475:272,2,80,4|0|8,1:2|1:0|1:0,0:0:0:0:
250,183,116198,1,0,1:0:0:0:
334,54,116327,1,0,3:0:0:0:
475,118,116455,1,4,1:0:0:0:
444,276,116583,2,0,P|436:222|442:172,1,80,8|0,1:0|3:0,0:0:0:0:
262,265,116839,6,0,P|219:276|173:271,1,80,4|0,1:2|0:0,0:0:0:0:
53,352,117096,2,0,P|68:311|69:263,1,80,8|0,1:0|0:0,0:0:0:0:
84,75,117352,1,0,3:0:0:0:
161,249,117481,1,0,1:0:0:0:
8,123,117609,2,0,P|-1:61|12:19,1,80,8|0,1:0|0:0,0:0:0:0:
189,106,117865,6,0,P|228:110|268:108,1,80,0|0,1:0|0:0,0:0:0:0:
350,181,118122,1,8,1:0:0:0:
432,48,118250,1,0,0:0:0:0:
274,195,118378,1,0,3:0:0:0:
505,263,118506,1,0,1:0:0:0:
433,123,118634,2,0,P|430:166|435:210,1,80,8|0,1:0|0:0,0:0:0:0:
336,360,118891,6,0,P|348:310|339:258,1,80,4|0,1:2|0:0,0:0:0:0:
189,175,119147,1,8,1:0:0:0:
228,296,119275,1,0,3:0:0:0:
365,369,119404,2,0,P|377:319|368:267,1,80,4|0,3:2|1:0,0:0:0:0:
189,175,119660,1,8,1:0:0:0:
228,296,119788,1,0,3:0:0:0:
369,152,119916,6,0,P|327:148|280:152,1,80,4|0,1:2|0:0,0:0:0:0:
57,268,120173,2,0,P|99:272|146:268,1,80,8|0,1:0|3:0,0:0:0:0:
129,151,120429,1,0,3:0:0:0:
118,129,120493,1,0,3:0:0:0:
113,105,120557,1,0,1:0:0:0:
114,80,120622,1,0,0:0:0:0:
121,57,120686,1,8,1:0:0:0:
223,94,120814,1,0,3:0:0:0:
333,48,120942,6,0,P|381:51|438:43,2,80,4|0|8,1:2|0:0|1:0,0:0:0:0:
236,119,121327,1,0,0:0:0:0:
436,178,121455,1,0,3:0:0:0:
238,224,121583,1,0,1:0:0:0:
408,259,121711,1,8,1:0:0:0:
331,326,121839,1,0,0:0:0:0:
323,155,121968,6,0,P|329:194|323:233,1,80,0|0,1:0|0:0,0:0:0:0:
249,344,122224,1,8,1:0:0:0:
178,180,122352,1,0,0:0:0:0:
100,311,122481,1,0,3:0:0:0:
66,139,122609,1,0,1:0:0:0:
4,334,122737,2,0,P|-1:283|2:239,1,80,8|0,1:0|0:0,0:0:0:0:
66,139,122993,6,0,P|125:141|171:132,1,80,4|0,1:2|0:0,0:0:0:0:
281,235,123250,1,8,1:0:0:0:
335,51,123378,1,0,3:0:0:0:
512,219,123506,6,0,P|453:221|407:212,1,80,4|0,3:1|1:0,0:0:0:0:
297,315,123763,1,8,1:0:0:0:
243,131,123891,1,0,3:0:0:0:
153,257,124019,5,4,1:0:0:0:
365,173,124147,1,0,1:0:0:0:
221,109,124275,1,8,1:0:0:0:
325,297,124404,1,0,1:0:0:0:
87,171,124532,6,0,P|127:176|174:170,1,80,0|0,1:0|1:0,0:0:0:0:
418,68,124788,2,0,P|378:63|331:69,1,80,12|0,1:0|1:0,0:0:0:0:
136,1,125045,6,0,P|128:41|141:98,1,80,4|0,1:0|0:0,0:0:0:0:
2,266,125301,2,0,P|49:253|111:256,1,80,12|0,1:0|3:0,0:0:0:0:
243,303,125557,1,0,0:0:0:0:
235,87,125686,2,0,P|248:139|238:184,1,80,4|8,1:0|1:0,0:0:0:0:
345,343,125942,1,0,0:0:0:0:
140,285,126070,6,0,P|180:288|224:277,1,80,4|0,1:0|3:0,0:0:0:0:
446,168,126327,2,0,P|406:165|362:176,1,80,12|0,1:0|3:0,0:0:0:0:
163,100,126583,1,0,0:0:0:0:
316,297,126711,2,0,P|303:248|306:181,1,80,4|8,1:0|1:0,0:0:0:0:
332,44,126968,1,0,0:0:0:0:
123,196,127096,5,4,1:0:0:0:
299,144,127224,1,0,0:0:0:0:
299,144,127288,1,0,0:0:0:0:
299,144,127352,2,0,P|301:97|295:49,1,80,12|0,1:0|0:0,0:0:0:0:
242,325,127609,1,0,0:0:0:0:
50,242,127737,2,0,P|98:229|134:228,1,80,4|8,1:0|1:0,0:0:0:0:
273,344,127993,1,0,0:0:0:0:
423,180,128122,6,0,P|415:223|422:278,1,80,4|0,1:0|0:0,0:0:0:0:
260,230,128378,1,12,1:0:0:0:
247,209,128442,1,0,0:0:0:0:
240,185,128506,1,0,0:0:0:0:
238,161,128570,1,0,0:0:0:0:
242,137,128634,1,0,0:0:0:0:
248,114,128698,1,0,0:0:0:0:
258,92,128763,1,4,1:0:0:0:
263,68,128827,1,0,0:0:0:0:
258,44,128891,1,8,1:0:0:0:
159,127,129019,1,0,0:0:0:0:
3,82,129147,6,0,P|42:88|81:84,1,80,4|0,1:0|0:0,0:0:0:0:
217,228,129404,2,0,P|177:221|138:225,1,80,12|0,1:0|0:0,0:0:0:0:
17,280,129660,1,0,0:0:0:0:
217,228,129788,1,4,1:0:0:0:
82,160,129916,1,8,1:0:0:0:
207,313,130045,1,0,0:0:0:0:
324,250,130173,6,0,P|333:200|330:150,1,80,4|0,1:0|0:0,0:0:0:0:
241,21,130429,2,0,P|232:71|235:121,1,80,12|0,1:0|0:0,0:0:0:0:
324,250,130686,1,0,0:0:0:0:
415,153,130814,1,4,1:0:0:0:
336,339,130942,1,8,1:0:0:0:
228,216,131070,1,0,0:0:0:0:
93,280,131198,6,0,P|132:285|172:283,1,80,4|0,1:0|0:0,0:0:0:0:
415,225,131455,2,0,P|375:219|335:221,1,80,12|0,1:0|0:0,0:0:0:0:
116,62,131711,1,0,0:0:0:0:
156,188,131839,1,4,1:0:0:0:
277,106,131968,1,8,1:0:0:0:
311,266,132096,1,0,0:0:0:0:
442,64,132224,6,0,P|448:105|441:163,1,80,4|0,1:0|0:0,0:0:0:0:
496,251,132481,1,12,1:0:0:0:
472,257,132545,1,0,0:0:0:0:
448,260,132609,1,0,0:0:0:0:
424,256,132673,1,0,0:0:0:0:
401,249,132737,1,0,0:0:0:0:
307,202,132865,1,4,1:0:0:0:
219,239,132993,2,0,P|202:198|205:144,1,80,8|0,1:0|1:0,0:0:0:0:
32,74,133250,6,0,P|54:118|58:170,1,80,4|0,1:0|0:0,0:0:0:0:
3,240,133506,1,12,1:0:0:0:
23,252,133570,1,0,0:0:0:0:
46,256,133634,1,0,0:0:0:0:
69,251,133698,1,0,0:0:0:0:
92,243,133763,1,0,0:0:0:0:
115,237,133827,1,0,0:0:0:0:
138,238,133891,2,0,P|183:242|238:233,1,80,4|8,1:0|1:0,0:0:0:0:
314,298,134147,1,0,0:0:0:0:
310,166,134275,6,0,P|299:115|309:59,1,80,4|0,1:0|0:0,0:0:0:0:
429,28,134532,1,12,1:0:0:0:
442,47,134596,1,0,0:0:0:0:
448,70,134660,1,0,0:0:0:0:
448,93,134724,1,0,0:0:0:0:
441,116,134788,1,0,0:2:0:0:
436,139,134852,1,0,0:0:0:0:
437,162,134916,2,0,P|433:202|442:246,1,80,4|8,1:0|1:0,0:0:0:0:
421,360,135173,1,0,0:0:0:0:
314,298,135301,6,0,P|269:306|202:295,1,80,4|0,1:0|0:0,0:0:0:0:
106,330,135557,1,12,1:0:0:0:
94,308,135622,1,0,0:0:0:0:
89,284,135686,1,0,0:0:0:0:
91,260,135750,1,0,0:0:0:0:
97,236,135814,1,0,0:0:0:0:
104,213,135878,1,0,0:0:0:0:
103,189,135942,2,0,P|91:149|93:104,1,80,4|8,1:0|1:0,0:0:0:0:
144,35,136198,1,0,0:0:0:0:
264,85,136327,6,0,L|254:134,3,40,4|0|0|0,1:0|0:0|0:0|0:0,0:0:0:0:
216,133,136583,2,0,L|226:182,3,40,12|0|0|0,1:0|0:0|0:0|0:0,0:0:0:0:
254,197,136839,1,0,0:0:0:0:
259,220,136904,1,0,0:0:0:0:
258,243,136968,1,4,1:0:0:0:
251,265,137032,1,0,0:0:0:0:
239,285,137096,2,0,P|193:281|150:288,1,80,8|0,1:0|0:0,0:0:0:0:
23,323,137352,6,0,P|12:285|15:246,1,80,4|0,1:0|0:0,0:0:0:0:
98,127,137609,1,12,1:0:0:0:
113,144,137673,1,0,0:0:0:0:
122,165,137737,1,0,0:0:0:0:
125,188,137801,1,0,0:0:0:0:
122,211,137865,1,0,0:0:0:0:
236,154,137993,1,4,1:0:0:0:
329,180,138122,2,0,L|383:175,3,40,8|0|0|0,1:0|0:0|0:0|0:0,0:0:0:0:
393,146,138378,6,0,P|388:102|396:50,1,80,4|0,1:0|0:0,0:0:0:0:
500,195,138634,1,12,1:0:0:0:
504,218,138698,1,0,0:0:0:0:
503,242,138763,1,0,0:0:0:0:
499,265,138827,1,0,0:0:0:0:
490,287,138891,1,0,0:0:0:0:
375,269,139019,1,4,1:0:0:0:
283,333,139147,2,0,L|227:325,3,40,8|0|0|0,1:0|0:0|0:0|0:0,0:0:0:0:
207,347,139404,6,0,P|195:297|211:243,1,80,4|0,1:0|0:0,0:0:0:0:
106,217,139660,1,12,1:0:0:0:
91,197,139724,1,0,0:0:0:0:
85,173,139788,1,0,0:0:0:0:
85,149,139852,1,0,0:0:0:0:
92,126,139916,1,0,0:0:0:0:
173,55,140045,1,4,1:0:0:0:
263,116,140173,2,0,L|331:104,3,40,8|0|0|0,1:0|0:0|0:0|0:0,0:0:0:0:
239,148,140429,6,0,P|261:192|262:232,1,80,4|0,1:0|0:0,0:0:0:0:
352,290,140686,2,0,P|408:270|463:282,1,80,12|0,1:0|0:0,0:0:0:0:
468,166,140942,1,0,0:0:0:0:
454,146,141006,1,0,0:0:0:0:
446,123,141070,1,4,1:0:0:0:
443,99,141134,1,0,0:0:0:0:
448,75,141198,2,0,L|485:55,3,40,8|0|0|0,1:0|0:0|1:0|1:0,0:0:0:0:
393,29,141455,1,4,1:0:0:0:
180,276,157865,5,0,0:0:0:0:
251,286,157993,1,0,0:0:0:0:
322,296,158122,2,0,P|342:226|331:163,1,120.000004577637,2|0,3:0|0:0,0:0:0:0:
400,136,158506,1,2,3:0:0:0:
191,47,158763,5,0,0:0:0:0:
191,47,158891,2,0,P|186:94|194:132,1,60.0000022888184
107,139,159147,2,0,P|152:178|162:247,1,120.000004577637,2|0,3:0|0:0,0:0:0:0:
122,296,159532,1,2,3:0:0:0:
356,247,159788,5,0,0:0:0:0:
356,247,159916,2,0,P|399:251|439:254,2,60.0000022888184,0|0|2,0:0|0:0|3:0,0:0:0:0:
233,109,160429,1,0,0:0:0:0:
233,109,160557,2,0,P|271:129|365:132,1,120.000004577637,2|0,3:0|0:0,0:0:0:0:
433,51,160942,6,0,P|424:94|430:134,1,60.0000022888184
490,220,161198,2,0,P|499:177|493:137,1,60.0000022888184,2|0,3:0|0:0,0:0:0:0:
411,189,161455,1,0,0:0:0:0:
412,266,161583,1,2,3:0:0:0:
487,303,161711,1,0,0:0:0:0:
248,293,161968,5,0,0:0:0:0:
248,293,162096,1,0,0:0:0:0:
248,293,162224,2,0,P|212:242|231:160,1,120.000004577637,2|0,3:0|0:0,0:0:0:0:
271,105,162609,2,0,P|307:156|288:238,1,120.000004577637,2|0,3:0|0:0,0:0:0:0:
79,341,162993,5,0,0:0:0:0:
79,341,163121,1,0,0:0:0:0:
79,341,163249,2,0,P|115:290|96:208,1,120.000004577637,2|0,3:0|0:0,0:0:0:0:
56,153,163634,2,0,P|20:204|39:286,1,120.000004577637,2|0,3:0|0:0,0:0:0:0:
156,160,164019,6,0,P|156:116|152:84,2,60.0000022888184,0|0|2,0:0|0:0|3:0,0:0:0:0:
284,124,164532,1,0,3:0:0:0:
284,124,164660,2,0,P|348:127|450:120,1,120.000004577637,2|2,3:0|3:0,0:0:0:0:
477,96,165045,1,0,0:0:0:0:
477,240,165301,1,2,3:0:0:0:
344,202,165557,1,0,0:0:0:0:
244,308,165814,1,0,0:0:0:0:
163,384,166070,6,2,P|131:329|198:251,1,160,6|8,1:1|1:1,0:1:0:0:
371,359,166455,2,0,L|280:376,1,80,2|0,0:0|0:0,0:0:0:0:
99,240,166711,2,0,L|190:257,1,80,2|8,1:2|1:0,0:0:0:0:
278,162,166968,6,0,P|210:177|191:289,1,160,2|0,0:0|0:0,0:0:0:0:
267,353,167352,1,8,1:0:0:0:
359,186,167481,2,0,P|353:130|333:102,1,80,2|0,0:0|0:0,0:0:0:0:
224,71,167737,1,0,1:0:0:0:
243,258,167865,1,8,1:0:0:0:
421,108,167993,6,0,L|320:112,1,80,2|0,0:0|1:0,0:0:0:0:
163,254,168250,2,0,L|264:258,1,80,2|8,0:0|1:0,0:0:0:0:
359,186,168506,1,2,0:0:0:0:
162,120,168634,1,0,0:0:0:0:
350,271,168763,1,2,1:2:0:0:
137,346,168891,1,8,1:0:0:0:
267,133,169019,1,2,0:0:0:0:
57,175,169147,6,0,P|51:237|55:263,1,80,0|2,1:0|0:0,0:0:0:0:
137,346,169404,1,8,1:0:0:0:
267,133,169532,2,0,P|318:116|357:121,1,80,2|0,0:0|0:0,0:0:0:0:
436,193,169788,1,0,1:0:0:0:
243,215,169916,2,2,P|204:190|271:44,1,240,8|0,1:1|0:1,0:1:0:0:
438,106,170429,6,0,P|450:170|445:203,1,80,8|0,1:0|0:0,0:0:0:0:
420,301,170686,1,0,0:0:0:0:
232,121,170814,2,0,P|220:185|225:218,1,80,2|8,1:2|1:0,0:0:0:0:
278,304,171070,1,0,0:0:0:0:
309,88,171199,6,0,P|275:53|156:83,1,160,2|8,1:2|1:0,0:0:0:0:
278,304,171583,2,0,B|372:301,1,80,2|0,0:0|0:0,0:0:0:0:
442,218,171840,1,0,1:0:0:0:
224,233,171968,2,0,P|194:267|188:307,1,80,8|2,1:0|0:0,0:0:0:0:
266,377,172224,5,2,1:2:0:0:
327,193,172352,1,2,0:2:0:0:
149,379,172481,1,8,1:0:0:0:
154,149,172609,1,2,0:0:0:0:
278,304,172737,1,2,0:0:0:0:
93,224,172865,1,2,1:2:0:0:
93,224,172929,1,0,0:0:0:0:
93,224,172993,2,0,P|58:176|59:141,1,80,8|2,1:0|0:0,0:0:0:0:
111,49,173250,5,0,1:0:0:0:
189,230,173378,1,2,0:0:0:0:
0,248,173506,1,8,1:0:0:0:
226,80,173634,2,0,P|251:119|248:176,1,80,2|0,1:2|0:0,0:0:0:0:
154,149,173891,1,0,1:0:0:0:
346,57,174019,2,2,P|406:98|403:202,1,160,8|0,1:0|1:0,0:1:0:0:
251,340,174404,6,0,P|239:278|244:243,1,80,2|8,0:0|1:0,0:0:0:0:
308,151,174660,1,0,0:0:0:0:
435,306,174788,2,0,P|373:318|338:313,1,80,2|0,0:0|1:0,0:0:0:0:
240,261,175045,1,8,1:0:0:0:
346,57,175173,6,0,P|406:98|403:202,1,160,2|2,0:0|0:0,0:0:0:0:
368,258,175557,1,8,1:0:0:0:
263,79,175686,1,2,0:0:0:0:
207,293,175814,1,0,0:0:0:0:
308,151,175942,1,2,1:2:0:0:
388,288,176070,2,0,P|398:338|393:383,1,80,8|2,1:0|0:0,0:0:0:0:
284,237,176327,5,2,1:2:0:0:
199,375,176455,2,0,P|145:352|132:247,1,160,2|2,0:0|0:2,0:0:0:0:
173,149,176840,1,2,0:2:0:0:
279,329,176968,1,2,1:2:0:0:
279,329,177224,5,2,0:0:0:0:
332,180,177352,1,2,1:2:0:0:
207,293,177481,1,0,0:0:0:0:
399,253,177609,1,8,1:0:0:0:
336,103,177737,2,0,P|274:128|254:162,1,80,2|0,0:0|0:0,0:0:0:0:
362,214,177993,1,0,1:0:0:0:
336,103,178122,2,2,B|244:108|291:173|165:172,1,160,8|0,1:0|1:0,0:1:0:0:
14,20,178634,6,0,P|32:63|33:110,1,80,8|2,1:0|0:0,0:0:0:0:
9,213,178891,1,2,0:0:0:0:
131,89,179019,2,0,P|179:77|216:81,2,80,0|8|2,1:0|1:0|0:0,0:0:0:0:
131,89,179532,6,0,L|120:168,1,80,2|8,0:0|1:0,0:0:0:0:
93,285,179788,1,2,0:0:0:0:
283,199,179916,2,0,L|204:188,1,80,2|0,0:0|1:0,0:0:0:0:
218,312,180173,1,8,1:0:0:0:
218,312,180429,6,0,L|297:323,1,80,2|0,1:2|0:0,0:0:0:0:
319,131,180686,2,0,P|286:176|285:223,1,80,8|2,1:0|0:0,0:0:0:0:
433,302,180942,1,0,0:0:0:0:
441,284,181006,1,0,0:0:0:0:
445,264,181070,1,2,1:2:0:0:
443,244,181134,1,0,0:0:0:0:
435,226,181199,1,8,1:0:0:0:
426,208,181263,1,2,0:0:0:0:
422,188,181327,1,2,0:0:0:0:
424,168,181391,1,0,0:0:0:0:
432,149,181455,6,0,L|471:135,3,40,2|0|0|2,1:2|0:0|0:0|0:0,0:0:0:0:
467,101,181711,2,0,L|430:115,3,40,8|2|2|0,1:0|0:0|0:0|0:0,0:0:0:0:
394,94,181968,1,2,0:0:0:0:
376,86,182032,1,0,0:0:0:0:
356,82,182096,1,0,1:2:0:0:
336,84,182160,1,0,0:0:0:0:
318,91,182224,1,8,1:0:0:0:
298,98,182288,1,2,0:0:0:0:
279,101,182352,1,2,0:0:0:0:
259,100,182416,1,0,0:0:0:0:
240,91,182481,6,0,L|227:148,3,40,0|0|0|0,1:0|0:0|0:0|0:0,0:0:0:0:
247,166,182737,2,0,L|234:223,3,40,8|0|0|0,1:0|0:0|0:0|0:0,0:0:0:0:
258,239,182993,1,0,0:0:0:0:
240,230,183057,1,0,0:0:0:0:
220,226,183122,1,0,1:0:0:0:
200,228,183186,1,0,0:0:0:0:
181,234,183250,1,8,1:0:0:0:
163,243,183314,1,0,0:0:0:0:
144,246,183378,1,0,0:0:0:0:
124,245,183442,1,0,0:0:0:0:
105,238,183506,5,0,1:0:0:0:
240,91,183634,1,0,0:0:0:0:
226,303,183763,2,0,L|220:382,1,80,8|0,1:0|0:0,0:0:0:0:
141,168,184019,1,0,0:0:0:0:
140,148,184083,1,0,0:0:0:0:
140,128,184147,1,0,1:0:0:0:
140,108,184211,1,0,0:0:0:0:
139,88,184275,1,8,1:0:0:0:
139,68,184340,1,0,0:0:0:0:
139,48,184404,1,0,0:0:0:0:
138,28,184468,1,0,0:0:0:0:
137,6,184532,6,0,L|187:-2,3,40,0|0|0|0,1:0|0:0|0:0|0:0,0:0:0:0:
210,20,184788,2,0,L|260:28,3,40,8|0|0|0,1:0|0:0|0:0|0:0,0:0:0:0:
287,11,185045,1,0,0:0:0:0:
274,26,185109,1,0,0:0:0:0:
266,44,185173,1,0,1:0:0:0:
265,64,185237,1,0,0:0:0:0:
269,84,185301,1,8,1:0:0:0:
274,103,185365,1,0,0:0:0:0:
282,121,185429,1,0,0:0:0:0:
283,141,185493,1,0,0:0:0:0:
279,161,185557,5,0,1:0:0:0:
137,6,185686,1,0,0:0:0:0:
56,173,185814,2,0,P|46:223|46:263,1,80,8|0,1:0|0:0,0:0:0:0:
161,330,186070,1,0,0:0:0:0:
178,338,186134,1,0,0:0:0:0:
198,342,186199,1,0,1:0:0:0:
218,341,186263,1,0,0:0:0:0:
237,335,186327,1,8,1:0:0:0:
254,326,186391,1,0,0:0:0:0:
274,322,186455,1,0,0:0:0:0:
294,323,186519,1,0,0:0:0:0:
316,331,186583,6,0,L|360:348,3,40,0|0|0|0,1:0|0:0|0:0|0:0,0:0:0:0:
392,333,186840,2,0,L|436:350,3,40,8|0|0|0,1:0|0:0|0:0|0:0,0:0:0:0:
467,334,187096,1,0,0:0:0:0:
475,315,187160,1,0,0:0:0:0:
478,296,187224,1,0,1:0:0:0:
477,276,187288,1,0,0:0:0:0:
470,257,187352,1,8,1:0:0:0:
461,238,187416,1,0,0:0:0:0:
458,219,187481,1,0,0:0:0:0:
459,199,187545,1,0,0:0:0:0:
466,180,187609,5,0,1:0:0:0:
316,331,187737,1,0,0:0:0:0:
208,163,187865,2,0,L|112:179,1,80,8|0,1:0|0:0,0:0:0:0:
268,226,188122,1,0,0:0:0:0:
280,210,188186,1,0,0:0:0:0:
289,192,188250,1,0,1:0:0:0:
294,173,188314,1,0,0:0:0:0:
294,153,188378,1,8,1:0:0:0:
289,134,188442,1,0,0:0:0:0:
279,116,188506,1,0,0:0:0:0:
266,101,188570,1,0,0:0:0:0:
249,86,188634,6,0,L|199:88,3,40,0|0|0|0,1:0|0:0|0:0|0:0,0:0:0:0:
179,59,188891,2,0,L|129:61,3,40,8|0|0|0,1:0|0:0|0:0|0:0,0:0:0:0:
108,34,189147,1,0,0:0:0:0:
88,34,189211,1,0,0:0:0:0:
68,39,189275,1,0,1:0:0:0:
51,49,189340,1,0,0:0:0:0:
37,64,189404,1,8,1:0:0:0:
28,81,189468,1,0,0:0:0:0:
23,101,189532,1,0,0:0:0:0:
24,121,189596,1,0,0:0:0:0:
30,140,189660,5,0,1:0:0:0:
249,86,189788,1,0,0:0:0:0:
152,266,189916,2,0,L|164:159,1,80,8|0,1:0|0:0,0:0:0:0:
227,304,190173,1,0,0:0:0:0:
216,318,190237,1,0,0:0:0:0:
201,332,190301,1,0,1:0:0:0:
183,342,190365,1,0,0:0:0:0:
164,347,190429,1,8,1:0:0:0:
145,349,190493,1,0,0:0:0:0:
125,345,190557,1,0,0:0:0:0:
108,337,190622,1,0,0:0:0:0:
91,324,190686,5,4,3:2:0:0:
25,271,190814,1,0,0:2:0:0:
5,190,190942,2,0,L|17:115,1,64,2|0,0:0|0:0,0:0:0:0:
119,34,191199,1,0,0:0:0:0:
185,87,191327,1,0,0:0:0:0:
205,168,191455,2,0,L|193:243,1,64,0|2,0:0|0:0,0:0:0:0:
236,348,191711,6,0,P|276:360|309:352,1,64,2|0,0:0|0:0,0:0:0:0:
317,224,191968,2,0,P|286:252|277:285,1,64
372,364,192224,2,0,P|412:376|445:368,1,64
452,239,192481,2,0,P|421:267|412:300,1,64,0|2,0:0|0:0,0:0:0:0:
510,381,192737,6,0,L|502:311,1,64,2|0,0:0|0:0,0:0:0:0:
461,176,192993,2,0,L|453:239,1,64,0|2,0:0|0:0,0:0:0:0:
433,372,193250,1,2,0:0:0:0:
361,226,193378,1,0,0:0:0:0:
344,367,193506,1,0,0:0:0:0:
452,239,193634,1,2,0:0:0:0:
270,189,193763,6,0,P|260:244|262:270,1,64,2|0,0:0|0:0,0:0:0:0:
344,367,194019,2,0,P|342:335|334:304,1,64,0|2,0:0|0:0,0:0:0:0:
243,184,194275,2,0,P|233:239|235:265,1,64,2|0,0:0|0:0,0:0:0:0:
368,367,194532,2,0,P|366:335|358:304,1,64,2|0,0:0|0:0,0:0:0:0:
243,184,194788,6,0,P|199:171|166:182,3,64,6|0|2|0,0:0|0:0|0:0|0:0,0:0:0:0:
163,299,195301,2,0,P|196:267|203:233,1,64,0|2,0:0|0:0,0:0:0:0:
103,172,195557,2,0,P|113:216|139:239,1,64,0|2,0:0|0:0,0:0:0:0:
260,156,195814,6,0,P|193:136|176:141,3,64,2|0|2|0,0:0|0:0|0:0|0:0,0:0:0:0:
180,320,196327,2,0,P|229:272|236:251,1,64,0|2,0:0|0:0,0:0:0:0:
70,180,196583,2,0,P|86:246|100:263,1,64,0|2,0:0|0:0,0:0:0:0:
266,128,196840,6,0,P|272:79|259:51,1,64,2|0,0:0|0:0,0:0:0:0:
127,99,197096,2,0,P|175:105|204:92,1,64,0|2,0:0|0:0,0:0:0:0:
333,32,197352,2,0,P|363:24|395:31,1,64,2|0,0:0|0:0,0:0:0:0:
363,166,197609,2,0,P|357:117|370:89,1,64,0|2,0:0|0:0,0:0:0:0:
485,11,197865,6,0,P|491:42|483:72,1,64,2|0,0:0|0:0,0:0:0:0:
332,178,198122,2,0,P|326:129|339:101,1,64,2|0,0:0|0:0,0:0:0:0:
450,219,198378,1,2,0:0:0:0:
483,72,198506,1,0,0:0:0:0:
332,178,198634,1,2,0:0:0:0:
394,30,198763,1,0,0:0:0:0:
462,243,198891,6,0,P|472:290|465:339,1,80,4|0,1:2|0:0,0:0:0:0:
247,260,199147,2,0,P|245:220|254:181,1,80,8|0,1:0|0:0,0:0:0:0:
418,103,199404,1,0,0:0:0:0:
328,299,199532,1,0,1:0:0:0:
315,20,199660,2,0,P|324:58|322:98,1,80,8|0,1:0|0:0,0:0:0:0:
247,260,199916,6,0,L|135:277,1,80,0|0,1:0|0:0,0:0:0:0:
17,109,200173,2,0,L|129:126,1,80,8|0,1:0|0:0,0:0:0:0:
227,26,200429,1,0,0:0:0:0:
397,177,200557,1,0,1:0:0:0:
397,177,200622,1,0,0:0:0:0:
397,177,200686,2,0,L|393:276,1,80,8|0,1:0|0:0,0:0:0:0:
150,185,200942,6,0,P|179:158|218:148,1,80,0|0,1:0|0:0,0:0:0:0:
385,378,201199,2,0,P|321:375|289:356,1,80,8|0,1:0|0:0,0:0:0:0:
211,296,201455,1,0,0:0:0:0:
397,177,201583,2,0,L|394:272,1,80,0|8,1:0|1:0,0:0:0:0:
385,378,201840,1,0,0:0:0:0:
235,178,201968,6,0,P|180:201|163:224,1,80,0|0,1:0|0:0,0:0:0:0:
385,378,202224,2,0,L|393:278,1,80,8|0,1:0|0:0,0:0:0:0:
102,170,202481,1,0,0:0:0:0:
93,188,202545,1,0,0:0:0:0:
89,207,202609,1,0,1:0:0:0:
89,227,202673,1,0,0:0:0:0:
96,248,202737,2,0,P|124:291|164:303,1,80,8|0,1:0|0:0,0:0:0:0:
255,162,202993,6,0,L|246:48,1,80,4|0,1:0|0:0,0:0:0:0:
18,240,203250,2,0,P|65:253|97:247,1,80,8|0,1:0|0:0,0:0:0:0:
255,162,203506,1,0,0:0:0:0:
52,97,203634,1,0,1:0:0:0:
226,334,203763,2,0,L|213:236,1,80,8|0,1:0|0:0,0:0:0:0:
178,3,204019,6,0,L|166:88,1,80,4|0,1:0|0:0,0:0:0:0:
372,242,204275,2,0,L|358:163,1,80,8|0,1:0|0:0,0:0:0:0:
335,19,204532,1,0,0:0:0:0:
158,196,204660,1,0,1:0:0:0:
158,196,204724,1,0,0:0:0:0:
158,196,204788,2,0,L|250:203,1,80,8|0,1:0|0:0,0:0:0:0:
178,3,205045,6,0,P|145:48|144:94,1,80,4|0,1:0|0:0,0:0:0:0:
227,281,205301,2,0,L|237:201,1,80,8|0,1:0|0:0,0:0:0:0:
254,89,205557,1,0,0:0:0:0:
446,182,205686,2,0,L|346:195,1,80,0|8,1:0|1:0,0:0:0:0:
237,201,205942,1,0,0:0:0:0:
335,19,206070,6,0,P|350:67|348:119,1,80,0|0,1:0|0:0,0:0:0:0:
151,230,206327,2,0,P|153:190|167:152,1,80,12|0,1:0|0:0,0:0:0:0:
351,96,206583,1,4,1:0:0:0:
366,108,206647,1,0,0:0:0:0:
379,124,206711,1,0,1:0:0:0:
389,141,206775,1,0,0:0:0:0:
396,159,206840,1,12,1:0:0:0:
400,179,206904,1,0,0:0:0:0:
401,199,206968,1,0,0:0:0:0:
399,219,207032,1,0,0:0:0:0:
393,238,207096,6,0,P|380:268|380:289,3,40,4|0|0|0,1:2|0:0|0:0|0:0,0:0:0:0:
381,314,207352,2,0,P|376:333|367:350,3,40,8|0|0|0,1:0|0:0|0:0|0:0,0:0:0:0:
329,367,207609,1,0,1:0:0:0:
309,363,207673,1,0,0:0:0:0:
290,360,207737,1,0,1:0:0:0:
270,356,207801,1,0,0:0:0:0:
250,353,207865,1,8,1:0:0:0:
230,350,207929,1,0,0:0:0:0:
211,346,207993,1,0,0:0:0:0:
191,343,208057,1,0,0:0:0:0:
170,340,208122,6,0,L|170:282,3,40,0|0|0|0,1:0|0:0|0:0|0:0,0:0:0:0:
139,274,208378,2,0,L|144:217,3,40,8|0|0|0,1:0|0:0|0:0|0:0,0:0:0:0:
148,194,208634,1,0,1:0:0:0:
131,204,208699,1,0,0:0:0:0:
111,207,208763,1,0,1:0:0:0:
93,200,208827,1,0,0:0:0:0:
79,186,208891,1,8,1:0:0:0:
73,167,208955,1,0,0:0:0:0:
76,148,209019,1,0,0:0:0:0:
88,132,209083,1,0,0:0:0:0:
100,116,209147,6,0,L|149:109,3,40,4|0|0|0,1:0|0:0|0:0|0:0,0:0:0:0:
179,120,209404,2,0,L|228:127,3,40,8|0|0|0,1:0|0:0|0:0|0:0,0:0:0:0:
252,103,209660,1,0,1:0:0:0:
254,122,209724,1,0,0:0:0:0:
256,142,209788,1,0,1:0:0:0:
258,162,209852,1,0,0:0:0:0:
260,182,209916,1,8,1:0:0:0:
262,202,209981,1,0,0:0:0:0:
264,222,210045,1,0,0:0:0:0:
266,242,210109,1,0,0:0:0:0:
269,262,210173,6,0,L|276:314,3,40,0|0|0|0,1:0|0:0|1:0|0:0,0:0:0:0:
313,310,210429,2,0,L|320:362,3,40,8|0|0|0,1:0|0:0|0:0|0:0,0:0:0:0:
295,381,210686,1,0,1:0:0:0:
310,368,210750,1,0,0:0:0:0:
328,358,210814,1,0,1:0:0:0:
346,351,210878,1,0,0:0:0:0:
366,347,210942,1,8,1:0:0:0:
386,345,211006,1,0,0:0:0:0:
406,346,211070,1,0,1:0:0:0:
425,350,211134,1,0,0:0:0:0:
446,357,211199,5,4,1:2:0:0:
456,339,211263,1,0,0:0:0:0:
462,320,211327,1,0,1:0:0:0:
465,301,211391,1,0,0:0:0:0:
465,279,211455,2,0,L|456:230,3,40,8|0|0|0,1:0|0:0|0:0|0:0,0:0:0:0:
418,178,211711,5,4,1:2:0:0:
404,192,211775,1,0,0:0:0:0:
387,202,211840,1,0,1:0:0:0:
368,208,211904,1,0,0:0:0:0:
345,211,211968,2,0,L|302:202,3,40,8|0|0|0,1:0|0:0|0:0|0:0,0:0:0:0:
263,144,212224,5,4,1:2:0:0:
243,139,212288,1,0,0:0:0:0:
223,139,212352,1,0,1:0:0:0:
203,142,212416,1,0,0:0:0:0:
185,151,212481,2,0,L|181:207,3,40,8|0|0|0,1:0|0:0|0:0|0:0,0:0:0:0:
230,251,212737,5,4,1:2:0:0:
228,270,212801,1,0,0:0:0:0:
226,290,212865,1,0,1:0:0:0:
225,310,212929,1,0,0:0:0:0:
225,330,212993,2,0,L|172:343,3,40,8|0|0|0,1:0|0:0|0:0|0:0,0:0:0:0:
107,353,213250,5,4,1:2:0:0:
107,353,213314,1,0,0:0:0:0:
107,353,213378,2,0,L|101:297,1,40,0|0,1:0|0:0,0:0:0:0:
40,257,213506,1,8,1:0:0:0:
40,257,213570,1,0,0:0:0:0:
40,257,213634,2,0,L|36:218,1,40,0|0,1:0|0:0,0:0:0:0:
111,157,213763,5,4,1:2:0:0:
111,157,213827,1,0,0:0:0:0:
111,157,213891,2,0,L|105:101,1,40,0|0,1:0|0:0,0:0:0:0:
42,57,214019,1,12,1:0:0:0:
42,57,214083,1,0,0:0:0:0:
42,57,214147,2,0,L|38:18,1,40,0|0,1:0|1:0,0:0:0:0:
206,55,214275,5,4,1:2:0:0:
