osu file format v14

[General]
AudioFilename: audio.mp3
AudioLeadIn: 0
PreviewTime: 75005
Countdown: 0
SampleSet: Soft
StackLeniency: 0.2
Mode: 0
LetterboxInBreaks: 0
WidescreenStoryboard: 1

[Editor]
DistanceSpacing: 1
BeatDivisor: 2
GridSize: 16
TimelineZoom: 1

[Metadata]
Title:Kagachi
TitleUnicode:蛇神
Artist:Zektbach
ArtistUnicode:Zektbach
Creator:09kami
Version:lililing's Easy
Source:pop'n music 18 せんごく列伝
Tags:Beatmania IIDX ORIENTAL MYTHOLOGY オリエンタルミソロジー BeatStream REFLEC BEAT plus ポップンリズミン PandaHero TT Mouse Yusomi lililing SDpeople kanor Muziyami TtmnZk
BeatmapID:1905344
BeatmapSetID:894104

[Difficulty]
HPDrainRate:2
CircleSize:3
OverallDifficulty:2
ApproachRate:3
SliderMultiplier:0.899999999999999
SliderTickRate:1

[Events]
//Background and Video events
0,0,"20140708131851_tZwGz.jpg",0,0
//Break Periods
2,75388,79395
//Storyboard Layer 0 (Background)
//Storyboard Layer 1 (Fail)
//Storyboard Layer 2 (Pass)
//Storyboard Layer 3 (Foreground)
//Storyboard Layer 4 (Overlay)
//Storyboard Sound Samples

[TimingPoints]
6012,352.941176470588,4,2,1,75,1,0
30011,-100,4,2,1,65,0,0
41306,-100,4,2,1,75,0,0
109070,-100,4,2,1,65,0,0

[Colours]
Combo1 : 0,170,170
Combo2 : 149,149,149
Combo3 : 0,232,116
Combo4 : 85,0,170

[HitObjects]
312,171,6011,6,0,P|355:156|399:164,1,89.9999999999999,4|4,0:0|0:0,0:0:0:0:
451,234,6717,2,0,P|442:278|413:312,1,89.9999999999999,4|0,0:0|0:0,0:0:0:0:
325,325,7423,2,0,P|290:295|275:253,1,89.9999999999999,2|2,0:1|0:1,0:0:0:0:
218,184,8129,1,2,0:0:0:0:
129,198,8482,1,0,1:0:0:0:
72,128,8835,6,0,L|139:60,1,89.9999999999999,4|0,0:0|0:0,0:0:0:0:
203,4,9541,2,0,L|228:96,1,89.9999999999999,4|0,0:0|0:0,0:0:0:0:
247,178,10247,2,0,L|154:153,1,89.9999999999999,2|2,0:1|0:1,0:0:0:0:
87,208,10953,1,2,0:0:0:0:
14,261,11306,1,0,1:2:0:0:
62,337,11659,6,0,P|98:366|144:374,1,89.9999999999999,4|0,0:0|0:0,0:0:0:0:
219,331,12364,2,0,P|264:338|308:322,1,89.9999999999999,4|0,0:0|0:0,0:0:0:0:
330,237,13070,2,0,P|373:220|403:184,1,89.9999999999999,2|2,0:1|0:1,0:0:0:0:
416,98,13777,1,6,0:0:0:0:
352,34,14130,1,10,1:1:0:0:
263,14,14482,6,0,P|217:30|163:29,1,89.9999999999999,4|0,0:0|0:0,0:0:0:0:
86,20,15188,2,0,L|93:125,1,89.9999999999999,4|0,0:0|0:0,0:0:0:0:
145,182,15894,2,0,L|152:287,1,89.9999999999999,2|2,0:1|0:1,0:0:0:0:
190,352,16600,1,8,0:0:0:0:
271,313,16953,1,4,1:2:0:0:
353,349,17306,6,0,P|419:354|473:302,2,135,12|0|0,1:1|0:0|0:0,0:0:0:0:
391,267,18717,2,0,B|395:135|444:150|495:167|499:35,1,270,12|0,1:1|0:0,0:0:0:0:
410,54,20129,2,0,B|250:52,2,135,12|0|0,1:1|0:0|0:0,0:0:0:0:
409,144,21541,2,0,B|309:144|309:144|251:189|251:189|144:189,1,270,12|0,1:1|0:0,0:0:0:0:
92,124,22953,6,0,P|63:190|88:250,1,135,12|0,1:0|0:0,0:0:0:0:
164,353,24011,1,0,0:0:0:0:
235,298,24364,6,0,P|302:307|338:363,1,135,12|0,1:0|0:0,0:0:0:0:
378,231,25422,1,0,0:0:0:0:
468,225,25776,6,0,P|473:156|428:106,1,135,12|0,1:0|0:0,0:0:0:0:
306,57,26834,1,0,0:0:0:0:
231,108,27188,6,0,P|170:74|106:93,1,135,12|0,1:0|0:0,0:0:0:0:
189,199,28246,1,0,0:0:0:0:
384,16,30011,6,0,B|345:35|346:77|346:77|360:205,1,180,4|0,0:0|1:0,0:0:0:0:
417,247,31070,1,0,0:0:0:0:
481,310,31423,2,0,P|392:343|312:324,1,180,4|0,0:0|1:0,0:0:0:0:
232,280,32482,1,0,0:0:0:0:
153,323,32835,5,4,0:0:0:0:
155,235,33187,1,4,0:0:0:0:
82,181,33541,2,0,L|72:84,1,89.9999999999999,2|0,0:1|0:0,0:0:0:0:
15,21,34247,2,0,B|52:68|119:84|183:57,1,180,2|2,0:1|0:1,0:0:0:0:
267,45,35306,1,0,0:0:0:0:
354,18,35659,6,0,B|360:114|360:114|420:156|420:156|424:263,1,270,4|0,0:0|0:0,0:0:0:0:
466,335,37070,2,0,P|377:368|297:349,1,180,4|0,0:0|1:0,0:0:0:0:
232,285,38129,1,0,0:0:0:0:
165,346,38482,5,4,0:0:0:0:
97,286,38835,1,4,0:0:0:0:
25,341,39188,2,0,P|9:298|15:251,1,89.9999999999999,2|0,0:1|0:0,0:0:0:0:
70,184,39894,2,0,P|74:139|58:97,1,89.9999999999999,2|0,0:1|0:0,0:0:0:0:
14,19,40600,2,0,P|58:4|109:22,1,89.9999999999999,2|0,0:1|0:0,0:0:0:0:
156,84,41306,6,0,B|247:94|247:94|320:49|320:49|412:59,1,270,12|0,0:1|0:0,0:0:0:0:
501,71,42717,2,0,B|503:105|505:138|476:155|442:174|442:212|442:248,1,180,12|0,0:1|0:0,0:0:0:0:
433,325,43776,1,0,0:0:0:0:
360,272,44129,2,0,P|241:221|112:277,1,270,12|0,0:1|0:0,0:0:0:0:
67,346,45541,2,0,L|73:155,1,180,12|0,0:1|0:0,0:0:0:0:
79,76,46600,1,0,0:0:0:0:
156,122,46953,6,0,B|214:180|273:122|273:122|332:63|391:122,1,270,12|0,0:1|0:0,0:0:0:0:
457,188,48364,2,0,B|448:307|448:307|445:354|397:370,1,180,12|0,0:1|0:0,0:0:0:0:
330,357,49423,1,0,0:0:0:0:
335,267,49776,6,0,B|276:208|217:267|217:267|158:325|99:267,1,270,12|0,0:1|0:0,0:0:0:0:
71,180,51188,2,0,L|89:62,1,89.9999999999999,12|0,0:1|0:0,0:0:0:0:
141,20,51894,1,0,0:0:0:0:
172,103,52246,1,0,0:0:0:0:
230,33,52600,6,0,B|268:56|265:120|265:120|260:223,1,180,12|12,0:0|0:0,0:0:0:0:
255,291,53659,1,2,0:1:0:0:
335,250,54011,2,0,P|424:234|509:265,2,180,2|12|6,0:0|0:0|0:0,0:0:0:0:
255,291,55776,1,2,0:1:0:0:
257,201,56129,2,0,L|263:16,2,180,6|12|6,0:0|0:0|0:0,0:0:0:0:
255,291,57894,1,4,0:0:0:0:
191,354,58247,6,0,P|102:370|17:339,1,180,12|12,0:0|0:0,0:0:0:0:
7,251,59306,1,2,0:1:0:0:
79,196,59659,2,0,B|80:110|80:110|82:33|11:3,2,180,2|12|6,0:0|0:0|0:0,0:0:0:0:
130,270,61423,1,2,0:1:0:0:
182,196,61776,2,0,B|181:110|181:110|179:33|250:3,2,180,12|12|12,0:0|0:0|0:0,0:0:0:0:
228,273,63541,1,6,0:0:0:0:
275,196,63894,6,0,L|275:89,2,89.9999999999999,12|8|8,0:0|0:0|0:0,0:0:0:0:
318,274,64953,1,2,0:0:0:0:
375,343,65306,2,0,P|416:356|458:343,1,89.9999999999999,12|8,0:0|0:0,0:0:0:0:
418,262,66011,1,8,0:0:0:0:
459,182,66364,1,2,0:0:0:0:
413,104,66717,6,0,L|413:8,2,89.9999999999999,12|8|8,0:0|0:0|0:0,0:0:0:0:
345,164,67776,1,2,0:0:0:0:
277,104,68129,2,0,P|238:84|200:104,1,89.9999999999999,12|8,0:0|0:0,0:0:0:0:
169,189,68834,1,8,0:0:0:0:
82,165,69187,1,2,0:0:0:0:
52,250,69541,6,0,P|17:282|5:325,2,89.9999999999999,12|8|8,0:0|0:0|0:0,0:0:0:0:
142,251,70600,1,2,0:0:0:0:
199,318,70953,2,0,P|242:326|284:312,1,89.9999999999999,12|8,0:0|0:0,0:0:0:0:
237,236,71658,1,8,0:0:0:0:
187,162,72011,1,2,0:0:0:0:
217,77,72364,6,0,L|314:62,2,89.9999999999999,12|8|8,0:0|0:0|0:0,0:0:0:0:
187,162,73423,1,2,0:0:0:0:
237,236,73776,2,0,L|334:221,1,89.9999999999999,12|12,0:0|0:0,0:0:0:0:
384,154,74481,1,12,0:0:0:0:
468,184,74834,1,2,0:0:0:0:
504,101,75188,5,12,0:0:0:0:
256,192,80835,12,12,83659,0:1:0:0:
110,57,85070,5,0,0:0:0:0:
134,144,85423,1,0,0:0:0:0:
198,79,85776,1,0,0:0:0:0:
361,152,86482,6,0,P|319:222|390:263,1,180,12|12,0:0|0:0,0:0:0:0:
464,313,87541,1,2,0:1:0:0:
384,353,87894,2,0,B|320:353|256:313|256:313|192:353|128:353,1,270,12|2,0:0|0:1,0:0:0:0:
122,263,89306,2,0,P|191:222|151:152,1,180,12|10,0:0|0:1,0:0:0:0:
74,104,90365,1,12,0:0:0:0:
152,60,90718,2,0,B|304:140|272:-20|416:60,1,270,10|10,0:0|0:1,0:0:0:0:
473,110,92129,6,0,P|491:65|484:20,2,89.9999999999999,12|12|12,0:0|0:0|0:0,0:0:0:0:
400,164,93188,1,10,0:1:0:0:
473,220,93541,2,0,P|491:265|484:310,2,89.9999999999999,12|12|12,0:0|0:0|0:0,0:0:0:0:
400,164,94600,1,10,0:1:0:0:
389,253,94953,6,0,P|328:313|243:294,1,180,12|12,0:0|0:0,0:0:0:0:
303,227,96011,1,10,0:1:0:0:
350,150,96364,2,0,B|276:113|223:184|223:184|167:257|82:224,1,270,12|8,0:0|0:0,0:0:0:0:
37,187,97776,6,0,P|34:76|111:149,1,270,12|12,0:0|0:1,0:0:0:0:
115,233,99188,2,0,B|115:281|115:281|115:329|147:361,1,135,12|12,0:0|0:0,0:0:0:0:
246,269,100247,1,12,0:1:0:0:
306,335,100600,2,0,P|362:361|426:336,1,135,12|12,0:0|0:0,0:0:0:0:
502,223,101659,1,12,0:1:0:0:
474,137,102011,2,0,P|423:172|413:240,1,135,12|12,0:0|0:0,0:0:0:0:
312,151,103070,1,12,0:1:0:0:
288,64,103423,6,0,B|222:31|157:64|157:64|92:96|26:64,1,270,12|12,0:0|0:1,0:0:0:0:
10,153,104835,6,0,P|74:176|88:235,1,135,12|12,0:0|0:0,0:0:0:0:
88,370,105894,1,12,0:1:0:0:
177,360,106247,6,0,P|240:352|310:363,1,135,12|12,0:0|0:0,0:0:0:0:
273,233,107305,1,12,0:1:0:0:
231,152,107659,6,0,P|230:86|280:44,1,135,12|12,0:0|0:0,0:0:0:0:
387,124,108717,1,12,0:0:0:0:
357,209,109070,6,0,L|463:221,2,89.9999999999999,12|2|2,0:0|0:0|0:1,0:0:0:0:
187,154,110482,2,0,P|106:168|123:98,1,180,4|10,0:0|0:1,0:0:0:0:
203,65,111541,1,0,0:0:0:0:
271,123,111894,6,0,L|377:111,2,89.9999999999999,12|2|2,0:0|0:0|0:1,0:0:0:0:
303,300,113306,2,0,P|289:224|224:265,1,180,4|10,0:0|0:1,0:0:0:0:
231,355,114364,1,0,0:0:0:0:
147,321,114717,6,0,P|103:314|58:322,1,89.9999999999999,12|2,0:0|0:0,0:0:0:0:
16,243,115423,2,0,P|43:208|58:165,1,89.9999999999999,2|0,1:0|0:0,0:0:0:0:
148,162,116129,2,0,P|164:202|193:237,2,89.9999999999999,4|4|2,0:0|0:0|0:1,0:0:0:0:
101,84,117188,1,0,0:0:0:0:
178,37,117541,6,0,P|222:29|267:42,1,89.9999999999999,12|2,0:0|0:0,0:0:0:0:
303,122,118247,2,0,P|338:92|382:81,1,89.9999999999999,2|0,0:1|0:0,0:0:0:0:
466,107,118953,2,0,P|465:62|485:20,2,89.9999999999999,4|4|10,0:0|0:0|0:1,0:0:0:0:
491,193,120011,1,0,0:0:0:0:
