osu file format v14

[General]
AudioFilename: audio.mp3
AudioLeadIn: 0
PreviewTime: 75005
Countdown: 0
SampleSet: Soft
StackLeniency: 0.2
Mode: 0
LetterboxInBreaks: 0
WidescreenStoryboard: 1

[Editor]
Bookmarks: 63888,80829,86476
DistanceSpacing: 1.7
BeatDivisor: 3
GridSize: 4
TimelineZoom: 2.4

[Metadata]
Title:Kagachi
TitleUnicode:蛇神
Artist:Zektbach
ArtistUnicode:Zektbach
Creator:09kami
Version:kanor's Insane
Source:pop'n music 18 せんごく列伝
Tags:Beatmania IIDX ORIENTAL MYTHOLOGY オリエンタルミソロジー BeatStream REFLEC BEAT plus ポップンリズミン PandaHero TT Mouse Yusomi lililing SDpeople kanor Muziyami TtmnZk
BeatmapID:2298100
BeatmapSetID:894104

[Difficulty]
HPDrainRate:6
CircleSize:4.5
OverallDifficulty:8
ApproachRate:9
SliderMultiplier:1.6
SliderTickRate:1

[Events]
//Background and Video events
0,0,"20140708131851_tZwGz.jpg",0,0
//Break Periods
2,75388,80235
//Storyboard Layer 0 (Background)
//Storyboard Layer 1 (Fail)
//Storyboard Layer 2 (Pass)
//Storyboard Layer 3 (Foreground)
//Storyboard Layer 4 (Overlay)
//Storyboard Sound Samples

[TimingPoints]
6012,352.941176470588,4,2,1,75,1,0
30011,-133.333333333333,4,2,1,75,0,0
30364,-133.333333333333,4,2,1,50,0,0
31423,-133.333333333333,4,2,1,75,0,0
31776,-133.333333333333,4,2,1,50,0,0
32482,-133.333333333333,4,2,1,75,0,0
33306,-133.333333333333,4,2,1,50,0,0
33541,-133.333333333333,4,2,1,75,0,0
33894,-133.333333333333,4,2,1,50,0,0
34247,-133.333333333333,4,2,1,75,0,0
34600,-133.333333333333,4,2,1,50,0,0
34953,-133.333333333333,4,2,1,75,0,0
35070,-133.333333333333,4,2,1,50,0,0
35659,-133.333333333333,4,2,1,75,0,0
36011,-133.333333333333,4,2,1,50,0,0
36364,-133.333333333333,4,2,1,60,0,0
36717,-133.333333333333,4,2,1,75,0,0
37423,-133.333333333333,4,2,1,50,0,0
37776,-133.333333333333,4,2,1,60,0,0
38129,-133.333333333333,4,2,1,75,0,0
41306,-100,4,2,1,75,0,0
83482,-133.333333333333,4,2,1,75,0,0
86482,-100,4,2,1,75,0,0
109070,-200,4,2,1,75,0,0
114717,-399.999999999997,4,2,1,75,0,0

[Colours]
Combo1 : 0,170,170
Combo2 : 149,149,149
Combo3 : 0,232,116
Combo4 : 85,0,170

[HitObjects]
56,140,6011,5,4,0:0:0:0:
24,40,6188,2,0,L|16:100,1,40,0|0,0:0|0:0,0:0:0:0:
96,40,6364,2,0,L|88:100,1,40,2|0,0:0|0:0,0:0:0:0:
52,152,6541,5,2,0:0:0:0:
48,164,6717,1,4,0:0:0:0:
0,228,6894,2,0,L|39:233,1,40,0|0,0:0|0:0,0:0:0:0:
108,208,7070,2,0,L|147:213,1,40,2|0,0:0|0:0,0:0:0:0:
100,280,7247,5,2,0:0:0:0:
96,292,7423,1,2,0:1:0:0:
22,343,7600,2,0,L|28:304,1,40,0|0,0:0|0:0,0:0:0:0:
156,360,7776,2,0,L|161:320,1,40,2|0,0:1|0:0,0:0:0:0:
232,320,7953,5,0,0:0:0:0:
240,292,8041,1,0,0:0:0:0:
248,260,8129,2,0,L|280:320,3,40,2|0|4|0,0:0|0:0|0:0|0:0,0:0:0:0:
328,352,8482,5,0,1:0:0:0:
328,320,8570,1,0,0:0:0:0:
344,288,8659,1,8,0:0:0:0:
376,268,8747,1,0,0:0:0:0:
416,264,8835,5,4,0:0:0:0:
436,352,9011,2,0,L|396:346,1,40,0|0,0:0|0:0,0:0:0:0:
500,368,9188,2,0,L|460:362,1,40,2|0,0:0|0:0,0:0:0:0:
452,268,9364,5,2,0:0:0:0:
448,280,9540,1,4,0:0:0:0:
472,180,9717,2,0,L|511:174,1,40,0|0,0:0|0:0,0:0:0:0:
408,196,9894,2,0,L|447:190,1,40,2|0,0:0|0:0,0:0:0:0:
420,108,10070,5,2,0:0:0:0:
424,120,10246,1,2,0:1:0:0:
492,40,10424,2,0,L|486:79,1,40,0|0,0:0|0:0,0:0:0:0:
354,67,10600,2,0,L|360:28,1,40,2|0,0:1|0:0,0:0:0:0:
352,140,10777,5,0,0:0:0:0:
336,140,10865,1,0,0:0:0:0:
320,140,10953,2,0,L|248:140,3,40,2|0|4|0,0:0|0:0|0:0|0:0,0:0:0:0:
236,84,11306,2,0,L|230:44,1,40,0|0,1:2|0:0,0:0:0:0:
220,44,11482,2,0,L|225:83,1,40,8|0,0:0|0:0,0:0:0:0:
76,64,11659,6,0,P|31:69|-8:44,1,80,4|0,0:0|0:0,0:0:0:0:
44,0,11923,1,0,0:0:0:0:
44,0,12011,1,2,0:0:0:0:
120,160,12188,1,2,0:0:0:0:
120,160,12364,6,0,P|164:165|204:140,1,80,4|0,0:0|0:0,0:0:0:0:
152,96,12628,1,0,0:0:0:0:
152,96,12716,1,2,0:0:0:0:
76,292,12894,1,2,0:0:0:0:
76,292,13070,6,0,P|31:297|-8:272,1,80,2|0,0:1|0:0,0:0:0:0:
44,228,13334,1,0,0:0:0:0:
44,228,13422,1,2,0:1:0:0:
136,364,13600,2,0,L|141:324,1,40,0|0,0:0|0:0,0:0:0:0:
188,268,13776,5,6,0:0:0:0:
192,280,13864,1,0,0:0:0:0:
204,264,13953,1,8,0:0:0:0:
208,276,14041,1,0,0:0:0:0:
264,312,14129,5,10,1:1:0:0:
268,324,14217,1,0,0:0:0:0:
280,308,14306,1,8,0:0:0:0:
284,320,14394,1,0,0:0:0:0:
348,360,14482,5,4,0:0:0:0:
436,320,14659,1,0,0:0:0:0:
452,316,14747,1,0,0:0:0:0:
464,312,14835,1,2,0:0:0:0:
360,356,15011,6,0,L|356:252,1,80,2|4,0:0|0:0,0:0:0:0:
400,188,15364,1,0,0:0:0:0:
416,184,15452,1,0,0:0:0:0:
428,180,15540,1,2,0:0:0:0:
300,232,15717,6,0,L|298:141,1,80,2|0,0:0|0:0,0:0:0:0:
368,48,16070,1,0,0:0:0:0:
384,44,16158,1,0,0:0:0:0:
396,40,16247,2,0,L|460:36,3,40,2|0|0|0,0:1|0:0|0:0|0:0,0:0:0:0:
492,80,16600,6,0,L|496:144,1,40,8|0,0:0|0:0,0:0:0:0:
508,128,16776,2,0,L|505:88,1,40,8|0,0:0|0:0,0:0:0:0:
380,144,16953,2,0,L|384:208,1,40,4|0,0:1|0:0,0:0:0:0:
456,220,17129,2,0,L|453:180,1,40,2|0,0:1|0:0,0:0:0:0:
328,268,17306,6,0,P|368:252|416:272,1,80,12|0,1:1|0:0,0:0:0:0:
456,304,17570,1,0,0:0:0:0:
328,268,17835,2,0,P|368:252|416:272,1,80,0|0,0:0|0:0,0:0:0:0:
456,320,18099,1,0,0:0:0:0:
402,260,18364,6,0,P|364:252|328:268,1,80,0|0,0:0|0:0,0:0:0:0:
260,360,18717,6,0,L|248:252,1,80,12|0,1:1|0:0,0:0:0:0:
184,252,18982,1,0,0:0:0:0:
260,360,19247,2,0,L|248:252,1,80,0|0,0:0|0:0,0:0:0:0:
168,252,19512,1,0,0:0:0:0:
251,280,19776,6,0,L|260:360,1,80,0|0,0:0|0:0,0:0:0:0:
100,296,20129,6,0,B|72:312|72:312|-4:300,1,80,12|0,1:1|0:0,0:0:0:0:
56,240,20394,1,0,0:0:0:0:
100,296,20659,2,0,B|72:312|72:312|-4:300,1,80,0|0,0:0|0:0,0:0:0:0:
60,224,20924,1,0,0:0:0:0:
24,305,21188,6,0,B|71:312|71:312|99:296,1,80,0|0,0:0|0:0,0:0:0:0:
96,152,21541,6,0,L|80:48,1,80,12|0,1:1|0:0,0:0:0:0:
36,20,21806,1,0,0:0:0:0:
96,152,22070,2,0,L|80:48,1,80,0|0,0:0|0:0,0:0:0:0:
20,16,22335,1,0,0:0:0:0:
83,72,22600,6,0,L|96:152,1,80,0|0,0:0|0:0,0:0:0:0:
152,24,22953,1,12,1:0:0:0:
224,152,23217,1,0,0:0:0:0:
224,152,23306,2,0,L|211:231,1,80,2|0,0:1|0:0,0:0:0:0:
212,76,23659,1,0,0:0:0:0:
224,76,23746,1,2,0:1:0:0:
368,32,24011,6,0,P|329:23|293:39,1,80
424,160,24364,6,0,P|460:175|516:112,1,120,12|0,1:0|0:0,0:0:0:0:
512,116,24717,2,0,L|496:220,1,80,2|0,0:1|0:0,0:0:0:0:
436,76,25070,1,0,0:0:0:0:
448,72,25159,1,2,0:1:0:0:
360,108,25423,6,0,B|348:132|348:132|360:212,1,80,0|0,0:0|0:0,0:0:0:0:
412,356,25776,6,0,B|432:332|432:332|416:224,1,120,12|0,1:0|0:0,0:0:0:0:
418,244,26129,1,2,0:1:0:0:
504,304,26306,1,0,0:0:0:0:
352,300,26482,5,0,0:0:0:0:
336,300,26570,1,2,0:1:0:0:
252,360,26747,1,0,0:0:0:0:
240,360,26835,2,0,P|232:316|256:268,1,80,0|0,0:0|0:0,0:0:0:0:
143,197,27188,6,0,P|167:249|135:313,1,120,12|0,1:0|0:0,0:0:0:0:
146,305,27541,1,2,0:1:0:0:
68,372,27717,1,2,0:0:0:0:
4,276,27894,5,0,0:0:0:0:
0,260,27982,1,2,1:0:0:0:
68,188,28159,1,0,0:0:0:0:
72,172,28247,2,0,L|60:80,1,80,2|2,0:1|0:1,0:0:0:0:
408,116,30011,6,0,P|472:120|512:80,1,120.000004577637,4|0,0:0|0:0,0:0:0:0:
444,56,30482,2,0,L|448:4,2,40.000001525879,0|0|0,0:0|0:0|1:0,0:0:0:0:
356,68,31070,5,0,0:0:0:0:
332,60,31188,1,0,0:0:0:0:
312,76,31306,1,0,0:0:0:0:
336,84,31424,1,4,0:0:0:0:
224,32,31776,5,0,0:0:0:0:
200,24,31894,1,0,0:0:0:0:
180,40,32012,1,0,0:0:0:0:
204,48,32129,2,0,L|216:116,2,40.000001525879,0|0|0,1:0|0:0|0:0,0:0:0:0:
160,140,32482,2,0,L|172:208,2,40.000001525879,4|4|4,0:0|0:0|0:0,0:0:0:0:
40,104,32835,6,0,P|60:136|156:128,1,120.000004577637,4|4,0:0|0:0,0:0:0:0:
108,80,33306,2,0,L|108:32,2,40.000001525879,0|0|2,0:0|0:0|0:1,0:0:0:0:
12,192,33894,5,0,0:0:0:0:
8,212,34012,1,0,0:0:0:0:
4,232,34130,1,0,0:0:0:0:
16,264,34247,1,2,0:1:0:0:
176,256,34600,5,0,0:0:0:0:
180,276,34718,1,0,0:0:0:0:
184,296,34836,1,0,0:0:0:0:
172,328,34953,2,0,L|100:328,3,40.000001525879,2|0|0|0,0:1|0:0|0:0|0:0,0:0:0:0:
324,376,35659,5,4,0:0:0:0:
256,344,36011,2,0,L|268:288,3,40.000001525879,0|0|0|0,0:0|0:0|0:0|1:0,0:0:0:0:
324,376,36717,1,0,0:0:0:0:
432,280,37070,5,4,0:0:0:0:
500,248,37423,2,0,L|485:179,3,40.000001525879
432,280,38128,1,0,0:0:0:0:
296,172,38482,5,4,0:0:0:0:
362,204,38835,2,0,L|353:265,2,40.000001525879,4|0|0,0:0|0:0|0:0,0:0:0:0:
296,172,39188,1,2,0:1:0:0:
440,144,39541,6,0,L|428:200,2,40.000001525879,0|0|0,0:0|0:0|0:0,0:0:0:0:
372,112,39895,1,2,0:1:0:0:
508,60,40247,6,0,L|496:116,2,40.000001525879,0|0|0,0:0|0:0|0:0,0:0:0:0:
440,16,40600,2,0,L|428:72,2,40.000001525879,2|0|0,0:1|0:0|0:0,0:0:0:0:
372,112,40953,2,0,P|323:107|292:72,1,90.0000034332277,2|0,0:1|0:0,0:0:0:0:
260,20,41306,6,0,L|256:144,1,120,12|0,0:1|0:0,0:0:0:0:
256,160,41659,1,4,0:0:0:0:
188,28,41835,2,0,L|184:152,1,120,8|0,0:0|0:0,0:0:0:0:
184,168,42188,1,2,0:0:0:0:
116,56,42364,2,0,L|112:140,1,80,2|0,0:0|0:0,0:0:0:0:
8,232,42717,6,0,P|52:200|116:216,1,120,12|0,0:1|0:0,0:0:0:0:
124,224,43070,1,4,0:0:0:0:
116,344,43247,2,0,P|72:312|8:328,1,120,8|0,0:0|0:0,0:0:0:0:
0,336,43600,1,2,0:0:0:0:
172,284,43776,2,0,P|204:292|248:280,1,80,2|0,0:0|0:0,0:0:0:0:
336,196,44129,6,0,B|312:224|312:224|324:324,1,120,12|0,0:1|0:0,0:0:0:0:
328,324,44482,1,4,0:0:0:0:
464,384,44659,2,0,B|488:356|488:356|476:256,1,120,8|0,0:0|0:0,0:0:0:0:
472,256,45012,1,2,0:0:0:0:
398,248,45188,2,0,L|408:328,1,80,2|0,0:0|0:0,0:0:0:0:
408,152,45541,6,0,P|460:188|524:164,1,120,12|0,0:1|0:0,0:0:0:0:
511,175,45894,1,6,0:0:0:0:
432,20,46070,2,0,P|380:56|316:32,1,120,8|0,0:0|0:0,0:0:0:0:
329,43,46423,1,2,0:0:0:0:
128,16,46600,2,0,P|140:52|140:124,1,80,2|2,0:0|0:0,0:0:0:0:
80,164,46953,6,0,P|48:156|-16:156,1,80,12|8,0:1|0:0,0:0:0:0:
0,172,47217,1,0,0:0:0:0:
0,188,47306,1,8,0:0:0:0:
28,256,47482,5,8,0:0:0:0:
0,320,47659,1,6,0:0:0:0:
0,340,47748,1,2,0:0:0:0:
0,356,47835,1,0,0:0:0:0:
28,256,48011,2,0,L|124:264,1,80,2|0,0:0|0:0,0:0:0:0:
276,344,48364,6,0,L|180:352,1,80,12|8,0:1|0:0,0:0:0:0:
180,352,48629,1,0,0:0:0:0:
164,352,48717,1,8,0:0:0:0:
88,368,48894,5,8,0:0:0:0:
196,280,49070,1,6,0:0:0:0:
212,280,49158,1,2,0:0:0:0:
228,278,49247,1,0,0:0:0:0:
88,368,49423,2,0,P|88:320|108:288,1,80,2|2,0:0|0:0,0:0:0:0:
172,192,49776,6,0,P|172:144|152:112,1,80,12|6,0:1|0:1,0:0:0:0:
148,104,50041,1,0,0:0:0:0:
132,92,50129,1,10,0:0:0:0:
100,164,50306,5,2,0:1:0:0:
60,96,50482,1,6,0:0:0:0:
47,103,50571,1,2,0:0:0:0:
35,119,50659,1,2,0:1:0:0:
96,24,50835,2,0,B|132:16|132:16|184:32,1,80,10|2,0:0|0:0,0:0:0:0:
264,108,51188,6,0,P|264:60|284:28,1,80,12|8,0:1|0:0,0:0:0:0:
352,56,51453,1,0,0:0:0:0:
352,56,51541,2,0,P|352:104|332:136,1,80,4|8,0:0|0:0,0:0:0:0:
264,224,51894,5,2,0:0:0:0:
328,288,52070,1,10,0:0:0:0:
300,356,52247,1,10,0:0:0:0:
320,368,52335,1,0,0:0:0:0:
348,364,52423,1,10,0:0:0:0:
512,312,52600,6,0,P|468:312|428:272,1,80,12|0,0:0|0:0,0:0:0:0:
344,204,52953,2,0,P|388:204|428:164,1,80,2|0,0:1|0:1,0:0:0:0:
436,172,53217,1,0,0:0:0:0:
436,172,53306,1,12,0:0:0:0:
488,112,53482,1,0,0:0:0:0:
512,188,53659,1,2,0:1:0:0:
408,88,53835,5,0,0:0:0:0:
408,76,53923,1,0,0:0:0:0:
408,60,54011,2,0,P|364:68|320:44,1,80,6|0,0:0|0:0,0:0:0:0:
148,72,54364,2,0,P|163:29|205:3,1,80,2|0,0:1|0:0,0:0:0:0:
264,40,54629,1,0,0:0:0:0:
256,44,54717,2,0,L|268:140,1,80,12|2,0:0|0:0,0:0:0:0:
184,248,55070,2,0,L|174:168,1,80,6|0,0:1|0:0,0:0:0:0:
152,152,55335,5,0,0:0:0:0:
152,152,55423,1,6,0:0:0:0:
72,116,55600,1,0,0:0:0:0:
0,152,55776,1,2,0:1:0:0:
72,116,55953,2,0,L|76:172,1,40,0|0,0:0|0:0,0:0:0:0:
84,284,56129,1,6,0:0:0:0:
44,224,56306,5,0,0:0:0:0:
0,368,56482,1,2,0:1:0:0:
124,344,56659,1,0,0:0:0:0:
140,340,56747,1,0,0:0:0:0:
156,336,56835,2,0,P|196:332|232:364,1,80,12|0,0:0|0:0,0:0:0:0:
300,364,57100,1,0,0:0:0:0:
300,364,57188,2,0,L|284:260,1,80,10|0,0:1|0:0,0:0:0:0:
368,196,57541,6,0,P|328:192|292:224,1,80,6|2,0:0|0:1,0:0:0:0:
224,224,57806,1,0,0:0:0:0:
224,224,57894,2,0,L|240:120,1,80,4|2,0:0|0:1,0:0:0:0:
160,32,58247,5,12,0:0:0:0:
164,116,58423,1,0,0:0:0:0:
92,80,58600,1,2,0:1:0:0:
232,72,58776,1,0,0:0:0:0:
244,72,58864,1,0,0:0:0:0:
256,80,58953,2,0,P|268:44|236:-12,1,80,12|0,0:0|0:0,0:0:0:0:
367,121,59306,2,0,P|355:157|387:213,1,80,2|0,0:1|0:0,0:0:0:0:
436,264,59570,5,0,0:0:0:0:
436,264,59659,2,0,L|444:164,1,80,6|0,0:0|0:0,0:0:0:0:
440,60,60011,1,2,0:1:0:0:
488,0,60188,1,8,0:0:0:0:
508,136,60364,5,12,0:0:0:0:
460,76,60541,1,2,0:0:0:0:
367,195,60717,1,12,0:0:0:0:
256,96,60894,1,0,0:0:0:0:
240,88,60982,1,0,0:0:0:0:
224,84,61070,2,0,P|212:116|236:192,1,80,12|0,0:0|0:0,0:0:0:0:
96,240,61423,2,0,P|74:213|-3:196,1,80,2|0,0:1|0:0,0:0:0:0:
24,192,61688,5,0,0:0:0:0:
24,192,61776,2,0,L|36:284,1,80,12|0,0:0|0:0,0:0:0:0:
120,32,62129,2,0,L|108:124,1,80,12|2,0:0|0:0,0:0:0:0:
96,116,62482,2,0,L|106:36,1,80,12|0,0:0|0:0,0:0:0:0:
24,284,62835,2,0,L|13:204,1,80,10|2,0:1|0:1,0:0:0:0:
16,136,63100,5,0,0:0:0:0:
16,136,63188,1,12,0:0:0:0:
104,192,63364,1,2,0:1:0:0:
196,136,63541,1,6,0:0:0:0:
200,24,63717,2,0,L|252:24,1,40,2|0,0:1|0:0,0:0:0:0:
308,28,63894,5,12,0:0:0:0:
352,88,64070,1,2,0:0:0:0:
316,20,64247,1,8,0:0:0:0:
360,80,64423,1,2,0:0:0:0:
484,28,64600,5,0,0:0:0:0:
484,28,64688,1,2,0:1:0:0:
436,84,64864,1,0,0:0:0:0:
436,84,64953,2,0,P|428:124|432:172,1,80,2|0,0:1|0:0,0:0:0:0:
504,240,65306,5,12,0:0:0:0:
444,284,65482,1,2,0:0:0:0:
512,248,65659,1,8,0:0:0:0:
452,292,65835,1,2,0:0:0:0:
380,232,66011,5,0,0:0:0:0:
372,228,66100,1,2,0:1:0:0:
372,304,66276,1,0,0:0:0:0:
364,300,66365,1,2,0:1:0:0:
360,376,66541,1,0,0:0:0:0:
248,324,66717,5,12,0:0:0:0:
188,280,66893,1,2,0:0:0:0:
244,336,67070,1,8,0:0:0:0:
184,292,67246,1,2,0:0:0:0:
88,364,67423,5,0,0:0:0:0:
88,364,67511,1,2,0:1:0:0:
24,316,67687,1,0,0:0:0:0:
24,316,67776,2,0,P|16:276|20:228,1,80,2|0,0:1|0:0,0:0:0:0:
12,100,68129,5,12,0:0:0:0:
56,160,68305,1,2,0:0:0:0:
0,104,68482,1,8,0:0:0:0:
44,164,68658,1,2,0:0:0:0:
12,16,68835,5,0,0:0:0:0:
4,12,68924,1,2,0:1:0:0:
80,56,69100,1,0,0:0:0:0:
72,52,69189,1,2,0:1:0:0:
148,32,69365,1,2,0:1:0:0:
260,12,69541,5,12,0:0:0:0:
304,72,69717,1,2,0:0:0:0:
252,132,69894,1,8,0:0:0:0:
296,72,70070,1,2,0:0:0:0:
392,136,70247,5,0,0:0:0:0:
392,136,70335,1,2,0:1:0:0:
432,72,70511,1,0,0:0:0:0:
432,72,70600,2,0,P|472:64|520:68,1,80,2|2,0:1|0:0,0:0:0:0:
468,192,70953,5,12,0:0:0:0:
512,252,71129,1,2,0:0:0:0:
468,328,71306,1,8,0:0:0:0:
512,268,71482,1,2,0:0:0:0:
432,256,71659,5,0,0:0:0:0:
440,260,71748,1,2,0:1:0:0:
360,288,71924,1,0,0:0:0:0:
368,292,72011,1,2,0:1:0:0:
300,244,72189,1,2,0:0:0:0:
204,368,72364,5,12,0:0:0:0:
144,316,72541,1,2,0:0:0:0:
68,312,72717,1,2,0:1:0:0:
16,372,72894,5,2,0:0:0:0:
16,372,72982,1,0,0:0:0:0:
16,372,73070,1,12,0:0:0:0:
80,292,73247,1,2,0:0:0:0:
80,204,73423,1,2,0:1:0:0:
24,132,73600,5,2,0:0:0:0:
24,132,73688,1,0,0:0:0:0:
24,132,73776,2,0,L|12:192,1,40,6|0,0:0|0:0,0:0:0:0:
4,284,73953,2,0,L|16:224,1,40,2|0,0:1|0:0,0:0:0:0:
160,168,74129,2,0,L|144:264,1,80,6|2,0:0|0:1,0:0:0:0:
232,288,74394,5,0,0:0:0:0:
232,288,74482,2,0,L|240:240,1,40,2|0,0:0|0:0,0:0:0:0:
312,200,74659,2,0,L|320:248,1,40,2|0,0:0|0:0,0:0:0:0:
396,224,74835,5,2,0:0:0:0:
416,224,74923,1,2,0:0:0:0:
444,224,75011,1,2,0:0:0:0:
464,224,75100,1,2,0:0:0:0:
488,224,75188,1,12,0:1:0:0:
256,192,80835,5,12,0:1:0:0:
256,192,82247,5,8,0:1:0:0:
256,192,83482,6,0,L|256:268,1,60.0000022888184,0|12,0:0|0:0,0:0:0:0:
256,192,83747,12,0,85776,0:0:0:0:
8,56,86482,6,0,L|100:52,1,80,4|0,0:0|0:0,0:0:0:0:
80,120,86747,1,0,0:0:0:0:
80,120,86835,2,0,L|-8:124,1,80,2|0,0:1|0:0,0:0:0:0:
148,100,87188,5,4,0:0:0:0:
268,36,87365,1,0,0:0:0:0:
192,32,87541,1,2,0:1:0:0:
228,104,87717,5,0,0:0:0:0:
232,116,87806,1,0,0:0:0:0:
236,128,87894,2,0,P|240:168|224:236,1,80,4|0,0:0|0:0,0:0:0:0:
160,256,88159,1,0,0:0:0:0:
160,256,88247,2,0,P|156:216|172:148,1,80,2|0,0:1|0:0,0:0:0:0:
84,216,88600,5,4,0:0:0:0:
16,248,88776,1,0,0:0:0:0:
16,260,88864,1,0,0:0:0:0:
16,276,88953,1,2,0:1:0:0:
80,320,89129,1,0,0:0:0:0:
196,356,89306,6,0,B|220:344|220:344|292:364,1,80,4|0,0:0|0:0,0:0:0:0:
336,284,89570,1,0,0:0:0:0:
336,284,89659,2,0,B|312:296|312:296|240:276,1,80,2|0,0:1|0:0,0:0:0:0:
161,176,90011,6,0,B|137:164|137:164|65:184,1,80,4|0,0:0|0:0,0:0:0:0:
21,104,90275,1,0,0:0:0:0:
21,104,90364,2,0,B|45:116|45:116|117:96,1,80,2|0,0:1|0:0,0:0:0:0:
252,80,90717,6,0,B|276:68|276:68|348:88,1,80,8|0,0:1|0:0,0:0:0:0:
392,8,90981,1,0,0:0:0:0:
392,8,91070,2,0,B|368:20|368:20|296:0,1,80,2|0,0:1|0:0,0:0:0:0:
164,32,91423,2,0,L|176:136,1,80,2|0,0:1|0:0,0:0:0:0:
176,128,91688,1,0,0:0:0:0:
180,144,91776,1,10,0:1:0:0:
256,192,91953,1,0,0:0:0:0:
384,136,92129,6,0,L|476:132,1,80,4|0,0:0|0:0,0:0:0:0:
456,200,92394,1,0,0:0:0:0:
456,200,92482,2,0,L|368:204,1,80,2|0,0:1|0:0,0:0:0:0:
376,344,92835,5,4,0:0:0:0:
376,203,93012,1,0,0:0:0:0:
332,272,93188,1,2,0:1:0:0:
420,276,93364,5,0,0:0:0:0:
428,280,93453,1,0,0:0:0:0:
432,288,93541,2,0,P|472:284|540:300,1,80,4|0,0:0|0:0,0:0:0:0:
484,360,93806,1,0,0:0:0:0:
484,360,93894,2,0,P|444:364|376:348,1,80,2|0,0:1|0:0,0:0:0:0:
280,344,94247,5,4,0:0:0:0:
248,276,94423,1,0,0:0:0:0:
236,276,94511,1,0,0:0:0:0:
220,276,94600,1,2,0:1:0:0:
176,340,94776,1,0,0:0:0:0:
16,256,94953,6,0,B|4:280|4:280|24:352,1,80,6|0,0:0|0:0,0:0:0:0:
88,368,95217,1,0,0:0:0:0:
88,368,95306,2,0,B|100:344|100:344|80:272,1,80,2|2,0:1|0:1,0:0:0:0:
216,104,95659,6,0,B|228:128|228:128|208:200,1,80,6|0,0:0|0:0,0:0:0:0:
144,216,95923,1,0,0:0:0:0:
144,216,96012,2,0,B|132:192|132:192|152:120,1,80,2|2,0:1|0:1,0:0:0:0:
340,4,96364,6,0,B|328:28|328:28|348:100,1,80,6|0,0:0|0:0,0:0:0:0:
412,116,96628,1,0,0:0:0:0:
412,116,96717,2,0,B|424:92|424:92|404:20,1,80,6|0,0:0|0:0,0:0:0:0:
512,216,97070,6,0,P|476:192|412:200,1,80,6|0,0:0|0:0,0:0:0:0:
400,256,97335,1,2,0:0:0:0:
400,256,97423,1,0,0:0:0:0:
416,328,97600,2,0,L|480:336,1,40,2|0,0:0|0:0,0:0:0:0:
344,372,97776,5,12,0:0:0:0:
272,360,97953,2,0,L|224:352,2,40,2|0|2,0:1|0:0|0:1,0:0:0:0:
344,372,98306,1,12,0:0:0:0:
288,292,98482,1,2,0:1:0:0:
268,288,98570,1,0,0:0:0:0:
248,285,98658,1,2,0:1:0:0:
88,360,98835,2,0,P|140:360|132:280,1,120,12|0,0:1|0:0,0:0:0:0:
152,288,99188,5,12,0:0:0:0:
68,248,99364,2,0,L|76:308,2,40,2|0|2,0:1|0:0|0:1,0:0:0:0:
152,288,99717,1,12,0:0:0:0:
0,272,99894,1,2,0:1:0:0:
2,291,99982,1,0,0:0:0:0:
5,311,100070,1,2,0:1:0:0:
12,192,100247,2,0,B|32:164|32:164|16:52,1,120,12|0,0:1|0:0,0:0:0:0:
8,12,100600,5,12,0:0:0:0:
104,4,100777,2,0,L|152:12,2,40,2|0|2,0:1|0:0|0:1,0:0:0:0:
8,12,101130,1,12,0:0:0:0:
92,72,101306,1,2,0:1:0:0:
112,76,101394,1,0,0:0:0:0:
132,79,101482,1,2,0:1:0:0:
276,128,101659,2,0,B|196:124|232:180|148:156,1,120,12|0,0:1|0:0,0:0:0:0:
144,160,102011,5,12,0:0:0:0:
208,272,102187,2,0,L|200:212,2,40,2|0|2,0:1|0:0|0:1,0:0:0:0:
144,160,102540,1,12,0:0:0:0:
140,304,102717,1,2,0:1:0:0:
138,285,102805,1,0,0:0:0:0:
135,265,102893,1,2,0:1:0:0:
280,324,103070,2,0,B|360:320|324:376|408:352,1,120,12|0,0:1|0:0,0:0:0:0:
416,360,103423,6,0,P|460:364|488:312,1,80,12|2,0:0|0:1,0:0:0:0:
504,276,103688,1,0,0:0:0:0:
504,264,103776,1,2,0:1:0:0:
512,104,103953,2,0,P|468:100|440:152,1,80,12|2,0:0|0:1,0:0:0:0:
424,188,104218,1,0,0:0:0:0:
424,200,104306,1,2,0:1:0:0:
280,324,104482,2,0,B|264:264|264:264|280:188,1,120,12|0,0:1|0:0,0:0:0:0:
264,128,104835,6,0,P|308:132|336:80,1,80,12|2,0:0|0:1,0:0:0:0:
352,44,105100,1,0,0:0:0:0:
352,32,105188,1,2,0:1:0:0:
116,8,105365,2,0,P|72:4|44:56,1,80,12|2,0:0|0:1,0:0:0:0:
28,92,105630,1,0,0:0:0:0:
28,104,105718,1,0,0:0:0:0:
176,144,105894,2,0,B|188:52|188:52|160:92,1,120,12|0,0:1|0:0,0:0:0:0:
92,152,106247,5,12,0:0:0:0:
32,232,106423,2,0,L|24:172,1,40,2|0,0:1|0:0,0:0:0:0:
92,152,106600,1,2,0:1:0:0:
108,264,106776,5,12,0:0:0:0:
48,344,106952,2,0,L|40:284,1,40,2|0,0:1|0:0,0:0:0:0:
108,264,107129,1,2,0:1:0:0:
108,264,107306,6,0,L|147:269,1,40,12|0,0:1|0:0,0:0:0:0:
259,285,107482,2,0,L|219:279,1,40,2|0,0:0|0:0,0:0:0:0:
328,368,107659,5,12,0:0:0:0:
388,288,107835,2,0,L|396:348,1,40,2|0,0:0|0:0,0:0:0:0:
328,368,108012,1,2,0:0:0:0:
512,216,108188,5,12,0:0:0:0:
452,136,108364,2,0,L|444:196,1,40,2|0,0:0|0:0,0:0:0:0:
512,216,108541,1,2,0:0:0:0:
492,360,108717,2,0,L|497:320,1,40,12|0,0:0|0:0,0:0:0:0:
324,200,108894,2,0,L|318:160,1,40,12|0,0:0|0:0,0:0:0:0:
432,24,109070,6,0,B|472:32|472:32|516:20,2,80,12|2|2,0:1|0:0|0:1,0:0:0:0:
318,160,110306,2,0,L|266:156,1,40,0|4,0:1|0:0,0:0:0:0:
216,112,110835,2,0,L|212:20,2,80,4|2|2,0:0|0:1|0:0,0:0:0:0:
80,188,111894,6,0,B|40:180|40:180|-4:192,2,80,12|2|2,0:0|0:0|0:1,0:0:0:0:
172,368,113129,2,0,L|172:324,1,40,0|4,0:0|0:0,0:0:0:0:
204,256,113659,2,0,L|116:264,2,80,4|2|2,0:0|0:1|0:0,0:0:0:0:
264,292,114717,6,0,P|307:286|340:312,1,80,12|2,0:0|0:1,0:0:0:0:
436,368,115953,1,0,0:0:0:0:
436,368,116129,2,0,P|409:333|415:292,1,80,4|2,0:0|0:1,0:0:0:0:
416,184,117188,1,2,0:0:0:0:
416,184,117541,6,0,P|399:224|360:239,1,80,8|2,0:1|0:1,0:0:0:0:
288,152,118776,1,0,0:0:0:0:
288,152,118953,2,0,L|244:148,1,40,12|12,0:0|0:0,0:0:0:0:
160,96,119659,2,0,L|208:92,2,40,6|2|0,0:1|0:0|0:0,0:0:0:0:
