osu file format v14

[General]
AudioFilename: audio.mp3
AudioLeadIn: 0
PreviewTime: 75005
Countdown: 0
SampleSet: Soft
StackLeniency: 0.2
Mode: 0
LetterboxInBreaks: 0
WidescreenStoryboard: 1

[Editor]
Bookmarks: 17300,30005,41300,52594,63888,75182,86476,97770,109064,120358
DistanceSpacing: 0.2
BeatDivisor: 4
GridSize: 32
TimelineZoom: 2.4

[Metadata]
Title:Kagachi
TitleUnicode:蛇神
Artist:Zektbach
ArtistUnicode:Zektbach
Creator:09kami
Version:Yusomi's EX
Source:pop'n music 18 せんごく列伝
Tags:Beatmania IIDX ORIENTAL MYTHOLOGY オリエンタルミソロジー BeatStream REFLEC BEAT plus ポップンリズミン PandaHero TT Mouse Yusomi lililing SDpeople kanor Muziyami TtmnZk
BeatmapID:1871283
BeatmapSetID:894104

[Difficulty]
HPDrainRate:5
CircleSize:5
OverallDifficulty:8.5
ApproachRate:9.3
SliderMultiplier:1.8
SliderTickRate:1

[Events]
//Background and Video events
0,0,"20140708131851_tZwGz.jpg",0,0
//Break Periods
//Storyboard Layer 0 (Background)
//Storyboard Layer 1 (Fail)
//Storyboard Layer 2 (Pass)
//Storyboard Layer 3 (Foreground)
//Storyboard Layer 4 (Overlay)
//Storyboard Sound Samples

[TimingPoints]
6012,352.941176470588,4,2,1,75,1,0
7953,-200,4,2,1,75,0,0
8129,-100,4,2,1,75,0,0
10776,-200,4,2,1,75,0,0
10953,-100,4,2,1,75,0,0
13600,-200,4,2,1,75,0,0
13776,-100,4,2,1,75,0,0
16423,-200,4,2,1,75,0,0
16600,-100,4,2,1,75,0,0
17306,-333.333333333333,4,2,1,60,0,0
17835,-50,4,2,1,60,0,0
18188,-333.333333333333,4,2,1,60,0,0
19070,-41.6666666666667,4,2,1,60,0,0
19600,-333.333333333333,4,2,1,60,0,0
20659,-46.5116279069767,4,2,1,60,0,0
21011,-333.333333333333,4,2,1,60,0,0
22070,-35.7142857142857,4,2,1,60,0,0
22600,-333.333333333333,4,2,1,60,0,0
23482,-40.8163265306122,4,2,1,60,0,0
24011,-333.333333333333,4,2,1,60,0,0
25070,-30.3030303030303,4,2,1,60,0,0
25423,-333.333333333333,4,2,1,60,0,0
26482,-37.037037037037,4,2,1,60,0,0
26835,-333.333333333333,4,2,1,60,0,0
27894,-27.3972602739726,4,2,1,60,0,0
28247,-333.333333333333,4,2,1,60,0,0
28600,-333.333333333333,4,2,1,5,0,0
30011,-133.333333333333,4,2,1,50,0,0
33188,-285.714285714284,4,2,1,50,0,0
33541,-133.333333333333,4,2,1,50,0,0
38835,-285.714285714284,4,2,1,50,0,0
39188,-133.333333333333,4,2,1,50,0,0
41306,-66.6666666666667,4,2,1,60,0,0
41835,-90.9090909090909,4,2,1,60,0,0
42717,-66.6666666666667,4,2,1,60,0,0
43247,-90.9090909090909,4,2,1,60,0,0
44129,-66.6666666666667,4,2,1,60,0,0
44659,-90.9090909090909,4,2,1,60,0,0
45541,-66.6666666666667,4,2,1,60,0,0
46070,-90.9090909090909,4,2,1,60,0,0
46953,-66.6666666666667,4,2,1,60,0,0
47482,-90.9090909090909,4,2,1,60,0,0
48364,-66.6666666666667,4,2,1,60,0,0
48894,-90.9090909090909,4,2,1,60,0,0
49776,-66.6666666666667,4,2,1,60,0,0
50306,-90.9090909090909,4,2,1,60,0,0
51188,-66.6666666666667,4,2,1,60,0,0
52600,-83.3333333333333,4,2,1,60,0,0
56129,-66.6666666666667,4,2,1,60,0,0
56482,-83.3333333333333,4,2,1,60,0,0
61776,-66.6666666666667,4,2,1,60,0,0
62129,-83.3333333333333,4,2,1,60,0,0
63894,-58.8235294117647,4,2,1,60,0,0
64423,-45.4545454545455,4,2,1,60,0,0
64600,-58.8235294117647,4,2,1,60,0,0
64953,-45.4545454545455,4,2,1,60,0,0
65306,-58.8235294117647,4,2,1,60,0,0
65835,-45.4545454545455,4,2,1,60,0,0
66011,-58.8235294117647,4,2,1,60,0,0
66364,-45.4545454545455,4,2,1,60,0,0
66717,-58.8235294117647,4,2,1,60,0,0
67247,-45.4545454545455,4,2,1,60,0,0
67423,-58.8235294117647,4,2,1,60,0,0
67776,-45.4545454545455,4,2,1,60,0,0
68129,-58.8235294117647,4,2,1,60,0,0
68659,-45.4545454545455,4,2,1,60,0,0
68835,-58.8235294117647,4,2,1,60,0,0
69188,-45.4545454545455,4,2,1,60,0,0
69541,-58.8235294117647,4,2,1,60,0,0
70070,-45.4545454545455,4,2,1,60,0,0
70247,-58.8235294117647,4,2,1,60,0,0
70600,-45.4545454545455,4,2,1,60,0,0
70953,-58.8235294117647,4,2,1,60,0,0
71482,-45.4545454545455,4,2,1,60,0,0
71659,-58.8235294117647,4,2,1,60,0,0
72011,-45.4545454545455,4,2,1,60,0,0
72364,-58.8235294117647,4,2,1,60,0,0
72894,-45.4545454545455,4,2,1,60,0,0
73070,-58.8235294117647,4,2,1,60,0,0
73423,-45.4545454545455,4,2,1,60,0,0
73776,-58.8235294117647,4,2,1,60,0,0
74306,-45.4545454545455,4,2,1,60,0,0
74482,-58.8235294117647,4,2,1,60,0,0
75188,-66.6666666666667,4,2,1,50,0,0
76423,-100,4,2,1,50,0,0
76600,-66.6666666666667,4,2,1,50,0,0
77306,-100,4,2,1,50,0,0
80835,-66.6666666666667,4,2,1,50,0,0
82070,-100,4,2,1,50,0,0
82247,-66.6666666666667,4,2,1,50,0,0
82953,-100,4,2,1,50,0,0
86482,-74.0740740740741,4,2,1,60,0,0
90717,-62.5,4,2,1,60,0,0
91070,-74.0740740740741,4,2,1,60,0,0
92835,-62.5,4,2,1,60,0,0
93541,-74.0740740740741,4,2,1,60,0,0
97776,-62.5,4,2,1,75,0,0
109070,-166.666666666667,4,2,1,50,0,0

[Colours]
Combo1 : 178,129,151
Combo2 : 177,195,172
Combo3 : 130,34,34
Combo4 : 123,178,172

[HitObjects]
104,384,6011,5,4,0:0:0:0:
29,278,6188,1,0,0:0:0:0:
54,236,6276,1,0,0:0:0:0:
41,235,6364,1,0,0:0:0:0:
26,233,6453,1,0,0:0:0:0:
52,192,6541,1,2,0:0:0:0:
168,353,6717,5,4,0:0:0:0:
151,200,6894,1,0,0:0:0:0:
196,180,6982,1,0,0:0:0:0:
186,172,7070,1,0,0:0:0:0:
175,161,7159,1,0,0:0:0:0:
220,144,7247,1,2,0:0:0:0:
232,322,7423,5,2,0:1:0:0:
295,208,7600,1,0,0:0:0:0:
343,218,7688,1,0,0:0:0:0:
340,206,7776,1,2,0:1:0:0:
337,191,7865,1,0,0:0:0:0:
384,203,7953,2,0,L|412:202,1,22.5,0|0,0:0|0:0,0:0:0:0:
480,192,8129,5,2,0:0:0:0:
446,127,8217,1,0,0:0:0:0:
394,76,8305,1,4,0:0:0:0:
329,43,8393,1,0,0:0:0:0:
257,32,8481,1,0,1:0:0:0:
185,43,8570,1,0,0:0:0:0:
119,75,8658,1,8,0:0:0:0:
67,126,8746,1,0,0:0:0:0:
33,190,8834,5,4,0:0:0:0:
83,352,9011,1,0,0:0:0:0:
91,355,9100,1,0,0:0:0:0:
110,319,9188,1,0,0:0:0:0:
130,284,9276,1,0,0:0:0:0:
139,290,9364,1,2,0:0:0:0:
56,264,9541,5,4,0:0:0:0:
220,309,9718,1,0,0:0:0:0:
228,306,9807,1,0,0:0:0:0:
222,266,9895,1,0,0:0:0:0:
218,226,9983,1,0,0:0:0:0:
229,226,10071,1,2,0:0:0:0:
109,208,10247,5,2,0:1:0:0:
305,193,10423,1,0,0:0:0:0:
310,186,10512,1,0,0:0:0:0:
281,157,10600,1,2,0:1:0:0:
255,127,10688,1,0,0:0:0:0:
264,121,10776,2,0,L|263:86,1,22.5,0|0,0:0|0:0,0:0:0:0:
256,32,10953,5,2,0:0:0:0:
178,26,11041,1,0,0:0:0:0:
106,56,11129,1,4,0:0:0:0:
55,115,11217,1,0,0:0:0:0:
37,191,11305,1,0,1:2:0:0:
54,267,11394,1,0,0:0:0:0:
105,326,11482,1,8,0:0:0:0:
176,357,11570,1,0,0:0:0:0:
254,352,11658,5,4,0:0:0:0:
112,202,11835,1,0,0:0:0:0:
104,207,11923,1,0,0:0:0:0:
98,213,12011,1,0,0:0:0:0:
133,248,12100,1,0,0:0:0:0:
181,236,12188,1,2,0:0:0:0:
300,285,12364,5,4,0:0:0:0:
302,141,12541,1,0,0:0:0:0:
310,146,12629,1,0,0:0:0:0:
316,152,12717,1,0,0:0:0:0:
281,187,12806,1,0,0:0:0:0:
233,175,12894,1,2,0:0:0:0:
346,218,13070,5,2,0:1:0:0:
112,80,13247,1,0,0:0:0:0:
104,85,13335,1,0,0:0:0:0:
98,91,13423,1,2,0:1:0:0:
133,126,13512,1,0,0:0:0:0:
181,114,13600,2,0,L|201:95,1,22.5,0|0,0:0|0:0,0:0:0:0:
256,32,13776,5,6,0:0:0:0:
334,26,13864,1,0,0:0:0:0:
406,56,13952,1,8,0:0:0:0:
457,115,14040,1,0,0:0:0:0:
475,191,14128,1,10,1:1:0:0:
458,267,14217,1,0,0:0:0:0:
407,326,14305,1,2,0:0:0:0:
336,357,14393,1,0,0:0:0:0:
258,352,14481,5,4,0:0:0:0:
107,283,14659,1,0,0:0:0:0:
124,245,14747,1,0,0:0:0:0:
102,210,14835,1,0,0:0:0:0:
113,216,14923,1,0,0:0:0:0:
126,215,15011,1,2,0:0:0:0:
216,285,15188,5,4,0:0:0:0:
182,143,15364,1,0,0:0:0:0:
220,128,15452,1,0,0:0:0:0:
230,87,15540,1,0,0:0:0:0:
233,99,15628,1,0,0:0:0:0:
243,108,15716,1,2,0:0:0:0:
296,283,15894,5,2,0:1:0:0:
333,96,16071,1,0,0:0:0:0:
370,112,16159,1,0,0:0:0:0:
407,91,16247,1,2,0:1:0:0:
400,101,16335,1,0,0:0:0:0:
401,115,16423,2,0,P|405:127|411:137,1,22.5,0|0,0:0|0:0,0:0:0:0:
480,192,16600,5,8,0:0:0:0:
446,257,16688,1,0,0:0:0:0:
394,308,16776,1,8,0:0:0:0:
329,341,16864,1,0,0:0:0:0:
257,352,16952,1,4,1:2:0:0:
185,341,17041,1,0,0:0:0:0:
119,309,17129,1,8,1:0:0:0:
67,258,17217,1,0,0:0:0:0:
32,193,17306,6,0,P|27:167|13:144,1,53.9999983520508,12|0,1:1|0:0,0:0:0:0:
70,95,17835,6,0,P|105:223|59:348,1,270,0|0,0:0|0:0,0:0:0:0:
60,348,18188,2,0,L|49:367,1,13.4999995880127,2|0,0:1|0:0,0:0:0:0:
120,384,18364,6,0,P|130:365|146:351,1,40.4999987640381,0|0,0:0|0:0,0:0:0:0:
166,286,18717,2,0,P|189:298|206:319,1,53.9999983520508,12|0,1:1|0:0,0:0:0:0:
384,374,19247,6,0,P|338:249|495:8,1,431.999986816407,0|2,0:0|0:1,0:0:0:0:
444,125,19776,6,0,P|427:146|417:167,1,40.4999987640381,0|0,0:0|0:0,0:0:0:0:
406,226,20129,2,0,P|406:252|412:279,1,53.9999983520508,12|0,1:1|0:0,0:0:0:0:
289,373,20659,6,0,P|280:222|250:76,1,290.250004428864,0|0,0:0|0:0,0:0:0:0:
252,86,21011,2,0,L|246:63,1,13.4999995880127,2|0,0:1|0:0,0:0:0:0:
146,32,21188,6,0,P|128:42|117:59,1,40.4999987640381,0|0,0:0|0:0,0:0:0:0:
181,92,21541,2,0,P|183:119|202:137,1,53.9999983520508,12|0,1:1|0:0,0:0:0:0:
7,179,22070,6,0,L|506:115,1,503.999984619141,0|2,0:0|0:1,0:0:0:0:
473,56,22600,6,0,L|427:62,1,40.4999987640381,0|0,0:0|0:0,0:0:0:0:
367,70,22953,2,0,L|311:77,1,53.9999983520508,12|0,1:0|0:0,0:0:0:0:
313,76,23482,1,0,0:0:0:0:
244,41,23659,6,0,B|233:77|233:77|238:92|238:92|217:368,1,330.750003154278,2|0,0:0|0:0,0:0:0:0:
280,384,24011,6,0,P|285:368|285:352,1,26.9999991760254,0|2,0:0|0:0,0:0:0:0:
193,306,24364,2,0,P|169:318|153:340,1,53.9999983520508,12|0,1:0|0:0,0:0:0:0:
153,339,24894,1,0,0:0:0:0:
69,380,25070,6,0,B|72:363|72:363|81:350|81:350|83:323|83:323|159:3|159:3|167:60,1,445.500004248619,2|0,0:0|0:0,0:0:0:0:
198,119,25423,6,0,L|189:161,1,40.4999987640381,0|0,0:0|0:0,0:0:0:0:
174,222,25776,2,0,L|159:282,1,53.9999983520508,12|0,1:0|0:0,0:0:0:0:
161,275,26306,1,0,0:0:0:0:
330,384,26482,6,0,B|321:365|321:365|333:340|333:340|277:5,1,364.500001390457,2|0,0:0|0:0,0:0:0:0:
222,0,26835,6,0,P|215:12|215:26,1,26.9999991760254,0|2,0:0|0:0,0:0:0:0:
327,82,27188,2,0,P|345:61|351:35,1,53.9999983520508,12|0,1:0|0:0,0:0:0:0:
352,35,27717,1,2,0:0:0:0:
497,154,27894,6,0,B|471:137|471:137|311:165|311:165|292:155|292:155|14:160,1,492.749992951155,2|0,0:0|0:0,0:0:0:0:
52,95,28247,6,0,L|112:94,1,53.9999983520508,2|0,0:0|0:0,0:0:0:0:
114,19,30011,6,0,P|80:146|132:268,1,270.000010299683,4|0,0:0|1:0,0:0:0:0:
256,352,31070,1,0,0:0:0:0:
379,268,31423,2,0,P|431:146|397:19,1,270.000010299683,4|0,0:0|1:0,0:0:0:0:
256,97,32482,2,0,L|256:48,2,45.0000017166138,0|0|0,0:0|0:0|0:0,0:0:0:0:
256,288,32835,1,4,0:0:0:0:
131,192,33188,2,0,L|129:221,2,20.9999993591309,4|0|0,0:0|0:0|0:0,0:0:0:0:
124,119,33541,6,0,B|143:75|72:49|46:133|134:198|204:177,1,225.000008583069,2|0,0:1|0:0,0:0:0:0:
385,114,34247,2,0,B|413:152|471:104|412:39|311:83|294:154,1,225.000008583069,2|0,0:1|0:0,0:0:0:0:
258,342,34953,2,0,B|211:348|224:422|309:403|322:294|269:244,1,225.000008583069,2|0,0:1|0:0,0:0:0:0:
114,364,35659,6,0,P|80:237|132:115,1,270.000010299683,4|0,0:0|1:0,0:0:0:0:
256,32,36718,1,0,0:0:0:0:
379,115,37071,2,0,P|431:237|397:364,1,270.000010299683,4|0,0:0|1:0,0:0:0:0:
256,286,38130,2,0,L|256:332,2,45.0000017166138,0|0|0,0:0|0:0|0:0,0:0:0:0:
256,96,38483,1,4,0:0:0:0:
138,233,38835,2,0,L|129:197,2,20.9999993591309,4|0|0,0:0|0:0|0:0,0:0:0:0:
206,236,39188,6,0,B|165:252|163:288|172:282|183:358|95:398|51:317|96:279|132:304,1,225.000008583069,2|0,0:1|0:0,0:0:0:0:
305,233,39894,2,0,B|336:258|368:242|358:237|419:189|497:246|449:324|394:304|398:268,1,225.000008583069,2|0,0:1|0:0,0:0:0:0:
251,145,40600,2,0,B|257:106|227:86|228:97|156:69|166:-27|258:-24|268:33|235:48,1,225.000008583069,2|0,0:1|0:0,0:0:0:0:
180,147,41306,6,0,L|35:133,1,135.000005149842,12|0,0:1|0:0,0:0:0:0:
103,177,41570,1,0,0:0:0:0:
107,181,41659,1,0,0:0:0:0:
199,225,41835,2,0,P|177:236|164:257,1,49.5000015106202,8|0,0:1|0:0,0:0:0:0:
87,320,42011,5,0,0:0:0:0:
47,320,42100,1,0,0:0:0:0:
24,287,42188,1,0,0:0:0:0:
46,253,42275,1,0,0:0:0:0:
86,253,42364,1,0,0:0:0:0:
235,294,42541,1,0,0:0:0:0:
257,326,42629,1,0,0:0:0:0:
256,365,42717,6,0,P|269:300|321:259,1,135.000005149842,12|0,0:1|0:0,0:0:0:0:
330,340,42982,1,0,0:0:0:0:
334,344,43070,1,0,0:0:0:0:
425,304,43247,2,0,P|410:283|390:269,1,49.5000015106202,8|0,0:1|0:0,0:0:0:0:
281,102,43423,5,0,0:0:0:0:
233,153,43511,1,0,0:0:0:0:
275,208,43600,2,0,P|290:189|299:166,1,49.5000015106202,0|0,0:0|0:0,0:0:0:0:
414,194,43776,2,0,P|389:189|365:193,1,49.5000015106202,0|0,0:0|0:0,0:0:0:0:
326,336,43953,1,0,0:0:0:0:
330,340,44041,1,0,0:0:0:0:
334,344,44129,6,0,B|271:329|253:355|199:341,1,135.000005149842,12|0,0:1|0:0,0:0:0:0:
256,384,44394,1,0,0:0:0:0:
260,380,44482,1,0,0:0:0:0:
272,252,44659,2,0,P|253:268|230:276,1,49.5000015106202,8|0,0:1|0:0,0:0:0:0:
26,296,44835,5,0,0:0:0:0:
41,338,44923,1,0,0:0:0:0:
84,336,45011,1,0,0:0:0:0:
127,338,45100,1,0,0:0:0:0:
142,296,45188,1,0,0:0:0:0:
112,161,45364,1,0,0:0:0:0:
76,184,45453,1,0,0:0:0:0:
88,227,45541,6,0,P|102:162|71:103,1,135.000005149842,12|0,0:1|0:0,0:0:0:0:
157,98,45806,1,0,0:0:0:0:
156,103,45894,1,0,0:0:0:0:
171,227,46070,2,0,P|186:208|208:198,1,49.5000015106202,8|0,0:1|0:0,0:0:0:0:
366,288,46247,5,0,0:0:0:0:
302,263,46335,1,0,0:0:0:0:
250,308,46423,2,0,P|236:287|233:263,1,49.5000015106202,0|0,0:0|0:0,0:0:0:0:
223,129,46600,2,0,P|245:137|262:155,1,49.5000015106202,0|0,0:0|0:0,0:0:0:0:
358,205,46776,1,0,0:0:0:0:
362,209,46864,1,0,0:0:0:0:
366,213,46953,6,0,B|358:153|358:153|360:146|360:146|350:79,1,135.000005149842,12|0,0:1|0:0,0:0:0:0:
279,73,47217,1,0,0:0:0:0:
283,77,47306,1,0,0:0:0:0:
462,117,47482,2,0,P|446:136|441:160,1,49.5000015106202,8|0,0:1|0:0,0:0:0:0:
428,266,47659,5,0,0:0:0:0:
439,308,47747,1,0,0:0:0:0:
409,341,47835,1,0,0:0:0:0:
364,330,47923,1,0,0:0:0:0:
349,290,48011,1,0,0:0:0:0:
262,155,48188,1,0,0:0:0:0:
219,140,48276,1,0,0:0:0:0:
177,158,48364,6,0,P|232:126|251:59,1,135.000005149842,12|0,0:1|0:0,0:0:0:0:
182,74,48629,1,0,0:0:0:0:
178,78,48717,1,0,0:0:0:0:
110,184,48894,2,0,P|122:205|141:220,1,49.5000015106202,8|0,0:1|0:0,0:0:0:0:
77,7,49070,5,0,0:0:0:0:
40,67,49159,1,0,0:0:0:0:
91,114,49247,2,0,P|103:92|107:68,1,49.5000015106202
251,60,49423,2,0,P|273:72|297:76,1,49.5000015106202
445,65,49600,1,0,0:0:0:0:
449,69,49688,1,0,0:0:0:0:
453,73,49776,6,0,B|418:110|429:144|381:190,1,135.000005149842,12|0,0:1|0:0,0:0:0:0:
453,149,50041,1,0,0:0:0:0:
459,152,50129,1,0,0:0:0:0:
369,67,50306,2,0,L|371:10,1,49.5000015106202,8|0,0:1|0:0,0:0:0:0:
335,139,50482,5,0,0:0:0:0:
316,179,50570,1,0,0:0:0:0:
320,223,50659,1,0,0:0:0:0:
279,205,50747,1,0,0:0:0:0:
234,210,50835,1,0,0:0:0:0:
109,348,51011,1,0,0:0:0:0:
68,366,51099,1,0,0:0:0:0:
22,361,51188,6,0,P|26:327|26:293,1,67.5000025749208,12|0,0:1|0:0,0:0:0:0:
115,188,51364,1,0,0:0:0:0:
104,235,51453,1,0,0:0:0:0:
68,202,51541,1,0,0:0:0:0:
191,69,51717,2,0,P|195:103|195:137,1,67.5000025749208,8|0,0:1|0:0,0:0:0:0:
168,312,51894,5,0,0:0:0:0:
192,272,51983,1,0,0:0:0:0:
197,317,52070,1,0,0:0:0:0:
221,277,52160,1,0,0:0:0:0:
226,322,52247,1,0,0:0:0:0:
403,348,52423,1,0,0:0:0:0:
445,366,52511,1,0,0:0:0:0:
490,361,52600,6,0,P|484:280|490:199,1,161.999995056153,12|0,0:0|0:0,0:0:0:0:
490,199,52953,2,0,B|467:149|467:149|420:174,1,107.999996704102,2|0,0:1|0:1,0:0:0:0:
374,227,53217,1,0,0:0:0:0:
378,231,53306,2,0,L|322:227,1,53.9999983520508,12|0,0:0|0:0,0:0:0:0:
253,222,53482,1,0,0:0:0:0:
97,304,53659,1,2,0:1:0:0:
60,139,53835,1,0,0:0:0:0:
28,223,54011,6,0,B|112:242|96:185|184:204,1,161.999995056153,2|0,0:0|0:0,0:0:0:0:
229,288,54364,2,0,P|198:333|143:360,1,107.999996704102,0|8,0:0|0:0,0:0:0:0:
101,354,54629,1,0,0:0:0:0:
97,304,54717,1,12,0:0:0:0:
184,204,54894,1,2,0:0:0:0:
208,160,54982,1,0,0:0:0:0:
180,118,55070,2,0,B|166:93|133:101|133:101|115:130|134:150,1,107.999996704102,2|0,0:1|0:0,0:0:0:0:
276,218,55423,6,0,B|340:211|317:183|375:177,1,107.999996704102,6|0,0:0|0:0,0:0:0:0:
445,190,55688,1,0,0:0:0:0:
450,195,55776,2,0,P|454:221|446:247,1,53.9999983520508,2|0,0:1|0:0,0:0:0:0:
391,304,55953,2,0,P|365:294|347:274,1,53.9999983520508,0|0,0:0|0:0,0:0:0:0:
223,170,56129,6,0,B|197:198|206:231|206:231|186:277|131:288|92:254,1,202.500007724762,6|0,0:0|0:0,0:0:0:0:
92,254,56482,6,0,L|38:255,1,53.9999983520508,2|0,0:1|0:0,0:0:0:0:
130,173,56659,1,2,0:1:0:0:
129,167,56747,1,0,0:0:0:0:
128,161,56835,6,0,B|147:95|118:63|139:0,1,161.999995056153,12|0,0:0|0:0,0:0:0:0:
223,170,57188,2,0,P|223:223|218:277,1,107.999996704102,10|2,0:1|0:1,0:0:0:0:
225,353,57453,1,0,0:0:0:0:
226,363,57541,2,0,B|240:388|273:380|273:380|291:351|272:331,1,107.999996704102,6|0,0:0|0:0,0:0:0:0:
113,384,57894,2,0,P|112:330|117:276,1,107.999996704102,4|0,0:0|0:0,0:0:0:0:
22,23,58247,6,0,P|28:104|22:185,1,161.999995056153,12|0,0:0|0:0,0:0:0:0:
22,185,58600,2,0,B|45:235|45:235|92:210,1,107.999996704102,2|0,0:1|0:0,0:0:0:0:
138,157,58864,1,0,0:0:0:0:
134,153,58953,2,0,L|190:157,1,53.9999983520508,12|0,0:0|0:0,0:0:0:0:
259,162,59129,1,0,0:0:0:0:
415,80,59306,1,2,0:1:0:0:
452,245,59482,1,0,0:0:0:0:
484,161,59658,6,0,B|400:142|416:199|328:180,1,161.999995056153,2|0,0:0|0:0,0:0:0:0:
380,251,60011,2,0,B|382:300|382:300|387:308|387:308|391:357,1,107.999996704102,0|8,0:0|0:0,0:0:0:0:
440,363,60276,1,0,0:0:0:0:
474,328,60364,1,12,0:0:0:0:
292,293,60541,1,2,0:0:0:0:
243,298,60629,1,0,0:0:0:0:
209,263,60717,2,0,B|187:231|155:234|155:234|136:254|119:256,1,107.999996704102,2|0,0:1|0:0,0:0:0:0:
66,23,61070,6,0,B|59:87|31:64|25:122,1,107.999996704102,6|0,0:0|0:0,0:0:0:0:
38,192,61335,1,0,0:0:0:0:
43,197,61423,2,0,P|69:201|95:193,1,53.9999983520508,2|0,0:1|0:0,0:0:0:0:
150,140,61600,2,0,P|140:114|120:96,1,53.9999983520508,0|0,0:0|0:0,0:0:0:0:
25,120,61776,6,0,B|36:95|63:94|63:94|165:116|165:116|192:115|204:91,1,202.500007724762,12|0,0:0|0:0,0:0:0:0:
204,90,62129,6,0,L|196:26,1,53.9999983520508,12|0,0:0|0:0,0:0:0:0:
207,189,62306,1,2,0:0:0:0:
214,187,62394,1,0,0:0:0:0:
221,186,62482,6,0,P|298:184|332:253,1,161.999995056153,12|0,0:0|0:0,0:0:0:0:
317,325,62835,2,0,B|284:345|284:345|217:325,1,107.999996704102,2|2,0:1|0:1,0:0:0:0:
110,247,63100,1,0,0:0:0:0:
106,251,63188,2,0,B|128:283|160:280|160:280|179:260|196:258,1,107.999996704102,12|2,0:0|0:0,0:0:0:0:
320,160,63541,2,0,P|303:209|333:253,1,107.999996704102,6|0,0:0|0:0,0:0:0:0:
447,100,63894,6,0,P|441:172|374:200,1,153.000002918243,12|2,0:0|0:0,0:0:0:0:
366,97,64159,1,0,0:0:0:0:
366,89,64247,2,0,L|366:9,1,76.5000014591217,8|0,0:0|0:0,0:0:0:0:
199,171,64423,6,0,P|213:216|258:231,1,99.0000030212403,0|0,0:0|0:0,0:0:0:0:
320,160,64600,6,0,B|341:247|341:247|326:282|326:282|354:380,1,229.500004377365,8|2,0:0|0:1,0:0:0:0:
354,380,64953,6,0,P|305:371|247:367,1,99.0000030212403,2|0,0:0|0:0,0:0:0:0:
59,273,65129,1,0,0:0:0:0:
59,339,65217,1,0,0:0:0:0:
124,350,65306,6,0,B|215:343|167:303|262:296,1,153.000002918243,12|2,0:0|0:0,0:0:0:0:
135,273,65570,1,0,0:0:0:0:
133,264,65659,2,0,P|130:227|118:190,1,76.5000014591217,8|0,0:0|0:0,0:0:0:0:
312,14,65835,6,0,P|297:59|252:74,1,99.0000030212403,0|0,0:0|0:0,0:0:0:0:
203,0,66012,6,0,P|221:118|213:234,1,229.500004377365,8|2,0:0|0:1,0:0:0:0:
215,227,66365,6,0,B|268:217|258:239|314:229,1,99.0000030212403,2|0,0:0|0:0,0:0:0:0:
499,103,66541,1,0,0:0:0:0:
499,37,66629,1,0,0:0:0:0:
434,26,66718,6,0,P|375:52|386:130,1,153.000002918243,12|2,0:0|0:0,0:0:0:0:
453,170,66982,1,0,0:0:0:0:
456,176,67070,2,0,P|463:211|462:253,1,76.5000014591217,8|0,0:0|0:0,0:0:0:0:
377,281,67247,6,0,P|359:236|312:229,1,99.0000030212403,0|0,0:0|0:0,0:0:0:0:
307,347,67423,6,0,B|257:221|333:260|282:123,1,229.500004377365,8|2,0:0|0:1,0:0:0:0:
283,124,67776,6,0,B|236:130|236:130|230:134|230:134|185:139,1,99.0000030212403,2|0,0:0|0:0,0:0:0:0:
42,306,67953,1,0,0:0:0:0:
79,361,68041,1,0,0:0:0:0:
145,366,68129,6,0,B|183:286|128:297|159:217,1,153.000002918243,12|2,0:0|0:0,0:0:0:0:
30,236,68394,1,0,0:0:0:0:
43,233,68482,2,0,P|73:211|73:174,1,76.5000014591217,8|0,0:0|0:0,0:0:0:0:
72,18,68659,6,0,P|82:64|127:80,1,99.0000030212403,0|0,0:0|0:0,0:0:0:0:
197,1,68835,6,0,P|156:78|167:238,1,229.500004377365,8|2,0:0|0:1,0:0:0:0:
158,217,69188,6,0,L|263:224,1,99.0000030212403,2|0,0:0|0:0,0:0:0:0:
461,266,69364,1,0,0:0:0:0:
487,327,69453,1,0,0:0:0:0:
437,372,69541,6,0,B|346:365|386:320|301:313,1,153.000002918243,12|2,0:0|0:0,0:0:0:0:
222,356,69806,1,0,0:0:0:0:
220,364,69894,2,0,P|222:324|229:289,1,76.5000014591217,8|0,0:0|0:0,0:0:0:0:
396,146,70070,6,0,P|356:171|358:218,1,99.0000030212403,0|0,0:0|0:0,0:0:0:0:
461,266,70247,6,0,B|353:246|353:246|348:240|348:240|238:219,1,229.500004377365,8|2,0:0|0:1,0:0:0:0:
238,219,70600,6,0,P|249:170|253:121,1,99.0000030212403,2|0,0:0|0:0,0:0:0:0:
37,261,70776,1,2,0:0:0:0:
15,323,70864,1,0,0:0:0:0:
55,378,70953,6,0,P|133:363|141:295,1,153.000002918243,12|2,0:0|0:0,0:0:0:0:
107,235,71217,1,0,0:0:0:0:
103,224,71306,2,0,P|96:186|96:148,1,76.5000014591217,8|0,0:0|0:0,0:0:0:0:
32,0,71482,6,0,P|76:7|82:53,1,99.0000030212403,0|0,0:0|0:0,0:0:0:0:
4,98,71659,6,0,P|109:69|226:92,1,229.500004377365,8|2,0:0|0:1,0:0:0:0:
225,91,72011,6,0,B|232:145|206:141|211:187,1,99.0000030212403,2|0,0:0|0:0,0:0:0:0:
389,138,72188,1,2,0:0:0:0:
401,72,72276,1,0,0:0:0:0:
373,10,72364,6,0,P|321:64|317:144,1,153.000002918243,12|2,0:0|0:0,0:0:0:0:
286,221,72629,1,0,0:0:0:0:
297,222,72717,2,0,P|323:249|339:283,1,76.5000014591217,8|0,0:0|0:0,0:0:0:0:
123,313,72894,6,0,P|130:266|175:256,1,99.0000030212403,0|0,0:0|0:0,0:0:0:0:
236,341,73070,6,0,B|99:312|141:385|10:355,1,229.500004377365,8|2,0:0|0:1,0:0:0:0:
13,355,73423,6,0,B|17:312|17:312|21:307|21:307|28:257,1,99.0000030212403,2|0,0:0|0:0,0:0:0:0:
55,56,73600,1,2,0:0:0:0:
11,106,73688,1,0,0:0:0:0:
29,170,73776,6,0,P|65:184|97:169,1,76.5000014591217,12|0,0:0|0:0,0:0:0:0:
172,180,73953,2,0,L|187:105,1,76.5000014591217,2|0,0:0|0:0,0:0:0:0:
426,75,74129,2,0,P|390:61|358:76,1,76.5000014591217,12|0,0:0|0:0,0:0:0:0:
283,65,74306,6,0,B|273:110|273:110|274:116|274:116|261:178,1,99.0000030212403,2|0,0:0|0:0,0:0:0:0:
249,240,74482,6,0,L|323:255,1,76.5000014591217,12|0,0:0|0:0,0:0:0:0:
495,269,74659,5,12,0:0:0:0:
489,192,74747,1,0,0:0:0:0:
412,196,74835,2,0,L|337:180,1,76.5000014591217,2|2,0:0|0:0,0:0:0:0:
174,259,75011,1,2,0:0:0:0:
168,336,75099,1,2,0:0:0:0:
91,332,75188,6,0,L|64:58,2,270.000010299683,12|0|0,0:1|0:0|0:0,0:0:0:0:
427,172,76423,2,0,L|447:230,1,45,0|0,0:0|0:0,0:0:0:0:
421,332,76600,6,0,L|448:58,1,270.000010299683,8|0,0:1|0:0,0:0:0:0:
356,59,77188,5,0,0:0:0:0:
346,72,77247,5,0,0:0:0:0:
343,85,77306,6,0,B|337:42|295:22|257:54|266:95|266:95|276:134|249:169|203:158|191:118,1,270.000010299683,0|0,0:0|0:0,0:0:0:0:
122,88,77923,1,0,0:0:0:0:
59,133,78011,6,0,L|40:312,2,180,12|0|0,0:0|0:0|0:0,0:0:0:0:
462,222,79247,1,0,0:0:0:0:
453,133,79423,6,0,L|471:312,2,180,8|0|0,0:0|0:0|0:0,0:0:0:0:
290,56,80306,2,0,P|298:35|297:13,2,45,0|0|0,0:0|0:0|0:0,0:0:0:0:
184,107,80659,5,0,0:0:0:0:
125,76,80747,1,0,0:0:0:0:
110,11,80835,6,0,B|117:154|74:124|82:291,2,270.000010299683,12|0|0,0:1|0:0|0:0,0:0:0:0:
391,143,82070,2,0,L|435:144,1,45,0|0,0:0|0:0,0:0:0:0:
402,11,82247,6,0,B|395:154|438:124|430:291,1,270.000010299683,8|0,0:1|0:0,0:0:0:0:
362,344,82835,5,0,0:0:0:0:
357,338,82894,5,0,0:0:0:0:
352,332,82953,6,0,B|329:298|329:298|246:308|246:308|234:338|234:338|165:368|165:368|131:350,1,270,0|0,0:0|0:0,0:0:0:0:
167,292,83570,1,0,0:0:0:0:
163,225,83659,6,0,P|161:136|178:48,2,180,12|0|0,0:0|0:0|0:0,0:0:0:0:
287,279,84894,1,0,0:0:0:0:
335,273,84982,1,0,0:0:0:0:
349,225,85070,6,0,P|350:136|333:48,2,180,8|0|0,0:0|0:0|0:0,0:0:0:0:
378,364,85953,2,0,P|381:342|396:325,1,45,0|0,0:0|0:0,0:0:0:0:
429,251,86129,2,0,P|449:242|471:247,1,45,0|0,0:0|0:0,0:0:0:0:
313,294,86306,2,0,P|291:298|270:289,1,45,0|0,0:0|0:0,0:0:0:0:
205,157,86482,6,0,L|185:300,1,121.500000463486,12|0,0:0|0:0,0:0:0:0:
176,345,86747,1,0,0:0:0:0:
176,353,86835,2,0,B|123:365|98:323|98:323|71:279|14:294,1,182.250000695229,2|0,0:1|0:0,0:0:0:0:
18,292,87188,1,12,0:0:0:0:
124,118,87364,1,0,0:0:0:0:
126,109,87453,1,0,0:0:0:0:
127,102,87541,2,0,L|107:245,1,121.500000463486,2|0,0:1|0:0,0:0:0:0:
275,68,87894,6,0,L|295:211,1,121.500000463486,12|0,0:0|0:0,0:0:0:0:
304,256,88159,1,0,0:0:0:0:
304,264,88247,2,0,B|357:276|382:234|382:234|409:190|466:205,1,182.250000695229,12|0,0:0|0:0,0:0:0:0:
462,203,88600,1,12,0:0:0:0:
402,8,88776,1,0,0:0:0:0:
374,3,88865,1,0,0:0:0:0:
353,13,88953,2,0,L|362:84,1,60.7500002317429,2|0,0:1|0:0,0:0:0:0:
351,196,89129,2,0,L|279:186,1,60.7500002317429,0|0,0:0|0:0,0:0:0:0:
210,55,89306,6,0,L|190:198,1,121.500000463486,12|0,0:0|0:0,0:0:0:0:
181,243,89571,1,0,0:0:0:0:
181,251,89659,2,0,B|128:263|103:221|103:221|76:177|19:192,1,182.250000695229,2|0,0:1|0:0,0:0:0:0:
23,190,90012,1,10,0:1:0:0:
129,16,90188,1,0,0:0:0:0:
131,7,90277,1,0,0:0:0:0:
132,0,90365,2,0,L|112:143,1,121.500000463486,12|0,0:0|0:0,0:0:0:0:
45,267,90629,1,0,0:0:0:0:
43,258,90717,6,0,P|127:194|233:191,1,216,10|2,0:0|0:0,0:0:0:0:
296,125,91070,1,10,0:0:0:0:
303,104,91159,1,2,0:0:0:0:
310,82,91247,2,0,L|318:154,1,60.7500002317429,4|2,0:0|0:0,0:0:0:0:
259,297,91423,1,10,0:1:0:0:
266,318,91512,1,0,0:0:0:0:
273,339,91600,2,0,L|281:262,1,60.7500002317429,2|0,0:1|0:0,0:0:0:0:
362,227,91776,1,10,0:1:0:0:
372,221,91864,1,0,0:0:0:0:
378,229,91953,1,2,0:1:0:0:
389,225,92041,1,0,0:0:0:0:
457,219,92129,6,0,P|380:248|286:200,1,182.250000695229,12|0,0:0|0:0,0:0:0:0:
84,274,92482,2,0,P|161:302|255:254,1,182.250000695229,12|0,0:0|0:0,0:0:0:0:
316,121,92835,6,0,B|331:90|316:45|285:60|269:30|255:0|255:0|241:30|225:60|195:45|180:90|195:121,1,288,12|10,0:0|0:1,0:0:0:0:
256,229,93276,1,0,0:0:0:0:
256,242,93364,6,0,L|256:170,1,72,2|0,0:0|0:0,0:0:0:0:
381,28,93541,6,0,P|334:61|316:124,1,121.500000463486,12|0,0:0|0:0,0:0:0:0:
113,167,93894,2,0,P|159:200|178:261,1,121.500000463486,12|0,0:0|0:0,0:0:0:0:
341,331,94247,2,0,L|462:335,1,121.500000463486,12|0,0:0|0:0,0:0:0:0:
171,331,94600,2,0,L|107:333,1,60.7500002317429,10|0,0:1|0:0,0:0:0:0:
256,272,94776,2,0,L|256:208,1,60.7500002317429,0|0,0:0|0:0,0:0:0:0:
465,187,94953,6,0,B|438:208|437:240|437:240|380:285|332:230,1,182.250000695229,12|0,0:0|0:0,0:0:0:0:
332,230,95306,1,10,0:1:0:0:
105,258,95482,1,2,0:1:0:0:
117,260,95570,1,0,0:1:0:0:
128,260,95659,2,0,P|156:250|178:230,1,60.7500002317429,12|0,0:0|0:0,0:0:0:0:
256,80,95835,2,0,L|256:160,1,60.7500002317429,0|0,0:0|0:0,0:0:0:0:
256,272,96011,1,10,0:1:0:0:
371,173,96188,1,2,0:1:0:0:
378,172,96276,1,0,0:1:0:0:
382,168,96364,6,0,P|359:147|331:137,1,60.7500002317429,12|0,0:0|0:0,0:0:0:0:
130,168,96541,2,0,P|152:147|180:137,1,60.7500002317429,0|0,0:0|0:0,0:0:0:0:
314,37,96717,2,0,B|268:21|238:52|193:37,1,121.500000463486,10|2,0:1|0:1,0:0:0:0:
115,14,96982,1,0,0:1:0:0:
111,23,97070,6,0,P|110:55|125:82,1,60.7500002317429,12|0,0:0|0:0,0:0:0:0:
388,79,97247,2,0,P|402:53|401:23,1,60.7500002317429,0|0,0:0|0:0,0:0:0:0:
81,221,97423,6,0,P|108:237|139:238,1,60.7500002317429,8|0,0:0|0:0,0:0:0:0:
430,221,97600,2,0,P|405:237|375:239,1,60.7500002317429,0|0,0:0|0:0,0:0:0:0:
256,80,97776,6,0,B|256:132|256:132|252:144|252:144|260:144|260:144|256:156|256:156|256:216,1,144,12|0,0:0|0:0,0:0:0:0:
224,272,98041,1,0,0:0:0:0:
288,272,98129,1,2,0:1:0:0:
81,221,98306,5,12,0:0:0:0:
41,255,98394,1,0,0:0:0:0:
44,306,98482,1,0,0:0:0:0:
87,335,98570,1,0,0:0:0:0:
137,318,98658,1,2,0:1:0:0:
170,125,98835,5,12,0:1:0:0:
145,142,98923,1,0,0:0:0:0:
113,149,99011,1,2,0:0:0:0:
83,143,99100,1,0,0:0:0:0:
79,62,99188,5,12,0:0:0:0:
86,20,99276,1,0,0:0:0:0:
110,55,99364,1,0,0:0:0:0:
117,13,99453,1,0,0:0:0:0:
141,49,99541,1,2,0:1:0:0:
303,45,99717,5,12,0:0:0:0:
339,84,99805,1,0,0:0:0:0:
388,105,99893,1,0,0:0:0:0:
442,104,99981,1,0,0:0:0:0:
490,81,100069,1,2,0:1:0:0:
338,173,100247,5,12,0:1:0:0:
313,156,100335,1,0,0:0:0:0:
281,149,100423,1,2,0:0:0:0:
251,155,100512,1,0,0:0:0:0:
247,236,100600,5,12,0:0:0:0:
254,278,100688,1,0,0:0:0:0:
278,243,100776,1,0,0:0:0:0:
285,285,100865,1,0,0:0:0:0:
309,249,100953,1,2,0:1:0:0:
490,331,101129,5,12,0:0:0:0:
458,289,101217,1,0,0:0:0:0:
406,281,101305,1,0,0:0:0:0:
364,311,101393,1,0,0:0:0:0:
354,363,101481,1,2,0:1:0:0:
90,335,101659,5,12,0:1:0:0:
115,352,101747,1,0,0:0:0:0:
147,359,101835,1,2,0:0:0:0:
177,353,101924,1,0,0:0:0:0:
181,272,102012,5,12,0:0:0:0:
174,230,102100,1,0,0:0:0:0:
150,265,102188,1,0,0:0:0:0:
143,223,102277,1,0,0:0:0:0:
119,259,102365,1,2,0:1:0:0:
4,41,102541,5,12,0:0:0:0:
17,92,102629,1,0,0:0:0:0:
53,132,102717,1,0,0:0:0:0:
102,152,102805,1,0,0:0:0:0:
156,147,102893,1,2,0:1:0:0:
288,20,103070,5,12,0:1:0:0:
204,80,103159,5,0,0:0:0:0:
307,80,103247,5,2,0:1:0:0:
224,20,103334,5,2,0:1:0:0:
255,117,103423,6,0,B|255:169|255:169|251:181|251:181|259:181|259:181|255:193|255:193|255:253,1,144,12|0,0:0|0:0,0:0:0:0:
288,307,103688,1,0,0:0:0:0:
224,307,103776,1,2,0:1:0:0:
431,221,103953,5,12,0:0:0:0:
471,255,104041,1,0,0:0:0:0:
468,306,104129,1,0,0:0:0:0:
425,335,104217,1,0,0:0:0:0:
375,318,104305,1,2,0:1:0:0:
223,197,104482,5,12,0:1:0:0:
257,218,104570,1,0,0:0:0:0:
297,224,104658,1,2,0:0:0:0:
338,215,104746,1,0,0:0:0:0:
340,131,104835,5,12,0:0:0:0:
290,144,104923,1,0,0:0:0:0:
246,117,105011,1,0,0:0:0:0:
300,78,105099,1,0,0:0:0:0:
305,12,105188,1,2,0:1:0:0:
85,5,105364,5,12,0:0:0:0:
117,47,105452,1,0,0:0:0:0:
140,96,105540,1,0,0:0:0:0:
152,149,105628,1,0,0:0:0:0:
152,203,105716,1,2,0:1:0:0:
27,380,105894,5,12,0:1:0:0:
6,346,105982,1,0,0:0:0:0:
0,306,106070,1,0,0:0:0:0:
9,265,106158,1,0,0:0:0:0:
93,263,106247,5,12,0:0:0:0:
80,313,106335,1,0,0:0:0:0:
107,357,106423,1,2,0:0:0:0:
145,303,106511,1,0,0:0:0:0:
210,299,106600,1,2,0:0:0:0:
464,329,106776,5,12,0:0:0:0:
423,295,106864,1,0,0:0:0:0:
370,292,106952,1,2,0:0:0:0:
326,323,107040,1,0,0:0:0:0:
310,373,107128,1,2,0:1:0:0:
504,194,107306,5,12,0:1:0:0:
470,215,107394,1,0,0:0:0:0:
430,221,107482,1,2,0:0:0:0:
389,212,107570,1,0,0:0:0:0:
387,128,107659,5,12,0:0:0:0:
437,141,107747,1,0,0:0:0:0:
481,114,107835,1,2,0:0:0:0:
427,76,107923,1,0,0:0:0:0:
423,11,108012,1,2,0:0:0:0:
195,96,108188,5,12,0:0:0:0:
185,147,108276,1,0,0:0:0:0:
214,191,108364,1,2,0:0:0:0:
265,203,108452,1,0,0:0:0:0:
310,175,108540,1,2,0:1:0:0:
332,335,108717,5,12,0:0:0:0:
279,322,108806,1,0,0:0:0:0:
257,273,108894,1,6,0:0:0:0:
235,322,108982,1,0,0:0:0:0:
182,335,109070,5,12,0:0:0:0:
91,9,109423,1,2,0:0:0:0:
126,251,109776,2,0,B|154:162|101:189|127:92,1,161.999995056153,2|0,0:1|0:0,0:0:0:0:
94,161,110482,5,4,0:0:0:0:
163,180,110835,1,4,0:0:0:0:
301,277,111188,2,0,P|317:274|330:270,2,26.9999991760254,10|0|0,0:1|0:0|0:0,0:0:0:0:
33,354,111541,1,0,0:0:0:0:
103,369,111717,1,0,0:0:0:0:
104,374,111806,1,0,0:0:0:0:
104,378,111894,6,0,P|140:339|192:338,1,107.999996704102,12|2,0:0|0:0,0:0:0:0:
192,338,112423,1,0,0:0:0:0:
78,298,112600,2,0,P|62:218|27:145,1,161.999995056153,2|0,0:1|0:0,0:0:0:0:
23,141,113217,1,0,0:0:0:0:
27,145,113306,6,0,L|41:29,1,107.999996704102,4|4,0:0|0:0,0:0:0:0:
14,215,113835,1,0,0:0:0:0:
105,379,114011,5,10,0:1:0:0:
81,285,114188,2,0,L|97:258,1,26.9999991760254,0|0,0:0|0:0,0:0:0:0:
199,71,114364,6,0,L|215:98,1,26.9999991760254,0|0,0:0|0:0,0:0:0:0:
317,321,114541,1,0,0:0:0:0:
324,328,114629,1,0,0:0:0:0:
330,335,114717,5,12,0:0:0:0:
421,9,115070,1,2,0:0:0:0:
386,251,115423,2,0,B|358:162|411:189|385:92,1,161.999995056153,2|0,0:1|0:0,0:0:0:0:
418,161,116129,5,4,0:0:0:0:
349,180,116482,1,4,0:0:0:0:
211,277,116835,2,0,P|195:274|182:270,2,26.9999991760254,10|0|0,0:1|0:0|0:0,0:0:0:0:
479,354,117188,1,0,0:0:0:0:
409,369,117364,1,0,0:0:0:0:
408,374,117453,1,0,0:0:0:0:
407,378,117541,6,0,P|371:339|319:338,1,107.999996704102,12|2,0:0|0:0,0:0:0:0:
319,338,118070,1,0,0:0:0:0:
434,298,118247,2,0,P|449:218|484:145,1,161.999995056153,2|0,0:1|0:0,0:0:0:0:
489,141,118864,1,0,0:0:0:0:
485,145,118953,6,0,L|471:29,1,107.999996704102,4|4,0:0|0:0,0:0:0:0:
498,215,119482,1,0,0:0:0:0:
407,379,119658,5,10,0:1:0:0:
431,285,119835,2,0,L|415:258,1,26.9999991760254,0|0,0:0|0:0,0:0:0:0:
313,71,120011,6,0,L|297:98,1,26.9999991760254,0|0,0:0|0:0,0:0:0:0:
195,321,120188,1,0,0:0:0:0:
188,328,120276,1,0,0:0:0:0:
182,335,120364,5,0,0:0:0:0:
