osu file format v14

[General]
AudioFilename: audio.mp3
AudioLeadIn: 0
PreviewTime: 75005
Countdown: 0
SampleSet: Normal
StackLeniency: 0.3
Mode: 0
LetterboxInBreaks: 0
WidescreenStoryboard: 1

[Editor]
Bookmarks: 41300,46417,63888,67064,69888,72711,80829,97770,119653
DistanceSpacing: 1.6
BeatDivisor: 3
GridSize: 4
TimelineZoom: 1.9

[Metadata]
Title:Kagachi
TitleUnicode:蛇神
Artist:Zektbach
ArtistUnicode:Zektbach
Creator:09kami
Version:SD's Hard
Source:pop'n music 18 せんごく列伝
Tags:Beatmania IIDX ORIENTAL MYTHOLOGY オリエンタルミソロジー BeatStream REFLEC BEAT plus ポップンリズミン PandaHero TT Mouse Yusomi lililing SDpeople kanor Muziyami TtmnZk
BeatmapID:2170016
BeatmapSetID:894104

[Difficulty]
HPDrainRate:4
CircleSize:3
OverallDifficulty:6
ApproachRate:8
SliderMultiplier:1.1
SliderTickRate:1

[Events]
//Background and Video events
0,0,"20140708131851_tZwGz.jpg",0,0
//Break Periods
//Storyboard Layer 0 (Background)
//Storyboard Layer 1 (Fail)
//Storyboard Layer 2 (Pass)
//Storyboard Layer 3 (Foreground)
//Storyboard Layer 4 (Overlay)
//Storyboard Sound Samples

[TimingPoints]
6012,352.941176470588,4,2,1,75,1,0
6012,-100,4,2,1,75,0,0
17747,-100,4,2,1,5,0,0
17835,-100,4,2,1,75,0,0
18188,-100,4,2,1,5,0,0
18364,-100,4,2,1,75,0,0
20570,-100,4,2,1,5,0,0
20659,-100,4,2,1,75,0,0
21011,-100,4,2,1,5,0,0
21188,-100,4,2,1,75,0,0
23394,-100,4,2,1,5,0,0
23482,-100,4,2,1,75,0,0
23835,-100,4,2,1,5,0,0
24011,-100,4,2,1,75,0,0
26217,-100,4,2,1,5,0,0
26306,-100,4,2,1,75,0,0
26659,-100,4,2,1,5,0,0
26835,-100,4,2,1,75,0,0
28511,-100,4,2,1,5,0,0
30011,-100,4,2,1,50,0,0
41306,-100,4,2,1,60,0,0
52600,-100,4,2,1,65,0,0
63894,-100,4,1,1,75,0,0
75188,-100,4,2,1,45,0,0
86129,-100,4,2,1,55,0,0
86482,-100,4,2,1,65,0,0
96364,-133.333333333333,4,2,1,65,0,0
97776,-66.6666666666667,4,2,1,75,0,0
104835,-66.6666666666667,4,2,1,90,0,0
109070,-100,4,2,1,60,0,0
111541,-100,4,2,1,66,0,0

[Colours]
Combo1 : 150,128,114
Combo2 : 202,190,183
Combo3 : 204,136,138
Combo4 : 134,181,206

[HitObjects]
145,110,6011,5,4,0:0:0:0:
159,274,6364,2,0,L|163:328,1,55,0|2,0:0|0:0,0:0:0:0:
204,191,6717,1,4,0:0:0:0:
204,191,6894,1,0,0:0:0:0:
204,191,7070,1,0,0:0:0:0:
377,218,7423,5,2,0:1:0:0:
464,231,7600,2,0,L|506:236,2,27.5,0|0|2,0:0|0:0|0:1,0:0:0:0:
343,139,8129,5,2,0:0:0:0:
325,286,8482,1,0,1:0:0:0:
206,196,8835,5,4,0:0:0:0:
54,260,9188,2,0,L|-4:282,1,55,0|2,0:0|0:0,0:0:0:0:
159,297,9541,1,4,0:0:0:0:
159,297,9718,1,0,0:0:0:0:
159,297,9894,1,0,0:0:0:0:
333,320,10247,5,2,0:1:0:0:
419,338,10423,2,0,L|460:347,2,27.5,0|0|2,0:0|0:0|0:1,0:0:0:0:
274,383,10952,5,2,0:0:0:0:
307,239,11305,1,0,1:2:0:0:
166,283,11659,5,4,0:0:0:0:
123,112,12011,2,0,L|113:56,1,55,0|2,0:0|0:0,0:0:0:0:
60,173,12364,1,4,0:0:0:0:
146,195,12541,1,0,0:0:0:0:
232,217,12717,1,0,0:0:0:0:
356,92,13070,5,2,0:1:0:0:
442,114,13247,2,0,L|479:127,2,27.5,0|0|2,0:0|0:0|0:1,0:0:0:0:
333,7,13776,5,6,0:0:0:0:
294,155,14129,1,10,1:1:0:0:
147,196,14482,5,4,0:0:0:0:
318,239,14835,2,0,L|374:249,1,55,0|2,0:0|0:0,0:0:0:0:
257,302,15188,1,4,0:0:0:0:
235,216,15365,1,0,0:0:0:0:
213,130,15541,1,0,0:0:0:0:
87,255,15893,5,2,0:1:0:0:
68,341,16070,2,0,L|58:387,2,27.5,0|0|2,0:0|0:0|0:1,0:0:0:0:
170,228,16423,1,0,0:0:0:0:
170,228,16600,6,0,L|299:211,1,110,8|4,0:0|1:2,0:0:0:0:
361,182,17129,5,8,1:0:0:0:
300,119,17306,6,0,P|250:97|168:128,1,137.5,12|0,1:1|0:0,0:0:0:0:
153,147,17835,1,0,0:0:0:0:
119,228,18011,6,0,L|124:282,1,55,2|2,0:0|0:1,0:0:0:0:
105,370,18364,1,8,0:0:0:0:
271,384,18717,6,0,L|349:375,2,55,12|0|0,1:1|0:0|0:0,0:0:0:0:
194,338,19247,2,0,P|214:280|200:233,1,110,0|2,0:0|0:1,0:0:0:0:
105,370,19776,1,2,0:0:0:0:
271,384,20129,6,0,P|329:347|397:355,1,137.5,12|0,1:1|0:0,0:0:0:0:
420,373,20659,1,0,0:0:0:0:
464,297,20835,2,0,L|459:225,1,55,2|2,0:0|0:1,0:0:0:0:
373,236,21188,1,8,0:0:0:0:
508,165,21541,6,0,L|520:97,2,55,12|0|0,1:1|0:0|0:0,0:0:0:0:
421,162,22070,2,0,P|368:149|308:175,1,110,0|2,0:0|0:1,0:0:0:0:
460,242,22600,1,2,0:0:0:0:
317,167,22953,6,0,P|267:189|185:158,1,137.5,12|0,1:0|0:0,0:0:0:0:
170,139,23482,1,0,0:0:0:0:
95,91,23659,2,0,L|79:144,1,55,2|2,0:0|0:1,0:0:0:0:
5,203,24011,1,8,0:0:0:0:
95,322,24364,6,0,L|97:381,2,55,12|0|0,1:0|0:0|0:0,0:0:0:0:
91,234,24894,2,0,P|142:210|168:164,1,110,0|2,0:0|0:1,0:0:0:0:
5,203,25423,1,2,0:0:0:0:
167,164,25776,6,0,P|217:142|299:173,1,137.5,12|0,1:0|0:0,0:0:0:0:
314,192,26305,1,0,0:0:0:0:
349,272,26482,2,0,L|415:266,1,55,2|2,0:0|0:1,0:0:0:0:
431,183,26835,1,8,0:0:0:0:
490,247,27011,1,2,0:0:0:0:
456,99,27188,6,0,L|466:42,2,55,12|0|0,1:0|0:0|0:0,0:0:0:0:
431,183,27717,2,0,P|371:117|385:49,1,165,2|2,0:0|0:0,0:0:0:0:
62,220,30011,6,0,P|114:195|183:218,1,110,4|8,0:0|0:0,0:0:0:0:
124,283,30541,1,0,0:0:0:0:
211,281,30717,2,0,L|278:281,1,55,0|0,1:0|0:0,0:0:0:0:
313,206,31070,1,0,0:0:0:0:
466,242,31423,6,0,P|501:201|507:147,1,110,4|2,0:0|0:0,0:0:0:0:
382,253,32129,2,0,P|405:301|453:326,1,110,0|0,1:0|0:0,0:0:0:0:
409,173,32835,2,0,P|354:173|312:206,1,110,4|4,0:0|0:0,0:0:0:0:
406,282,33541,6,0,L|409:172,1,110,2|0,0:1|0:0,0:0:0:0:
317,79,34247,2,0,L|313:188,1,110,2|0,0:1|0:0,0:0:0:0:
216,281,34953,2,0,L|219:171,1,110,2|0,0:1|0:0,0:0:0:0:
375,250,35659,6,0,P|400:198|377:129,1,110,4|8,0:0|0:0,0:0:0:0:
312,188,36189,1,0,0:0:0:0:
314,101,36365,2,0,L|314:34,1,55,0|0,1:0|0:0,0:0:0:0:
389,0,36718,1,0,0:0:0:0:
218,62,37071,6,0,P|272:66|313:100,1,110,4|2,0:0|0:0,0:0:0:0:
150,113,37777,2,0,P|132:62|148:11,1,110,0|0,1:0|0:0,0:0:0:0:
226,151,38483,2,0,P|187:190|133:196,1,110,4|4,0:0|0:0,0:0:0:0:
214,272,39189,6,0,L|134:196,1,110,2|0,0:1|0:0,0:0:0:0:
133,65,39894,2,0,L|214:140,1,110,2|0,0:1|0:0,0:0:0:0:
348,137,40601,2,0,L|268:61,1,110,2|0,0:1|0:0,0:0:0:0:
133,65,41306,6,0,L|63:73,2,55,12|0|0,0:1|0:0|0:0,0:0:0:0:
199,6,41835,1,8,0:1:0:0:
78,71,42188,5,0,0:0:0:0:
78,71,42364,2,0,L|8:79,1,55,0|0,0:0|0:0,0:0:0:0:
4,163,42717,2,0,L|58:156,1,55,12|0,0:1|0:0,0:0:0:0:
95,236,43070,2,0,L|25:244,1,55,0|8,0:0|0:1,0:0:0:0:
192,300,43600,5,0,0:0:0:0:
192,300,43776,2,0,L|262:292,1,55,0|0,0:0|0:0,0:0:0:0:
266,208,44129,2,0,L|212:215,1,55,12|0,0:1|0:0,0:0:0:0:
175,135,44482,2,0,L|245:127,1,55,0|8,0:0|0:1,0:0:0:0:
343,61,45011,5,0,0:0:0:0:
343,61,45187,2,0,L|413:69,1,55,0|0,0:0|0:0,0:0:0:0:
417,153,45540,2,0,L|363:146,1,55,12|0,0:1|0:0,0:0:0:0:
326,226,45893,2,0,L|396:234,1,55,0|8,0:0|0:1,0:0:0:0:
456,358,46423,5,0,0:0:0:0:
456,358,46599,2,0,L|386:366,1,55,0|0,0:0|0:0,0:0:0:0:
304,328,46952,2,0,L|250:335,1,55,12|0,0:1|0:0,0:0:0:0:
158,305,47305,2,0,L|88:313,1,55,0|8,0:0|0:1,0:0:0:0:
42,194,47835,5,0,0:0:0:0:
42,194,48011,2,0,L|112:186,1,55,0|0,0:0|0:0,0:0:0:0:
194,224,48364,2,0,L|248:217,1,55,12|0,0:1|0:0,0:0:0:0:
340,247,48717,2,0,L|410:239,1,55,0|8,0:0|0:1,0:0:0:0:
467,142,49247,5,0,0:0:0:0:
467,142,49423,2,0,L|397:150,1,55,0|0,0:0|0:0,0:0:0:0:
315,112,49776,2,0,L|261:119,1,55,12|0,0:1|0:0,0:0:0:0:
169,89,50129,2,0,L|99:97,1,55,0|8,0:0|0:1,0:0:0:0:
16,22,50659,5,0,0:0:0:0:
16,22,50835,2,0,L|70:16,1,55,0|0,0:0|0:0,0:0:0:0:
142,76,51188,2,0,L|148:130,1,55,12|0,0:1|0:0,0:0:0:0:
99,206,51541,2,0,L|105:260,1,55,0|8,0:0|0:1,0:0:0:0:
138,342,51894,5,0,0:0:0:0:
216,380,52070,1,0,0:0:0:0:
303,369,52247,2,0,P|303:318|300:298,1,55,0|0,0:0|0:0,0:0:0:0:
276,228,52600,6,0,L|392:215,1,110,12|2,0:0|0:1,0:0:0:0:
425,137,53129,1,0,0:1:0:0:
357,80,53306,2,0,L|247:92,1,110,12|2,0:0|0:1,0:0:0:0:
86,162,54011,5,2,0:0:0:0:
155,233,54188,1,8,0:0:0:0:
250,233,54364,1,0,0:0:0:0:
414,162,54717,5,12,0:0:0:0:
345,233,54894,1,2,0:0:0:0:
250,233,55070,1,2,0:1:0:0:
109,127,55423,6,0,B|58:146|58:146|0:122,1,110,6|2,0:0|0:1,0:0:0:0:
148,214,56129,6,0,P|189:178|203:126,1,110,6|2,0:0|0:1,0:0:0:0:
109,127,56659,1,2,0:1:0:0:
54,201,56835,2,0,P|63:255|99:295,1,110,12|10,0:0|0:1,0:0:0:0:
148,214,57364,1,2,0:1:0:0:
109,127,57541,2,0,P|57:110|4:123,1,110,6|4,0:0|0:0,0:0:0:0:
148,214,58247,6,0,L|161:98,1,110,12|2,0:0|0:1,0:0:0:0:
239,65,58776,1,0,0:0:0:0:
296,133,58953,2,0,L|284:243,1,110,12|2,0:0|0:1,0:0:0:0:
219,378,59659,5,2,0:0:0:0:
148,309,59836,1,8,0:0:0:0:
148,214,60012,1,0,0:0:0:0:
219,50,60365,5,12,0:0:0:0:
148,119,60542,1,2,0:0:0:0:
148,214,60717,1,2,0:1:0:0:
262,347,61070,6,0,B|304:313|304:313|312:249,1,110,6|2,0:0|0:1,0:0:0:0:
391,103,61776,6,0,P|339:121|304:162,1,110,12|12,0:0|0:0,0:0:0:0:
391,199,62306,1,2,0:0:0:0:
471,155,62482,2,0,P|487:102|470:51,1,110,12|2,0:0|0:1,0:0:0:0:
390,15,63011,1,2,0:1:0:0:
303,30,63188,6,2,L|248:40,1,55,12|2,0:0|0:0,0:0:0:0:
336,113,63541,2,2,L|391:103,1,55,6|0,0:0|0:0,0:0:0:0:
273,189,63894,6,0,L|218:199,2,55,12|2|8,0:0|0:0|0:0,0:0:0:0:
441,256,64600,2,0,L|496:246,2,55,8|0|2,0:0|0:0|0:0,0:0:0:0:
336,113,65306,2,0,L|326:58,2,55,12|2|8,0:0|0:0|0:0,0:0:0:0:
269,281,66012,2,0,L|279:336,2,55,8|0|2,0:0|0:0|0:0,0:0:0:0:
123,182,66717,5,12,0:0:0:0:
123,182,66894,2,0,L|68:192,1,55,2|8,0:0|0:0,0:0:0:0:
291,249,67423,1,8,0:0:0:0:
291,249,67600,2,0,L|346:239,1,55,0|2,0:0|0:0,0:0:0:0:
186,106,68129,1,12,0:0:0:0:
186,106,68306,2,0,L|176:51,1,55,2|8,0:0|0:0,0:0:0:0:
119,274,68835,1,8,0:0:0:0:
119,274,69011,2,0,L|129:329,1,55,0|2,0:0|0:0,0:0:0:0:
241,192,69541,5,12,0:0:0:0:
241,192,69717,1,2,0:0:0:0:
241,192,69894,1,8,0:0:0:0:
409,259,70247,1,8,0:0:0:0:
409,259,70423,1,0,0:0:0:0:
409,259,70600,1,2,0:0:0:0:
304,116,70953,5,12,0:0:0:0:
304,116,71129,1,2,0:0:0:0:
304,116,71306,1,8,0:0:0:0:
237,284,71659,1,8,0:0:0:0:
237,284,71835,1,0,0:0:0:0:
237,284,72011,1,2,0:0:0:0:
67,330,72364,5,12,0:0:0:0:
49,243,72541,1,2,0:0:0:0:
132,271,72717,1,8,0:0:0:0:
128,95,73070,1,8,0:0:0:0:
194,38,73246,1,0,0:0:0:0:
212,124,73423,1,2,0:0:0:0:
366,209,73776,5,12,0:0:0:0:
395,291,73952,1,2,0:0:0:0:
308,275,74129,1,12,0:0:0:0:
133,298,74482,1,12,0:0:0:0:
217,271,74658,1,12,0:0:0:0:
149,214,74835,1,2,0:0:0:0:
150,126,75011,1,2,0:0:0:0:
171,118,75100,1,2,0:0:0:0:
197,125,75188,6,0,P|252:133|306:124,1,110,12|0,0:1|0:0,0:0:0:0:
391,107,75894,1,0,0:0:0:0:
399,240,76423,5,0,0:0:0:0:
458,303,76600,2,0,P|408:325|355:314,1,110,8|0,0:1|0:0,0:0:0:0:
399,240,77306,1,0,0:0:0:0:
53,303,78011,6,0,P|103:325|156:314,1,110,12|0,0:0|0:0,0:0:0:0:
113,240,78717,1,0,0:0:0:0:
399,144,79247,5,0,0:0:0:0:
458,80,79423,2,0,P|408:58|355:69,2,110,8|0|0,0:0|0:0|0:0,0:0:0:0:
53,80,80835,6,0,P|103:58|156:69,1,110,12|0,0:1|0:0,0:0:0:0:
113,144,81541,1,0,0:0:0:0:
399,240,82070,5,0,0:0:0:0:
458,303,82247,2,0,P|408:325|355:314,1,110,8|0,0:1|0:0,0:0:0:0:
399,240,82953,1,0,0:0:0:0:
53,303,83659,6,0,P|103:325|156:314,1,110,12|0,0:0|0:0,0:0:0:0:
113,240,84365,1,0,0:0:0:0:
399,144,84894,5,0,0:0:0:0:
458,80,85070,2,0,P|408:58|355:69,2,110,8|0|0,0:0|0:0|0:0,0:0:0:0:
431,224,86129,5,0,0:0:0:0:
399,144,86306,1,0,0:0:0:0:
344,210,86482,2,0,P|329:262|340:315,2,110,12|2|12,0:0|0:1|0:0,0:0:0:0:
486,160,87541,1,2,0:1:0:0:
458,79,87717,1,0,0:0:0:0:
399,142,87894,2,0,P|346:157|295:139,2,110,12|12|12,0:0|0:0|0:0,0:0:0:0:
261,64,88953,5,2,0:1:0:0:
295,139,89129,1,0,0:0:0:0:
210,132,89306,2,0,P|195:184|206:237,2,110,12|2|10,0:0|0:1|0:1,0:0:0:0:
349,71,90364,5,12,0:0:0:0:
380,237,90717,2,8,P|430:216|460:171,1,110,10|10,0:0|0:0,0:0:0:0:
375,151,91247,1,4,0:0:0:0:
409,7,91423,1,10,0:1:0:0:
375,151,91776,1,10,0:1:0:0:
407,318,92129,6,8,P|353:318|310:287,1,110,12|12,0:0|0:0,0:0:0:0:
380,237,92835,1,12,0:0:0:0:
135,137,93364,1,2,0:0:0:0:
161,221,93541,1,12,0:0:0:0:
189,67,93894,1,12,0:0:0:0:
251,230,94247,6,0,P|229:280|184:310,1,110,12|10,0:0|0:1,0:0:0:0:
161,221,94776,1,0,0:0:0:0:
212,149,94953,2,0,P|266:141|314:166,1,110,12|10,0:0|0:1,0:0:0:0:
251,230,95482,1,2,0:1:0:0:
161,221,95659,2,0,P|127:178|127:124,1,110,12|10,0:0|0:1,0:0:0:0:
189,61,96188,1,2,0:1:0:0:
251,230,96364,2,0,P|371:254|490:223,1,247.500009441376,12|8,0:0|0:0,0:0:0:0:
378,92,97776,5,12,0:0:0:0:
378,92,97864,1,0,0:0:0:0:
134,292,98306,5,12,0:0:0:0:
134,292,98394,1,0,0:0:0:0:
273,21,98835,5,12,0:1:0:0:
261,281,99188,2,0,L|270:99,1,165.000006294251,12|2,0:0|0:1,0:0:0:0:
189,43,99717,2,0,L|180:207,1,165.000006294251,12|2,0:0|0:1,0:0:0:0:
175,293,100247,1,12,0:1:0:0:
104,38,100600,5,12,0:0:0:0:
417,278,101129,1,12,0:0:0:0:
57,111,101659,1,12,0:1:0:0:
408,38,102011,5,12,0:0:0:0:
95,278,102540,1,12,0:0:0:0:
455,111,103070,1,12,0:1:0:0:
349,353,103423,5,12,0:0:0:0:
349,353,103511,1,0,0:0:0:0:
163,31,103953,5,12,0:0:0:0:
163,31,104041,1,0,0:0:0:0:
223,359,104482,5,12,0:1:0:0:
334,119,104835,2,0,B|286:107|254:129|226:148|169:128,1,165.000006294251,12|2,0:0|0:1,0:0:0:0:
188,230,105364,2,0,B|236:242|268:220|296:201|353:221,1,165.000006294251,12|2,0:0|0:1,0:0:0:0:
428,272,105894,1,12,0:1:0:0:
403,9,106247,5,12,0:0:0:0:
155,317,106776,1,12,0:0:0:0:
468,74,107306,1,12,0:1:0:0:
109,9,107659,5,12,0:0:0:0:
357,317,108188,1,12,0:0:0:0:
44,74,108718,1,12,0:0:0:0:
207,132,109070,6,0,L|316:135,1,110,12|2,0:0|0:0,0:0:0:0:
115,127,109776,1,2,0:1:0:0:
363,215,110306,5,0,0:0:0:0:
275,211,110482,2,0,L|165:207,2,110,4|4|10,0:0|0:0|0:1,0:0:0:0:
451,218,111541,1,0,0:0:0:0:
290,289,111894,6,0,L|180:285,1,110,12|2,0:0|0:0,0:0:0:0:
382,293,112600,1,2,0:1:0:0:
125,358,113130,5,0,0:0:0:0:
213,363,113306,2,0,L|322:368,2,110,4|4|10,0:0|0:0|0:1,0:0:0:0:
37,354,114365,1,0,0:0:0:0:
56,179,114717,6,0,P|76:128|120:97,1,110,12|2,0:0|0:0,0:0:0:0:
96,254,115423,1,2,0:1:0:0:
327,126,115953,5,0,0:0:0:0:
330,213,116129,2,0,L|334:341,2,110,4|4|10,0:0|0:0|0:1,0:0:0:0:
324,36,117188,1,0,0:0:0:0:
241,191,117541,6,0,P|190:212|137:203,1,110,12|2,0:0|0:0,0:0:0:0:
293,120,118247,1,2,0:1:0:0:
494,290,118777,5,0,0:0:0:0:
406,291,118953,2,0,L|282:294,2,110,4|4|10,0:0|0:0|0:1,0:0:0:0:
