osu file format v14

[General]
AudioFilename: audio.mp3
AudioLeadIn: 0
PreviewTime: 75005
Countdown: 0
SampleSet: Soft
StackLeniency: 0.6
Mode: 0
LetterboxInBreaks: 0
WidescreenStoryboard: 1

[Editor]
Bookmarks: 17300,52594,63888,86476
DistanceSpacing: 1.5
BeatDivisor: 4
GridSize: 8
TimelineZoom: 2.4

[Metadata]
Title:Kagachi
TitleUnicode:蛇神
Artist:Zektbach
ArtistUnicode:Zektbach
Creator:09kami
Version:Muz's Light Insane
Source:pop'n music 18 せんごく列伝
Tags:Beatmania IIDX ORIENTAL MYTHOLOGY オリエンタルミソロジー BeatStream REFLEC BEAT plus ポップンリズミン PandaHero TT Mouse Yusomi lililing SDpeople kanor Muziyami TtmnZk
BeatmapID:2443502
BeatmapSetID:894104

[Difficulty]
HPDrainRate:5
CircleSize:3.7
OverallDifficulty:7
ApproachRate:8.5
SliderMultiplier:1.6
SliderTickRate:1

[Events]
//Background and Video events
0,0,"20140708131851_tZwGz.jpg",0,0
//Break Periods
//Storyboard Layer 0 (Background)
//Storyboard Layer 1 (Fail)
//Storyboard Layer 2 (Pass)
//Storyboard Layer 3 (Foreground)
//Storyboard Layer 4 (Overlay)
//Storyboard Sound Samples

[TimingPoints]
6012,352.941176470588,4,2,1,75,1,0
30011,-125,4,2,1,75,0,0
41306,-100,4,2,1,75,0,0
52600,-90.9090909090909,4,2,1,75,0,0
63894,-100,4,2,1,75,0,0
75188,-125,4,2,1,75,0,0
86482,-90.9090909090909,4,2,1,75,0,0
97776,-100,4,2,1,75,0,0
109070,-125,4,2,1,75,0,0
114717,-166.666666666667,4,2,1,75,0,0

[Colours]
Combo1 : 0,170,170
Combo2 : 149,149,149
Combo3 : 0,232,116
Combo4 : 85,0,170

[HitObjects]
91,257,6011,6,0,L|100:153,1,80,4|4,0:0|0:0,0:0:0:0:
130,146,6276,1,0,0:0:0:0:
162,116,6364,2,0,L|167:54,2,40,2|0|2,0:0|0:0|0:0,0:0:0:0:
294,234,6717,2,0,L|398:243,1,80,4|0,0:0|0:0,0:0:0:0:
405,273,6982,1,0,0:0:0:0:
435,305,7070,2,0,L|497:310,2,40,2|0|2,0:0|0:0|0:0,0:0:0:0:
462,129,7423,6,0,L|453:25,1,80,2|0,0:1|0:0,0:0:0:0:
416,27,7688,1,0,0:0:0:0:
376,7,7776,2,0,L|314:12,3,40,2|0|0|0,0:1|0:0|0:0|0:0,0:0:0:0:
305,42,8129,2,0,P|268:53|212:39,1,80,2|4,0:0|0:0,0:0:0:0:
104,0,8482,1,0,1:0:0:0:
117,28,8570,1,0,0:0:0:0:
121,59,8659,1,8,0:0:0:0:
111,89,8747,1,0,0:0:0:0:
96,117,8835,6,0,L|102:211,1,80,4|0,0:0|0:0,0:0:0:0:
125,233,9100,1,0,0:0:0:0:
150,268,9188,2,0,L|153:319,2,40,2|0|2,0:0|0:0|0:0,0:0:0:0:
297,369,9541,6,0,L|391:363,1,80,4|0,0:0|0:0,0:0:0:0:
413,340,9806,1,0,0:0:0:0:
448,315,9894,2,0,L|499:312,2,40,2|0|2,0:0|0:0|0:0,0:0:0:0:
292,219,10247,6,0,L|286:125,1,80,2|0,0:1|0:0,0:0:0:0:
263,103,10511,1,0,0:0:0:0:
238,68,10600,2,0,L|235:17,3,40,2|0|0|0,0:1|0:0|0:0|0:0,0:0:0:0:
275,8,10953,2,0,P|312:21|372:12,1,80,2|4,0:0|0:0,0:0:0:0:
475,3,11306,1,0,1:2:0:0:
462,31,11394,1,0,0:0:0:0:
458,62,11482,1,8,0:0:0:0:
468,92,11570,1,0,0:0:0:0:
483,120,11659,6,0,L|477:214,1,80,4|0,0:0|0:0,0:0:0:0:
453,235,11923,1,0,0:0:0:0:
427,270,12011,2,0,L|424:321,2,40,2|0|2,0:0|0:0|0:0,0:0:0:0:
274,362,12364,2,0,L|180:356,1,80,4|0,0:0|0:0,0:0:0:0:
159,332,12629,1,0,0:0:0:0:
124,306,12717,2,0,L|73:303,2,40,2|0|2,0:0|0:0|0:0,0:0:0:0:
52,128,13070,6,0,L|146:134,1,80,2|0,0:1|0:0,0:0:0:0:
172,115,13335,1,0,0:0:0:0:
212,98,13423,2,0,L|263:101,3,40,2|0|0|0,0:1|0:0|0:0|0:0,0:0:0:0:
291,121,13776,2,0,P|286:164|307:216,1,80,6|8,0:0|0:0,0:0:0:0:
456,215,14129,1,10,1:1:0:0:
467,185,14217,1,0,0:0:0:0:
471,153,14306,1,2,0:0:0:0:
467,121,14394,1,0,0:0:0:0:
456,90,14482,6,0,L|353:81,1,80,4|0,0:0|0:0,0:0:0:0:
339,57,14747,1,0,0:0:0:0:
305,28,14835,2,0,L|236:22,2,40,2|0|2,0:0|0:0|0:0,0:0:0:0:
21,53,15188,2,0,L|124:62,1,80,4|0,0:0|0:0,0:0:0:0:
138,86,15453,1,0,0:0:0:0:
172,115,15541,2,0,L|240:120,2,40,2|0|2,0:0|0:0|0:0,0:0:0:0:
310,273,15894,6,0,L|319:170,1,80,2|0,0:1|0:0,0:0:0:0:
343,156,16159,1,0,0:0:0:0:
372,122,16247,2,0,L|377:53,3,40,2|0|0|0,0:1|0:0|0:0|0:0,0:0:0:0:
411,57,16600,2,0,P|453:67|506:56,1,80,8|8,0:0|0:0,0:0:0:0:
449,211,16953,1,4,0:1:0:0:
437,240,17041,1,0,0:0:0:0:
434,271,17129,1,2,0:1:0:0:
440,302,17217,1,0,0:0:0:0:
449,333,17306,6,0,L|355:327,1,80,12|0,1:1|0:0,0:0:0:0:
334,352,17570,1,0,0:0:0:0:
334,352,17659,1,2,0:1:0:0:
144,268,17835,2,0,L|238:262,1,80,0|0,0:0|0:0,0:0:0:0:
259,287,18100,1,0,0:0:0:0:
259,287,18188,1,2,0:1:0:0:
449,211,18364,2,0,L|355:205,1,80,0|0,0:0|0:0,0:0:0:0:
210,149,18717,6,0,P|198:96|212:55,1,80,12|0,1:1|0:0,0:0:0:0:
227,36,18982,1,0,0:0:0:0:
227,36,19070,1,2,0:1:0:0:
361,97,19247,2,0,P|308:109|267:95,1,80,0|0,0:0|0:0,0:0:0:0:
407,25,19600,1,2,0:1:0:0:
451,100,19776,2,0,P|463:153|449:194,1,80,0|0,0:0|0:0,0:0:0:0:
369,205,20129,6,0,L|364:297,1,80,12|0,1:1|0:0,0:0:0:0:
333,316,20394,1,0,0:0:0:0:
333,316,20482,1,2,0:1:0:0:
143,205,20659,2,0,L|148:297,1,80,0|0,0:0|0:0,0:0:0:0:
179,316,20923,1,0,0:0:0:0:
179,316,21011,1,2,0:1:0:0:
256,224,21188,2,0,L|256:128,1,80,0|0,0:0|0:0,0:0:0:0:
186,36,21541,6,0,P|146:30|108:42,1,80,12|0,1:1|0:0,0:0:0:0:
78,74,21806,1,0,0:0:0:0:
78,74,21894,1,2,0:1:0:0:
0,165,22070,2,0,P|39:170|77:158,1,80,0|0,0:0|0:0,0:0:0:0:
155,117,22423,1,2,0:1:0:0:
234,200,22600,2,0,P|194:194|156:206,1,80,0|0,0:0|0:0,0:0:0:0:
123,287,22953,6,0,L|43:281,1,80,12|0,1:0|0:0,0:0:0:0:
0,280,23217,1,0,0:0:0:0:
0,280,23306,1,2,0:1:0:0:
101,366,23482,2,0,L|181:372,1,80,0|0,0:0|0:0,0:0:0:0:
228,379,23747,1,0,0:0:0:0:
228,379,23835,1,2,0:1:0:0:
292,300,24011,2,0,L|212:294,1,80,0|0,0:0|0:0,0:0:0:0:
234,200,24364,6,0,P|222:162|228:122,1,80,12|0,1:0|0:0,0:0:0:0:
251,86,24629,1,0,0:0:0:0:
251,86,24717,1,2,0:1:0:0:
389,112,24894,2,0,P|401:165|387:206,1,80,0|0,0:0|0:0,0:0:0:0:
309,138,25247,1,2,0:1:0:0:
331,44,25423,2,0,P|382:25|424:34,1,80,0|0,0:0|0:0,0:0:0:0:
486,172,25776,6,0,L|477:271,1,80,12|0,1:0|0:0,0:0:0:0:
479,299,26041,1,0,0:0:0:0:
479,299,26129,1,2,0:1:0:0:
336,366,26306,2,0,L|327:267,1,80,0|0,0:0|0:0,0:0:0:0:
327,246,26570,1,0,0:0:0:0:
327,246,26659,1,2,0:1:0:0:
402,109,26835,2,0,L|393:208,1,80,0|0,0:0|0:0,0:0:0:0:
244,203,27188,6,0,P|191:215|150:201,1,80,12|0,1:0|0:0,0:0:0:0:
130,194,27453,1,0,0:0:0:0:
130,194,27541,1,2,0:1:0:0:
52,236,27717,2,0,P|40:183|54:142,1,80,2|0,0:0|0:0,0:0:0:0:
131,277,28070,1,2,0:1:0:0:
213,309,28247,2,0,P|218:269|206:231,1,80,2|0,0:0|0:0,0:0:0:0:
206,231,30011,6,0,B|269:246|269:246|344:230,1,128,4|8,0:0|0:0,0:0:0:0:
376,218,30482,2,0,L|389:158,1,42.6666666666667,0|0,0:0|0:0,0:0:0:0:
395,130,30717,2,0,L|255:165,2,128,0|0|4,1:0|0:0|0:0,0:0:0:0:
277,51,31776,2,0,L|284:-4,2,42.6666666666667,2|0|0,0:0|0:0|0:0,0:0:0:0:
243,83,32129,2,0,L|103:118,1,128,0|4,1:0|0:0,0:0:0:0:
24,219,32835,6,0,L|17:164,2,42.6666666666667,4|0|0,0:0|0:0|0:0,0:0:0:0:
56,253,33188,2,0,L|49:308,2,42.6666666666667,4|0|0,0:0|0:0|0:0,0:0:0:0:
101,240,33541,2,0,B|162:226|162:226|225:241,1,128,2|0,0:1|0:0,0:0:0:0:
338,156,34247,2,0,B|276:169|276:169|213:154,1,128,2|0,0:1|0:0,0:0:0:0:
170,135,34717,2,0,L|163:80,1,42.6666666666667,0|0,0:0|0:0,0:0:0:0:
161,45,34953,2,0,B|222:31|222:31|285:46,1,128,2|0,0:1|0:0,0:0:0:0:
414,95,35659,6,0,B|425:158|425:158|408:236,1,128,4|8,0:0|0:0,0:0:0:0:
397,265,36129,2,0,L|348:274,1,42.6666666666667,0|0,0:0|0:0,0:0:0:0:
309,280,36364,2,0,B|337:155|337:155,2,128,0|0|4,1:0|0:0|0:0,0:0:0:0:
192,359,37423,2,0,L|143:368,2,42.6666666666667,2|0|0,0:0|0:0|0:0,0:0:0:0:
204,313,37776,2,0,B|232:188|232:188,1,128,0|4,1:0|0:0,0:0:0:0:
217,47,38482,2,0,L|168:38,2,42.6666666666667,4|0|0,0:0|0:0|0:0,0:0:0:0:
263,56,38835,2,0,L|312:47,2,42.6666666666667,4|0|0,0:0|0:0|0:0,0:0:0:0:
271,102,39188,6,0,B|326:133|326:133|390:141,1,128,2|0,0:1|0:0,0:0:0:0:
468,258,39894,2,0,B|412:226|412:226|348:218,1,128,2|0,0:1|0:0,0:0:0:0:
301,214,40364,2,0,L|278:271,1,42.6666666666667,0|0,0:0|0:0,0:0:0:0:
267,297,40600,2,0,B|322:328|322:328|386:336,1,128,2|0,0:1|0:0,0:0:0:0:
468,258,41306,6,0,B|485:218|485:218|492:117,1,120,12|0,0:1|0:0,0:0:0:0:
493,98,41659,1,4,0:0:0:0:
499,9,41835,1,8,0:0:0:0:
316,188,42188,2,0,L|404:194,1,80,2|2,0:0|0:0,0:0:0:0:
352,56,42717,6,0,B|312:39|312:39|211:32,1,120,12|0,0:1|0:0,0:0:0:0:
192,31,43070,1,4,0:0:0:0:
103,25,43247,1,8,0:0:0:0:
206,204,43600,2,0,L|212:116,1,80,2|2,0:0|0:0,0:0:0:0:
72,274,44129,6,0,B|112:291|112:291|213:298,1,120,12|0,0:1|0:0,0:0:0:0:
232,299,44482,1,4,0:0:0:0:
321,305,44659,1,8,0:0:0:0:
386,108,45011,2,0,L|298:102,1,80,2|2,0:0|0:0,0:0:0:0:
103,25,45541,6,0,B|86:65|86:65|79:166,1,120,12|0,0:1|0:0,0:0:0:0:
78,185,45894,1,6,0:0:0:0:
72,274,46070,1,8,0:0:0:0:
266,344,46423,2,0,L|272:256,1,80,2|2,0:0|0:0,0:0:0:0:
397,192,46953,6,0,L|309:186,1,80,12|8,0:1|0:0,0:0:0:0:
277,186,47217,1,0,0:0:0:0:
277,186,47306,1,8,0:0:0:0:
142,172,47482,1,8,0:0:0:0:
221,61,47659,2,0,L|283:64,2,40,4|0|2,0:0|0:0|0:0,0:0:0:0:
85,51,48011,1,2,0:0:0:0:
6,229,48364,6,0,P|1:269|13:307,1,80,12|2,0:1|0:1,0:0:0:0:
44,344,48629,1,0,0:0:0:0:
44,344,48717,1,8,0:0:0:0:
164,294,48894,2,0,P|169:254|157:216,1,80,8|4,0:1|0:0,0:0:0:0:
126,179,49159,1,0,0:0:0:0:
126,179,49247,1,2,0:0:0:0:
86,260,49423,1,2,0:0:0:0:
293,367,49776,6,0,L|299:279,1,80,12|6,0:1|0:1,0:0:0:0:
305,247,50041,1,0,0:0:0:0:
305,247,50129,1,10,0:1:0:0:
413,362,50306,1,8,0:0:0:0:
423,226,50482,2,0,L|426:164,2,40,4|0|2,0:0|0:0|0:0,0:0:0:0:
293,367,50835,1,2,0:0:0:0:
221,165,51188,6,0,P|181:160|143:172,1,80,12|8,0:1|0:0,0:0:0:0:
106,203,51453,1,0,0:0:0:0:
106,203,51541,1,4,0:0:0:0:
191,262,51717,1,8,0:0:0:0:
302,243,51894,2,0,P|326:210|334:171,1,80,2|8,0:1|0:0,0:0:0:0:
366,71,52247,2,0,P|325:66|288:78,1,80,2|2,0:0|0:1,0:0:0:0:
156,77,52600,6,0,B|113:89|113:89|66:80,1,88.000002685547,12|0,0:0|0:1,0:0:0:0:
20,206,52953,2,0,B|63:194|63:194|110:203,1,88.000002685547,2|0,0:1|0:1,0:0:0:0:
139,330,53306,1,12,0:0:0:0:
240,245,53482,1,0,0:0:0:0:
240,245,53570,1,0,0:0:0:0:
240,245,53659,2,0,B|282:253|282:253|325:241,1,88.000002685547,2|0,0:1|0:0,0:0:0:0:
420,196,54011,5,6,0:0:0:0:
373,102,54188,1,8,0:0:0:0:
280,148,54364,1,0,0:0:0:0:
325,240,54541,1,8,0:0:0:0:
247,316,54717,5,12,0:0:0:0:
174,159,54894,1,2,0:0:0:0:
154,264,55070,1,6,0:1:0:0:
280,148,55247,1,0,0:0:0:0:
75,195,55423,6,0,B|63:152|63:152|71:103,1,88.000002685547,6|0,0:0|0:0,0:0:0:0:
178,33,55776,2,0,B|190:76|190:76|182:125,1,88.000002685547,2|0,0:1|0:0,0:0:0:0:
244,235,56129,1,6,0:0:0:0:
377,203,56306,1,2,0:1:0:0:
377,203,56394,1,0,0:0:0:0:
377,203,56482,2,0,B|419:209|419:209|462:197,1,88.000002685547,2|2,0:1|0:1,0:0:0:0:
373,96,56835,5,12,0:0:0:0:
282,42,57011,1,2,0:0:0:0:
280,148,57188,1,10,0:1:0:0:
373,96,57364,1,2,0:1:0:0:
282,42,57541,2,0,L|187:53,1,88.000002685547,6|0,0:0|0:0,0:0:0:0:
108,113,57894,2,0,L|20:104,1,88.000002685547,4|0,0:0|0:0,0:0:0:0:
20,210,58247,6,0,B|29:253|29:253|13:315,1,88.000002685547,12|0,0:0|0:0,0:0:0:0:
116,384,58600,2,0,B|107:341|107:341|123:279,1,88.000002685547,2|0,0:1|0:0,0:0:0:0:
171,177,58953,1,12,0:0:0:0:
252,293,59129,1,0,0:0:0:0:
252,293,59217,1,0,0:0:0:0:
252,293,59306,2,0,B|294:304|294:304|337:295,1,88.000002685547,2|0,0:1|0:0,0:0:0:0:
432,248,59659,5,6,0:0:0:0:
327,89,59835,1,8,0:0:0:0:
459,118,60011,1,0,0:0:0:0:
300,219,60188,1,8,0:0:0:0:
212,211,60364,5,12,0:0:0:0:
175,131,60541,1,2,0:0:0:0:
225,59,60717,1,12,0:0:0:0:
260,140,60894,1,2,0:1:0:0:
212,211,61070,6,0,B|169:223|169:223|92:215,1,88.000002685547,12|0,0:0|0:0,0:0:0:0:
26,314,61423,2,0,B|69:302|69:302|146:310,1,88.000002685547,2|0,0:1|0:0,0:0:0:0:
244,332,61776,1,12,0:0:0:0:
346,246,61953,1,2,0:0:0:0:
346,246,62041,1,0,0:0:0:0:
346,246,62129,2,0,B|350:202|350:202|338:159,1,88.000002685547,12|2,0:0|0:0,0:0:0:0:
185,110,62482,5,12,0:0:0:0:
289,9,62659,1,2,0:1:0:0:
260,140,62835,1,10,0:1:0:0:
206,4,63011,1,2,0:1:0:0:
345,76,63188,2,0,L|447:66,1,88.000002685547,12|2,0:0|0:0,0:0:0:0:
423,183,63541,2,0,L|509:198,1,88.000002685547,6|0,0:0|0:0,0:0:0:0:
419,277,63894,6,0,L|335:284,1,80,12|2,0:0|0:0,0:0:0:0:
298,291,64159,1,0,0:0:0:0:
298,291,64247,1,8,0:0:0:0:
153,358,64423,2,0,L|237:365,1,80,2|0,0:0|0:0,0:0:0:0:
274,372,64688,1,2,0:1:0:0:
274,372,64776,1,2,0:0:0:0:
394,362,64953,2,0,L|473:355,1,80,2|0,0:0|0:0,0:0:0:0:
495,236,65306,6,0,L|488:156,1,80,12|2,0:0|0:0,0:0:0:0:
489,116,65570,1,0,0:0:0:0:
489,116,65659,1,8,0:0:0:0:
405,30,65835,2,0,L|398:109,1,80,2|0,0:0|0:0,0:0:0:0:
399,150,66100,1,2,0:1:0:0:
399,150,66188,1,2,0:0:0:0:
315,236,66364,2,0,L|308:156,1,80,2|0,0:0|0:0,0:0:0:0:
133,114,66717,6,0,P|207:119|233:101,1,80,12|2,0:0|0:0,0:0:0:0:
249,96,66982,1,0,0:0:0:0:
249,96,67070,1,8,0:0:0:0:
176,46,67247,2,0,P|101:40|75:58,1,80,2|0,0:0|0:0,0:0:0:0:
66,68,67511,1,2,0:1:0:0:
66,68,67600,1,2,0:0:0:0:
20,180,67776,2,0,P|94:185|120:167,1,80,2|0,0:0|0:0,0:0:0:0:
202,327,68129,6,0,P|196:252|214:226,1,80,12|2,0:0|0:0,0:0:0:0:
224,217,68394,1,0,0:0:0:0:
224,217,68482,1,8,0:0:0:0:
282,283,68659,1,2,0:0:0:0:
358,326,68835,2,0,P|364:251|346:225,1,80,0|2,0:0|0:0,0:0:0:0:
307,180,69188,1,2,0:0:0:0:
336,169,69276,1,0,0:0:0:0:
359,147,69364,1,0,0:0:0:0:
374,118,69453,1,0,0:0:0:0:
376,86,69541,6,0,B|341:65|341:65|294:65,1,80,12|2,0:0|0:0,0:0:0:0:
261,69,69806,1,0,0:0:0:0:
261,69,69894,1,8,0:0:0:0:
155,125,70070,1,2,0:0:0:0:
37,98,70247,2,0,L|28:-1,1,80,0|2,0:0|0:0,0:0:0:0:
76,189,70600,2,0,L|69:271,1,80,2|2,0:0|0:0,0:0:0:0:
158,349,70953,6,0,B|193:370|193:370|240:370,1,80,12|2,0:0|0:0,0:0:0:0:
280,374,71217,1,0,0:0:0:0:
280,374,71306,1,8,0:0:0:0:
364,288,71482,1,2,0:0:0:0:
310,180,71659,6,0,L|214:172,1,80,0|2,0:0|0:0,0:0:0:0:
405,201,72011,2,0,L|501:193,1,80,2|2,0:0|0:0,0:0:0:0:
371,32,72364,6,0,B|382:71|382:71|367:139,1,80,12|2,0:0|0:0,0:0:0:0:
333,106,72629,1,0,0:0:0:0:
333,106,72717,1,8,0:0:0:0:
228,46,72894,1,2,0:0:0:0:
119,96,73070,2,0,P|80:85|36:96,1,80,0|2,0:0|0:0,0:0:0:0:
188,184,73423,2,0,P|227:195|271:184,1,80,2|2,0:0|0:0,0:0:0:0:
381,217,73776,6,0,B|352:244|352:244|346:295,1,80,12|2,0:0|0:0,0:0:0:0:
231,317,74129,2,0,B|203:288|203:288|152:282,1,80,12|2,0:0|0:0,0:0:0:0:
131,167,74482,2,0,B|159:139|159:139|165:88,1,80,12|12,0:0|0:0,0:0:0:0:
281,67,74835,1,2,0:0:0:0:
303,90,74923,1,2,0:0:0:0:
332,98,75011,1,2,0:0:0:0:
364,101,75100,1,2,0:0:0:0:
389,93,75188,6,0,P|490:100|417:170,1,256,12|0,0:1|0:0,0:0:0:0:
267,205,76423,2,0,B|235:211|235:211|215:239,1,64,0|8,0:0|0:1,0:0:0:0:
124,282,76953,2,0,B|61:273|61:273|32:248,1,96,0|0,0:0|0:0,0:0:0:0:
18,232,77306,2,0,B|5:162|46:183|33:107,1,128,0|0,0:0|0:0,0:0:0:0:
123,93,78011,6,0,P|203:153|194:53,1,256,12|0,0:0|0:0,0:0:0:0:
394,79,79247,1,0,0:0:0:0:
394,79,79423,2,0,P|330:101|317:159,2,128,8|0|0,0:0|0:0|0:0,0:0:0:0:
409,286,80835,6,0,P|326:344|338:243,1,256,12|0,0:1|0:0,0:0:0:0:
173,225,82070,2,0,B|141:219|141:219|121:191,1,64,0|8,0:0|0:1,0:0:0:0:
132,91,82600,2,0,B|69:82|69:82|34:98,1,96,0|0,0:0|0:0,0:0:0:0:
17,109,82953,2,0,B|4:179|45:158|32:234,1,128,0|0,0:0|0:0,0:0:0:0:
103,286,83659,6,0,P|186:344|174:243,1,256,12|0,0:0|0:0,0:0:0:0:
118,79,84894,1,0,0:0:0:0:
118,79,85070,2,0,P|182:101|195:159,2,128,8|0|0,0:0|0:0|0:0,0:0:0:0:
118,79,86482,6,0,B|146:60|146:60|226:67,1,88.000002685547,4|0,0:0|0:0,0:0:0:0:
296,154,86835,2,0,B|324:173|324:173|404:166,1,88.000002685547,2|0,0:1|0:0,0:0:0:0:
488,96,87188,1,4,0:0:0:0:
377,47,87364,1,0,0:0:0:0:
377,47,87453,1,0,0:0:0:0:
377,47,87541,2,0,B|349:66|349:66|269:59,1,88.000002685547,2|0,0:1|0:0,0:0:0:0:
202,155,87894,6,0,B|190:183|190:183|195:247,1,88.000002685547,4|0,0:0|0:0,0:0:0:0:
277,342,88247,2,0,B|289:314|289:314|284:250,1,88.000002685547,4|0,0:0|0:0,0:0:0:0:
181,339,88600,1,4,0:0:0:0:
94,245,88776,1,0,0:0:0:0:
81,344,88953,1,2,0:1:0:0:
194,240,89129,1,0,0:0:0:0:
107,146,89306,6,0,B|95:117|95:117|102:34,1,88.000002685547,4|0,0:0|0:0,0:0:0:0:
269,59,89659,2,0,B|240:71|240:71|157:64,1,88.000002685547,4|0,0:0|0:0,0:0:0:0:
297,142,90011,2,0,B|326:130|326:130|409:137,1,88.000002685547,4|0,0:0|0:0,0:0:0:0:
425,157,90276,1,0,0:0:0:0:
448,199,90364,2,0,B|436:228|436:228|443:311,1,88.000002685547,4|0,0:0|0:0,0:0:0:0:
348,315,90717,6,0,B|320:301|320:301|242:293,1,88.000002685547,10|0,0:1|0:0,0:0:0:0:
133,284,91070,2,0,B|147:256|147:256|155:178,1,88.000002685547,2|0,0:1|0:0,0:0:0:0:
164,69,91423,2,0,B|192:83|192:83|270:91,1,88.000002685547,2|0,0:1|0:0,0:0:0:0:
379,100,91776,2,0,B|365:128|365:128|357:206,1,88.000002685547,10|0,0:1|0:0,0:0:0:0:
419,285,92129,6,0,P|457:246|469:208,1,88.000002685547,4|0,0:0|0:0,0:0:0:0:
345,371,92482,2,0,P|313:326|307:287,1,88.000002685547,2|0,0:1|0:0,0:0:0:0:
359,184,92835,1,4,0:0:0:0:
235,208,93011,1,0,0:0:0:0:
235,208,93100,1,0,0:0:0:0:
235,208,93188,2,0,P|191:213|150:200,1,88.000002685547,0|2,0:0|0:1,0:0:0:0:
86,85,93541,6,0,P|93:42|77:2,1,88.000002685547,4|0,0:0|0:0,0:0:0:0:
184,76,93894,2,0,P|223:83|272:62,1,88.000002685547,2|0,0:1|0:0,0:0:0:0:
190,176,94247,2,0,P|182:218|198:258,1,88.000002685547,4|0,0:0|0:0,0:0:0:0:
91,183,94600,2,0,P|51:175|2:196,1,88.000002685547,2|0,0:1|0:0,0:0:0:0:
86,85,94953,6,0,L|196:78,1,88.000002685547,6|0,0:0|0:0,0:0:0:0:
219,106,95217,1,0,0:0:0:0:
219,106,95306,1,2,0:1:0:0:
315,100,95482,1,2,0:1:0:0:
406,203,95659,2,0,L|296:196,1,88.000002685547,6|0,0:0|0:0,0:0:0:0:
278,222,95923,1,0,0:0:0:0:
278,222,96011,1,2,0:1:0:0:
182,216,96188,1,2,0:1:0:0:
54,182,96364,6,0,L|47:72,1,88.000002685547,12|0,0:1|0:0,0:0:0:0:
99,263,96717,2,0,L|92:373,1,88.000002685547,0|0,0:0|0:0,0:0:0:0:
182,216,97070,1,0,0:0:0:0:
311,245,97247,1,0,0:0:0:0:
223,343,97423,1,0,0:0:0:0:
251,363,97511,1,0,0:0:0:0:
284,375,97600,1,0,0:0:0:0:
319,378,97688,1,0,0:0:0:0:
353,371,97776,6,0,B|378:360|378:360|456:366,1,80,12|2,0:0|0:1,0:0:0:0:
478,372,98041,1,0,0:0:0:0:
478,372,98129,1,2,0:1:0:0:
437,253,98306,2,0,B|412:242|412:242|334:248,1,80,12|2,0:0|0:1,0:0:0:0:
318,253,98570,1,0,0:0:0:0:
318,253,98659,1,2,0:1:0:0:
287,137,98835,2,0,B|312:126|312:126|390:132,1,80,12|2,0:1|0:0,0:0:0:0:
436,33,99188,5,12,0:0:0:0:
316,20,99364,2,0,L|247:14,2,40,2|0|2,0:1|0:0|0:1,0:0:0:0:
364,130,99717,1,12,0:0:0:0:
314,249,99894,1,2,0:1:0:0:
314,249,99982,1,0,0:0:0:0:
314,249,100070,1,2,0:1:0:0:
244,150,100247,2,0,L|142:141,1,80,12|2,0:1|0:0,0:0:0:0:
44,156,100600,6,0,B|35:183|35:183|39:241,1,80,12|2,0:0|0:1,0:0:0:0:
47,281,100864,1,0,0:0:0:0:
47,281,100953,1,2,0:1:0:0:
126,370,101129,2,0,B|135:343|135:343|131:285,1,80,12|2,0:0|0:1,0:0:0:0:
129,251,101394,1,0,0:0:0:0:
129,251,101482,1,2,0:1:0:0:
232,244,101659,2,0,B|223:271|223:271|227:329,1,80,12|2,0:1|0:0,0:0:0:0:
331,380,102011,5,12,0:0:0:0:
449,352,102188,2,0,L|506:337,2,40,2|0|2,0:1|0:0|0:1,0:0:0:0:
365,265,102541,1,12,0:0:0:0:
407,158,102717,1,2,0:1:0:0:
407,158,102806,1,0,0:0:0:0:
407,158,102894,1,2,0:1:0:0:
290,130,103070,2,0,L|202:153,1,80,12|10,0:1|0:1,0:0:0:0:
173,163,103335,1,0,0:0:0:0:
173,163,103423,6,0,L|164:69,1,80,12|2,0:0|0:1,0:0:0:0:
163,43,103688,1,0,0:0:0:0:
163,43,103776,1,2,0:1:0:0:
51,86,103953,2,0,L|58:165,1,80,12|2,0:0|0:1,0:0:0:0:
68,212,104217,1,0,0:0:0:0:
68,212,104306,1,2,0:1:0:0:
167,280,104482,2,0,L|246:272,1,80,12|2,0:1|0:0,0:0:0:0:
348,337,104835,5,12,0:0:0:0:
362,225,105011,1,2,0:1:0:0:
362,225,105100,1,0,0:0:0:0:
362,225,105188,1,2,0:1:0:0:
449,306,105364,1,12,0:0:0:0:
458,185,105541,2,0,L|463:133,2,40,2|0|2,0:1|0:0|0:1,0:0:0:0:
363,110,105894,2,0,B|323:106|323:106|286:91,1,80,12|2,0:1|0:0,0:0:0:0:
171,56,106247,6,0,L|76:50,1,80,12|2,0:0|0:1,0:0:0:0:
51,52,106511,1,0,0:0:0:0:
51,52,106600,1,2,0:1:0:0:
61,171,106776,2,0,L|156:165,1,80,12|2,0:0|0:1,0:0:0:0:
188,166,107041,1,0,0:0:0:0:
188,166,107129,1,2,0:1:0:0:
194,286,107306,2,0,L|99:280,1,80,12|2,0:1|0:0,0:0:0:0:
201,384,107659,5,12,0:0:0:0:
316,339,107835,1,2,0:0:0:0:
316,339,107923,1,0,0:0:0:0:
316,339,108011,1,2,0:0:0:0:
274,226,108188,1,12,0:0:0:0:
327,119,108364,2,0,L|335:73,2,40,2|0|2,0:0|0:0|0:0,0:0:0:0:
226,44,108717,1,12,0:0:0:0:
211,73,108806,1,0,0:0:0:0:
186,93,108894,1,12,0:0:0:0:
154,100,108982,1,0,0:0:0:0:
123,93,109070,6,0,P|32:48|60:145,1,256,12|2,0:1|0:1,0:0:0:0:
249,227,110306,1,0,0:1:0:0:
249,227,110482,2,0,P|308:205|372:208,1,128,4|4,0:0|0:0,0:0:0:0:
473,228,111188,2,0,B|478:161|452:175|458:103,1,128,2|0,0:1|0:0,0:0:0:0:
361,67,111894,6,0,P|281:127|290:27,1,256,12|2,0:0|0:1,0:0:0:0:
106,56,113129,1,0,0:0:0:0:
106,56,113306,2,0,P|162:84|176:155,2,128,4|4|2,0:0|0:0|0:1,0:0:0:0:
38,165,114364,1,0,0:0:0:0:
72,244,114717,6,0,P|76:322|141:264,1,191.999994140625,12|2,0:0|0:1,0:0:0:0:
251,203,115953,1,0,0:0:0:0:
251,203,116129,2,0,P|296:195|356:214,1,95.9999970703126,4|4,0:0|0:0,0:0:0:0:
409,263,116835,2,0,P|455:275|502:267,1,95.9999970703126,2|0,0:1|0:0,0:0:0:0:
506,180,117541,6,0,P|469:110|434:190,1,191.999994140625,8|2,0:1|0:1,0:0:0:0:
297,284,118776,1,0,0:0:0:0:
297,284,118953,2,0,P|270:344|228:365,1,95.9999970703126,12|12,0:0|0:0,0:0:0:0:
210,280,119659,2,0,P|164:268|110:284,2,95.9999970703126,6|0|0,0:1|0:0|0:0,0:0:0:0:
