osu file format v14

[General]
AudioFilename: audio.mp3
AudioLeadIn: 0
PreviewTime: 75005
Countdown: 0
SampleSet: Soft
StackLeniency: 0.2
Mode: 0
LetterboxInBreaks: 0
WidescreenStoryboard: 0

[Editor]
DistanceSpacing: 0.7
BeatDivisor: 4
GridSize: 32
TimelineZoom: 2.4

[Metadata]
Title:Kagachi
TitleUnicode:蛇神
Artist:Zektbach
ArtistUnicode:Zektbach
Creator:09kami
Version:Extra Ouroboros
Source:pop'n music 18 せんごく列伝
Tags:Beatmania IIDX ORIENTAL MYTHOLOGY オリエンタルミソロジー BeatStream REFLEC BEAT plus ポップンリズミン PandaHero TT Mouse Yusomi lililing SDpeople kanor Muziyami TtmnZk
BeatmapID:1868437
BeatmapSetID:894104

[Difficulty]
HPDrainRate:7
CircleSize:5
OverallDifficulty:9.3
ApproachRate:9.3
SliderMultiplier:1.8
SliderTickRate:1

[Events]
//Background and Video events
0,0,"20140708131851_tZwGz.jpg",0,0
//Break Periods
//Storyboard Layer 0 (Background)
//Storyboard Layer 1 (Fail)
//Storyboard Layer 2 (Pass)
//Storyboard Layer 3 (Foreground)
//Storyboard Layer 4 (Overlay)
//Storyboard Sound Samples

[TimingPoints]
6012,352.941176470588,4,2,1,75,1,0
17306,-400,4,2,1,75,0,0
17659,-400,4,2,1,5,0,0
17835,-400,4,2,1,75,0,0
18011,-400,4,2,1,25,0,0
18188,-400,4,2,1,75,0,0
18541,-400,4,2,1,25,0,0
18629,-400,4,2,1,45,0,0
18718,-400,4,2,1,75,0,0
19070,-400,4,2,1,5,0,0
19247,-400,4,2,1,75,0,0
19423,-400,4,2,1,25,0,0
19600,-400,4,2,1,75,0,0
19953,-400,4,2,1,25,0,0
20041,-400,4,2,1,45,0,0
20130,-400,4,2,1,75,0,0
20482,-400,4,2,1,5,0,0
20659,-400,4,2,1,75,0,0
20835,-400,4,2,1,25,0,0
21012,-400,4,2,1,75,0,0
21364,-400,4,2,1,25,0,0
21453,-400,4,2,1,45,0,0
21541,-400,4,2,1,75,0,0
21894,-400,4,2,1,5,0,0
22070,-400,4,2,1,75,0,0
22247,-400,4,2,1,25,0,0
22424,-400,4,2,1,75,0,0
22776,-400,4,2,1,25,0,0
22864,-400,4,2,1,45,0,0
22953,-400,4,2,1,75,0,0
23306,-400,4,2,1,5,0,0
23482,-400,4,2,1,75,0,0
23659,-400,4,2,1,25,0,0
23836,-400,4,2,1,75,0,0
24188,-400,4,2,1,25,0,0
24276,-400,4,2,1,45,0,0
24365,-400,4,2,1,75,0,0
24717,-400,4,2,1,5,0,0
24894,-400,4,2,1,75,0,0
25070,-400,4,2,1,25,0,0
25247,-400,4,2,1,75,0,0
25600,-400,4,2,1,25,0,0
25688,-400,4,2,1,45,0,0
25777,-400,4,2,1,75,0,0
26482,-400,4,2,1,25,0,0
26659,-400,4,2,1,75,0,0
27011,-400,4,2,1,25,0,0
27100,-400,4,2,1,45,0,0
27188,-400,4,2,1,75,0,0
27894,-400,4,2,1,25,0,0
28071,-400,4,2,1,75,0,0
28423,-400,4,2,1,25,0,0
28600,-1000,4,2,1,25,0,0
28688,-1000,4,2,1,23,0,0
28776,-1000,4,2,1,20,0,0
28864,-1000,4,2,1,17,0,0
28953,-1000,4,2,1,15,0,0
29041,-1000,4,2,1,13,0,0
29129,-1000,4,2,1,10,0,0
29217,-1000,4,2,1,7,0,0
29306,-1000,4,2,1,5,0,0
30011,-200,4,2,1,50,0,0
33541,-400,4,2,1,50,0,0
34070,-400,4,2,1,5,0,0
34247,-400,4,2,1,50,0,0
34776,-400,4,2,1,5,0,0
34953,-400,4,2,1,50,0,0
35482,-400,4,2,1,5,0,0
35659,-200,4,2,1,50,0,0
39188,-400,4,2,1,50,0,0
39717,-400,4,2,1,5,0,0
39894,-400,4,2,1,50,0,0
40423,-400,4,2,1,5,0,0
40600,-400,4,2,1,50,0,0
41129,-400,4,2,1,5,0,0
41306,-200,4,2,1,65,0,0
41350,-200,4,2,1,25,0,0
41835,-200,4,2,1,65,0,0
41879,-200,4,2,1,25,0,0
42717,-200,4,2,1,65,0,0
42761,-200,4,2,1,25,0,0
43246,-200,4,2,1,65,0,0
43290,-200,4,2,1,25,0,0
44129,-200,4,2,1,65,0,0
44173,-200,4,2,1,25,0,0
44658,-200,4,2,1,65,0,0
44702,-200,4,2,1,25,0,0
45541,-200,4,2,1,65,0,0
45585,-200,4,2,1,25,0,0
46070,-200,4,2,1,65,0,0
46114,-200,4,2,1,25,0,0
46953,-200,4,2,1,65,0,0
46997,-200,4,2,1,25,0,0
47482,-200,4,2,1,65,0,0
47526,-200,4,2,1,25,0,0
48364,-200,4,2,1,65,0,0
48408,-200,4,2,1,25,0,0
48893,-200,4,2,1,65,0,0
48937,-200,4,2,1,25,0,0
49776,-200,4,2,1,65,0,0
49820,-200,4,2,1,25,0,0
50305,-200,4,2,1,65,0,0
50349,-200,4,2,1,25,0,0
51188,-200,4,2,1,65,0,0
51232,-200,4,2,1,25,0,0
51717,-200,4,2,1,65,0,0
51761,-200,4,2,1,25,0,0
52600,-100,4,2,1,75,0,0
63894,-133.333333333333,4,2,1,75,0,0
75188,-100,4,2,1,75,0,0
76423,-100,4,2,1,5,0,0
76600,-100,4,2,1,75,0,0
77835,-100,4,2,1,5,0,0
78011,-100,4,2,1,75,0,0
79246,-100,4,2,1,5,0,0
79423,-100,4,2,1,75,0,0
80658,-100,4,2,1,5,0,0
80835,-100,4,2,1,75,0,0
82070,-100,4,2,1,5,0,0
82247,-100,4,2,1,75,0,0
83482,-100,4,2,1,5,0,0
83659,-100,4,2,1,75,0,0
84894,-100,4,2,1,5,0,0
85070,-100,4,2,1,75,0,0
86305,-100,4,2,1,5,0,0
86482,-100,4,2,1,75,0,0
97070,-100,4,2,1,35,0,0
97776,-100,4,2,1,75,0,0
109070,-200,4,2,1,75,0,0

[Colours]
Combo1 : 0,170,170
Combo2 : 149,149,149
Combo3 : 0,232,116
Combo4 : 85,0,170

[HitObjects]
218,69,6011,5,4,0:0:0:0:
93,106,6188,1,0,0:0:0:0:
67,80,6276,1,0,0:0:0:0:
82,48,6364,1,0,0:0:0:0:
118,53,6453,1,0,0:0:0:0:
124,89,6541,1,2,0:0:0:0:
1,159,6717,5,4,0:0:0:0:
92,115,6894,1,0,0:0:0:0:
134,88,6982,1,0,0:0:0:0:
126,38,7071,1,0,0:0:0:0:
77,31,7159,1,0,0:0:0:0:
56,75,7247,1,2,0:0:0:0:
154,191,7423,5,2,0:1:0:0:
171,204,7511,1,0,0:0:0:0:
193,208,7600,1,0,0:0:0:0:
214,202,7688,1,0,0:0:0:0:
275,154,7776,5,2,0:1:0:0:
294,143,7864,1,0,0:0:0:0:
316,143,7953,1,0,0:0:0:0:
337,150,8041,1,0,0:0:0:0:
401,202,8129,5,2,0:0:0:0:
413,220,8217,1,0,0:0:0:0:
416,242,8306,2,0,P|410:269|399:292,1,45,4|0,0:0|0:0,0:0:0:0:
267,372,8482,5,0,1:0:0:0:
254,353,8570,1,0,0:0:0:0:
252,331,8659,2,0,P|258:304|270:281,1,45,8|0,0:0|0:0,0:0:0:0:
401,202,8835,5,4,0:0:0:0:
393,209,9011,2,0,L|315:198,1,45
248,80,9188,2,0,L|326:69,2,45,0|0|2,0:0|0:0|0:0,0:0:0:0:
463,24,9541,5,4,0:0:0:0:
471,31,9717,2,0,P|474:67|466:90,1,45
401,202,9894,2,0,P|398:238|406:261,2,45,0|0|2,0:0|0:0|0:0,0:0:0:0:
486,338,10247,5,2,0:1:0:0:
460,355,10335,1,0,0:0:0:0:
429,362,10423,1,0,0:0:0:0:
397,359,10511,1,0,0:0:0:0:
370,340,10600,1,2,0:1:0:0:
344,322,10688,1,0,0:0:0:0:
313,313,10776,1,0,0:0:0:0:
281,314,10864,1,0,0:0:0:0:
206,352,10953,5,2,0:0:0:0:
171,343,11041,1,0,0:0:0:0:
136,334,11129,1,4,0:0:0:0:
101,325,11217,1,0,0:0:0:0:
27,352,11306,6,0,P|14:328|10:291,1,45,0|0,1:2|0:0,0:0:0:0:
132,167,11482,2,0,P|145:191|149:228,1,45,8|0,0:0|0:0,0:0:0:0:
4,88,11659,5,4,0:0:0:0:
0,95,11835,2,0,L|52:88,1,45
225,48,12011,5,0,0:0:0:0:
234,68,12100,1,0,0:0:0:0:
232,90,12188,1,2,0:0:0:0:
369,248,12364,5,4,0:0:0:0:
373,255,12540,2,0,L|321:248,1,45
148,208,12716,5,0,0:0:0:0:
139,228,12805,1,0,0:0:0:0:
141,250,12893,1,2,0:0:0:0:
268,366,13070,5,2,0:1:0:0:
275,372,13247,2,0,P|277:337|269:307,1,45
170,220,13423,5,2,0:1:0:0:
139,228,13511,1,0,0:0:0:0:
108,235,13600,1,0,0:0:0:0:
78,244,13688,1,0,0:0:0:0:
9,193,13776,6,0,P|10:167|21:138,1,45,6|0,0:0|0:0,0:0:0:0:
203,214,13953,2,0,P|202:240|191:269,1,45,8|0,0:0|0:0,0:0:0:0:
16,201,14129,6,0,P|17:175|28:146,1,45,10|0,1:1|0:0,0:0:0:0:
196,208,14306,2,0,P|195:234|184:263,1,45,2|0,0:0|0:0,0:0:0:0:
38,319,14482,5,4,0:0:0:0:
32,327,14659,6,0,L|95:314,1,45
247,220,14835,2,0,L|202:213,2,45,0|0|2,0:0|0:0|0:0,0:0:0:0:
361,366,15188,5,4,0:0:0:0:
353,379,15365,6,0,P|346:346|352:313,1,45
462,149,15541,2,0,P|469:182|463:215,2,45,0|0|2,0:0|0:0|0:0,0:0:0:0:
294,84,15894,5,2,0:1:0:0:
277,68,15982,1,0,0:0:0:0:
286,48,16070,1,0,0:0:0:0:
308,50,16159,1,0,0:0:0:0:
313,72,16247,5,2,0:1:0:0:
291,100,16335,1,0,0:0:0:0:
258,85,16423,1,0,0:0:0:0:
259,49,16511,1,0,0:0:0:0:
300,31,16600,5,8,0:0:0:0:
313,72,16688,1,0,0:0:0:0:
305,116,16776,1,8,0:0:0:0:
288,157,16864,1,0,0:0:0:0:
269,198,16953,6,0,P|263:227|265:256,1,45,4|0,1:2|0:0,0:0:0:0:
468,193,17129,2,0,P|467:170|462:148,1,45,8|0,1:0|0:0,0:0:0:0:
334,291,17306,6,0,L|347:338,1,45,12|0,1:1|0:0,0:0:0:0:
161,377,17835,6,0,L|168:346,1,22.5,0|2,0:0|0:0,0:0:0:0:
7,271,18188,5,2,0:1:0:0:
7,271,18364,2,0,L|14:302,1,22.5,0|2,0:0|0:0,0:0:0:0:
161,205,18629,1,8,0:0:0:0:
161,205,18717,6,0,L|148:252,1,45,12|0,1:1|0:0,0:0:0:0:
334,291,19247,6,0,L|327:260,1,22.5,0|2,0:0|0:0,0:0:0:0:
488,185,19600,5,2,0:1:0:0:
488,185,19776,2,0,L|481:216,1,22.5,0|2,0:0|0:0,0:0:0:0:
334,119,20041,1,8,0:0:0:0:
334,119,20129,6,0,L|347:166,1,45,12|0,1:1|0:0,0:0:0:0:
161,205,20658,6,0,L|168:174,1,22.5,0|2,0:0|0:0,0:0:0:0:
7,99,21011,5,2,0:1:0:0:
7,99,21187,2,0,L|14:130,1,22.5,0|2,0:0|0:0,0:0:0:0:
161,33,21453,1,8,0:0:0:0:
161,33,21541,6,0,L|150:77,1,45,12|0,1:1|0:0,0:0:0:0:
334,119,22070,6,0,L|327:88,1,22.5,0|2,0:0|0:0,0:0:0:0:
488,13,22422,5,2,0:1:0:0:
488,13,22600,2,0,L|481:44,1,22.5,0|2,0:0|0:0,0:0:0:0:
378,183,22864,1,8,0:0:0:0:
378,183,22953,6,0,L|422:185,1,45,12|0,1:0|0:0,0:0:0:0:
487,372,23482,6,0,L|458:368,1,22.5,0|2,0:0|0:0,0:0:0:0:
237,254,23835,5,2,0:1:0:0:
237,254,24011,2,0,L|208:258,1,22.5,0|2,0:0|0:0,0:0:0:0:
17,362,24276,1,8,0:0:0:0:
17,362,24364,6,0,L|30:311,1,45,12|0,1:0|0:0,0:0:0:0:
102,145,24894,6,0,L|108:176,1,22.5,0|2,0:0|0:0,0:0:0:0:
287,86,25247,5,2,0:1:0:0:
287,86,25423,2,0,L|293:117,1,22.5,0|2,0:0|0:0,0:0:0:0:
415,228,25688,1,8,0:0:0:0:
415,228,25776,6,0,L|366:233,1,45,12|0,1:0|0:0,0:0:0:0:
169,189,26306,6,0,L|197:200,1,22.5,0|2,0:0|0:0,0:0:0:0:
452,239,26659,5,2,0:1:0:0:
452,239,26835,2,0,L|431:230,1,22.5,0|2,0:0|0:0,0:0:0:0:
261,304,27100,1,8,0:0:0:0:
261,304,27188,6,0,L|249:357,1,45,12|0,1:0|0:0,0:0:0:0:
309,150,27717,6,2,L|316:180,1,22.5
123,363,28070,5,2,0:1:0:0:
123,363,28247,2,2,L|130:333,1,22.5
88,226,28600,6,0,L|87:225,30,2.25
29,177,30011,6,0,P|16:148|25:85,2,90,4|8|0,0:0|0:0|1:0,0:0:0:0:
247,141,31070,1,0,0:0:0:0:
455,247,31423,6,0,P|468:288|460:354,2,90,4|2|0,0:0|0:0|1:0,0:0:0:0:
455,247,32482,1,0,0:0:0:0:
512,71,32835,6,0,L|407:58,1,90,4|4,0:0|0:0,0:0:0:0:
245,6,33541,6,0,P|235:22|188:50,1,67.5,2|0,0:1|0:0,0:0:0:0:
222,115,34247,2,0,P|190:126|156:122,1,67.5,2|0,0:1|0:0,0:0:0:0:
140,192,34953,2,0,P|121:188|79:153,1,67.5,2|0,0:1|0:0,0:0:0:0:
340,279,35659,6,0,P|353:308|344:371,2,90,4|8|0,0:0|0:0|1:0,0:0:0:0:
54,340,36718,1,0,0:0:0:0:
296,209,37070,6,0,P|283:168|291:102,2,90,4|2|0,0:0|0:0|1:0,0:0:0:0:
296,209,38130,1,0,0:0:0:0:
494,32,38483,6,0,L|405:21,1,90,4|4,0:0|0:0,0:0:0:0:
129,125,39188,6,0,P|123:142|131:196,1,67.5,2|0,0:1|0:0,0:0:0:0:
58,212,39894,2,0,P|70:242|95:265,1,67.5,2|0,0:1|0:0,0:0:0:0:
54,324,40600,2,0,P|68:335|122:345,1,67.5,2|0,0:1|0:0,0:0:0:0:
259,275,41306,6,0,L|256:258,10,11.25,12|0|0|0|0|0|0|0|0|0|0,0:1|0:0|0:0|0:0|0:0|0:0|0:0|0:0|0:0|0:0|0:0,0:0:0:0:
233,340,41835,6,0,L|230:357,18,11.25,8|0|0|0|0|0|0|0|0|0|0|0|0|0|0|0|0|0|0,0:1|0:0|0:0|0:0|0:0|0:0|0:0|0:0|0:0|0:0|0:0|0:0|0:0|0:0|0:0|0:0|0:0|0:0|0:0,0:0:0:0:
375,352,42717,6,0,L|378:335,10,11.25,12|0|0|0|0|0|0|0|0|0|0,0:1|0:0|0:0|0:0|0:0|0:0|0:0|0:0|0:0|0:0|0:0,0:0:0:0:
342,281,43247,6,0,L|339:264,18,11.25,8|0|0|0|0|0|0|0|0|0|0|0|0|0|0|0|0|0|0,0:1|0:0|0:0|0:0|0:0|0:0|0:0|0:0|0:0|0:0|0:0|0:0|0:0|0:0|0:0|0:0|0:0|0:0|0:0,0:0:0:0:
485,269,44129,6,0,L|502:266,10,11.25,12|0|0|0|0|0|0|0|0|0|0,0:1|0:0|0:0|0:0|0:0|0:0|0:0|0:0|0:0|0:0|0:0,0:0:0:0:
437,226,44659,6,0,L|420:223,18,11.25,8|0|0|0|0|0|0|0|0|0|0|0|0|0|0|0|0|0|0,0:1|0:0|0:0|0:0|0:0|0:0|0:0|0:0|0:0|0:0|0:0|0:0|0:0|0:0|0:0|0:0|0:0|0:0|0:0,0:0:0:0:
364,127,45541,6,0,L|375:128,10,11.25,12|0|0|0|0|0|0|0|0|0|0,0:1|0:0|0:0|0:0|0:0|0:0|0:0|0:0|0:0|0:0|0:0,0:0:0:0:
439,89,46070,6,0,L|427:90,18,11.25,8|0|0|0|0|0|0|0|0|0|0|0|0|0|0|0|0|0|0,0:1|0:0|0:0|0:0|0:0|0:0|0:0|0:0|0:0|0:0|0:0|0:0|0:0|0:0|0:0|0:0|0:0|0:0|0:0,0:0:0:0:
498,10,46953,6,0,L|501:27,10,11.25,12|0|0|0|0|0|0|0|0|0|0,0:1|0:0|0:0|0:0|0:0|0:0|0:0|0:0|0:0|0:0|0:0,0:0:0:0:
427,19,47482,6,0,L|430:2,18,11.25,8|0|0|0|0|0|0|0|0|0|0|0|0|0|0|0|0|0|0,0:1|0:0|0:0|0:0|0:0|0:0|0:0|0:0|0:0|0:0|0:0|0:0|0:0|0:0|0:0|0:0|0:0|0:0|0:0,0:0:0:0:
329,81,48364,6,0,L|326:98,10,11.25,12|0|0|0|0|0|0|0|0|0|0,0:1|0:0|0:0|0:0|0:0|0:0|0:0|0:0|0:0|0:0|0:0,0:0:0:0:
261,117,48894,6,0,L|258:100,18,11.25,8|0|0|0|0|0|0|0|0|0|0|0|0|0|0|0|0|0|0,0:1|0:0|0:0|0:0|0:0|0:0|0:0|0:0|0:0|0:0|0:0|0:0|0:0|0:0|0:0|0:0|0:0|0:0|0:0,0:0:0:0:
197,18,49776,6,0,L|200:35,10,11.25,12|0|0|0|0|0|0|0|0|0|0,0:1|0:0|0:0|0:0|0:0|0:0|0:0|0:0|0:0|0:0|0:0,0:0:0:0:
155,79,50306,6,0,L|153:90,18,11.25,8|0|0|0|0|0|0|0|0|0|0|0|0|0|0|0|0|0|0,0:1|0:0|0:0|0:0|0:0|0:0|0:0|0:0|0:0|0:0|0:0|0:0|0:0|0:0|0:0|0:0|0:0|0:0|0:0,0:0:0:0:
98,161,51188,6,0,L|95:144,10,11.25,12|0|0|0|0|0|0|0|0|0|0,0:1|0:0|0:0|0:0|0:0|0:0|0:0|0:0|0:0|0:0|0:0,0:0:0:0:
42,108,51717,6,0,L|45:91,18,11.25,8|0|0|0|0|0|0|0|0|0|0|0|0|0|0|0|0|0|0,0:1|0:0|0:0|0:0|0:0|0:0|0:0|0:0|0:0|0:0|0:0|0:0|0:0|0:0|0:0|0:0|0:0|0:0|0:0,0:0:0:0:
62,26,52600,5,12,0:0:0:0:
228,88,52776,1,0,0:1:0:0:
380,32,52953,5,2,0:1:0:0:
218,217,53129,1,0,0:1:0:0:
320,107,53306,5,12,0:0:0:0:
287,17,53482,1,0,0:0:0:0:
380,32,53659,1,2,0:1:0:0:
228,88,53835,1,0,0:0:0:0:
484,114,54011,6,0,P|503:166|496:227,1,90,2|8,0:0|0:0,0:0:0:0:
363,314,54364,2,0,L|264:296,1,90,0|8,0:0|0:0,0:0:0:0:
64,359,54717,5,12,0:0:0:0:
168,335,54894,1,2,0:0:0:0:
134,217,55070,1,2,0:1:0:0:
30,241,55247,1,0,0:0:0:0:
123,355,55423,5,6,0:0:0:0:
19,331,55600,1,0,0:0:0:0:
53,213,55776,1,2,0:1:0:0:
157,237,55953,1,0,0:0:0:0:
389,188,56129,5,6,0:0:0:0:
479,5,56306,1,2,0:1:0:0:
327,114,56482,5,2,0:1:0:0:
377,287,56659,1,2,0:1:0:0:
449,128,56835,5,12,0:0:0:0:
297,206,57011,1,2,0:0:0:0:
472,233,57188,1,10,0:1:0:0:
327,114,57364,1,2,0:1:0:0:
482,45,57541,6,0,P|469:88|448:127,1,90,6|0,0:0|0:0,0:0:0:0:
410,369,57894,2,0,P|397:325|376:286,1,90,4|0,0:0|0:0,0:0:0:0:
327,114,58247,5,12,0:0:0:0:
161,176,58423,1,0,0:0:0:0:
9,120,58600,5,2,0:1:0:0:
171,305,58776,1,0,0:0:0:0:
69,195,58953,5,12,0:0:0:0:
102,105,59129,1,0,0:0:0:0:
9,120,59306,1,2,0:1:0:0:
161,176,59482,1,0,0:0:0:0:
327,114,59659,6,0,P|325:60|315:20,1,90,2|8,0:0|0:0,0:0:0:0:
161,176,60011,2,0,L|176:287,1,90,0|8,0:0|0:0,0:0:0:0:
335,372,60364,5,12,0:0:0:0:
439,348,60541,1,2,0:0:0:0:
405,230,60717,1,2,0:1:0:0:
301,254,60894,1,0,0:0:0:0:
394,368,61070,5,6,0:0:0:0:
290,344,61247,1,0,0:0:0:0:
324,226,61423,1,2,0:1:0:0:
428,250,61600,1,0,0:0:0:0:
489,56,61776,5,12,0:0:0:0:
288,95,61953,1,2,0:0:0:0:
107,29,62129,5,12,0:0:0:0:
157,202,62306,1,2,0:0:0:0:
9,133,62482,5,12,0:0:0:0:
178,82,62658,1,2,0:1:0:0:
293,236,62835,1,2,0:1:0:0:
157,202,63011,1,2,0:1:0:0:
15,368,63188,6,0,P|27:324|48:285,1,90,12|2,0:0|0:0,0:0:0:0:
216,261,63541,2,0,P|228:304|249:343,1,90,6|0,0:0|0:0,0:0:0:0:
461,289,63894,5,12,0:0:0:0:
464,294,64070,2,0,L|423:293,1,33.7500012874604,2|0,0:0|0:0,0:0:0:0:
347,208,64247,2,0,L|361:123,1,67.5000025749208,8|0,0:0|0:0,0:0:0:0:
450,36,64600,5,8,0:0:0:0:
476,28,64688,1,2,0:1:0:0:
318,51,64864,5,2,0:1:0:0:
351,61,64953,1,2,0:0:0:0:
209,95,65129,5,0,0:0:0:0:
86,52,65306,5,12,0:0:0:0:
77,49,65482,2,0,L|74:88,1,33.7500012874604,2|0,0:0|0:0,0:0:0:0:
160,190,65659,6,0,P|174:230|174:264,1,67.5000025749208,8|0,0:0|0:0,0:0:0:0:
76,351,66011,5,8,0:0:0:0:
54,358,66100,1,2,0:1:0:0:
220,340,66276,5,2,0:1:0:0:
194,333,66364,1,2,0:0:0:0:
335,357,66541,5,0,0:0:0:0:
454,328,66717,5,12,0:0:0:0:
463,324,66894,2,0,P|461:297|458:275,1,33.7500012874604,2|0,0:0|0:0,0:0:0:0:
379,200,67070,2,0,L|286:211,1,67.5000025749208,8|0,0:0|0:0,0:0:0:0:
203,129,67423,5,8,0:0:0:0:
195,109,67511,1,2,0:1:0:0:
131,237,67688,5,2,0:1:0:0:
123,257,67776,1,2,0:0:0:0:
54,144,67953,5,0,0:0:0:0:
112,28,68129,5,12,0:0:0:0:
107,22,68306,2,0,L|153:20,1,33.7500012874604,2|0,0:0|0:0,0:0:0:0:
270,77,68482,2,0,P|318:84|345:78,1,67.5000025749208,8|0,0:0|0:0,0:0:0:0:
454,23,68835,5,8,0:0:0:0:
449,46,68923,1,2,0:1:0:0:
497,191,69100,5,2,0:1:0:0:
492,168,69188,1,2,0:0:0:0:
335,192,69364,5,0,0:0:0:0:
397,326,69541,5,12,0:0:0:0:
390,321,69717,2,0,L|435:308,1,33.7500012874604,2|0,0:0|0:0,0:0:0:0:
497,191,69894,2,0,P|484:159|463:133,1,67.5000025749208,8|0,0:0|0:0,0:0:0:0:
335,192,70247,5,8,0:0:0:0:
331,214,70335,1,2,0:1:0:0:
232,134,70511,5,2,0:1:0:0:
228,112,70599,1,2,0:0:0:0:
150,224,70776,5,2,0:0:0:0:
46,149,70953,5,12,0:0:0:0:
35,144,71129,2,0,L|32:100,1,33.7500012874604,2|0,0:0|0:0,0:0:0:0:
156,11,71306,2,0,P|165:51|159:88,1,67.5000025749208,8|0,0:0|0:0,0:0:0:0:
144,207,71659,5,8,0:0:0:0:
150,224,71747,1,2,0:1:0:0:
89,335,71923,5,2,0:1:0:0:
95,352,72011,1,2,0:0:0:0:
240,318,72188,5,2,0:0:0:0:
374,369,72364,5,12,0:0:0:0:
382,374,72541,2,0,L|396:336,1,33.7500012874604,2|0,0:0|0:0,0:0:0:0:
300,252,72717,2,0,P|294:214|297:177,1,67.5000025749208,8|0,0:0|0:0,0:0:0:0:
411,127,73070,5,8,0:0:0:0:
430,124,73159,1,2,0:1:0:0:
305,65,73335,5,2,0:1:0:0:
286,62,73424,1,2,0:0:0:0:
419,10,73600,5,2,0:0:0:0:
507,165,73776,5,12,0:0:0:0:
464,326,73953,1,2,0:0:0:0:
300,252,74129,5,12,0:0:0:0:
184,292,74306,1,2,0:0:0:0:
42,351,74482,5,12,0:0:0:0:
79,210,74659,1,12,0:0:0:0:
250,189,74835,5,2,0:0:0:0:
257,213,74923,1,2,0:0:0:0:
265,238,75011,1,2,0:0:0:0:
272,263,75100,1,2,0:0:0:0:
310,339,75188,6,0,P|415:380|291:183,1,630,12|0,0:1|0:0,0:0:0:0:
220,273,76600,6,0,P|-8:182|219:91,1,630,8|0,0:1|0:0,0:0:0:0:
338,207,78011,6,0,P|443:242|318:175,1,630,12|0,0:0|0:0,0:0:0:0:
180,297,79423,6,0,P|-2:176|207:238,1,630,8|0,0:0|0:0,0:0:0:0:
327,342,80835,6,0,P|511:312|286:159,1,630,12|0,0:1|0:0,0:0:0:0:
227,297,82247,6,0,P|-12:232|198:98,1,630,8|0,0:1|0:0,0:0:0:0:
339,212,83659,6,0,P|471:244|315:158,1,630,12|0,0:0|0:0,0:0:0:0:
178,302,85070,6,0,P|46:334|202:248,1,630,8|0,0:0|0:0,0:0:0:0:
328,354,86482,6,0,P|372:308|385:278,1,90,12|0,0:0|0:0,0:0:0:0:
474,309,86835,2,0,P|472:245|460:214,1,90,2|0,0:1|0:0,0:0:0:0:
319,243,87188,6,0,P|317:179|305:148,1,90,12|0,0:0|0:0,0:0:0:0:
390,107,87541,2,0,P|344:63|314:50,1,90,2|0,0:1|0:0,0:0:0:0:
186,65,87894,6,0,P|146:91|83:100,1,90,12|0,0:0|0:0,0:0:0:0:
102,203,88247,2,0,P|55:193|4:154,1,90,12|0,0:0|0:0,0:0:0:0:
29,346,88600,6,0,P|75:336|126:297,1,90,12|0,0:0|0:0,0:0:0:0:
186,384,88953,2,0,P|212:344|221:281,1,90,2|0,0:1|0:0,0:0:0:0:
407,258,89306,6,0,L|285:237,5,90,12|0|2|0|10|0,0:0|0:0|0:1|0:0|0:1|0:0,0:0:0:0:
220,126,90364,2,0,P|194:163|186:207,1,90,12|0,0:0|0:0,0:0:0:0:
305,364,90717,5,10,0:0:0:0:
309,362,90806,1,2,0:0:0:0:
313,360,90894,1,4,0:0:0:0:
317,358,90982,1,2,0:0:0:0:
321,356,91070,1,10,0:0:0:0:
325,354,91159,1,2,0:0:0:0:
329,352,91247,1,4,0:0:0:0:
333,350,91335,1,2,0:0:0:0:
337,348,91423,5,10,0:1:0:0:
345,344,91600,1,2,0:1:0:0:
353,340,91776,1,10,0:1:0:0:
361,336,91953,1,2,0:1:0:0:
368,331,92129,6,0,L|270:305,1,90,12|0,0:0|0:0,0:0:0:0:
458,269,92482,2,0,P|451:224|431:184,1,90,12|0,0:0|0:0,0:0:0:0:
306,183,92835,6,0,L|205:197,1,90,12|0,0:0|0:0,0:0:0:0:
306,22,93188,2,0,P|340:51|364:90,1,90,10|2,0:1|0:0,0:0:0:0:
207,83,93541,6,0,P|148:70|110:69,1,90,12|0,0:0|0:0,0:0:0:0:
22,195,93894,2,0,P|81:182|119:181,1,90,12|0,0:0|0:0,0:0:0:0:
159,289,94247,6,0,P|203:285|247:274,1,90,12|0,0:0|0:0,0:0:0:0:
88,384,94600,2,0,P|43:380|0:369,1,90,10|0,0:1|0:0,0:0:0:0:
22,195,94953,5,12,0:0:0:0:
39,189,95041,1,0,0:0:0:0:
56,188,95129,1,0,0:0:0:0:
73,189,95217,1,0,0:0:0:0:
89,196,95306,1,10,0:1:0:0:
104,205,95394,1,2,0:1:0:0:
115,218,95482,2,0,L|129:281,1,45,2|0,0:1|0:1,0:1:0:0:
210,376,95659,5,12,0:0:0:0:
227,382,95747,1,0,0:0:0:0:
244,383,95835,1,0,0:0:0:0:
261,382,95923,1,0,0:0:0:0:
277,375,96012,1,10,0:1:0:0:
292,366,96100,1,2,0:1:0:0:
303,353,96188,2,0,L|317:290,1,45,2|0,0:1|0:1,0:1:0:0:
314,196,96364,5,12,0:0:0:0:
331,197,96453,1,0,0:0:0:0:
322,208,96541,1,0,0:0:0:0:
321,184,96629,1,0,0:0:0:0:
314,196,96717,5,10,0:1:0:0:
331,197,96806,1,2,0:1:0:0:
322,208,96894,1,2,0:1:0:0:
321,184,96982,1,0,0:1:0:0:
306,197,97070,6,0,L|268:205,14,22.5,12|0|0|0|0|0|0|0|8|0|0|0|0|0|0,0:0|0:0|0:0|0:0|0:0|0:0|0:0|0:0|0:0|0:0|0:0|0:0|0:0|0:0|0:0,0:0:0:0:
385,133,97776,6,0,L|332:117,1,45,12|0,0:0|0:0,0:0:0:0:
228,91,97953,1,0,0:0:0:0:
233,104,98041,1,0,0:0:0:0:
241,115,98129,1,2,0:1:0:0:
129,60,98306,6,0,L|182:44,1,45,12|0,0:0|0:0,0:0:0:0:
286,18,98483,1,0,0:0:0:0:
281,31,98571,1,0,0:0:0:0:
273,42,98659,1,2,0:1:0:0:
174,153,98835,5,12,0:1:0:0:
178,175,98923,1,0,0:0:0:0:
182,197,99011,1,2,0:0:0:0:
186,219,99100,1,0,0:0:0:0:
200,204,99188,6,0,L|188:264,1,45,12|0,0:0|0:0,0:0:0:0:
72,337,99364,2,0,L|84:277,2,45,0|0|2,0:0|0:0|0:1,0:0:0:0:
247,363,99717,6,0,L|299:342,1,45,12|0,0:0|0:0,0:0:0:0:
368,280,99894,1,0,0:0:0:0:
384,299,99982,1,0,0:0:0:0:
390,330,100070,1,2,0:1:0:0:
480,247,100247,5,12,0:1:0:0:
481,224,100335,1,0,0:0:0:0:
482,201,100423,1,2,0:0:0:0:
483,178,100511,1,0,0:0:0:0:
505,163,100600,6,0,L|452:147,1,45,12|0,0:0|0:0,0:0:0:0:
334,116,100777,1,0,0:0:0:0:
339,129,100865,1,0,0:0:0:0:
347,140,100953,1,2,0:1:0:0:
430,0,101129,6,0,L|377:16,1,45,12|0,0:0|0:0,0:0:0:0:
273,42,101306,1,0,0:0:0:0:
278,29,101394,1,0,0:0:0:0:
286,18,101482,1,2,0:1:0:0:
338,137,101659,5,12,0:1:0:0:
341,159,101747,1,0,0:0:0:0:
344,181,101835,1,2,0:0:0:0:
348,203,101923,1,0,0:0:0:0:
360,196,102011,6,0,L|365:262,1,45,12|0,0:0|0:0,0:0:0:0:
380,345,102188,1,0,0:0:0:0:
358,351,102276,1,0,0:0:0:0:
336,345,102364,1,2,0:1:0:0:
198,363,102541,6,0,L|203:297,1,45,12|0,0:0|0:0,0:0:0:0:
227,230,102718,1,0,0:0:0:0:
205,224,102806,1,0,0:0:0:0:
183,230,102894,1,2,0:1:0:0:
84,182,103070,5,12,0:1:0:0:
78,204,103159,1,0,0:0:0:0:
71,225,103247,1,2,0:1:0:0:
64,246,103335,1,2,0:1:0:0:
84,237,103423,6,0,L|63:302,1,45,12|0,0:0|0:0,0:0:0:0:
198,363,103600,2,0,L|196:289,2,45,0|0|2,0:0|0:0|0:1,0:0:0:0:
337,260,103953,6,0,L|316:325,1,45,12|0,0:0|0:0,0:0:0:0:
163,212,104129,2,0,L|165:138,2,45,0|0|2,0:0|0:0|0:1,0:0:0:0:
16,116,104482,5,12,0:1:0:0:
15,93,104570,1,0,0:0:0:0:
19,70,104659,1,2,0:0:0:0:
33,52,104747,1,0,0:0:0:0:
52,40,104835,6,0,L|112:36,1,45,12|0,0:0|0:0,0:0:0:0:
181,68,105011,1,0,0:0:0:0:
185,45,105100,1,0,0:0:0:0:
184,22,105188,1,2,0:1:0:0:
321,46,105364,6,0,L|381:50,1,45,12|0,0:0|0:0,0:0:0:0:
452,28,105540,1,0,0:0:0:0:
456,51,105629,1,0,0:0:0:0:
455,74,105717,1,2,0:1:0:0:
465,79,105894,6,0,L|410:95,1,45,12|0,0:1|0:0,0:0:0:0:
293,192,106070,2,0,L|348:208,1,45
420,317,106247,5,12,0:0:0:0:
428,337,106335,1,0,0:0:0:0:
418,357,106423,1,2,0:0:0:0:
396,362,106511,1,0,0:0:0:0:
378,347,106600,2,0,L|326:342,1,45,2|0,0:0|0:0,0:0:0:0:
248,358,106776,5,12,0:0:0:0:
226,352,106864,1,0,0:0:0:0:
204,346,106953,1,2,0:0:0:0:
182,340,107041,1,0,0:0:0:0:
160,329,107129,2,0,L|108:336,1,45,2|0,0:1|0:0,0:0:0:0:
21,349,107306,5,12,0:1:0:0:
36,316,107394,1,0,0:0:0:0:
51,283,107482,1,2,0:0:0:0:
66,250,107570,1,0,0:0:0:0:
97,231,107659,6,0,L|94:167,1,45,12|0,0:0|0:0,0:0:0:0:
40,106,107835,1,2,0:0:0:0:
38,83,107923,1,0,0:0:0:0:
44,61,108011,2,0,L|98:53,1,45,2|0,0:0|0:0,0:0:0:0:
172,122,108188,5,12,0:0:0:0:
202,116,108276,1,0,0:0:0:0:
232,110,108364,1,2,0:0:0:0:
263,104,108453,1,0,0:0:0:0:
293,95,108541,2,0,L|277:151,1,45,2|0,0:1|0:0,0:0:0:0:
369,71,108717,5,12,0:0:0:0:
399,80,108806,1,0,0:0:0:0:
428,90,108894,1,6,0:0:0:0:
458,99,108982,1,0,0:0:0:0:
479,133,109070,6,0,L|454:42,1,90,12|2,0:0|0:0,0:0:0:0:
460,41,109776,6,0,L|498:185,1,135,2|0,0:1|0:0,0:0:0:0:
483,328,110482,6,0,P|454:353|401:362,2,90,4|4|10,0:0|0:0|0:1,0:0:0:0:
33,251,111894,6,0,L|58:342,1,90,12|2,0:0|0:0,0:0:0:0:
52,343,112600,6,0,L|14:199,1,135,2|0,0:1|0:0,0:0:0:0:
29,56,113306,6,0,P|58:31|111:22,2,90,4|4|10,0:0|0:0|0:1,0:0:0:0:
337,202,114717,6,0,L|434:175,1,90,12|2,0:0|0:0,0:0:0:0:
430,183,115423,6,0,L|286:221,1,135,2|0,0:1|0:0,0:0:0:0:
308,34,116129,6,0,P|361:46|391:74,2,90,4|4|10,0:0|0:0|0:1,0:0:0:0:
175,182,117541,6,0,L|78:209,1,90,12|2,0:0|0:0,0:0:0:0:
82,201,118247,6,0,L|226:163,1,135,2|0,0:1|0:0,0:0:0:0:
204,350,118953,6,0,P|151:338|121:310,2,90,4|4|10,0:0|0:0|0:1,0:0:0:0:
