osu file format v14

[General]
AudioFilename: audio.mp3
AudioLeadIn: 0
PreviewTime: 75005
Countdown: 0
SampleSet: Soft
StackLeniency: 0.7
Mode: 0
LetterboxInBreaks: 0
WidescreenStoryboard: 0

[Editor]
DistanceSpacing: 1
BeatDivisor: 4
GridSize: 32
TimelineZoom: 1.6

[Metadata]
Title:Kagachi
TitleUnicode:蛇神
Artist:Zektbach
ArtistUnicode:Zektbach
Creator:09kami
Version:PandaHero's Normal
Source:pop'n music 18 せんごく列伝
Tags:Beatmania IIDX ORIENTAL MYTHOLOGY オリエンタルミソロジー BeatStream REFLEC BEAT plus ポップンリズミン PandaHero TT Mouse Yusomi lililing SDpeople kanor Muziyami TtmnZk
BeatmapID:1890817
BeatmapSetID:894104

[Difficulty]
HPDrainRate:4
CircleSize:3.5
OverallDifficulty:4
ApproachRate:5.5
SliderMultiplier:1.1
SliderTickRate:1

[Events]
//Background and Video events
0,0,"20140708131851_tZwGz.jpg",0,0
//Break Periods
2,75388,79710
//Storyboard Layer 0 (Background)
//Storyboard Layer 1 (Fail)
//Storyboard Layer 2 (Pass)
//Storyboard Layer 3 (Foreground)
//Storyboard Layer 4 (Overlay)
//Storyboard Sound Samples

[TimingPoints]
6012,352.941176470588,4,2,1,75,1,0
17306,-100,4,2,1,75,0,0
17659,-100,4,2,1,75,0,0
18717,-100,4,2,1,75,0,0
19070,-100,4,2,1,75,0,0
20129,-100,4,2,1,75,0,0
20482,-100,4,2,1,75,0,0
21541,-100,4,2,1,75,0,0
21894,-100,4,2,1,75,0,0
22953,-100,4,2,1,75,0,0
23306,-100,4,2,1,75,0,0
24364,-100,4,2,1,75,0,0
24717,-100,4,2,1,75,0,0
25776,-100,4,2,1,75,0,0
26129,-100,4,2,1,75,0,0
27188,-100,4,2,1,75,0,0
27541,-100,4,2,1,75,0,0
28511,-100,4,2,1,5,0,0
30011,-111.111111111111,4,2,1,50,0,0
41306,-100,4,2,1,60,0,0
52600,-100,4,2,1,65,0,0
63894,-100,4,2,1,75,0,0
75188,-100,4,2,1,45,0,0
76600,-100,4,2,1,45,0,0
78010,-100,4,2,1,45,0,0
79422,-100,4,2,1,45,0,0
80835,-100,4,2,1,45,0,0
82247,-100,4,2,1,45,0,0
83657,-100,4,2,1,45,0,0
85069,-100,4,2,1,65,0,0
86482,-100,4,2,1,65,0,0
97776,-100,4,2,1,75,0,0
104835,-100,4,2,1,90,0,0
109070,-111.111111111111,4,2,1,60,0,0

[Colours]
Combo1 : 150,128,114
Combo2 : 202,190,183
Combo3 : 204,136,138
Combo4 : 134,181,206

[HitObjects]
29,38,6011,6,0,P|97:43|147:68,1,110,4|2,0:0|0:0,0:0:0:0:
161,108,6541,2,0,L|153:231,1,110,2|0,0:0|0:0,0:0:0:0:
148,272,7070,1,2,0:0:0:0:
256,251,7423,5,2,0:1:0:0:
349,308,7776,2,0,L|418:313,2,55,2|0|2,0:1|0:0|0:0,0:0:0:0:
254,365,8482,1,0,1:0:0:0:
148,333,8835,6,0,P|70:326|49:277,1,110,4|2,0:0|0:0,0:0:0:0:
78,255,9364,2,0,L|82:118,1,110,2|0,0:0|0:0,0:0:0:0:
46,101,9894,1,2,0:0:0:0:
127,28,10247,6,0,P|181:25|233:42,1,110,2|2,0:1|0:1,0:0:0:0:
257,92,10776,1,0,0:0:0:0:
257,92,10953,2,0,P|311:95|363:78,1,110,2|0,0:0|1:2,0:0:0:0:
405,179,11659,6,0,P|459:175|521:199,1,110,4|2,0:0|0:0,0:0:0:0:
497,246,12188,2,0,L|471:364,1,110,2|0,0:0|0:0,0:0:0:0:
419,366,12717,1,2,0:0:0:0:
328,304,13070,5,2,0:1:0:0:
229,352,13423,2,0,L|146:343,2,55,2|0|6,0:1|0:0|0:0,0:0:0:0:
212,242,14129,1,10,1:1:0:0:
103,226,14482,6,0,L|97:96,1,110,4|2,0:0|0:0,0:0:0:0:
87,62,15011,2,0,P|137:72|219:74,1,110,2|0,0:0|0:0,0:0:0:0:
249,61,15541,1,2,0:0:0:0:
356,84,15894,5,2,0:1:0:0:
392,187,16247,2,0,L|383:251,2,55,2|0|8,0:1|0:0|0:0,0:0:0:0:
440,87,16953,2,0,L|435:21,1,55,4|2,0:1|0:1,0:0:0:0:
380,28,17306,6,0,B|324:55|324:55|202:50,2,165,12|0|0,1:1|0:0|0:0,0:0:0:0:
361,136,18717,2,0,B|334:192|334:192|339:314,2,165,12|0|0,1:1|0:0|0:0,0:0:0:0:
437,215,20129,6,0,L|429:332,1,110,12|2,1:1|0:1,0:0:0:0:
383,356,20659,2,0,B|321:328|321:328|186:338,1,165
114,335,21541,2,0,L|117:210,1,110,12|2,1:1|0:1,0:0:0:0:
118,169,22070,2,0,B|180:197|180:197|315:187,1,165
361,119,22953,5,12,1:0:0:0:
295,30,23306,2,0,L|193:36,1,55,2|0,0:1|0:0,0:0:0:0:
195,63,23659,2,0,L|62:59,1,110,0|0,0:0|0:0,0:0:0:0:
9,122,24364,1,12,1:0:0:0:
104,176,24717,2,0,L|95:269,1,55,2|0,0:1|0:0,0:0:0:0:
51,259,25070,2,0,L|58:389,1,110,0|0,0:0|0:0,0:0:0:0:
166,376,25776,5,12,1:0:0:0:
244,298,26129,2,0,L|304:303,1,55,2|0,0:1|0:0,0:0:0:0:
341,337,26482,2,0,P|399:338|474:334,1,110,0|0,0:0|0:0,0:0:0:0:
499,236,27188,1,12,1:0:0:0:
394,202,27541,2,0,L|308:208,2,55,2|2|0,0:1|0:0|0:0,0:0:0:0:
431,98,28247,2,0,L|312:105,1,110,2|0,0:0|0:0,0:0:0:0:
25,29,30011,6,0,P|132:19|223:64,1,197.99999395752,4|0,0:0|1:0,0:0:0:0:
272,134,31070,1,0,0:0:0:0:
198,201,31423,2,0,P|129:196|115:315,1,197.99999395752,4|0,0:0|1:0,0:0:0:0:
188,353,32482,1,4,0:0:0:0:
267,292,32835,1,4,0:0:0:0:
267,292,33541,6,0,L|249:95,2,197.99999395752,2|2|2,0:1|0:1|0:1,0:0:0:0:
471,199,35659,6,0,P|454:85|393:17,1,197.99999395752,4|0,0:0|1:0,0:0:0:0:
331,92,36717,1,0,0:0:0:0:
245,142,37070,2,0,P|151:149|105:49,1,197.99999395752,4|0,0:0|1:0,0:0:0:0:
187,16,38129,1,4,0:0:0:0:
278,54,38482,1,4,0:0:0:0:
278,54,39188,6,0,L|293:265,2,197.99999395752,2|2|2,0:1|0:1|0:1,0:0:0:0:
72,169,41306,6,0,P|65:222|66:304,1,110,12|4,0:1|0:0,0:0:0:0:
63,333,41835,2,0,B|149:315|130:372|242:353,1,165,8|2,0:0|0:0,0:0:0:0:
311,290,42717,2,0,P|379:319|481:313,2,165,12|8|2,0:1|0:0|0:0,0:0:0:0:
248,199,44129,6,0,P|251:145|267:65,1,110,12|4,0:1|0:0,0:0:0:0:
270,37,44658,2,0,B|350:71|343:11|449:51,1,165,8|2,0:0|0:0,0:0:0:0:
459,152,45541,2,0,P|469:223|471:340,2,165,12|8|2,0:1|0:0|0:0,0:0:0:0:
352,123,46953,6,0,P|292:128|199:137,1,110,12|4,0:1|0:0,0:0:0:0:
188,144,47482,1,8,0:0:0:0:
54,46,48011,1,2,0:0:0:0:
162,27,48364,2,0,P|221:33|314:42,1,110,12|8,0:1|0:0,0:0:0:0:
327,37,48893,1,8,0:1:0:0:
440,159,49422,1,2,0:0:0:0:
349,221,49776,6,0,P|289:216|196:207,1,110,12|4,0:1|0:0,0:0:0:0:
185,200,50305,1,8,0:0:0:0:
51,298,50834,1,2,0:0:0:0:
143,358,51188,1,12,0:1:0:0:
237,300,51541,2,0,L|315:294,1,55,4|8,0:0|0:0,0:0:0:0:
346,300,51894,2,0,L|347:235,1,55,2|8,0:1|0:0,0:0:0:0:
351,190,52247,2,0,L|296:191,1,55,2|2,0:0|0:1,0:0:0:0:
254,154,52600,6,0,P|258:93|266:20,1,110,12|2,0:0|0:1,0:0:0:0:
159,83,53306,2,0,L|158:160,2,55,12|0|2,0:0|0:0|0:1,0:0:0:0:
66,23,54011,2,0,P|20:63|9:126,1,110,6|2,0:0|0:1,0:0:0:0:
23,217,54717,1,12,0:0:0:0:
131,232,55070,2,0,L|194:215,2,55,6|0|6,0:1|0:0|0:0,0:0:0:0:
177,332,55776,2,0,L|249:313,1,55,2|0,0:1|0:0,0:0:0:0:
283,333,56129,6,0,P|317:342|420:332,1,110,6|2,0:0|0:1,0:0:0:0:
479,274,56835,2,0,P|457:246|368:192,1,110,12|10,0:0|0:1,0:0:0:0:
298,152,57541,2,0,P|319:124|408:70,1,110,6|4,0:0|0:0,0:0:0:0:
288,18,58247,5,12,0:0:0:0:
180,40,58600,1,2,0:1:0:0:
161,148,58953,2,0,L|168:220,2,55,12|0|2,0:0|0:0|0:1,0:0:0:0:
268,124,59659,2,0,P|357:142|355:283,1,220,6|12,0:0|0:0,0:0:0:0:
289,321,60717,1,12,0:0:0:0:
200,256,61070,1,12,0:0:0:0:
115,326,61423,2,0,L|41:326,1,55,2|0,0:1|0:0,0:0:0:0:
17,291,61776,6,0,P|31:227|53:186,1,110,12|12,0:0|0:0,0:0:0:0:
143,126,62482,2,0,P|192:150|245:160,1,110,12|10,0:0|0:1,0:0:0:0:
233,51,63188,1,12,0:0:0:0:
127,19,63541,1,6,0:0:0:0:
39,86,63894,6,0,P|30:161|34:230,1,110,12|8,0:0|0:0,0:0:0:0:
51,246,64423,1,2,0:0:0:0:
51,246,64600,2,0,P|109:242|180:242,1,110,0|2,0:0|0:0,0:0:0:0:
267,268,65306,2,0,P|273:325|268:396,2,110,12|8|0,0:0|0:0|0:0,0:0:0:0:
214,171,66364,1,2,0:0:0:0:
323,166,66717,6,0,P|393:207|444:208,1,110,12|8,0:0|0:0,0:0:0:0:
474,200,67247,1,2,0:0:0:0:
474,200,67423,2,0,L|469:72,1,110,0|2,0:0|0:0,0:0:0:0:
372,38,68129,2,0,P|318:43|222:33,2,110,12|8|0,0:0|0:0|0:0,0:0:0:0:
378,148,69188,1,2,0:0:0:0:
279,196,69541,6,0,P|209:184|142:188,1,110,12|8,0:0|0:0,0:0:0:0:
120,208,70070,1,2,0:0:0:0:
120,208,70247,2,0,P|119:266|117:342,1,110,0|2,0:0|0:0,0:0:0:0:
217,364,70953,2,0,P|271:363|325:352,2,110,12|8|0,0:0|0:0|0:0,0:0:0:0:
107,359,72011,1,2,0:0:0:0:
38,273,72364,6,0,P|46:207|55:149,1,110,12|8,0:0|0:0,0:0:0:0:
70,111,72894,1,2,0:0:0:0:
70,111,73070,2,0,P|116:110|183:115,1,110,0|2,0:0|0:0,0:0:0:0:
288,135,73776,2,0,L|291:206,1,55,12|2,0:0|0:0,0:0:0:0:
330,227,74129,2,0,L|412:218,1,55,12|2,0:0|0:0,0:0:0:0:
438,232,74482,2,0,P|440:284|435:346,1,110,12|2,0:0|0:0,0:0:0:0:
384,363,75011,1,2,0:0:0:0:
329,354,75188,1,12,0:1:0:0:
201,56,80835,5,12,0:1:0:0:
103,253,81541,1,0,0:0:0:0:
309,330,82247,1,8,0:1:0:0:
407,133,82953,1,0,0:0:0:0:
256,192,83659,12,0,85776,0:0:0:0:
42,245,86482,6,0,P|29:299|22:390,2,110,4|2|4,0:0|0:1|0:0,0:0:0:0:
135,186,87541,1,2,0:1:0:0:
229,241,87894,2,0,P|283:247|372:242,1,110,4|4,0:0|0:0,0:0:0:0:
438,200,88600,1,4,0:0:0:0:
429,90,88953,2,0,L|374:39,1,55,2|0,0:1|0:0,0:0:0:0:
336,71,89306,6,0,P|281:77|176:74,2,110,4|4|4,0:0|0:0|0:0,0:0:0:0:
380,171,90364,1,4,0:0:0:0:
294,240,90717,2,0,P|276:292|266:360,1,110,10|2,0:1|0:1,0:0:0:0:
157,360,91423,1,2,0:1:0:0:
55,318,91776,2,0,L|49:254,1,55,10|0,0:1|0:0,0:0:0:0:
46,208,92129,5,4,0:0:0:0:
136,145,92482,1,2,0:1:0:0:
233,193,92835,2,0,P|284:217|399:205,1,165,4|2,0:0|0:1,0:0:0:0:
444,199,93541,1,4,0:0:0:0:
493,100,93894,1,2,0:1:0:0:
404,34,94247,1,4,0:0:0:0:
302,76,94600,2,0,L|244:74,1,55,2|0,0:1|0:0,0:0:0:0:
198,99,94953,6,0,L|81:95,1,110,6|2,0:0|0:1,0:0:0:0:
115,202,95659,2,0,L|232:206,1,110,6|2,0:0|0:1,0:0:0:0:
188,309,96364,2,0,L|118:306,1,55,12|0,0:1|0:0,0:0:0:0:
93,344,96717,2,0,L|17:342,1,55,10|2,0:1|0:1,0:0:0:0:
6,297,97070,2,0,P|6:242|12:188,1,110,12|8,0:0|0:0,0:0:0:0:
95,114,97776,5,12,0:0:0:0:
165,198,98129,1,2,0:1:0:0:
165,198,98306,2,0,B|213:236|213:236|324:240,1,165,12|12,0:0|0:1,0:0:0:0:
417,281,99188,2,0,B|455:232|455:232|459:121,1,165,12|12,0:0|0:0,0:0:0:0:
331,25,100247,1,12,0:1:0:0:
276,120,100600,5,12,0:0:0:0:
186,55,100953,1,2,0:1:0:0:
186,55,101130,2,0,B|131:26|131:26|21:44,1,165,12|12,0:0|0:1,0:0:0:0:
39,151,102011,2,0,B|97:162|97:162|170:150,1,110,12|2,0:0|0:1,0:0:0:0:
190,188,102541,2,0,B|179:246|179:246|191:319,1,110,12|2,0:0|0:1,0:0:0:0:
215,343,103070,1,12,0:1:0:0:
320,310,103423,5,12,0:0:0:0:
420,355,103776,1,2,0:1:0:0:
420,355,103953,2,0,B|449:300|449:300|431:190,1,165,12|12,0:0|0:1,0:0:0:0:
322,189,104835,2,0,B|267:218|267:218|157:200,2,165,12|12|12,0:0|0:0|0:1,0:0:0:0:
412,126,106247,5,12,0:0:0:0:
348,36,106600,1,2,0:1:0:0:
348,36,106776,2,0,B|293:7|293:7|183:25,1,165,12|12,0:0|0:1,0:0:0:0:
157,128,107659,2,0,B|178:175|178:175|166:246,1,110,12|2,0:0|0:0,0:0:0:0:
125,267,108188,2,0,B|78:246|78:246|7:258,1,110,12|2,0:0|0:0,0:0:0:0:
10,310,108717,1,12,0:0:0:0:
103,368,109070,6,0,P|152:374|217:364,1,98.9999969787599,12|2,0:1|0:0,0:0:0:0:
277,305,109776,1,2,0:1:0:0:
190,190,110306,1,0,0:1:0:0:
190,190,110482,2,0,P|140:189|72:197,1,98.9999969787599,4|4,0:0|0:0,0:0:0:0:
78,95,111188,2,0,P|132:99|182:98,1,98.9999969787599,2|2,0:1|0:0,0:0:0:0:
273,120,111894,6,0,P|317:128|381:122,1,98.9999969787599,12|2,0:0|0:0,0:0:0:0:
462,85,112600,1,2,0:1:0:0:
429,232,113129,1,0,0:0:0:0:
429,232,113306,2,0,P|414:290|410:340,1,98.9999969787599,4|4,0:0|0:0,0:0:0:0:
313,306,114011,2,0,P|269:298|203:307,1,98.9999969787599,2|2,0:1|0:0,0:0:0:0:
126,259,114717,6,0,P|143:176|127:46,1,197.99999395752,12|2,0:0|0:1,0:0:0:0:
18,158,115953,1,0,0:0:0:0:
18,158,116129,2,0,P|7:212|10:271,1,98.9999969787599,4|4,0:0|0:0,0:0:0:0:
73,331,116835,2,0,P|121:320|184:319,1,98.9999969787599,2|2,0:1|0:0,0:0:0:0:
241,248,117541,6,0,P|314:285|430:244,1,197.99999395752,8|2,0:1|0:1,0:0:0:0:
406,109,118776,1,0,0:0:0:0:
406,109,118953,2,0,P|348:96|295:106,2,98.9999969787599,12|12|6,0:0|0:0|0:1,0:0:0:0:
488,163,120011,1,2,0:0:0:0:
