osu file format v14

[General]
AudioFilename: Blind Justice Torn souls, Hurt Faiths.mp3
AudioLeadIn: 2000
PreviewTime: 80720
Countdown: 0
SampleSet: Soft
StackLeniency: 0.7
Mode: 0
LetterboxInBreaks: 0
WidescreenStoryboard: 1

[Editor]
Bookmarks: 12356,23992,31265,32720,48356,57447,69083,92356,103992,115629,121818,123570
DistanceSpacing: 1.3
BeatDivisor: 16
GridSize: 4
TimelineZoom: 3.299999

[Metadata]
Title:Blind Justice ~Torn souls, Hurt Faiths~
TitleUnicode:Blind Justice ~Torn souls, Hurt Faiths~
Artist:Zektbach
ArtistUnicode:Zektbach
Creator:Nao
Version:Expert
Source:beatmania IIDX 14 GOLD
Tags:
BeatmapID:1952053
BeatmapSetID:935040

[Difficulty]
HPDrainRate:7
CircleSize:5
OverallDifficulty:9
ApproachRate:9
SliderMultiplier:1.6
SliderTickRate:2

[Events]
//Background and Video events
0,0,"2011-06-08-4106162.jpg",0,0
//Break Periods
//Storyboard Layer 0 (Background)
//Storyboard Layer 1 (Fail)
//Storyboard Layer 2 (Pass)
//Storyboard Layer 3 (Foreground)
//Storyboard Sound Samples

[TimingPoints]
720,363.636907142431,4,2,0,50,1,0
34174,-80,4,2,0,50,0,0
68356,-133.333333333333,4,2,0,50,0,0
69083,-133.333333333333,4,2,0,50,0,0
79992,-133.333333333333,4,2,0,50,0,0
80720,-80,4,2,0,50,0,0
115629,-100,4,2,0,50,0,0
118530,384.615384615385,4,2,0,50,1,0
118530,-232.558139534884,4,2,0,50,0,0
119203,-232.558139534884,4,2,0,5,0,0
119300,437.956204379562,4,2,0,50,1,0
119300,-80,4,2,0,50,0,0
119683,-80,4,2,0,5,0,0
119737,-66.6666666666667,4,2,0,50,0,0
120121,-66.6666666666667,4,2,0,5,0,0
120175,-200,4,2,0,50,0,0
121818,-200,4,2,0,5,0,0
121927,-133.333333333333,4,2,0,50,0,0
123570,-133.333333333333,4,2,0,5,0,0
123679,-133.333333333333,4,2,0,50,0,0
127073,-133.333333333333,4,2,0,5,0,0

[Colours]
Combo1 : 255,100,100
Combo2 : 255,132,255
Combo3 : 242,83,183
Combo4 : 166,166,210

[HitObjects]
186,297,720,6,0,L|278:291,1,80
384,227,1083,2,0,L|305:222,1,80
423,157,1447,2,0,L|503:152,2,80
366,100,1992,5,0,0:0:0:0:
281,110,2174,2,0,P|245:115|201:115,1,80
138,64,2538,2,0,P|124:97|102:135,1,80
71,231,2901,2,0,P|51:196|27:165,2,80
43,307,3447,1,0,0:0:0:0:
114,341,3629,6,0,P|149:323|196:318,1,80
262,349,3992,2,0,P|263:309|282:265,1,80
283,172,4356,2,0,P|308:203|342:225,2,80
348,52,4901,5,0,0:0:0:0:
348,52,5083,2,0,P|396:57|338:120,1,160
256,72,5629,1,0,0:0:0:0:
219,142,5810,2,0,L|223:249,1,80
306,291,6174,2,0,L|303:211,1,80
384,137,6538,2,0,P|407:171|414:216,2,80
305,121,7083,1,0,0:0:0:0:
226,105,7265,2,0,L|233:18,2,80
153,200,7810,5,0,0:0:0:0:
223,237,7992,2,0,P|195:274|144:280,1,80
74,168,8356,2,0,P|67:206|85:242,1,80
219,148,8720,2,0,P|189:122|150:120,2,80
292,235,9265,5,0,0:0:0:0:
328,164,9447,2,0,L|439:170,1,80
379,93,9810,2,0,L|268:99,1,80
212,97,10174,2,0,L|133:93,2,80
184,164,10720,1,0,0:0:0:0:
104,168,10901,2,0,P|121:244|81:311,1,160
15,357,11447,1,0,0:0:0:0:
126,369,11629,2,0,P|158:382|219:376,2,80
178,281,12174,1,0,0:0:0:0:
295,327,12356,6,0,P|278:292|288:254,1,80
399,206,12720,2,0,P|416:241|406:279,1,80
322,189,13083,1,0,0:0:0:0:
353,115,13265,1,0,0:0:0:0:
432,105,13447,1,0,0:0:0:0:
338,125,13629,1,0,0:0:0:0:
273,53,13810,6,0,P|235:44|196:53,1,80
102,148,14174,2,0,P|140:157|179:148,1,80
281,118,14538,1,0,0:0:0:0:
353,180,14720,1,0,0:0:0:0:
368,266,14901,1,0,0:0:0:0:
333,338,15083,1,0,0:0:0:0:
448,261,15265,6,0,L|452:177,1,80
356,100,15628,2,0,L|353:180,1,80
442,95,15992,1,0,0:0:0:0:
381,31,16174,1,0,0:0:0:0:
269,135,16356,1,0,0:0:0:0:
295,51,16538,1,0,0:0:0:0:
328,199,16720,5,0,0:0:0:0:
241,240,16901,1,0,0:0:0:0:
165,195,17083,1,0,0:0:0:0:
161,114,17265,1,0,0:0:0:0:
197,52,17447,6,0,P|166:76|127:84,1,80
9,34,17810,2,0,P|40:9|79:1,1,80
54,114,18174,1,0,0:0:0:0:
116,189,18356,1,0,0:0:0:0:
54,264,18538,1,0,0:0:0:0:
116,339,18720,1,0,0:0:0:0:
54,264,18901,5,0,0:0:0:0:
124,198,19083,1,0,0:0:0:0:
216,225,19265,1,0,0:0:0:0:
308,252,19447,1,0,0:0:0:0:
378,186,19629,1,0,0:0:0:0:
321,262,19810,1,0,0:0:0:0:
358,349,19992,1,0,0:0:0:0:
415,273,20174,1,0,0:0:0:0:
358,349,20356,5,0,0:0:0:0:
264,327,20538,1,0,0:0:0:0:
219,251,20720,1,0,0:0:0:0:
235,172,20902,1,0,0:0:0:0:
291,127,21083,6,0,L|378:120,1,80
444,192,21447,2,0,L|364:198,1,80
220,114,21810,1,0,0:0:0:0:
140,107,21992,1,0,0:0:0:0:
66,154,22174,1,0,0:0:0:0:
57,249,22356,1,0,0:0:0:0:
109,338,22538,5,0,0:0:0:0:
93,251,22720,1,0,0:0:0:0:
130,171,22901,1,0,0:0:0:0:
215,152,23083,1,0,0:0:0:0:
295,187,23265,5,0,0:0:0:0:
207,179,23447,1,0,0:0:0:0:
162,112,23629,1,0,0:0:0:0:
180,42,23810,1,0,0:0:0:0:
312,75,23992,6,0,L|402:68,2,80
172,257,24538,2,0,L|93:251,2,80
339,257,25083,5,0,0:0:0:0:
268,321,25264,1,0,0:0:0:0:
358,350,25447,1,0,0:0:0:0:
416,201,25629,5,0,0:0:0:0:
487,264,25810,1,0,0:0:0:0:
397,293,25993,1,0,0:0:0:0:
493,184,26174,6,0,L|485:85,2,80
268,321,26720,2,0,L|274:241,1,80
179,36,27083,2,0,P|175:113|232:166,1,160
407,95,27629,2,0,P|339:55|264:74,1,160
81,345,28356,6,0,P|49:266|74:194,1,160
229,149,28901,2,0,L|150:143,1,80
98,61,29265,2,0,L|177:67,1,80
346,28,29629,2,0,P|294:84|315:157,1,160
482,309,30356,6,0,L|477:140,1,160
368,219,30901,2,0,P|334:239|289:234,1,80
180,151,31265,6,0,P|211:200|194:260,1,120
63,242,31629,2,0,B|41:230|41:230|134:212,1,120
125,307,31992,2,0,L|120:360,2,53.3333333333333
212,336,32356,2,0,L|234:384,2,53.3333333333333
301,317,32720,6,0,P|338:330|377:327,1,80
469,277,33083,1,0,0:0:0:0:
469,277,33265,1,0,0:0:0:0:
377,221,33447,2,0,P|366:183|373:144,1,80
464,94,33810,1,0,0:0:0:0:
464,94,33992,1,0,0:0:0:0:
324,48,34174,6,0,P|275:56|225:54,1,100
194,43,34447,1,0,0:0:0:0:
194,43,34538,1,0,0:0:0:0:
218,150,34720,1,0,0:0:0:0:
113,117,34901,2,0,P|102:160|132:212,1,100
282,204,35265,2,0,P|305:161|295:113,1,100
232,22,35629,5,0,0:0:0:0:
339,44,35810,1,0,0:0:0:0:
465,2,35992,1,0,0:0:0:0:
393,83,36173,1,0,0:0:0:0:
492,171,36356,2,0,P|445:160|392:166,1,100
321,271,36720,2,0,L|313:159,1,100
411,298,37083,6,0,P|383:341|242:317,1,200
170,252,37629,1,0,0:0:0:0:
79,313,37810,1,0,0:0:0:0:
79,313,37901,2,0,P|57:259|75:220,1,100
139,160,38174,2,0,L|132:52,1,100
232,12,38538,5,0,0:0:0:0:
214,120,38720,1,0,0:0:0:0:
319,92,38901,1,0,0:0:0:0:
337,200,39083,1,0,0:0:0:0:
227,190,39265,2,0,P|279:194|339:175,1,100
417,85,39629,2,0,L|413:200,1,100
416,314,39992,2,0,P|453:345|521:348,2,100
498,240,40538,1,0,0:0:0:0:
360,277,40720,6,0,L|260:271,1,100
150,281,41083,1,0,0:0:0:0:
150,281,41265,1,0,0:0:0:0:
185,176,41447,2,0,P|190:131|166:73,1,100
19,38,41810,2,0,P|55:64|117:73,1,100
234,12,42174,2,0,L|337:19,1,100
455,93,42538,2,0,L|352:100,1,100
262,158,42901,6,0,P|245:191|251:265,2,100
353,220,43447,1,0,0:0:0:0:
294,313,43629,1,0,0:0:0:0:
294,313,43720,1,0,0:0:0:0:
184,304,43901,1,0,0:0:0:0:
184,304,43992,2,0,P|142:323|83:316,1,100
16,235,44356,1,0,0:0:0:0:
125,248,44538,1,0,0:0:0:0:
190,160,44720,1,0,0:0:0:0:
146,59,44901,1,0,0:0:0:0:
38,46,45083,5,0,0:0:0:0:
140,6,45265,1,0,0:0:0:0:
231,67,45447,1,0,0:0:0:0:
424,88,45629,1,0,0:0:0:0:
322,128,45810,6,0,P|312:78|327:29,1,100
398,173,46174,2,0,P|359:206|310:217,1,100
208,180,46538,1,0,0:0:0:0:
208,180,46629,2,0,P|200:215|240:285,1,100
294,336,46901,2,0,L|176:331,1,100
42,264,47265,2,0,L|160:259,1,100
208,180,47629,5,0,0:0:0:0:
79,198,47810,1,0,0:0:0:0:
156,119,47992,1,0,0:0:0:0:
285,137,48173,1,0,0:0:0:0:
358,64,48356,1,0,0:0:0:0:
229,82,48537,1,0,0:0:0:0:
367,155,48720,6,0,P|362:182|302:226,1,100
280,221,48992,1,0,0:0:0:0:
280,221,49083,1,0,0:0:0:0:
174,189,49265,1,0,0:0:0:0:
222,286,49447,1,0,0:0:0:0:
116,317,49629,5,0,0:0:0:0:
222,286,49810,1,0,0:0:0:0:
328,318,49992,1,0,0:0:0:0:
434,286,50174,2,0,P|454:259|436:190,1,100
370,79,50538,2,0,P|350:106|368:175,1,100
452,18,50901,6,0,L|345:7,1,100
179,112,51265,2,0,L|279:102,1,100
133,35,51629,1,0,0:0:0:0:
29,69,51810,1,0,0:0:0:0:
107,146,51992,2,0,L|108:250,1,100
45,337,52356,2,0,P|138:307|230:343,1,200
278,244,52901,5,0,0:0:0:0:
388,244,53083,2,0,P|388:277|339:329,1,100
209,258,53447,2,0,P|209:225|258:173,1,100
366,131,53810,2,0,L|470:140,1,100
415,35,54174,1,0,0:0:0:0:
307,57,54355,1,0,0:0:0:0:
212,1,54538,2,0,L|216:109,1,100
131,172,54901,2,0,L|134:72,1,100
201,220,55265,6,0,P|163:250|114:256,2,100
256,124,55810,1,0,0:0:0:0:
310,220,55992,2,0,P|348:250|397:256,1,100
496,156,56356,2,0,P|457:125|408:119,1,100
314,225,56720,1,0,0:0:0:0:
358,85,56901,1,0,0:0:0:0:
412,181,57083,1,0,0:0:0:0:
256,124,57264,1,0,0:0:0:0:
131,215,57447,5,0,0:0:0:0:
90,101,57629,1,0,0:0:0:0:
169,9,57810,1,0,0:0:0:0:
281,50,57992,1,0,0:0:0:0:
281,50,58174,2,0,P|332:55|387:37,1,100
500,0,58538,1,0,0:0:0:0:
425,93,58720,1,0,0:0:0:0:
492,191,58901,1,0,0:0:0:0:
393,174,59083,1,0,0:0:0:0:
308,227,59265,1,0,0:0:0:0:
208,217,59447,1,0,0:0:0:0:
140,291,59629,5,0,0:0:0:0:
144,191,59810,1,0,0:0:0:0:
23,239,59992,1,0,0:0:0:0:
19,139,60173,1,0,0:0:0:0:
182,96,60356,6,0,P|213:111|233:180,1,100
197,284,60720,1,0,0:0:0:0:
289,359,60901,1,0,0:0:0:0:
289,359,61083,1,0,0:0:0:0:
392,297,61265,5,0,0:0:0:0:
292,229,61447,1,0,0:0:0:0:
470,202,61629,1,0,0:0:0:0:
356,163,61811,1,0,0:0:0:0:
178,190,61993,1,0,0:0:0:0:
292,229,62174,5,0,0:0:0:0:
272,130,62356,1,0,0:0:0:0:
178,190,62538,1,0,0:0:0:0:
198,91,62720,1,0,0:0:0:0:
261,48,62901,1,0,0:0:0:0:
292,229,63083,1,0,0:0:0:0:
178,190,63265,6,0,P|130:176|82:186,1,100
41,278,63629,1,0,0:0:0:0:
183,370,63811,2,0,P|135:384|87:374,1,100
46,282,64175,1,0,0:0:0:0:
145,285,64356,1,0,0:0:0:0:
193,201,64538,1,0,0:0:0:0:
94,198,64719,5,0,0:0:0:0:
158,87,64901,1,0,0:0:0:0:
290,123,65082,1,0,0:0:0:0:
333,32,65265,1,0,0:0:0:0:
300,126,65447,1,0,0:0:0:0:
366,200,65629,1,0,0:0:0:0:
218,173,65811,1,0,0:0:0:0:
238,280,65992,1,0,0:0:0:0:
349,273,66174,6,0,P|403:271|437:229,1,100
473,120,66538,1,0,0:0:0:0:
280,90,66720,2,0,P|308:135|362:144,1,100
397,65,67083,5,0,0:0:0:0:
309,18,67265,1,0,0:0:0:0:
225,71,67447,1,0,0:0:0:0:
309,18,67629,1,0,0:0:0:0:
225,71,67811,1,0,0:0:0:0:
137,24,67993,1,0,0:0:0:0:
45,62,68174,1,0,0:0:0:0:
132,128,68356,6,0,L|152:128,1,15.0000005722046
169,149,68447,2,0,L|185:153,1,15.0000005722046,0|0,2:0|2:0,2:0:0:0:
195,184,68538,2,0,L|205:194,1,15.0000005722046
204,226,68629,2,0,L|207:240,1,15.0000005722046
193,268,68720,2,0,L|193:287,1,15.0000005722046
168,303,68811,2,0,L|163:319,1,15.0000005722046
130,323,68901,2,0,L|119:340,1,15.0000005722046
86,326,68992,2,0,L|72:340,1,15.0000005722046
46,310,69083,6,0,P|33:253|84:228,2,120.000004577637
170,353,70174,1,0,0:0:0:0:
303,253,70538,2,0,L|423:261,1,120.000004577637
444,281,71083,1,0,0:0:0:0:
387,178,71265,2,0,P|365:124|394:73,1,120.000004577637
224,8,71992,2,0,L|230:132,1,120.000004577637
172,210,72538,1,0,0:0:0:0:
239,275,72720,2,0,P|197:306|132:294,1,120.000004577637
32,144,73447,1,0,0:0:0:0:
143,189,73811,2,0,P|151:160|151:130,1,60.0000022888184
86,27,74174,2,0,B|126:38|165:23|165:23|192:38|222:40|222:40|257:21|292:24,1,210.000008010865
285,115,74901,5,0,0:0:0:0:
288,137,75265,1,0,0:0:0:0:
387,228,75629,1,0,0:0:0:0:
384,250,75993,1,0,0:0:0:0:
285,341,76356,1,0,0:0:0:0:
288,363,76720,5,0,0:0:0:0:
232,341,76901,1,0,0:0:0:0:
175,361,77083,2,0,P|126:371|56:357,1,120.000004577637
14,229,77629,1,0,0:0:0:0:
83,263,77811,6,0,L|85:234,3,30.0000011444092
134,116,78174,1,0,0:0:0:0:
163,112,78264,1,0,0:0:0:0:
192,118,78355,1,0,0:0:0:0:
218,132,78446,1,0,0:0:0:0:
238,155,78538,2,0,L|240:184,3,30.0000011444092
184,270,78901,1,0,0:0:0:0:
211,281,78991,1,0,0:0:0:0:
241,284,79082,1,0,0:0:0:0:
270,279,79173,1,0,0:0:0:0:
296,265,79265,6,0,L|300:286,2,15.0000005722046
428,261,79447,2,0,L|425:280,2,15.0000005722046
312,166,79629,2,0,L|314:182,2,15.0000005722046
445,127,79811,2,0,L|443:148,2,15.0000005722046
370,23,79992,6,0,L|376:43,1,15.0000005722046
340,59,80083,2,0,L|340:79,1,15.0000005722046
302,87,80174,2,0,L|297:107,1,15.0000005722046
259,106,80265,2,0,L|249:124,1,15.0000005722046
213,115,80356,2,0,L|198:130,1,15.0000005722046
167,114,80447,2,0,L|149:124,1,15.0000005722046
121,103,80538,2,0,L|101:109,1,15.0000005722046
79,82,80629,2,0,L|58:82,1,15.0000005722046
43,52,80720,6,0,P|66:164|16:224,1,200
0,365,81265,1,0,0:0:0:0:
123,285,81447,2,0,P|170:302|217:289,1,100
161,116,81811,2,0,L|168:216,1,100
283,155,82174,1,0,0:0:0:0:
363,257,82356,1,0,0:0:0:0:
309,138,82538,6,0,P|293:85|311:36,1,100
459,60,82901,2,0,P|413:91|371:88,1,100
246,48,83265,1,0,0:0:0:0:
132,112,83447,1,0,0:0:0:0:
132,112,83538,1,0,0:0:0:0:
132,112,83629,2,0,L|136:213,1,100
198,326,83992,6,0,P|174:310|66:355,1,150
27,295,84356,2,0,B|49:266|36:216|36:216|-5:170|32:97|32:97,1,200
130,23,84901,1,0,0:0:0:0:
116,152,85083,2,0,P|168:151|224:169,1,100
299,298,85447,2,0,P|272:252|260:195,1,100
333,66,85811,2,0,P|306:111|263:150,1,100
202,35,86174,1,0,0:0:0:0:
328,4,86356,1,0,0:0:0:0:
439,70,86538,6,0,L|445:180,1,100
437,202,86811,1,0,0:0:0:0:
437,202,86901,1,0,0:0:0:0:
318,185,87083,1,0,0:0:0:0:
357,298,87265,2,0,P|316:296|249:301,1,100
88,359,87629,2,0,P|129:361|196:356,1,100
216,228,87992,1,0,0:0:0:0:
82,260,88174,1,0,0:0:0:0:
129,141,88356,6,0,P|121:197|150:231,1,100
253,160,88720,2,0,P|261:104|232:70,1,100
119,40,89083,1,0,0:0:0:0:
233,3,89265,1,0,0:0:0:0:
233,3,89356,1,0,0:0:0:0:
233,3,89447,1,0,0:0:0:0:
341,55,89629,1,0,0:0:0:0:
452,10,89811,5,0,0:0:0:0:
387,101,89992,1,0,0:0:0:0:
452,202,90174,2,0,P|426:221|314:193,1,150
312,305,90538,2,0,P|246:274|178:301,1,150
91,352,90901,1,0,0:0:0:0:
102,330,90991,1,0,0:0:0:0:
106,306,91082,1,0,0:0:0:0:
101,281,91173,1,0,0:0:0:0:
87,260,91265,1,0,0:0:0:0:
65,229,91355,1,0,0:0:0:0:
57,193,91446,1,0,0:0:0:0:
65,156,91537,1,0,0:0:0:0:
86,126,91629,5,0,0:0:0:0:
109,169,91719,1,0,0:0:0:0:
152,193,91810,1,0,0:0:0:0:
201,189,91901,1,0,0:0:0:0:
239,159,91992,1,0,0:0:0:0:
277,129,92083,1,0,0:0:0:0:
326,125,92174,1,0,0:0:0:0:
369,149,92265,1,0,0:0:0:0:
392,193,92356,5,0,0:0:0:0:
378,158,92446,1,0,0:0:0:0:
377,120,92537,1,0,0:0:0:0:
388,85,92628,1,0,0:0:0:0:
410,54,92720,2,0,P|428:38|437:15,3,50
331,5,93083,5,0,0:0:0:0:
301,28,93173,1,0,0:0:0:0:
265,39,93264,1,0,0:0:0:0:
228,37,93355,1,0,0:0:0:0:
193,23,93447,2,0,P|170:14|143:15,3,50
23,110,93811,5,0,0:0:0:0:
8,134,93901,1,0,0:0:0:0:
5,161,93992,1,0,0:0:0:0:
15,188,94083,1,0,0:0:0:0:
34,207,94174,1,0,0:0:0:0:
70,231,94265,1,0,2:0:0:0:
85,268,94356,1,0,2:0:0:0:
79,308,94447,1,0,2:0:0:0:
53,337,94538,5,0,2:0:0:0:
93,309,94628,1,0,0:0:0:0:
142,301,94719,1,0,0:0:0:0:
189,316,94810,1,0,0:0:0:0:
226,350,94901,1,0,0:0:0:0:
258,369,94991,1,0,0:0:0:0:
295,374,95082,1,0,0:0:0:0:
331,366,95173,1,0,0:0:0:0:
361,345,95265,6,0,L|359:290,3,50
452,234,95629,2,0,L|454:178,3,50
361,122,95992,5,0,0:0:0:0:
327,105,96082,1,0,0:0:0:0:
290,100,96173,1,0,0:0:0:0:
253,108,96264,1,0,0:0:0:0:
221,127,96356,2,0,L|170:126,3,50
306,197,96720,1,0,0:0:0:0:
311,233,96810,1,0,0:0:0:0:
298,268,96901,1,0,0:0:0:0:
270,292,96992,1,0,0:0:0:0:
234,301,97083,2,0,L|183:298,3,50
132,211,97447,5,0,0:0:0:0:
108,226,97537,1,0,0:0:0:0:
92,249,97628,1,0,0:0:0:0:
85,276,97719,1,0,0:0:0:0:
88,304,97811,2,0,L|96:355,1,50
238,221,97992,2,0,L|230:171,1,50
97,42,98174,5,0,0:0:0:0:
90,78,98264,1,0,0:0:0:0:
103,112,98355,1,0,0:0:0:0:
132,135,98446,1,0,0:0:0:0:
169,138,98538,1,0,0:0:0:0:
197,113,98628,1,0,0:0:0:0:
233,106,98719,1,0,0:0:0:0:
268,118,98810,1,0,0:0:0:0:
292,146,98901,5,0,0:0:0:0:
321,106,98991,1,0,0:0:0:0:
366,85,99082,1,0,0:0:0:0:
415,90,99173,1,0,0:0:0:0:
455,120,99265,1,0,0:0:0:0:
454,145,99355,1,0,0:0:0:0:
452,170,99446,1,0,0:0:0:0:
451,195,99537,1,0,0:0:0:0:
450,220,99629,6,0,L|459:274,3,50
341,331,99992,2,0,L|348:281,3,50
261,235,100356,1,0,0:0:0:0:
235,260,100446,1,0,0:0:0:0:
200,273,100537,1,0,0:0:0:0:
163,271,100628,1,0,0:0:0:0:
129,254,100720,1,0,0:0:0:0:
148,222,100810,1,0,0:0:0:0:
152,185,100901,1,0,0:0:0:0:
139,151,100992,1,0,0:0:0:0:
112,125,101083,5,0,0:0:0:0:
144,143,101174,1,0,0:0:0:0:
181,147,101265,1,0,0:0:0:0:
215,134,101356,1,0,0:0:0:0:
241,107,101447,1,0,0:0:0:0:
278,74,101537,1,0,0:0:0:0:
326,62,101628,1,0,0:0:0:0:
374,73,101719,1,0,0:0:0:0:
412,104,101811,6,0,P|441:103|472:112,3,50
430,220,102174,2,0,P|401:221|370:212,3,50
317,144,102538,1,0,0:0:0:0:
288,168,102628,1,0,0:0:0:0:
275,202,102719,1,0,0:0:0:0:
279,239,102810,1,0,0:0:0:0:
299,270,102901,1,0,0:0:0:0:
257,245,102991,1,0,0:0:0:0:
207,241,103082,1,0,0:0:0:0:
161,260,103173,1,0,0:0:0:0:
129,297,103265,5,0,0:0:0:0:
73,321,103355,1,0,0:0:0:0:
21,291,103446,1,0,0:0:0:0:
13,231,103537,1,0,0:0:0:0:
57,189,103629,1,0,0:0:0:0:
108,156,103719,1,0,0:0:0:0:
123,97,103810,1,0,0:0:0:0:
94,43,103901,1,0,0:0:0:0:
36,23,103992,6,0,L|9:28,6,25
248,0,104356,1,0,0:0:0:0:
181,147,104538,2,0,P|166:212|214:286,1,150
282,227,104901,2,0,P|330:217|372:241,1,100
499,359,105265,2,0,L|492:257,2,100
380,333,105811,5,0,0:0:0:0:
443,219,105992,1,0,0:0:0:0:
376,108,106174,1,0,0:0:0:0:
185,224,106356,1,0,0:0:0:0:
247,110,106538,1,0,0:0:0:0:
314,222,106720,1,0,0:0:0:0:
125,165,106901,5,0,0:0:0:0:
102,193,106991,1,0,0:0:0:0:
94,229,107082,1,0,0:0:0:0:
105,265,107173,1,0,0:0:0:0:
132,291,107265,1,0,0:0:0:0:
133,303,107355,1,0,0:0:0:0:
134,315,107447,6,0,L|139:370,3,50
239,339,107811,2,0,L|243:289,3,50
334,335,108174,2,0,P|422:369|491:304,1,200
431,190,108720,2,0,L|331:178,1,100
221,148,109083,2,0,P|258:85|330:75,1,150
479,19,109447,2,0,P|460:29|379:23,1,100
196,11,109811,5,0,0:0:0:0:
158,15,109901,1,0,0:0:0:0:
121,20,109992,1,0,0:0:0:0:
36,159,110174,1,0,0:0:0:0:
139,97,110356,2,0,P|161:117|132:224,1,150
34,308,110720,2,0,P|69:295|185:324,1,150
284,360,111083,2,0,B|224:263|325:256|278:164,1,200
226,43,111629,5,0,0:0:0:0:
333,96,111811,1,0,0:0:0:0:
434,32,111992,1,0,0:0:0:0:
296,22,112174,1,0,0:0:0:0:
281,170,112356,1,0,0:0:0:0:
459,95,112538,1,0,0:0:0:0:
401,217,112720,6,0,L|395:167,1,50
247,207,112901,2,0,L|287:176,1,50
178,71,113083,2,0,L|224:90,1,50
122,257,113265,2,0,P|47:197|67:104,1,200
172,152,113811,1,0,0:0:0:0:
176,317,113992,1,0,0:0:0:0:
250,182,114174,5,0,0:0:0:0:
296,198,114264,1,0,0:0:0:0:
323,239,114355,1,0,0:0:0:0:
322,288,114446,1,0,0:0:0:0:
292,327,114538,1,0,0:0:0:0:
332,299,114628,1,0,0:0:0:0:
381,291,114719,1,0,0:0:0:0:
429,304,114810,1,0,0:0:0:0:
473,325,114901,6,0,L|462:296,1,25
505,288,114992,2,0,L|480:268,1,25
512,241,115083,2,0,L|491:237,2,12.5
488,195,115174,2,0,L|458:206,1,25
442,172,115265,2,0,L|422:196,1,25
419,140,115356,2,0,L|396:149,1,25
396,107,115447,2,0,L|376:103,2,12.5
398,71,115538,2,0,L|379:56,1,25
419,42,115629,6,0,P|342:74|266:47,1,160
160,7,116174,1,0,0:0:0:0:
160,7,116356,2,0,L|162:90,1,80
215,195,116720,2,0,L|213:274,1,80
135,344,117083,5,0,0:0:0:0:
224,290,117265,1,0,0:0:0:0:
320,329,117447,1,0,0:0:0:0:
409,275,117629,1,0,0:0:0:0:
505,314,117811,2,0,L|498:227,1,80
393,181,118174,2,0,L|399:101,1,80
419,9,118530,6,0,B|369:31|369:31|302:22,1,120.400001837158
154,17,119300,6,0,B|184:79|108:116|154:190,1,175
138,271,119737,6,0,B|191:268|224:230|224:230|242:207|272:182|309:195|329:222,1,210.000008010865
435,326,120175,6,0,P|369:232|428:69,1,300
506,0,121927,2,0,B|426:75|313:21|313:21|287:48|255:48|255:48|191:11|149:-4|122:32|143:74|184:51,1,450.000017166138
256,192,123679,5,0,0:0:0:0:
256,192,123789,12,0,127073,0:0:0:0:
