osu file format v14

[General]
AudioFilename: Blind Justice Torn souls, Hurt Faiths.mp3
AudioLeadIn: 2000
PreviewTime: 80720
Countdown: 0
SampleSet: Soft
StackLeniency: 0.7
Mode: 0
LetterboxInBreaks: 0
WidescreenStoryboard: 0

[Editor]
DistanceSpacing: 1
BeatDivisor: 4
GridSize: 4
TimelineZoom: 2.699999

[Metadata]
Title:Blind Justice ~Torn souls, Hurt Faiths~
TitleUnicode:Blind Justice ~Torn souls, Hurt Faiths~
Artist:Zektbach
ArtistUnicode:Zektbach
Creator:Crimmi
Version:Beginner
Source:beatmania IIDX 14 GOLD
Tags:ノスタルジア NOSTALGIA CrimmiSkye REFLEC BEAT colette -Winter- Maiko Horisawa TOMOSUKE Nox Matin ポップンリズミン pop'n music 16 PARTY♪ EPIC POETRY MAYA Dance Dance Revolution DanceDanceRevolution SuperNOVA2 DDR Konami BEMANI
BeatmapID:822345
BeatmapSetID:375490

[Difficulty]
HPDrainRate:3
CircleSize:2
OverallDifficulty:1
ApproachRate:3
SliderMultiplier:1
SliderTickRate:1

[Events]
//Background and Video events
Video,-1400,"BGA.avi"
0,0,"2011-06-08-4106162.jpg",0,0
//Break Periods
//Storyboard Layer 0 (Background)
//Storyboard Layer 1 (Fail)
//Storyboard Layer 2 (Pass)
//Storyboard Layer 3 (Foreground)
//Storyboard Layer 4 (Overlay)
//Storyboard Sound Samples

[TimingPoints]
720,363.636907142431,4,2,0,50,1,0
92356,-100,4,2,0,50,0,1
103992,-100,4,2,0,50,0,0
118538,388.978930307942,4,2,0,50,1,0
119315,437.956204379562,4,2,0,50,1,0
120190,1751.82481751825,4,2,0,5,1,0
123693,1751.82481751825,4,2,0,5,1,0

[Colours]
Combo1 : 255,100,100
Combo2 : 255,132,255
Combo3 : 242,83,183
Combo4 : 166,166,210

[HitObjects]
40,320,720,6,0,P|96:312|144:312,1,100,4|2,0:0|0:0,0:0:0:0:
196,232,1447,1,8,0:0:0:0:
256,312,1810,1,0,0:0:0:0:
328,244,2174,2,0,P|392:220|480:260,2,150,0|2|0,0:0|0:0|0:0,0:0:0:0:
260,316,3629,6,0,P|232:268|304:148,1,200,0|8,0:0|0:0,0:0:0:0:
384,108,4720,1,0,0:0:0:0:
448,32,5083,2,0,P|480:86|410:208,1,200,0|8,0:0|0:0,0:0:0:0:
336,252,6174,1,0,0:0:0:0:
272,332,6538,6,0,P|240:232|308:156,2,200,0|8|0,0:0|0:0|0:0,0:0:0:0:
336,252,8356,1,2,0:0:0:0:
400,176,8720,1,8,0:0:0:0:
332,100,9083,1,0,0:0:0:0:
264,172,9447,6,0,P|204:202|80:162,2,200,0|8|0,0:0|0:0|0:0,0:0:0:0:
424,52,11629,1,8,0:0:0:0:
356,240,12356,6,0,P|260:280|176:240,2,200,0|8|0,0:0|0:0|0:0,0:0:0:0:
448,60,14538,1,8,0:0:0:0:
256,60,15265,6,0,B|244:124|244:124|272:188|272:188|264:272,1,200,0|8,0:0|0:0,0:0:0:0:
264,352,16356,1,0,0:0:0:0:
364,348,16720,2,0,P|280:256|164:360,1,300
64,336,18174,6,0,P|248:152|464:348,1,600,0|8,0:0|0:0,0:0:0:0:
256,192,21083,12,2,23265,0:0:0:0:
188,296,23992,6,0,P|248:268|332:304,2,150,4|2|0,0:0|0:0|0:0,0:0:0:0:
112,164,25629,2,0,P|172:124|208:112,1,100,2|0,0:0|0:0,0:0:0:0:
244,100,26174,6,0,P|340:92|404:108,1,150,4|4,0:0|0:0,0:0:0:0:
460,32,27083,2,0,P|492:96|464:176,1,150,4|4,0:0|0:0,0:0:0:0:
400,240,27992,1,2,0:0:0:0:
324,300,28356,6,0,P|252:328|180:288,1,150,4|2,0:0|0:0,0:0:0:0:
188,100,29629,2,0,P|255:71|322:99,1,150,4|0,0:0|0:0,0:0:0:0:
324,148,30356,2,0,P|257:177|190:149,1,150,2|0,0:0|0:0,0:0:0:0:
96,184,31265,6,0,P|264:284|424:184,1,400,4|4,0:0|0:0,0:0:0:0:
256,72,33447,1,0,0:0:0:0:
96,184,34174,6,0,L|41:93,2,100,2|8|0,0:0|0:0|0:0,0:0:0:0:
156,264,35265,1,8,0:0:0:0:
256,280,35629,2,0,L|256:168,2,100,0|8|0,0:0|0:0|0:0,0:0:0:0:
352,260,36720,1,8,0:0:0:0:
420,184,37083,6,0,P|444:132|440:80,2,100,0|8|0,0:0|0:0|0:0,0:0:0:0:
344,116,38174,1,8,0:0:0:0:
270,47,38538,2,0,P|243:117|256:161,1,100,0|8,0:0|0:0,0:0:0:0:
344,116,39265,1,0,0:0:0:0:
368,212,39629,1,8,0:0:0:0:
456,260,39992,6,0,P|400:308|288:268,1,200
228,192,41083,1,8,0:0:0:0:
168,272,41447,2,0,P|132:212|136:172,1,100,0|8,0:0|0:0,0:0:0:0:
60,116,42174,2,0,P|108:88|156:92,1,100,0|8,0:0|0:0,0:0:0:0:
252,96,42901,6,0,L|368:80,1,100,0|8,0:0|0:0,0:0:0:0:
452,72,43629,1,0,0:0:0:0:
412,164,43992,1,8,0:0:0:0:
496,216,44356,2,0,P|416:264|328:212,1,200
268,140,45447,1,8,0:0:0:0:
368,132,45810,6,0,P|340:72|168:140,1,300,0|8,0:0|0:0,0:0:0:0:
268,144,47265,2,0,P|336:228|468:132,1,300,0|8,0:0|0:0,0:0:0:0:
368,136,48720,5,0,0:0:0:0:
316,52,49083,1,8,0:0:0:0:
216,56,49447,1,0,0:0:0:0:
160,136,49810,1,8,0:0:0:0:
168,236,50174,2,0,P|268:328|372:232,1,300,0|8,0:0|0:0,0:0:0:0:
448,300,51629,6,0,P|468:224|376:140,1,200
296,176,52720,1,8,0:0:0:0:
200,144,53083,2,0,L|92:140,2,100,0|8|0,0:0|0:0|0:0,0:0:0:0:
276,76,54174,1,8,0:0:0:0:
292,176,54538,6,0,P|320:252|148:312,1,300,0|8,0:0|0:0,0:0:0:0:
220,244,55992,2,0,P|304:276|368:116,1,300,0|8,0:0|0:0,0:0:0:0:
292,176,57447,6,0,P|232:144|144:180,2,150,4|2|8,0:0|0:0|0:0,0:0:0:0:
336,268,58901,2,0,P|384:204|388:168,2,100,0|8|0,0:0|0:0|0:0,0:0:0:0:
260,336,59992,1,8,0:0:0:0:
204,252,60356,6,0,L|44:256,2,150,4|2|8,0:0|0:0|0:0,0:0:0:0:
260,336,61811,2,0,P|304:244|240:160,1,200
204,252,62901,1,8,0:0:0:0:
136,324,63265,6,0,P|72:308|-16:328,2,150,4|2|8,0:0|0:0|0:0,0:0:0:0:
236,340,64720,2,0,P|324:368|428:336,1,200
500,272,65811,1,8,0:0:0:0:
404,240,66174,6,0,P|376:160|412:92,2,150,4|2|8,0:0|0:0|0:0,0:0:0:0:
472,168,67629,2,0,P|400:144|344:320,1,300,0|8,0:0|0:0,0:0:0:0:
404,240,69083,5,4,0:0:0:0:
240,124,69811,1,2,0:0:0:0:
216,324,70538,1,0,0:0:0:0:
56,200,71265,1,2,0:0:0:0:
240,124,71992,6,0,P|276:164|424:44,1,300,0|2,0:0|0:0,0:0:0:0:
328,76,73447,2,0,P|288:36|156:176,1,300,0|2,0:0|0:0,0:0:0:0:
172,256,74901,5,4,0:0:0:0:
368,300,75629,1,2,0:0:0:0:
240,148,76356,6,0,L|336:180,1,100,0|2,0:0|0:0,0:0:0:0:
404,108,77083,2,0,P|432:160|428:216,1,100,0|2,0:0|0:0,0:0:0:0:
372,280,77811,6,0,P|256:344|100:276,1,300,0|2,0:0|0:0,0:0:0:0:
104,188,79265,2,0,P|220:124|376:192,1,300,0|2,0:0|0:0,0:0:0:0:
440,248,80720,6,0,P|464:196|456:136,1,100,4|8,0:0|0:0,0:0:0:0:
367,181,81447,2,0,L|263:197,1,100,0|8,0:0|0:0,0:0:0:0:
188,260,82174,1,0,0:0:0:0:
100,212,82538,1,8,0:0:0:0:
180,152,82901,2,0,P|132:116|76:112,2,100,0|8|0,0:0|0:0|0:0,0:0:0:0:
268,196,83992,1,8,0:0:0:0:
260,96,84356,6,0,P|312:104|360:152,1,100,0|8,0:0|0:0,0:0:0:0:
268,196,85083,2,0,L|212:280,2,100,0|8|0,0:0|0:0|0:0,0:0:0:0:
340,264,86174,1,8,0:0:0:0:
416,208,86538,6,0,P|448:156|384:36,1,200
348,132,87629,1,8,0:0:0:0:
288,212,87992,2,0,P|252:160|252:120,1,100,0|8,0:0|0:0,0:0:0:0:
152,116,88720,2,0,P|168:216|244:300,1,200
328,316,89811,1,8,0:0:0:0:
300,220,90174,6,0,P|292:156|300:112,1,100,0|8,0:0|0:0,0:0:0:0:
384,68,90901,2,0,P|336:32|204:80,1,200
156,152,91992,1,8,0:0:0:0:
104,68,92356,6,0,P|64:116|117:245,1,200,4|8,0:0|0:0,0:0:0:0:
199,213,93447,1,0,0:0:0:0:
292,176,93811,2,0,P|364:124|444:268,1,300,0|8,0:0|0:0,0:0:0:0:
356,348,95265,6,0,B|216:284|228:384|52:336,1,300,0|8,0:0|0:0,0:0:0:0:
64,240,96720,2,0,B|152:300|264:188|372:264,1,300,0|8,0:0|0:0,0:0:0:0:
416,332,98174,6,0,P|448:280|388:160,1,200,0|2,0:0|0:0,0:0:0:0:
320,96,99265,1,8,0:0:0:0:
300,192,99629,2,0,P|220:216|96:184,1,200,0|2,0:0|0:0,0:0:0:0:
20,144,100720,1,8,0:0:0:0:
256,192,101083,12,2,103265,0:0:0:0:
168,340,103992,6,0,P|212:280|344:348,1,250,4|2,0:0|0:0,0:0:0:0:
444,336,105265,2,0,P|412:256|256:172,1,250,0|2,0:0|0:0,0:0:0:0:
176,172,106538,1,8,0:0:0:0:
104,244,106901,6,0,P|80:196|112:92,2,150,0|2|0,0:0|0:0|0:0,0:0:0:0:
176,172,108356,2,0,P|228:136|448:184,1,300,2|8,0:0|0:0,0:0:0:0:
496,268,109811,5,4,0:0:0:0:
404,312,110174,2,0,P|396:248|452:176,1,150,8|2,0:0|0:0,0:0:0:0:
388,96,111083,2,0,P|336:144|300:328,1,250,0|2,0:0|0:0,0:0:0:0:
400,312,112356,1,8,0:0:0:0:
500,312,112720,6,0,P|484:256|384:216,2,150,0|2|8,0:0|0:0|0:0,0:0:0:0:
400,312,114174,6,0,P|328:308|296:312,1,100,0|8,0:0|0:0,0:0:0:0:
200,312,114901,2,0,P|128:316|96:312,1,100,0|8,0:0|0:0,0:0:0:0:
20,372,115629,6,0,P|0:296|80:212,1,200,4|2,0:0|0:0,0:0:0:0:
100,312,116720,1,0,0:0:0:0:
200,312,117083,2,0,P|284:352|388:304,1,200,0|2,0:0|0:0,0:0:0:0:
464,260,118174,1,0,0:0:0:0:
380,220,118538,6,0,P|296:180|192:228,1,200,4|0,0:0|0:0,0:0:0:0:
120,276,119752,1,2,0:0:0:0:
256,24,120190,6,0,L|256:96,1,50
256,352,121941,2,0,L|256:280,1,50
256,192,123693,12,0,127196,0:0:0:0:
