osu file format v14

[General]
AudioFilename: 36 - Apocalypse dirge of swans.mp3
AudioLeadIn: 2000
PreviewTime: -1
Countdown: 1
SampleSet: None
StackLeniency: 0.7
Mode: 1
LetterboxInBreaks: 1
WidescreenStoryboard: 0

[Editor]
DistanceSpacing: 0.8
BeatDivisor: 4
GridSize: 32
TimelineZoom: 1

[Metadata]
Title:Apocalypse ~dirge of swans~
TitleUnicode:Apocalypse ~dirge of swans~
Artist:Zektbach
ArtistUnicode:Zektbach
Creator:-[ ix Ishida xi ]-
Version:- IshidaTaikonari -
Source:
Tags:
BeatmapID:1713221
BeatmapSetID:816997

[Difficulty]
HPDrainRate:5
CircleSize:5
OverallDifficulty:5
ApproachRate:5
SliderMultiplier:1.4
SliderTickRate:1

[Events]
//Background and Video events
0,0,"umqtd.jpg",0,0
//Break Periods
2,6170,10417
//Storyboard Layer 0 (Background)
//Storyboard Layer 1 (Fail)
//Storyboard Layer 2 (Pass)
//Storyboard Layer 3 (Foreground)
//Storyboard Sound Samples

[TimingPoints]
323,352.941176470588,4,1,0,30,1,0
323,-133.333333333333,4,1,0,30,0,0
5793,-117.647058823529,4,1,0,30,0,0
5881,-105.263157894737,4,1,0,30,0,0
5925,-95.2380952380952,4,1,0,70,0,0
5970,-100,4,1,0,5,0,1
6058,88.2352941176471,4,1,0,5,1,1
11528,-100,4,1,0,70,0,0
11617,352.941176470588,4,1,0,70,1,1
11705,-100,4,1,0,35,0,0
12984,-100,4,1,0,70,0,0
13117,-100,4,1,0,35,0,0
13469,-100,4,1,0,70,0,0
13646,-100,4,1,0,35,0,0
14352,-100,4,1,0,70,0,0
14528,-100,4,1,0,35,0,0
15808,-100,4,1,0,70,0,0
15940,-100,4,1,0,35,0,0
16293,-100,4,1,0,70,0,0
16469,-100,4,1,0,35,0,0
17175,-100,4,1,0,70,0,0
17352,-100,4,1,0,35,0,0
18631,-100,4,1,0,70,0,0
18719,-100,4,1,0,35,0,0
19116,-100,4,1,0,70,0,0
19293,-100,4,1,0,35,0,0
19999,-100,4,1,0,70,0,0
20175,-100,4,1,0,35,0,0
21455,-100,4,1,0,70,0,0
21631,-100,4,1,0,35,0,0
21940,-100,4,1,0,70,0,0
22116,-100,4,1,0,35,0,0
22469,-100,4,1,0,70,0,0
22602,-100,4,1,0,35,0,0
22866,-100,4,1,0,70,0,0
22999,-100,4,1,0,40,0,0
23352,-100,4,1,0,35,0,0
24278,-100,4,1,0,70,0,0
24411,-100,4,1,0,35,0,0
24764,-100,4,1,0,70,0,0
25116,-100,4,1,0,30,0,0
25646,-100,4,1,0,70,0,0
26528,-100,4,1,0,30,0,0
27058,-100,4,1,0,70,0,0
27234,-100,4,1,0,30,0,0
27631,-100,4,1,0,70,0,0
27764,-100,4,1,0,30,0,0
28469,-100,4,1,0,70,0,0
28646,-100,4,1,0,30,0,0
28822,-100,4,1,0,70,0,0
28999,-100,4,1,0,30,0,0
29219,-100,4,1,0,70,0,0
29352,-100,4,1,0,40,0,0
29881,-100,4,1,0,70,0,0
30058,-100,4,1,0,40,0,0
30440,-100,4,1,0,70,0,0
30616,-100,4,1,0,40,0,0
31293,-100,4,1,0,70,0,0
31381,-83.3333333333333,4,1,0,70,0,0
31425,-83.3333333333333,4,1,0,20,0,0
32043,-83.3333333333333,4,1,0,85,0,0
32087,-71.4285714285714,4,1,0,85,0,0
32131,-71.4285714285714,4,1,0,20,0,0
32749,-62.5,4,1,0,70,0,0
32837,-62.5,4,1,0,30,0,0
33014,-62.5,4,1,0,70,0,0
33102,-62.5,4,1,0,30,0,0
33278,-62.5,4,1,0,70,0,0
33366,-62.5,4,1,0,30,0,0
33455,-62.5,4,1,0,55,0,0
33499,-55.5555555555556,4,1,0,55,0,0
34205,-50,4,1,0,55,0,1
34381,-83.3333333333333,4,1,0,55,0,1
56749,-83.3333333333333,4,1,0,70,0,0
56793,-71.4285714285714,4,1,0,70,0,1
56881,-71.4285714285714,4,1,0,70,0,0
56969,-71.4285714285714,4,1,0,70,0,1
57058,-71.4285714285714,4,1,0,70,0,0
57499,-71.4285714285714,4,1,0,70,0,1
57587,-71.4285714285714,4,1,0,70,0,0
57675,-71.4285714285714,4,1,0,70,0,1
57764,-71.4285714285714,4,1,0,70,0,0
58205,-71.4285714285714,4,1,0,70,0,1
58293,-71.4285714285714,4,1,0,70,0,0
58381,-71.4285714285714,4,1,0,70,0,1
58469,-71.4285714285714,4,1,0,70,0,0
58911,-71.4285714285714,4,1,0,70,0,1
58999,-71.4285714285714,4,1,0,70,0,0
59087,-71.4285714285714,4,1,0,70,0,1
59175,-71.4285714285714,4,1,0,70,0,0
59616,-71.4285714285714,4,1,0,70,0,1
59705,-71.4285714285714,4,1,0,70,0,0
59793,-71.4285714285714,4,1,0,70,0,1
59881,-71.4285714285714,4,1,0,70,0,0
60322,-71.4285714285714,4,1,0,70,0,1
60411,-71.4285714285714,4,1,0,70,0,0
60499,-71.4285714285714,4,1,0,70,0,1
60587,-71.4285714285714,4,1,0,70,0,0
61028,-71.4285714285714,4,1,0,70,0,1
61116,-71.4285714285714,4,1,0,70,0,0
61205,-71.4285714285714,4,1,0,70,0,1
61293,-71.4285714285714,4,1,0,70,0,0
61734,-71.4285714285714,4,1,0,70,0,1
61822,-71.4285714285714,4,1,0,70,0,0
61911,-71.4285714285714,4,1,0,70,0,1
61999,-71.4285714285714,4,1,0,70,0,0
62087,-83.3333333333333,4,1,0,70,0,0
62175,-86.2068965517241,4,1,0,70,0,0
62264,-89.2857142857143,4,1,0,70,0,0
62352,-92.5925925925926,4,1,0,70,0,0
62440,-96.1538461538461,4,1,0,70,0,1
62528,-100,4,1,0,40,0,0
73734,-83.3333333333333,4,1,0,60,0,1
85028,6,4,1,0,60,1,1
85050,-100,4,1,0,60,0,0
85072,-100,4,1,0,60,0,1
85094,-100,4,1,0,60,0,0
85116,-100,4,1,0,60,0,1
85138,-100,4,1,0,60,0,0
85160,-100,4,1,0,60,0,1
85182,-100,4,1,0,60,0,0
85204,-100,4,1,0,60,0,1
85226,-100,4,1,0,60,0,0
85248,-100,4,1,0,60,0,1
85270,-100,4,1,0,60,0,0
85292,-100,4,1,0,60,0,1
85314,-100,4,1,0,60,0,0
85336,-100,4,1,0,60,0,1
85358,-100,4,1,0,60,0,0
85380,-100,4,1,0,60,0,1
85403,-100,4,1,0,60,0,0
85425,-100,4,1,0,60,0,1
85447,-100,4,1,0,60,0,0
85469,-100,4,1,0,60,0,1
85491,-100,4,1,0,60,0,0
85513,-100,4,1,0,60,0,1
85535,-100,4,1,0,60,0,0
85557,-100,4,1,0,60,0,1
85579,-100,4,1,0,60,0,0
85601,-100,4,1,0,60,0,1
85623,-100,4,1,0,60,0,0
85645,-100,4,1,0,60,0,1
85667,-100,4,1,0,60,0,0
85689,-100,4,1,0,60,0,1
85711,-100,4,1,0,60,0,0
85733,-100,4,1,0,60,0,1
85755,-100,4,1,0,60,0,0
85778,-100,4,1,0,60,0,1
85800,-100,4,1,0,60,0,0
85822,-100,4,1,0,60,0,1
85844,-100,4,1,0,60,0,0
85866,-100,4,1,0,60,0,1
85888,-100,4,1,0,60,0,0
85910,-100,4,1,0,60,0,1
85932,-100,4,1,0,60,0,0
85954,-100,4,1,0,60,0,1
85976,-100,4,1,0,60,0,0
85998,-100,4,1,0,60,0,1
86020,-100,4,1,0,60,0,0
86042,-100,4,1,0,60,0,1
86064,-100,4,1,0,60,0,0
86086,-100,4,1,0,60,0,1
86108,-100,4,1,0,60,0,0
86130,-100,4,1,0,60,0,1
86153,-100,4,1,0,60,0,0
86175,-100,4,1,0,60,0,1
86197,-100,4,1,0,60,0,0
86219,-100,4,1,0,60,0,1
86241,-100,4,1,0,60,0,0
86263,-100,4,1,0,60,0,1
86285,-100,4,1,0,60,0,0
86307,-100,4,1,0,60,0,1
86329,-100,4,1,0,60,0,0
86351,-100,4,1,0,60,0,1
86373,-100,4,1,0,60,0,0
86395,-100,4,1,0,60,0,1
86417,-100,4,1,0,60,0,0
86440,352.941176470588,4,1,0,60,1,1
86440,-66.6666666666667,4,1,0,40,0,1
86528,-66.6666666666667,4,1,0,40,0,0
96278,-66.6666666666667,4,1,0,40,0,0
96322,-66.6666666666667,4,1,0,70,0,1
96498,-83.3333333333333,4,1,0,70,0,1
107572,-83.3333333333333,4,1,0,70,0,0
107616,-83.3333333333333,4,1,0,70,0,1
107704,-83.3333333333333,4,1,0,70,0,0
114675,-71.4285714285714,4,1,0,50,0,1
116042,-71.4285714285714,4,1,0,50,0,0
116087,-71.4285714285714,4,1,0,50,0,1
116175,-50,4,1,0,50,0,0
118910,-50,4,1,0,20,0,0

[Colours]
Combo1 : 64,0,64
Combo2 : 64,0,64

[HitObjects]
416,192,323,5,4,0:0:0:0:
256,256,499,1,0,0:0:0:0:
256,192,675,1,0,0:0:0:0:
256,192,852,1,0,0:0:0:0:
320,192,1028,1,6,0:0:0:0:
448,224,1734,1,6,0:0:0:0:
448,160,1911,1,0,0:0:0:0:
416,192,2087,1,0,0:0:0:0:
384,224,2264,1,0,0:0:0:0:
448,224,2440,1,6,0:0:0:0:
416,192,3146,1,6,0:0:0:0:
416,128,3322,1,0,0:0:0:0:
384,160,3499,1,0,0:0:0:0:
352,192,3675,1,0,0:0:0:0:
384,224,3852,1,6,0:0:0:0:
416,192,4558,1,6,0:0:0:0:
448,160,4734,1,0,0:0:0:0:
416,192,4911,1,0,0:0:0:0:
480,192,5087,1,2,0:0:0:0:
448,224,5264,1,4,0:0:0:0:
320,128,5793,1,2,0:0:0:0:
352,160,5881,1,2,0:0:0:0:
384,160,5970,1,6,0:0:0:0:
352,160,11617,5,0,0:0:0:0:
192,192,11793,5,0,0:0:0:0:
256,192,11969,1,2,0:0:0:0:
352,224,12499,1,0,0:0:0:0:
352,192,12676,1,2,0:0:0:0:
416,192,12853,1,0,0:0:0:0:
448,192,12941,1,2,0:0:0:0:
448,192,13029,1,0,0:0:0:0:
352,192,13293,1,0,0:0:0:0:
480,96,13381,1,2,0:0:0:0:
448,160,13558,1,0,0:0:0:0:
416,192,13911,1,2,0:0:0:0:
384,224,14087,1,0,0:0:0:0:
416,224,14175,1,2,0:0:0:0:
448,160,14264,1,0,0:0:0:0:
416,192,14440,1,0,0:0:0:0:
384,160,14616,1,0,0:0:0:0:
448,160,14793,1,2,0:0:0:0:
416,192,14969,1,0,0:0:0:0:
448,192,15058,1,0,0:0:0:0:
448,160,15146,1,2,0:0:0:0:
448,192,15234,1,2,0:0:0:0:
480,160,15322,1,0,0:0:0:0:
448,192,15499,1,2,0:0:0:0:
448,192,15675,1,0,0:0:0:0:
480,160,15764,1,2,0:0:0:0:
448,160,15852,1,0,0:0:0:0:
384,192,16116,1,0,0:0:0:0:
480,160,16205,1,2,0:0:0:0:
480,160,16381,1,0,0:0:0:0:
448,224,16558,1,2,0:0:0:0:
448,192,16734,1,0,0:0:0:0:
384,192,16911,1,0,0:0:0:0:
448,224,16999,1,2,0:0:0:0:
448,160,17087,1,0,0:0:0:0:
384,192,17264,1,2,0:0:0:0:
448,192,17440,1,0,0:0:0:0:
416,224,17616,1,2,0:0:0:0:
480,192,17793,1,0,0:0:0:0:
480,160,17881,1,2,0:0:0:0:
448,160,17969,1,0,0:0:0:0:
448,192,18058,1,2,0:0:0:0:
448,192,18146,1,0,0:0:0:0:
416,224,18322,1,2,0:0:0:0:
416,160,18499,1,2,0:0:0:0:
416,160,18587,1,2,0:0:0:0:
416,192,18675,1,0,0:0:0:0:
352,224,18940,1,0,0:0:0:0:
384,224,19028,1,2,0:0:0:0:
416,192,19205,1,0,0:0:0:0:
416,224,19381,1,0,0:0:0:0:
448,192,19469,1,2,0:0:0:0:
448,192,19558,1,0,0:0:0:0:
416,256,19734,1,2,0:0:0:0:
416,224,19911,1,2,0:0:0:0:
416,224,20087,1,0,0:0:0:0:
384,192,20264,1,0,0:0:0:0:
384,192,20352,1,0,0:0:0:0:
416,192,20440,1,2,0:0:0:0:
416,224,20616,1,0,0:0:0:0:
416,224,20705,1,0,0:0:0:0:
416,192,20793,1,2,0:0:0:0:
384,192,20881,1,2,0:0:0:0:
416,192,20969,1,2,0:0:0:0:
448,192,21058,1,0,0:0:0:0:
448,192,21146,1,2,0:0:0:0:
448,192,21234,1,0,0:0:0:0:
448,192,21322,1,2,0:0:0:0:
416,192,21411,1,2,0:0:0:0:
448,192,21499,1,0,0:0:0:0:
384,192,21764,1,0,0:0:0:0:
448,192,21853,1,2,0:0:0:0:
384,192,22028,1,0,0:0:0:0:
448,192,22205,1,2,0:0:0:0:
448,192,22381,1,0,0:0:0:0:
416,192,22558,1,2,0:0:0:0:
384,192,22646,1,2,0:0:0:0:
384,224,22734,1,2,0:0:0:0:
384,224,22822,1,2,0:0:0:0:
416,224,22911,1,0,0:0:0:0:
352,224,23087,1,0,0:0:0:0:
352,224,23264,1,2,0:0:0:0:
416,192,23440,1,2,0:0:0:0:
448,192,23528,1,0,0:0:0:0:
416,192,23616,1,2,0:0:0:0:
480,160,23793,1,0,0:0:0:0:
448,192,23969,1,2,0:0:0:0:
416,224,24058,1,0,0:0:0:0:
416,192,24146,1,2,0:0:0:0:
448,192,24234,1,2,0:0:0:0:
448,160,24322,1,0,0:0:0:0:
384,192,24499,1,0,0:0:0:0:
352,192,24587,1,0,0:0:0:0:
384,192,24675,1,2,0:0:0:0:
448,160,24852,1,0,0:0:0:0:
416,192,25028,1,6,0:0:0:0:
448,192,25205,1,2,0:0:0:0:
416,192,25381,1,2,0:0:0:0:
448,128,25558,1,0,0:0:0:0:
416,192,25734,1,6,0:0:0:0:
512,128,26087,1,0,0:0:0:0:
448,192,26440,1,6,0:0:0:0:
384,192,26616,1,0,0:0:0:0:
320,224,26793,1,0,0:0:0:0:
384,192,26969,1,2,0:0:0:0:
416,160,27146,1,0,0:0:0:0:
352,192,27322,1,0,0:0:0:0:
352,192,27411,1,0,0:0:0:0:
384,192,27499,1,2,0:0:0:0:
384,192,27587,1,2,0:0:0:0:
352,224,27675,1,0,0:0:0:0:
416,256,27852,1,6,0:0:0:0:
448,192,28028,1,2,0:0:0:0:
384,160,28205,1,0,0:0:0:0:
448,160,28381,1,2,0:0:0:0:
416,192,28558,1,6,0:0:0:0:
448,224,28734,1,0,0:0:0:0:
480,160,28911,1,4,0:0:0:0:
448,192,29087,1,0,0:0:0:0:
416,192,29175,1,0,0:0:0:0:
416,192,29264,1,2,0:0:0:0:
480,192,29440,1,2,0:0:0:0:
448,128,29616,1,0,0:0:0:0:
448,192,29793,1,2,0:0:0:0:
416,160,29969,1,0,0:0:0:0:
384,192,30146,1,0,0:0:0:0:
384,192,30234,1,0,0:0:0:0:
384,224,30322,1,2,0:0:0:0:
384,224,30411,1,2,0:0:0:0:
416,192,30499,1,0,0:0:0:0:
384,256,30675,1,6,0:0:0:0:
416,192,30852,1,2,0:0:0:0:
416,192,30940,1,2,0:0:0:0:
448,192,31028,1,0,0:0:0:0:
480,128,31205,1,2,0:0:0:0:
448,192,31381,1,4,0:0:0:0:
448,192,31469,1,0,0:0:0:0:
416,192,31558,1,0,0:0:0:0:
416,192,31646,1,0,0:0:0:0:
384,192,31734,1,0,0:0:0:0:
384,192,31822,1,0,0:0:0:0:
384,192,31911,1,0,0:0:0:0:
384,192,31999,1,0,0:0:0:0:
416,192,32087,1,2,0:0:0:0:
384,192,32175,1,2,0:0:0:0:
384,192,32264,1,2,0:0:0:0:
384,192,32352,1,2,0:0:0:0:
352,192,32440,1,2,0:0:0:0:
352,224,32528,1,2,0:0:0:0:
352,192,32616,1,2,0:0:0:0:
320,192,32705,1,2,0:0:0:0:
352,192,32793,1,0,0:0:0:0:
384,192,32881,1,0,0:0:0:0:
416,192,32969,1,0,0:0:0:0:
416,192,33058,1,0,0:0:0:0:
416,192,33146,1,0,0:0:0:0:
416,192,33234,1,0,0:0:0:0:
416,192,33322,1,0,0:0:0:0:
416,192,33411,1,0,0:0:0:0:
448,160,33499,1,2,0:0:0:0:
448,160,33587,1,0,0:0:0:0:
416,192,33675,1,0,0:0:0:0:
448,160,33764,1,2,0:0:0:0:
448,160,33852,1,0,0:0:0:0:
416,192,33940,1,0,0:0:0:0:
448,160,34028,1,2,0:0:0:0:
480,160,34116,1,0,0:0:0:0:
384,224,34205,1,6,0:0:0:0:
288,160,34381,1,0,0:0:0:0:
288,160,34469,1,0,0:0:0:0:
352,160,34558,1,2,0:0:0:0:
352,224,34734,1,0,0:0:0:0:
384,224,34822,1,2,0:0:0:0:
480,160,34911,1,0,0:0:0:0:
448,192,34999,1,2,0:0:0:0:
448,160,35087,1,0,0:0:0:0:
416,192,35175,1,0,0:0:0:0:
448,160,35264,1,2,0:0:0:0:
416,224,35440,1,0,0:0:0:0:
416,192,35528,1,0,0:0:0:0:
448,192,35616,1,2,0:0:0:0:
448,160,35705,1,0,0:0:0:0:
384,224,35793,1,2,0:0:0:0:
448,192,35881,1,0,0:0:0:0:
480,160,35969,1,2,0:0:0:0:
416,192,36058,1,0,0:0:0:0:
384,192,36146,1,0,0:0:0:0:
448,192,36234,1,2,0:0:0:0:
416,192,36322,1,2,0:0:0:0:
448,192,36411,1,0,0:0:0:0:
448,160,36499,1,2,0:0:0:0:
448,192,36587,1,0,0:0:0:0:
448,160,36675,1,2,0:0:0:0:
448,160,36764,1,0,0:0:0:0:
416,192,36852,1,0,0:0:0:0:
448,192,36940,1,2,0:0:0:0:
416,192,37028,1,2,0:0:0:0:
448,160,37205,1,0,0:0:0:0:
416,160,37293,1,0,0:0:0:0:
448,160,37381,1,2,0:0:0:0:
448,160,37558,1,0,0:0:0:0:
416,192,37646,1,2,0:0:0:0:
384,256,37822,1,2,0:0:0:0:
416,224,37911,1,0,0:0:0:0:
416,192,37999,1,0,0:0:0:0:
416,224,38087,1,2,0:0:0:0:
448,160,38264,1,0,0:0:0:0:
416,160,38352,1,0,0:0:0:0:
448,192,38440,1,2,0:0:0:0:
480,128,38616,1,0,0:0:0:0:
448,160,38705,1,0,0:0:0:0:
416,224,38793,1,2,0:0:0:0:
448,160,38969,1,0,0:0:0:0:
448,192,39058,1,2,0:0:0:0:
448,192,39146,1,0,0:0:0:0:
448,160,39234,1,2,0:0:0:0:
416,192,39322,1,0,0:0:0:0:
352,224,39499,1,2,0:0:0:0:
416,224,39675,1,2,0:0:0:0:
416,192,39764,1,0,0:0:0:0:
416,160,39852,1,2,0:0:0:0:
416,192,39940,1,0,0:0:0:0:
384,224,40028,1,0,0:0:0:0:
448,192,40116,1,2,0:0:0:0:
448,160,40205,1,0,0:0:0:0:
416,192,40293,1,0,0:0:0:0:
448,160,40381,1,2,0:0:0:0:
480,192,40469,1,0,0:0:0:0:
416,192,40558,1,2,0:0:0:0:
416,224,40646,1,2,0:0:0:0:
448,192,40734,1,0,0:0:0:0:
416,224,40911,1,2,0:0:0:0:
448,160,41087,1,2,0:0:0:0:
448,192,41175,1,0,0:0:0:0:
416,224,41264,1,2,0:0:0:0:
448,192,41352,1,0,0:0:0:0:
480,160,41440,1,2,0:0:0:0:
416,192,41528,1,2,0:0:0:0:
448,224,41616,1,0,0:0:0:0:
448,160,41793,1,2,0:0:0:0:
416,192,41881,1,0,0:0:0:0:
384,224,41969,1,0,0:0:0:0:
448,160,42058,1,2,0:0:0:0:
448,160,42146,1,0,0:0:0:0:
416,192,42234,1,0,0:0:0:0:
416,192,42322,1,2,0:0:0:0:
416,192,42411,1,2,0:0:0:0:
416,160,42499,1,0,0:0:0:0:
416,192,42587,1,2,0:0:0:0:
416,160,42675,1,0,0:0:0:0:
416,224,42852,1,0,0:0:0:0:
416,256,42940,1,0,0:0:0:0:
416,224,43028,1,2,0:0:0:0:
384,256,43116,1,0,0:0:0:0:
384,224,43293,1,0,0:0:0:0:
416,224,43381,1,2,0:0:0:0:
416,160,43558,1,2,0:0:0:0:
480,192,43734,1,0,0:0:0:0:
416,224,43911,1,2,0:0:0:0:
448,160,44087,1,0,0:0:0:0:
416,224,44264,1,2,0:0:0:0:
448,160,44352,1,0,0:0:0:0:
448,160,44440,1,0,0:0:0:0:
416,160,44528,1,0,0:0:0:0:
448,192,44616,1,0,0:0:0:0:
480,160,44705,1,2,0:0:0:0:
448,192,44793,1,0,0:0:0:0:
480,160,44881,1,0,0:0:0:0:
448,160,44969,1,0,0:0:0:0:
448,192,45058,1,2,0:0:0:0:
416,160,45146,1,2,0:0:0:0:
416,192,45234,1,0,0:0:0:0:
384,192,45322,1,0,0:0:0:0:
416,192,45411,1,2,0:0:0:0:
416,224,45499,1,6,0:0:0:0:
416,224,45675,1,2,0:0:0:0:
416,224,45764,1,2,0:0:0:0:
448,192,45852,1,0,0:0:0:0:
416,224,45940,1,2,0:0:0:0:
448,160,46028,1,0,0:0:0:0:
416,192,46116,1,0,0:0:0:0:
416,224,46205,1,2,0:0:0:0:
384,224,46293,1,0,0:0:0:0:
384,224,46381,1,0,0:0:0:0:
416,256,46469,1,2,0:0:0:0:
448,160,46558,1,2,0:0:0:0:
480,192,46646,1,0,0:0:0:0:
448,192,46734,1,2,0:0:0:0:
416,224,46822,1,2,0:0:0:0:
416,224,46911,1,4,0:0:0:0:
512,192,47175,1,0,0:0:0:0:
416,224,47440,1,0,0:0:0:0:
416,224,47616,1,6,0:0:0:0:
448,160,47793,1,0,0:0:0:0:
416,192,47881,1,0,0:0:0:0:
416,192,47969,1,0,0:0:0:0:
384,224,48146,1,2,0:0:0:0:
448,224,48322,1,6,0:0:0:0:
448,224,48499,1,2,0:0:0:0:
384,224,48675,1,2,0:0:0:0:
448,160,48852,1,0,0:0:0:0:
384,160,49028,1,0,0:0:0:0:
448,224,49116,1,2,0:0:0:0:
448,192,49205,1,0,0:0:0:0:
448,128,49381,1,0,0:0:0:0:
448,160,49469,1,2,0:0:0:0:
416,160,49558,1,2,0:0:0:0:
416,192,49646,1,0,0:0:0:0:
416,192,49734,1,4,0:0:0:0:
416,192,49999,1,2,0:0:0:0:
384,224,50087,1,2,0:0:0:0:
416,192,50264,1,0,0:0:0:0:
416,256,50440,1,0,0:0:0:0:
416,224,50528,1,2,0:0:0:0:
416,192,50616,1,0,0:0:0:0:
352,224,50793,1,0,0:0:0:0:
384,224,50852,1,0,0:0:0:0:
384,224,50911,1,0,0:0:0:0:
384,256,50969,1,0,0:0:0:0:
352,256,51028,1,0,0:0:0:0:
352,288,51087,1,0,0:0:0:0:
352,256,51146,1,2,0:0:0:0:
384,192,51322,1,2,0:0:0:0:
416,128,51499,1,2,0:0:0:0:
384,192,51675,1,2,0:0:0:0:
416,128,51852,1,2,0:0:0:0:
384,192,52028,1,2,0:0:0:0:
352,192,52116,1,2,0:0:0:0:
448,160,52205,1,2,0:0:0:0:
416,160,52293,1,0,0:0:0:0:
416,192,52381,1,0,0:0:0:0:
448,160,52469,1,2,0:0:0:0:
416,192,52558,1,0,0:0:0:0:
448,160,52646,1,2,0:0:0:0:
416,192,52734,1,2,0:0:0:0:
448,160,52822,1,0,0:0:0:0:
416,192,52911,1,0,0:0:0:0:
416,192,52999,1,2,0:0:0:0:
384,192,53087,1,2,0:0:0:0:
416,192,53175,1,0,0:0:0:0:
384,192,53264,1,2,0:0:0:0:
416,128,53440,1,2,0:0:0:0:
416,160,53528,1,0,0:0:0:0:
416,128,53616,1,0,0:0:0:0:
384,224,53793,1,2,0:0:0:0:
448,192,53969,1,6,0:0:0:0:
480,160,54058,1,2,0:0:0:0:
416,192,54146,1,2,0:0:0:0:
384,224,54234,1,2,0:0:0:0:
384,224,54322,1,2,0:0:0:0:
384,224,54411,1,2,0:0:0:0:
352,256,54499,1,2,0:0:0:0:
384,224,54587,1,2,0:0:0:0:
448,160,54675,1,4,0:0:0:0:
416,128,54764,1,0,0:0:0:0:
416,128,54852,1,0,0:0:0:0:
384,128,54940,1,0,0:0:0:0:
448,192,55028,1,2,0:0:0:0:
480,160,55116,1,0,0:0:0:0:
448,192,55205,1,2,0:0:0:0:
448,160,55293,1,0,0:0:0:0:
416,192,55381,1,2,0:0:0:0:
384,224,55469,1,2,0:0:0:0:
352,224,55558,1,2,0:0:0:0:
352,224,55646,1,2,0:0:0:0:
352,224,55734,1,2,0:0:0:0:
384,224,55822,1,2,0:0:0:0:
352,224,55911,1,2,0:0:0:0:
352,224,55999,1,2,0:0:0:0:
384,192,56087,1,0,0:0:0:0:
384,192,56146,1,0,0:0:0:0:
384,192,56205,1,0,0:0:0:0:
352,192,56264,1,0,0:0:0:0:
352,192,56322,1,0,0:0:0:0:
352,224,56381,1,0,0:0:0:0:
352,224,56440,1,0,0:0:0:0:
352,224,56499,1,0,0:0:0:0:
352,224,56558,1,0,0:0:0:0:
352,224,56616,1,0,0:0:0:0:
352,224,56675,1,0,0:0:0:0:
352,224,56734,1,0,0:0:0:0:
384,224,56793,1,4,0:0:0:0:
448,224,56969,1,4,0:0:0:0:
384,224,57499,1,6,0:0:0:0:
384,224,57675,1,6,0:0:0:0:
448,160,58205,1,4,0:0:0:0:
352,256,58381,1,4,0:0:0:0:
416,224,58911,1,6,0:0:0:0:
416,192,59087,1,6,0:0:0:0:
480,224,59264,1,2,0:0:0:0:
480,192,59352,1,0,0:0:0:0:
416,192,59440,1,0,0:0:0:0:
448,192,59528,1,2,0:0:0:0:
416,224,59616,1,4,0:0:0:0:
416,192,59793,1,4,0:0:0:0:
192,96,60322,1,6,0:0:0:0:
256,128,60499,1,6,0:0:0:0:
416,192,61028,1,4,0:0:0:0:
352,224,61205,1,4,0:0:0:0:
416,192,61381,1,2,0:0:0:0:
448,160,61469,1,0,0:0:0:0:
384,192,61646,1,0,0:0:0:0:
416,192,61734,1,6,0:0:0:0:
384,192,61911,1,6,0:0:0:0:
448,192,62087,1,2,0:0:0:0:
416,192,62175,1,2,0:0:0:0:
416,192,62264,1,2,0:0:0:0:
384,224,62352,1,2,0:0:0:0:
448,192,62440,1,4,0:0:0:0:
352,224,62558,1,0,0:0:0:0:
352,192,62675,1,0,0:0:0:0:
320,224,62793,1,0,0:0:0:0:
352,224,62911,1,0,0:0:0:0:
384,224,63028,1,2,0:0:0:0:
416,192,63146,1,0,0:0:0:0:
384,192,63264,1,0,0:0:0:0:
384,224,63381,1,0,0:0:0:0:
416,192,63499,1,2,0:0:0:0:
448,160,63616,1,0,0:0:0:0:
448,160,63734,1,2,0:0:0:0:
416,192,63852,1,0,0:0:0:0:
416,192,63969,1,0,0:0:0:0:
416,192,64087,1,0,0:0:0:0:
384,224,64205,1,0,0:0:0:0:
416,192,64322,1,0,0:0:0:0:
416,224,64440,1,2,0:0:0:0:
416,192,64558,1,0,0:0:0:0:
384,192,64675,1,0,0:0:0:0:
384,224,64793,1,0,0:0:0:0:
448,160,64911,1,2,0:0:0:0:
480,128,65028,1,0,0:0:0:0:
448,160,65146,1,2,0:0:0:0:
480,192,65264,1,4,0:0:0:0:
448,192,65381,1,0,0:0:0:0:
416,192,65499,1,0,0:0:0:0:
416,192,65616,1,0,0:0:0:0:
384,224,65734,1,0,0:0:0:0:
416,192,65852,1,2,0:0:0:0:
480,128,65969,1,0,0:0:0:0:
448,160,66087,1,0,0:0:0:0:
416,160,66205,1,0,0:0:0:0:
448,160,66322,1,2,0:0:0:0:
448,160,66440,1,0,0:0:0:0:
416,192,66558,1,2,0:0:0:0:
448,160,66675,1,0,0:0:0:0:
416,160,66793,1,0,0:0:0:0:
384,192,66911,1,0,0:0:0:0:
384,192,67028,1,0,0:0:0:0:
352,224,67146,1,0,0:0:0:0:
352,192,67264,1,2,0:0:0:0:
384,160,67381,1,0,0:0:0:0:
384,160,67499,1,0,0:0:0:0:
352,192,67616,1,0,0:0:0:0:
416,192,67734,1,2,0:0:0:0:
448,160,67852,1,0,0:0:0:0:
480,160,67969,1,2,0:0:0:0:
448,192,68087,1,6,0:0:0:0:
448,160,68205,1,0,0:0:0:0:
416,160,68322,1,0,0:0:0:0:
448,160,68440,1,2,0:0:0:0:
448,160,68558,1,0,0:0:0:0:
480,160,68675,1,2,0:0:0:0:
480,192,68793,1,6,0:0:0:0:
480,160,68911,1,0,0:0:0:0:
416,192,69028,1,0,0:0:0:0:
448,192,69146,1,2,0:0:0:0:
448,160,69234,1,0,0:0:0:0:
384,160,69322,1,2,0:0:0:0:
352,160,69411,1,2,0:0:0:0:
352,192,69499,1,2,0:0:0:0:
480,160,69852,1,6,0:0:0:0:
448,192,70028,1,0,0:0:0:0:
416,192,70116,1,0,0:0:0:0:
448,224,70205,1,2,0:0:0:0:
448,192,70293,1,0,0:0:0:0:
416,192,70381,1,0,0:0:0:0:
480,160,70469,1,2,0:0:0:0:
448,160,70558,1,0,0:0:0:0:
416,224,70734,1,2,0:0:0:0:
448,192,70911,1,6,0:0:0:0:
448,160,71028,1,0,0:0:0:0:
416,160,71146,1,0,0:0:0:0:
448,160,71264,1,2,0:0:0:0:
448,192,71381,1,0,0:0:0:0:
416,192,71499,1,2,0:0:0:0:
416,224,71616,1,0,0:0:0:0:
384,256,71734,1,0,0:0:0:0:
384,224,71852,1,0,0:0:0:0:
448,192,71969,1,2,0:0:0:0:
448,192,72058,1,0,0:0:0:0:
448,160,72146,1,2,0:0:0:0:
416,192,72234,1,2,0:0:0:0:
384,224,72322,1,2,0:0:0:0:
448,192,72675,1,6,0:0:0:0:
352,192,73028,1,6,0:0:0:0:
384,192,73146,1,6,0:0:0:0:
352,224,73264,1,6,0:0:0:0:
352,224,73381,1,6,0:0:0:0:
352,224,73499,1,6,0:0:0:0:
352,192,73616,1,6,0:0:0:0:
384,224,73734,1,4,0:0:0:0:
320,224,73911,1,0,0:0:0:0:
352,192,73999,1,2,0:0:0:0:
352,192,74087,1,2,0:0:0:0:
352,256,74264,1,0,0:0:0:0:
384,224,74352,1,2,0:0:0:0:
384,224,74440,1,0,0:0:0:0:
384,192,74499,1,0,0:0:0:0:
384,192,74558,1,0,0:0:0:0:
384,192,74616,1,0,0:0:0:0:
352,224,74675,1,0,0:0:0:0:
352,224,74734,1,0,0:0:0:0:
384,224,74793,1,2,0:0:0:0:
448,224,74969,1,2,0:0:0:0:
384,224,75146,1,4,0:0:0:0:
448,96,75322,1,2,0:0:0:0:
448,128,75410,1,0,0:0:0:0:
448,160,75499,1,2,0:0:0:0:
416,192,75587,1,0,0:0:0:0:
384,192,75675,1,0,0:0:0:0:
416,192,75764,1,2,0:0:0:0:
448,160,75852,1,0,0:0:0:0:
448,224,76028,1,2,0:0:0:0:
448,192,76116,1,0,0:0:0:0:
480,160,76205,1,2,0:0:0:0:
416,192,76293,1,0,0:0:0:0:
384,192,76381,1,0,0:0:0:0:
416,192,76469,1,2,0:0:0:0:
416,160,76558,1,0,0:0:0:0:
480,160,76734,1,2,0:0:0:0:
448,128,76822,1,0,0:0:0:0:
416,192,76911,1,0,0:0:0:0:
352,224,77087,1,2,0:0:0:0:
448,192,77264,1,0,0:0:0:0:
448,192,77352,1,2,0:0:0:0:
416,192,77440,1,0,0:0:0:0:
416,224,77528,1,0,0:0:0:0:
384,224,77616,1,2,0:0:0:0:
416,192,77705,1,0,0:0:0:0:
416,160,77793,1,2,0:0:0:0:
416,160,77852,1,2,0:0:0:0:
384,192,77911,1,2,0:0:0:0:
416,160,77969,1,0,0:0:0:0:
480,192,78146,1,2,0:0:0:0:
480,160,78234,1,0,0:0:0:0:
448,192,78322,1,0,0:0:0:0:
480,192,78499,1,2,0:0:0:0:
480,160,78587,1,0,0:0:0:0:
416,160,78675,1,2,0:0:0:0:
384,192,78764,1,0,0:0:0:0:
448,192,78852,1,0,0:0:0:0:
416,160,78940,1,2,0:0:0:0:
416,192,79028,1,0,0:0:0:0:
352,256,79205,1,2,0:0:0:0:
384,288,79381,1,6,0:0:0:0:
416,224,79558,1,0,0:0:0:0:
448,160,79734,1,2,0:0:0:0:
480,128,79822,1,2,0:0:0:0:
480,128,79911,1,0,0:0:0:0:
480,160,79999,1,0,0:0:0:0:
448,192,80087,1,2,0:0:0:0:
480,160,80175,1,2,0:0:0:0:
416,192,80352,1,2,0:0:0:0:
448,160,80440,1,0,0:0:0:0:
416,192,80528,1,0,0:0:0:0:
416,192,80616,1,2,0:0:0:0:
416,192,80705,1,2,0:0:0:0:
384,224,80793,1,0,0:0:0:0:
384,224,81058,1,0,0:0:0:0:
480,160,81146,1,2,0:0:0:0:
448,160,81322,1,0,0:0:0:0:
448,192,81499,1,2,0:0:0:0:
448,160,81764,1,0,0:0:0:0:
416,192,81852,1,0,0:0:0:0:
416,192,82028,1,2,0:0:0:0:
416,256,82205,1,6,0:0:0:0:
352,256,82381,1,0,0:0:0:0:
416,256,82558,1,0,0:0:0:0:
448,192,82734,1,2,0:0:0:0:
416,192,82822,1,2,0:0:0:0:
384,224,82911,1,0,0:0:0:0:
448,192,82999,1,2,0:0:0:0:
448,160,83087,1,0,0:0:0:0:
416,192,83175,1,0,0:0:0:0:
384,192,83264,1,0,0:0:0:0:
352,192,83322,1,0,0:0:0:0:
320,192,83381,1,0,0:0:0:0:
320,224,83440,1,0,0:0:0:0:
320,224,83499,1,0,0:0:0:0:
320,224,83558,1,0,0:0:0:0:
416,192,83616,1,2,0:0:0:0:
416,256,83793,1,0,0:0:0:0:
448,192,83969,1,2,0:0:0:0:
384,224,84146,1,0,0:0:0:0:
416,160,84322,1,2,0:0:0:0:
384,160,84411,1,2,0:0:0:0:
448,192,84499,1,0,0:0:0:0:
416,192,84675,1,0,0:0:0:0:
384,224,84852,1,2,0:0:0:0:
384,224,85028,1,6,0:0:0:0:
256,192,86440,1,0,0:0:0:0:
256,160,87851,1,0,0:0:0:0:
416,160,89263,1,2,0:0:0:0:
448,192,90675,1,0,0:0:0:0:
288,192,91028,1,0,0:0:0:0:
448,160,91381,1,2,0:0:0:0:
320,256,91734,1,0,0:0:0:0:
384,224,91910,1,0,0:0:0:0:
448,192,92087,1,2,0:0:0:0:
352,192,92263,1,2,0:0:0:0:
352,288,92440,1,2,0:0:0:0:
384,224,92616,1,2,0:0:0:0:
352,288,92792,1,2,0:0:0:0:
352,192,92969,1,2,0:0:0:0:
448,160,93145,1,0,0:0:0:0:
352,192,93322,1,2,0:0:0:0:
416,160,93498,1,2,0:0:0:0:
416,160,93587,1,2,0:0:0:0:
384,192,93675,1,2,0:0:0:0:
384,192,93763,1,2,0:0:0:0:
384,192,93851,1,2,0:0:0:0:
352,192,93940,1,2,0:0:0:0:
352,192,94028,1,2,0:0:0:0:
320,224,94116,1,2,0:0:0:0:
416,160,94204,1,0,0:0:0:0:
416,160,94292,1,0,0:0:0:0:
384,160,94381,1,0,0:0:0:0:
384,160,94469,1,0,0:0:0:0:
384,192,94557,1,0,0:0:0:0:
384,192,94645,1,0,0:0:0:0:
352,192,94734,1,0,0:0:0:0:
352,192,94822,1,0,0:0:0:0:
384,192,94910,1,2,0:0:0:0:
416,160,94969,1,2,0:0:0:0:
384,192,95028,1,2,0:0:0:0:
352,224,95087,1,2,0:0:0:0:
384,192,95145,1,2,0:0:0:0:
384,192,95204,1,2,0:0:0:0:
384,192,95263,1,2,0:0:0:0:
352,224,95322,1,2,0:0:0:0:
352,224,95381,1,2,0:0:0:0:
352,224,95440,1,2,0:0:0:0:
352,224,95498,1,2,0:0:0:0:
352,224,95557,1,2,0:0:0:0:
352,224,95616,1,2,0:0:0:0:
352,224,95675,1,2,0:0:0:0:
352,224,95734,1,2,0:0:0:0:
352,224,95792,1,2,0:0:0:0:
352,224,95851,1,2,0:0:0:0:
352,224,95910,1,2,0:0:0:0:
352,224,95969,1,2,0:0:0:0:
352,224,96028,1,2,0:0:0:0:
352,224,96087,1,2,0:0:0:0:
352,224,96145,1,2,0:0:0:0:
352,224,96204,1,2,0:0:0:0:
352,224,96263,1,2,0:0:0:0:
416,160,96322,1,6,0:0:0:0:
480,128,96498,1,0,0:0:0:0:
416,160,96587,1,0,0:0:0:0:
384,128,96675,1,2,0:0:0:0:
416,224,96851,1,0,0:0:0:0:
448,192,96940,1,2,0:0:0:0:
448,160,97028,1,0,0:0:0:0:
480,160,97116,1,2,0:0:0:0:
448,160,97204,1,0,0:0:0:0:
416,160,97292,1,0,0:0:0:0:
448,160,97381,1,2,0:0:0:0:
384,192,97557,1,2,0:0:0:0:
448,160,97645,1,0,0:0:0:0:
480,128,97734,1,2,0:0:0:0:
384,192,97910,1,2,0:0:0:0:
480,128,97998,1,0,0:0:0:0:
448,160,98087,1,2,0:0:0:0:
416,160,98263,1,2,0:0:0:0:
448,192,98351,1,0,0:0:0:0:
416,192,98440,1,0,0:0:0:0:
448,160,98528,1,2,0:0:0:0:
416,160,98616,1,0,0:0:0:0:
384,192,98704,1,0,0:0:0:0:
448,160,98792,1,2,0:0:0:0:
416,160,98881,1,0,0:0:0:0:
384,192,98969,1,0,0:0:0:0:
416,160,99057,1,2,0:0:0:0:
384,192,99145,1,2,0:0:0:0:
384,160,99234,1,0,0:0:0:0:
384,192,99322,1,0,0:0:0:0:
448,160,99410,1,2,0:0:0:0:
448,160,99498,1,0,0:0:0:0:
448,160,99587,1,0,0:0:0:0:
480,192,99675,1,2,0:0:0:0:
448,160,99763,1,0,0:0:0:0:
448,160,99851,1,0,0:0:0:0:
480,128,99939,1,2,0:0:0:0:
448,160,100028,1,2,0:0:0:0:
448,256,100204,1,0,0:0:0:0:
448,160,100292,1,2,0:0:0:0:
416,160,100381,1,2,0:0:0:0:
448,192,100469,1,0,0:0:0:0:
448,160,100557,1,2,0:0:0:0:
448,160,100734,1,2,0:0:0:0:
512,224,100910,1,0,0:0:0:0:
448,160,101087,1,2,0:0:0:0:
448,160,101263,1,0,0:0:0:0:
416,192,101351,1,0,0:0:0:0:
416,160,101439,1,0,0:0:0:0:
448,160,101528,1,2,0:0:0:0:
480,128,101616,1,0,0:0:0:0:
448,160,101704,1,0,0:0:0:0:
416,160,101792,1,0,0:0:0:0:
448,160,101881,1,2,0:0:0:0:
480,160,101969,1,0,0:0:0:0:
416,224,102145,1,0,0:0:0:0:
448,192,102234,1,0,0:0:0:0:
480,128,102322,1,2,0:0:0:0:
512,128,102498,1,0,0:0:0:0:
448,192,102675,1,2,0:0:0:0:
480,96,102851,1,0,0:0:0:0:
448,128,102939,1,0,0:0:0:0:
448,160,103028,1,2,0:0:0:0:
448,160,103116,1,0,0:0:0:0:
384,224,103292,1,0,0:0:0:0:
416,192,103381,1,2,0:0:0:0:
320,224,103557,1,2,0:0:0:0:
448,160,103734,1,0,0:0:0:0:
512,96,103910,1,2,0:0:0:0:
448,128,104087,1,2,0:0:0:0:
416,128,104175,1,2,0:0:0:0:
448,160,104263,1,0,0:0:0:0:
480,128,104351,1,2,0:0:0:0:
448,160,104439,1,2,0:0:0:0:
416,160,104528,1,2,0:0:0:0:
448,160,104616,1,0,0:0:0:0:
416,160,104704,1,0,0:0:0:0:
416,192,104792,1,2,0:0:0:0:
416,160,104969,1,2,0:0:0:0:
416,192,105145,1,2,0:0:0:0:
384,256,105322,1,2,0:0:0:0:
352,192,105498,1,0,0:0:0:0:
384,224,105587,1,0,0:0:0:0:
448,160,105675,1,2,0:0:0:0:
448,160,105763,1,0,0:0:0:0:
416,192,105851,1,0,0:0:0:0:
384,192,105939,1,0,0:0:0:0:
448,160,106028,1,2,0:0:0:0:
416,160,106116,1,0,0:0:0:0:
384,192,106204,1,0,0:0:0:0:
384,224,106292,1,0,0:0:0:0:
416,192,106381,1,2,0:0:0:0:
448,160,106469,1,0,0:0:0:0:
416,192,106557,1,0,0:0:0:0:
416,224,106645,1,0,0:0:0:0:
448,160,106734,1,2,0:0:0:0:
448,160,106822,1,0,0:0:0:0:
416,192,106910,1,0,0:0:0:0:
416,160,106998,1,2,0:0:0:0:
352,192,107175,1,2,0:0:0:0:
352,192,107263,1,2,0:0:0:0:
352,192,107351,1,2,0:0:0:0:
352,192,107439,1,2,0:0:0:0:
448,160,107528,1,0,0:0:0:0:
416,192,107616,1,0,0:0:0:0:
512,192,107792,1,2,0:0:0:0:
480,160,107881,1,0,0:0:0:0:
448,160,107969,1,2,0:0:0:0:
448,128,108057,1,0,0:0:0:0:
352,160,108234,1,0,0:0:0:0:
320,160,108322,1,0,0:0:0:0:
384,224,108498,1,0,0:0:0:0:
416,224,108587,1,0,0:0:0:0:
480,160,108675,1,2,0:0:0:0:
448,192,108763,1,0,0:0:0:0:
416,192,108851,1,0,0:0:0:0:
448,160,108939,1,2,0:0:0:0:
416,192,109028,1,2,0:0:0:0:
320,192,109204,1,0,0:0:0:0:
288,256,109381,1,0,0:0:0:0:
416,192,109557,1,0,0:0:0:0:
448,160,109734,1,2,0:0:0:0:
448,160,109910,1,0,0:0:0:0:
448,192,110087,1,2,0:0:0:0:
448,160,110175,1,0,0:0:0:0:
448,128,110263,1,2,0:0:0:0:
416,160,110322,1,2,0:0:0:0:
416,160,110381,1,2,0:0:0:0:
416,192,110439,1,0,0:0:0:0:
416,160,110616,1,2,0:0:0:0:
448,192,110792,1,2,0:0:0:0:
448,192,110969,1,0,0:0:0:0:
448,160,111145,1,2,0:0:0:0:
384,192,111322,1,2,0:0:0:0:
320,256,111498,1,2,0:0:0:0:
416,192,111675,1,0,0:0:0:0:
480,224,111851,1,4,0:0:0:0:
384,256,112028,1,0,0:0:0:0:
448,192,112204,1,6,0:0:0:0:
448,160,112381,1,0,0:0:0:0:
448,160,112557,1,2,0:0:0:0:
480,224,112734,1,0,0:0:0:0:
448,192,112910,1,6,0:0:0:0:
448,192,113087,1,0,0:0:0:0:
480,192,113263,1,4,0:0:0:0:
448,96,113439,1,2,0:0:0:0:
384,160,113616,1,2,0:0:0:0:
448,192,113792,1,2,0:0:0:0:
448,160,113969,1,2,0:0:0:0:
352,128,114145,1,2,0:0:0:0:
448,160,114322,1,0,0:0:0:0:
352,160,114498,1,2,0:0:0:0:
384,192,114675,1,2,0:0:0:0:
384,192,114763,1,0,0:0:0:0:
384,224,114851,1,0,0:0:0:0:
384,224,114939,1,0,0:0:0:0:
352,224,115028,1,0,0:0:0:0:
352,224,115116,1,0,0:0:0:0:
320,256,115204,1,0,0:0:0:0:
352,224,115292,1,0,0:0:0:0:
384,192,115381,1,2,0:0:0:0:
320,256,115469,1,0,0:0:0:0:
352,256,115557,1,0,0:0:0:0:
352,256,115645,1,0,0:0:0:0:
384,224,115734,1,2,0:0:0:0:
320,256,115822,1,0,0:0:0:0:
352,256,115910,1,0,0:0:0:0:
384,224,115998,1,2,0:0:0:0:
384,224,116087,1,4,0:0:0:0:
416,224,116792,1,0,0:0:0:0:
480,160,117498,1,0,0:0:0:0:
160,160,118204,1,2,0:0:0:0:
256,192,118910,12,2,124557,0:0:0:0:
