osu file format v14

[General]
AudioFilename: audio.mp3
AudioLeadIn: 0
PreviewTime: 175726
Countdown: 0
SampleSet: Normal
StackLeniency: 0.7
Mode: 1
LetterboxInBreaks: 0
WidescreenStoryboard: 0

[Editor]
Bookmarks: 1555,12526,23497,34469,45440,56412,67383,78355,89326,100297,111269,122240,133212,144183,155155,166126,177097,188069,199040,220640,220983,242926,253897,264869
DistanceSpacing: 2.8
BeatDivisor: 4
GridSize: 32
TimelineZoom: 2.1

[Metadata]
Title:Voyage
TitleUnicode:Voyage
Artist:Zekk
ArtistUnicode:Zekk
Creator:eiri-
Version:Muzukashii
Source:東方永夜抄 ~ Imperishable Night.
Tags:Ayyri 1969 1970 Featured Artist FA Instrumental Electronic Video Game Touhou 東方Project ZUN Team Shanghai Alice IN Eiyashou Eternal Night Vignette Moon TH08 TH 8 ヴォヤージュ Eirin Yagokoro 八意 永琳
BeatmapID:2423499
BeatmapSetID:1160498

[Difficulty]
HPDrainRate:6
CircleSize:2
OverallDifficulty:5
ApproachRate:10
SliderMultiplier:1.4
SliderTickRate:1

[Events]
//Background and Video events
0,0,"Eirin 386.jpg",0,0
//Break Periods
//Storyboard Layer 0 (Background)
//Storyboard Layer 1 (Fail)
//Storyboard Layer 2 (Pass)
//Storyboard Layer 3 (Foreground)
//Storyboard Layer 4 (Overlay)
//Storyboard Sound Samples

[TimingPoints]
1555,342.857142857143,4,1,0,50,1,0
12526,-100,4,1,0,60,0,0
23497,-100,4,1,0,70,0,0
34469,-100,4,1,0,80,0,0
45440,-100,4,1,0,90,0,0
56412,-100,4,1,0,100,0,1
67383,-100,4,1,0,70,0,0
78355,-100,4,1,0,80,0,0
89326,-100,4,1,0,60,0,0
100297,-100,4,1,0,70,0,0
111269,-100,4,1,0,60,0,0
122240,-100,4,1,0,65,0,0
133212,-100,4,1,0,80,0,0
144183,-100,4,1,0,85,0,0
155155,-100,4,1,0,60,0,0
166126,-100,4,1,0,70,0,0
177097,-100,4,1,0,80,0,0
188069,-100,4,1,0,90,0,0
199040,-100,4,1,0,100,0,1
220640,-100,4,1,0,100,0,0
220983,-100,4,1,0,100,0,1
242926,-100,4,1,0,80,0,0
253897,-100,4,1,0,75,0,0
264869,-100,4,1,0,100,0,0

[HitObjects]
256,192,1555,5,12,0:0:0:0:
256,192,4297,1,0,0:0:0:0:
256,192,7040,1,0,0:0:0:0:
256,192,8412,1,0,0:0:0:0:
256,192,9783,1,0,0:0:0:0:
256,192,12526,1,0,0:0:0:0:
256,192,12869,1,0,0:0:0:0:
256,192,13212,1,8,0:0:0:0:
256,192,13383,1,0,0:0:0:0:
256,192,13726,1,8,0:0:0:0:
256,192,14412,1,0,0:0:0:0:
256,192,14583,1,0,0:0:0:0:
256,192,14755,1,0,0:0:0:0:
256,192,14926,1,8,0:0:0:0:
256,192,15269,1,0,0:0:0:0:
256,192,15612,1,0,0:0:0:0:
256,192,15955,1,8,0:0:0:0:
256,192,16126,1,0,0:0:0:0:
256,192,16297,1,0,0:0:0:0:
256,192,16469,1,8,0:0:0:0:
256,192,16983,1,0,0:0:0:0:
256,192,17326,1,8,0:0:0:0:
256,192,17497,1,0,0:0:0:0:
256,192,17669,1,0,0:0:0:0:
256,192,18012,1,0,0:0:0:0:
256,192,18355,1,0,0:0:0:0:
256,192,18697,1,8,0:0:0:0:
256,192,19040,1,0,0:0:0:0:
256,192,19212,1,8,0:0:0:0:
256,192,19383,1,0,0:0:0:0:
256,192,19726,1,0,0:0:0:0:
256,192,19897,1,0,0:0:0:0:
256,192,20069,1,0,0:0:0:0:
256,192,20412,1,8,0:0:0:0:
256,192,20755,1,0,0:0:0:0:
256,192,20840,1,0,0:0:0:0:
256,192,20926,1,0,0:0:0:0:
256,192,21097,1,8,0:0:0:0:
256,192,21269,1,0,0:0:0:0:
256,192,21440,1,8,0:0:0:0:
256,192,21526,1,8,0:0:0:0:
256,192,21612,1,8,0:0:0:0:
256,192,21783,1,0,0:0:0:0:
256,192,21955,1,8,0:0:0:0:
256,192,22126,1,4,0:0:0:0:
256,192,22812,1,12,0:0:0:0:
256,192,23155,1,4,0:0:0:0:
256,192,23497,1,12,0:0:0:0:
256,192,23669,1,0,0:0:0:0:
256,192,23840,1,8,0:0:0:0:
256,192,24012,1,0,0:0:0:0:
256,192,24355,1,0,0:0:0:0:
256,192,24526,1,8,0:0:0:0:
256,192,24697,1,0,0:0:0:0:
256,192,25040,1,0,0:0:0:0:
256,192,25212,1,8,0:0:0:0:
256,192,25726,1,0,0:0:0:0:
256,192,25897,1,8,0:0:0:0:
256,192,26069,1,8,0:0:0:0:
256,192,26155,1,8,0:0:0:0:
256,192,26240,1,8,0:0:0:0:
256,192,26412,1,0,0:0:0:0:
256,192,26583,1,8,0:0:0:0:
256,192,26755,1,0,0:0:0:0:
256,192,27097,1,0,0:0:0:0:
256,192,27269,1,8,0:0:0:0:
256,192,27440,1,0,0:0:0:0:
256,192,27783,1,0,0:0:0:0:
256,192,27955,1,8,0:0:0:0:
256,192,28126,1,0,0:0:0:0:
256,192,28469,1,0,0:0:0:0:
256,192,28640,1,8,0:0:0:0:
256,192,28812,1,0,0:0:0:0:
256,192,29155,1,0,0:0:0:0:
256,192,29326,1,8,0:0:0:0:
256,192,29840,1,0,0:0:0:0:
256,192,30012,1,8,0:0:0:0:
256,192,30183,1,8,0:0:0:0:
256,192,30269,1,8,0:0:0:0:
256,192,30355,1,8,0:0:0:0:
256,192,30526,1,0,0:0:0:0:
256,192,30697,1,8,0:0:0:0:
256,192,30869,1,0,0:0:0:0:
256,192,31212,1,0,0:0:0:0:
256,192,31383,1,8,0:0:0:0:
256,192,31555,1,0,0:0:0:0:
256,192,31640,1,0,0:0:0:0:
256,192,31726,1,0,0:0:0:0:
256,192,31897,1,0,0:0:0:0:
256,192,32069,1,8,0:0:0:0:
256,192,32412,1,0,0:0:0:0:
256,192,32583,1,0,0:0:0:0:
256,192,32755,1,8,0:0:0:0:
256,192,32926,1,8,0:0:0:0:
256,192,33097,1,0,0:0:0:0:
256,192,33440,1,8,0:0:0:0:
256,192,33612,1,0,0:0:0:0:
256,192,34297,1,0,0:0:0:0:
256,192,34469,1,12,0:0:0:0:
256,192,34640,1,0,0:0:0:0:
256,192,34812,1,8,0:0:0:0:
256,192,34983,1,0,0:0:0:0:
256,192,35155,1,0,0:0:0:0:
256,192,35497,1,8,0:0:0:0:
256,192,35669,1,0,0:0:0:0:
256,192,35755,1,8,0:0:0:0:
256,192,36012,1,0,0:0:0:0:
256,192,36183,1,8,0:0:0:0:
256,192,36526,1,8,0:0:0:0:
256,192,36697,1,8,0:0:0:0:
256,192,36869,1,0,0:0:0:0:
256,192,37040,1,0,0:0:0:0:
256,192,37212,1,8,0:0:0:0:
256,192,37726,1,0,0:0:0:0:
256,192,37897,1,8,0:0:0:0:
256,192,38069,1,0,0:0:0:0:
256,192,38240,1,8,0:0:0:0:
256,192,38412,1,0,0:0:0:0:
256,192,38497,1,8,0:0:0:0:
256,192,38755,1,0,0:0:0:0:
256,192,38926,1,8,0:0:0:0:
256,192,39269,1,0,0:0:0:0:
256,192,39440,1,8,0:0:0:0:
256,192,39612,1,8,0:0:0:0:
256,192,39783,1,0,0:0:0:0:
256,192,39955,1,8,0:0:0:0:
256,192,40469,1,0,0:0:0:0:
256,192,40640,1,8,0:0:0:0:
256,192,40983,1,8,0:0:0:0:
256,192,41155,1,0,0:0:0:0:
256,192,41240,1,8,0:0:0:0:
256,192,41497,1,0,0:0:0:0:
256,192,41669,1,8,0:0:0:0:
256,192,42012,1,8,0:0:0:0:
256,192,42183,1,8,0:0:0:0:
256,192,42355,1,0,0:0:0:0:
256,192,42526,1,8,0:0:0:0:
256,192,42697,1,0,0:0:0:0:
256,192,43040,1,8,0:0:0:0:
256,192,43212,1,0,0:0:0:0:
256,192,43383,1,8,0:0:0:0:
256,192,43555,1,0,0:0:0:0:
256,192,43640,1,0,0:0:0:0:
256,192,43726,1,0,0:0:0:0:
256,192,43897,1,8,0:0:0:0:
256,192,44069,1,4,0:0:0:0:
256,192,44412,1,4,0:0:0:0:
256,192,44755,1,12,0:0:0:0:
256,192,45012,1,12,0:0:0:0:
256,192,45269,1,4,0:0:0:0:
256,192,45440,1,12,0:0:0:0:
256,192,45612,1,0,0:0:0:0:
256,192,45955,1,8,0:0:0:0:
256,192,46126,1,0,0:0:0:0:
256,192,46469,1,0,0:0:0:0:
256,192,46640,1,0,0:0:0:0:
256,192,46812,1,12,0:0:0:0:
256,192,47155,1,8,0:0:0:0:
256,192,47326,1,0,0:0:0:0:
256,192,47497,1,0,0:0:0:0:
256,192,47669,1,8,0:0:0:0:
256,192,47755,1,8,0:0:0:0:
256,192,47840,1,8,0:0:0:0:
256,192,48012,1,0,0:0:0:0:
256,192,48183,1,8,0:0:0:0:
256,192,48697,1,0,0:0:0:0:
256,192,48869,1,8,0:0:0:0:
256,192,49212,1,0,0:0:0:0:
256,192,49383,1,0,0:0:0:0:
256,192,49469,1,8,0:0:0:0:
256,192,49726,1,0,0:0:0:0:
256,192,49897,1,8,0:0:0:0:
256,192,50069,1,8,0:0:0:0:
256,192,50240,1,0,0:0:0:0:
256,192,50412,1,0,0:0:0:0:
256,192,50583,1,8,0:0:0:0:
256,192,50926,1,0,0:0:0:0:
256,192,51097,1,0,0:0:0:0:
256,192,51183,1,0,0:0:0:0:
256,192,51269,1,0,0:0:0:0:
256,192,51440,1,8,0:0:0:0:
256,192,51612,1,0,0:0:0:0:
256,192,51955,1,8,0:0:0:0:
256,192,52126,1,0,0:0:0:0:
256,192,52212,1,8,0:0:0:0:
256,192,52469,1,0,0:0:0:0:
256,192,52640,1,8,0:0:0:0:
256,192,52983,1,0,0:0:0:0:
256,192,53155,1,0,0:0:0:0:
256,192,53326,1,8,0:0:0:0:
256,192,53497,1,8,0:0:0:0:
256,192,53669,1,0,0:0:0:0:
256,192,54183,1,0,0:0:0:0:
256,192,54355,1,8,0:0:0:0:
256,192,54526,1,0,0:0:0:0:
256,192,54612,1,0,0:0:0:0:
256,192,54697,1,0,0:0:0:0:
256,192,54869,1,8,0:0:0:0:
256,192,55040,1,0,0:0:0:0:
256,192,55212,1,0,0:0:0:0:
256,192,55383,1,8,0:0:0:0:
256,192,55726,1,0,0:0:0:0:
256,192,55897,1,8,0:0:0:0:
256,192,56069,1,0,0:0:0:0:
256,192,56155,1,0,0:0:0:0:
256,192,56240,1,0,0:0:0:0:
256,192,56412,1,12,0:0:0:0:
256,192,56583,1,0,0:0:0:0:
256,192,56755,1,8,0:0:0:0:
256,192,56926,1,8,0:0:0:0:
256,192,57097,1,0,0:0:0:0:
256,192,57612,1,0,0:0:0:0:
256,192,57697,1,8,0:0:0:0:
256,192,57955,1,0,0:0:0:0:
256,192,58126,1,8,0:0:0:0:
256,192,58297,1,0,0:0:0:0:
256,192,58469,1,8,0:0:0:0:
256,192,58812,1,0,0:0:0:0:
256,192,58983,1,8,0:0:0:0:
256,192,59155,1,0,0:0:0:0:
256,192,59497,1,8,0:0:0:0:
256,192,59669,1,8,0:0:0:0:
256,192,59840,1,0,0:0:0:0:
256,192,59926,1,0,0:0:0:0:
256,192,60012,1,0,0:0:0:0:
256,192,60183,1,8,0:0:0:0:
256,192,60355,1,0,0:0:0:0:
256,192,60440,1,8,0:0:0:0:
256,192,60697,1,0,0:0:0:0:
256,192,60869,1,8,0:0:0:0:
256,192,61040,1,0,0:0:0:0:
256,192,61212,1,0,0:0:0:0:
256,192,61555,1,8,0:0:0:0:
256,192,61726,1,8,0:0:0:0:
256,192,61897,1,0,0:0:0:0:
256,192,62412,1,0,0:0:0:0:
256,192,62583,1,8,0:0:0:0:
256,192,62926,1,8,0:0:0:0:
256,192,63097,1,0,0:0:0:0:
256,192,63183,1,8,0:0:0:0:
256,192,63440,1,0,0:0:0:0:
256,192,63612,1,8,0:0:0:0:
256,192,63783,1,0,0:0:0:0:
256,192,63955,1,8,0:0:0:0:
256,192,64126,1,8,0:0:0:0:
256,192,64297,1,0,0:0:0:0:
256,192,64640,1,0,0:0:0:0:
256,192,64812,1,8,0:0:0:0:
256,192,64897,1,8,0:0:0:0:
256,192,64983,1,8,0:0:0:0:
256,192,65155,1,0,0:0:0:0:
256,192,65326,1,8,0:0:0:0:
256,192,65497,1,0,0:0:0:0:
256,192,65583,1,0,0:0:0:0:
256,192,65669,1,0,0:0:0:0:
256,192,65840,1,0,0:0:0:0:
256,192,66012,1,12,0:0:0:0:
256,192,67383,1,12,0:0:0:0:
256,192,67555,1,0,0:0:0:0:
256,192,67897,1,0,0:0:0:0:
256,192,68240,1,0,0:0:0:0:
256,192,68583,1,0,0:0:0:0:
256,192,68926,1,0,0:0:0:0:
256,192,69269,1,0,0:0:0:0:
256,192,69612,1,0,0:0:0:0:
256,192,69955,1,0,0:0:0:0:
256,192,70297,1,8,0:0:0:0:
256,192,70640,1,8,0:0:0:0:
256,192,70983,1,8,0:0:0:0:
256,192,71326,1,8,0:0:0:0:
256,192,71669,1,8,0:0:0:0:
256,192,72012,1,8,0:0:0:0:
256,192,72355,1,8,0:0:0:0:
256,192,72697,1,8,0:0:0:0:
256,192,73040,1,0,0:0:0:0:
256,192,73383,1,0,0:0:0:0:
256,192,73726,1,0,0:0:0:0:
256,192,74069,1,0,0:0:0:0:
256,192,74412,1,8,0:0:0:0:
256,192,74755,1,8,0:0:0:0:
256,192,75097,1,8,0:0:0:0:
256,192,75440,1,8,0:0:0:0:
256,192,75783,1,0,0:0:0:0:
256,192,76126,1,0,0:0:0:0:
256,192,76469,1,0,0:0:0:0:
256,192,76812,1,0,0:0:0:0:
256,192,77155,1,0,0:0:0:0:
256,192,77497,1,0,0:0:0:0:
256,192,77840,1,0,0:0:0:0:
256,192,78183,1,0,0:0:0:0:
256,192,78355,1,12,0:0:0:0:
256,192,78869,1,0,0:0:0:0:
256,192,79040,1,8,0:0:0:0:
256,192,79383,1,0,0:0:0:0:
256,192,79555,1,0,0:0:0:0:
256,192,79640,1,8,0:0:0:0:
256,192,79897,1,0,0:0:0:0:
256,192,80069,1,8,0:0:0:0:
256,192,80240,1,0,0:0:0:0:
256,192,80412,1,8,0:0:0:0:
256,192,80755,1,0,0:0:0:0:
256,192,81097,1,8,0:0:0:0:
256,192,81612,1,0,0:0:0:0:
256,192,81783,1,8,0:0:0:0:
256,192,82126,1,0,0:0:0:0:
256,192,82297,1,0,0:0:0:0:
256,192,82383,1,8,0:0:0:0:
256,192,82640,1,0,0:0:0:0:
256,192,82812,1,8,0:0:0:0:
256,192,82983,1,0,0:0:0:0:
256,192,83155,1,8,0:0:0:0:
256,192,83326,1,8,0:0:0:0:
256,192,83497,1,0,0:0:0:0:
256,192,83840,1,8,0:0:0:0:
256,192,84183,1,8,0:0:0:0:
256,192,84355,1,0,0:0:0:0:
256,192,84526,1,8,0:0:0:0:
256,192,84697,1,8,0:0:0:0:
256,192,84869,1,0,0:0:0:0:
256,192,85040,1,0,0:0:0:0:
256,192,85126,1,8,0:0:0:0:
256,192,85383,1,0,0:0:0:0:
256,192,85555,1,8,0:0:0:0:
256,192,85897,1,8,0:0:0:0:
256,192,86069,1,8,0:0:0:0:
256,192,86240,1,0,0:0:0:0:
256,192,86583,1,12,0:0:0:0:
256,192,86840,1,4,0:0:0:0:
256,192,87097,1,4,0:0:0:0:
256,192,87269,1,12,0:0:0:0:
256,192,87526,1,4,0:0:0:0:
256,192,87783,1,4,0:0:0:0:
256,192,87955,1,12,0:0:0:0:
256,192,88640,1,12,0:0:0:0:
256,192,88983,1,4,0:0:0:0:
256,192,89326,1,12,0:0:0:0:
256,192,90012,1,0,0:0:0:0:
256,192,90697,1,8,0:0:0:0:
256,192,91383,1,0,0:0:0:0:
256,192,92069,1,8,0:0:0:0:
256,192,92755,1,0,0:0:0:0:
256,192,93440,1,8,0:0:0:0:
256,192,94126,1,0,0:0:0:0:
256,192,94812,1,8,0:0:0:0:
256,192,95497,1,0,0:0:0:0:
256,192,96183,1,8,0:0:0:0:
256,192,96869,1,0,0:0:0:0:
256,192,97555,1,8,0:0:0:0:
256,192,98240,1,0,0:0:0:0:
256,192,98926,1,8,0:0:0:0:
256,192,99269,1,0,0:0:0:0:
256,192,99612,1,0,0:0:0:0:
256,192,99783,1,8,0:0:0:0:
256,192,99955,1,0,0:0:0:0:
256,192,100126,1,8,0:0:0:0:
256,192,100297,1,4,0:0:0:0:
256,192,100640,1,8,0:0:0:0:
256,192,100983,1,8,0:0:0:0:
256,192,101326,1,8,0:0:0:0:
256,192,101669,1,8,0:0:0:0:
256,192,102012,1,8,0:0:0:0:
256,192,102355,1,8,0:0:0:0:
256,192,102697,1,8,0:0:0:0:
256,192,103040,1,0,0:0:0:0:
256,192,103383,1,8,0:0:0:0:
256,192,103726,1,8,0:0:0:0:
256,192,104069,1,8,0:0:0:0:
256,192,104412,1,8,0:0:0:0:
256,192,104755,1,8,0:0:0:0:
256,192,105097,1,8,0:0:0:0:
256,192,105440,1,8,0:0:0:0:
256,192,105783,1,0,0:0:0:0:
256,192,106126,1,8,0:0:0:0:
256,192,106469,1,8,0:0:0:0:
256,192,106812,1,8,0:0:0:0:
256,192,107155,1,8,0:0:0:0:
256,192,107497,1,8,0:0:0:0:
256,192,107840,1,8,0:0:0:0:
256,192,108183,1,8,0:0:0:0:
256,192,108526,1,0,0:0:0:0:
256,192,108869,1,8,0:0:0:0:
256,192,109212,1,8,0:0:0:0:
256,192,109555,1,8,0:0:0:0:
256,192,109897,1,8,0:0:0:0:
256,192,110240,1,8,0:0:0:0:
256,192,110583,1,8,0:0:0:0:
256,192,110755,1,0,0:0:0:0:
256,192,110926,1,8,0:0:0:0:
256,192,111097,1,0,0:0:0:0:
256,192,111269,1,0,0:0:0:0:
256,192,111612,1,0,0:0:0:0:
256,192,111955,1,8,0:0:0:0:
256,192,112126,1,0,0:0:0:0:
256,192,112469,1,8,0:0:0:0:
256,192,113155,1,0,0:0:0:0:
256,192,113326,1,0,0:0:0:0:
256,192,113497,1,0,0:0:0:0:
256,192,113669,1,8,0:0:0:0:
256,192,114012,1,0,0:0:0:0:
256,192,114355,1,0,0:0:0:0:
256,192,114697,1,8,0:0:0:0:
256,192,114869,1,0,0:0:0:0:
256,192,115040,1,0,0:0:0:0:
256,192,115212,1,8,0:0:0:0:
256,192,115726,1,0,0:0:0:0:
256,192,116069,1,8,0:0:0:0:
256,192,116240,1,0,0:0:0:0:
256,192,116412,1,0,0:0:0:0:
256,192,116755,1,0,0:0:0:0:
256,192,117097,1,0,0:0:0:0:
256,192,117440,1,8,0:0:0:0:
256,192,117612,1,0,0:0:0:0:
256,192,117955,1,8,0:0:0:0:
256,192,118640,1,0,0:0:0:0:
256,192,118812,1,0,0:0:0:0:
256,192,118983,1,0,0:0:0:0:
256,192,119155,1,8,0:0:0:0:
256,192,119497,1,0,0:0:0:0:
256,192,119840,1,0,0:0:0:0:
256,192,120183,1,8,0:0:0:0:
256,192,120355,1,0,0:0:0:0:
256,192,120526,1,0,0:0:0:0:
256,192,120697,1,8,0:0:0:0:
256,192,121212,1,0,0:0:0:0:
256,192,121555,1,8,0:0:0:0:
256,192,121726,1,8,0:0:0:0:
256,192,121897,1,8,0:0:0:0:
256,192,122069,1,8,0:0:0:0:
256,192,122240,1,0,0:0:0:0:
256,192,122583,1,0,0:0:0:0:
256,192,122926,1,8,0:0:0:0:
256,192,123097,1,0,0:0:0:0:
256,192,123440,1,8,0:0:0:0:
256,192,124126,1,0,0:0:0:0:
256,192,124297,1,0,0:0:0:0:
256,192,124469,1,0,0:0:0:0:
256,192,124640,1,8,0:0:0:0:
256,192,124983,1,0,0:0:0:0:
256,192,125326,1,0,0:0:0:0:
256,192,125669,1,8,0:0:0:0:
256,192,125840,1,0,0:0:0:0:
256,192,126012,1,0,0:0:0:0:
256,192,126183,1,8,0:0:0:0:
256,192,126697,1,0,0:0:0:0:
256,192,127040,1,8,0:0:0:0:
256,192,127212,1,0,0:0:0:0:
256,192,127383,1,0,0:0:0:0:
256,192,127726,1,0,0:0:0:0:
256,192,128069,1,0,0:0:0:0:
256,192,128412,1,8,0:0:0:0:
256,192,128583,1,0,0:0:0:0:
256,192,128926,1,8,0:0:0:0:
256,192,129612,1,0,0:0:0:0:
256,192,129783,1,0,0:0:0:0:
256,192,129955,1,0,0:0:0:0:
256,192,130126,1,8,0:0:0:0:
256,192,130469,1,0,0:0:0:0:
256,192,130812,1,0,0:0:0:0:
256,192,131155,1,8,0:0:0:0:
256,192,131326,1,0,0:0:0:0:
256,192,131497,1,0,0:0:0:0:
256,192,131669,1,8,0:0:0:0:
256,192,131840,1,12,0:0:0:0:
256,192,132526,1,8,0:0:0:0:
256,192,132612,1,8,0:0:0:0:
256,192,132697,1,8,0:0:0:0:
256,192,132869,1,0,0:0:0:0:
256,192,133040,1,0,0:0:0:0:
256,192,133212,1,12,0:0:0:0:
256,192,133383,1,0,0:0:0:0:
256,192,133555,1,8,0:0:0:0:
256,192,133726,1,0,0:0:0:0:
256,192,134069,1,0,0:0:0:0:
256,192,134240,1,8,0:0:0:0:
256,192,134755,1,0,0:0:0:0:
256,192,134926,1,8,0:0:0:0:
256,192,135097,1,0,0:0:0:0:
256,192,135440,1,0,0:0:0:0:
256,192,135612,1,8,0:0:0:0:
256,192,135783,1,0,0:0:0:0:
256,192,136126,1,0,0:0:0:0:
256,192,136297,1,8,0:0:0:0:
256,192,136812,1,0,0:0:0:0:
256,192,136983,1,8,0:0:0:0:
256,192,137155,1,0,0:0:0:0:
256,192,137497,1,0,0:0:0:0:
256,192,137669,1,8,0:0:0:0:
256,192,137840,1,0,0:0:0:0:
256,192,138183,1,0,0:0:0:0:
256,192,138355,1,8,0:0:0:0:
256,192,138869,1,0,0:0:0:0:
256,192,139040,1,8,0:0:0:0:
256,192,139212,1,0,0:0:0:0:
256,192,139555,1,0,0:0:0:0:
256,192,139726,1,8,0:0:0:0:
256,192,139897,1,0,0:0:0:0:
256,192,140240,1,0,0:0:0:0:
256,192,140412,1,8,0:0:0:0:
256,192,140583,1,0,0:0:0:0:
256,192,140755,1,8,0:0:0:0:
256,192,141097,1,8,0:0:0:0:
256,192,141269,1,0,0:0:0:0:
256,192,141612,1,0,0:0:0:0:
256,192,141783,1,8,0:0:0:0:
256,192,141955,1,0,0:0:0:0:
256,192,142297,1,0,0:0:0:0:
256,192,142469,1,8,0:0:0:0:
256,192,142983,1,0,0:0:0:0:
256,192,143155,1,8,0:0:0:0:
256,192,143326,1,0,0:0:0:0:
256,192,143497,1,8,0:0:0:0:
256,192,143583,1,8,0:0:0:0:
256,192,143669,1,8,0:0:0:0:
256,192,143840,1,8,0:0:0:0:
256,192,144012,1,0,0:0:0:0:
256,192,144183,1,12,0:0:0:0:
256,192,144526,1,8,0:0:0:0:
256,192,144697,1,0,0:0:0:0:
256,192,145040,1,0,0:0:0:0:
256,192,145212,1,8,0:0:0:0:
256,192,145726,1,0,0:0:0:0:
256,192,145897,1,8,0:0:0:0:
256,192,146069,1,0,0:0:0:0:
256,192,146412,1,0,0:0:0:0:
256,192,146583,1,8,0:0:0:0:
256,192,146755,1,0,0:0:0:0:
256,192,147097,1,0,0:0:0:0:
256,192,147269,1,8,0:0:0:0:
256,192,147783,1,0,0:0:0:0:
256,192,147955,1,8,0:0:0:0:
256,192,148126,1,0,0:0:0:0:
256,192,148469,1,0,0:0:0:0:
256,192,148640,1,8,0:0:0:0:
256,192,148812,1,0,0:0:0:0:
256,192,149155,1,0,0:0:0:0:
256,192,149326,1,8,0:0:0:0:
256,192,149840,1,0,0:0:0:0:
256,192,150012,1,8,0:0:0:0:
256,192,150183,1,0,0:0:0:0:
256,192,150526,1,0,0:0:0:0:
256,192,150697,1,8,0:0:0:0:
256,192,150869,1,0,0:0:0:0:
256,192,150955,1,0,0:0:0:0:
256,192,151040,1,0,0:0:0:0:
256,192,151212,1,0,0:0:0:0:
256,192,151383,1,8,0:0:0:0:
256,192,151726,1,0,0:0:0:0:
256,192,152069,1,8,0:0:0:0:
256,192,152240,1,0,0:0:0:0:
256,192,152412,1,0,0:0:0:0:
256,192,152497,1,0,0:0:0:0:
256,192,152583,1,0,0:0:0:0:
256,192,152755,1,8,0:0:0:0:
256,192,152926,1,0,0:0:0:0:
256,192,153097,1,8,0:0:0:0:
256,192,153440,1,8,0:0:0:0:
256,192,153612,1,0,0:0:0:0:
256,192,153783,1,8,0:0:0:0:
256,192,153955,1,0,0:0:0:0:
256,192,154297,1,0,0:0:0:0:
256,192,154640,1,0,0:0:0:0:
256,192,154983,1,0,0:0:0:0:
256,192,155155,1,12,0:0:0:0:
256,192,157897,1,0,0:0:0:0:
256,192,160640,1,0,0:0:0:0:
256,192,162012,1,0,0:0:0:0:
256,192,163383,1,0,0:0:0:0:
256,192,166126,1,0,0:0:0:0:
256,192,166469,1,0,0:0:0:0:
256,192,166812,1,8,0:0:0:0:
256,192,166983,1,0,0:0:0:0:
256,192,167326,1,8,0:0:0:0:
256,192,168012,1,0,0:0:0:0:
256,192,168183,1,0,0:0:0:0:
256,192,168355,1,0,0:0:0:0:
256,192,168526,1,8,0:0:0:0:
256,192,168869,1,0,0:0:0:0:
256,192,169212,1,0,0:0:0:0:
256,192,169555,1,8,0:0:0:0:
256,192,169726,1,0,0:0:0:0:
256,192,169897,1,0,0:0:0:0:
256,192,170069,1,8,0:0:0:0:
256,192,170583,1,0,0:0:0:0:
256,192,170926,1,8,0:0:0:0:
256,192,171097,1,0,0:0:0:0:
256,192,171269,1,0,0:0:0:0:
256,192,171612,1,0,0:0:0:0:
256,192,171955,1,0,0:0:0:0:
256,192,172297,1,8,0:0:0:0:
256,192,172640,1,0,0:0:0:0:
256,192,172812,1,8,0:0:0:0:
256,192,172983,1,0,0:0:0:0:
256,192,173326,1,0,0:0:0:0:
256,192,173497,1,0,0:0:0:0:
256,192,173669,1,0,0:0:0:0:
256,192,174012,1,8,0:0:0:0:
256,192,174355,1,0,0:0:0:0:
256,192,174440,1,0,0:0:0:0:
256,192,174526,1,0,0:0:0:0:
256,192,174697,1,8,0:0:0:0:
256,192,174869,1,0,0:0:0:0:
256,192,175040,1,8,0:0:0:0:
256,192,175126,1,8,0:0:0:0:
256,192,175212,1,8,0:0:0:0:
256,192,175383,1,0,0:0:0:0:
256,192,175555,1,8,0:0:0:0:
256,192,175726,1,4,0:0:0:0:
256,192,176412,1,12,0:0:0:0:
256,192,176755,1,4,0:0:0:0:
256,192,177097,1,12,0:0:0:0:
256,192,177269,1,0,0:0:0:0:
256,192,177440,1,8,0:0:0:0:
256,192,177612,1,8,0:0:0:0:
256,192,177783,1,0,0:0:0:0:
256,192,178126,1,0,0:0:0:0:
256,192,178297,1,0,0:0:0:0:
256,192,178383,1,8,0:0:0:0:
256,192,178640,1,0,0:0:0:0:
256,192,178812,1,8,0:0:0:0:
256,192,178983,1,0,0:0:0:0:
256,192,179155,1,8,0:0:0:0:
256,192,179497,1,0,0:0:0:0:
256,192,179669,1,0,0:0:0:0:
256,192,179840,1,8,0:0:0:0:
256,192,180355,1,0,0:0:0:0:
256,192,180526,1,8,0:0:0:0:
256,192,180697,1,8,0:0:0:0:
256,192,180869,1,0,0:0:0:0:
256,192,181040,1,0,0:0:0:0:
256,192,181126,1,8,0:0:0:0:
256,192,181383,1,0,0:0:0:0:
256,192,181555,1,8,0:0:0:0:
256,192,181726,1,0,0:0:0:0:
256,192,181897,1,0,0:0:0:0:
256,192,182069,1,8,0:0:0:0:
256,192,182412,1,8,0:0:0:0:
256,192,182583,1,0,0:0:0:0:
256,192,182926,1,8,0:0:0:0:
256,192,183097,1,0,0:0:0:0:
256,192,183269,1,8,0:0:0:0:
256,192,183440,1,8,0:0:0:0:
256,192,183612,1,0,0:0:0:0:
256,192,183783,1,0,0:0:0:0:
256,192,183869,1,8,0:0:0:0:
256,192,184126,1,0,0:0:0:0:
256,192,184297,1,8,0:0:0:0:
256,192,184469,1,0,0:0:0:0:
256,192,184640,1,8,0:0:0:0:
256,192,184812,1,8,0:0:0:0:
256,192,184983,1,0,0:0:0:0:
256,192,185155,1,8,0:0:0:0:
256,192,185326,1,0,0:0:0:0:
256,192,185669,1,8,0:0:0:0:
256,192,185840,1,0,0:0:0:0:
256,192,186012,1,0,0:0:0:0:
256,192,186355,1,0,0:0:0:0:
256,192,186526,1,0,0:0:0:0:
256,192,186697,1,12,0:0:0:0:
256,192,187383,1,8,0:0:0:0:
256,192,187469,1,8,0:0:0:0:
256,192,187555,1,8,0:0:0:0:
256,192,187726,1,0,0:0:0:0:
256,192,187897,1,0,0:0:0:0:
256,192,188069,1,12,0:0:0:0:
256,192,188240,1,0,0:0:0:0:
256,192,188412,1,0,0:0:0:0:
256,192,188583,1,8,0:0:0:0:
256,192,188755,1,0,0:0:0:0:
256,192,189097,1,0,0:0:0:0:
256,192,189269,1,0,0:0:0:0:
256,192,189355,1,8,0:0:0:0:
256,192,189612,1,0,0:0:0:0:
256,192,189783,1,8,0:0:0:0:
256,192,189955,1,0,0:0:0:0:
256,192,190126,1,8,0:0:0:0:
256,192,190640,1,8,0:0:0:0:
256,192,190812,1,0,0:0:0:0:
256,192,191155,1,8,0:0:0:0:
256,192,191326,1,8,0:0:0:0:
256,192,191497,1,0,0:0:0:0:
256,192,191840,1,0,0:0:0:0:
256,192,192012,1,0,0:0:0:0:
256,192,192097,1,8,0:0:0:0:
256,192,192355,1,0,0:0:0:0:
256,192,192526,1,8,0:0:0:0:
256,192,192697,1,8,0:0:0:0:
256,192,192869,1,0,0:0:0:0:
256,192,193040,1,0,0:0:0:0:
256,192,193212,1,8,0:0:0:0:
256,192,193555,1,0,0:0:0:0:
256,192,193726,1,0,0:0:0:0:
256,192,193897,1,8,0:0:0:0:
256,192,194069,1,0,0:0:0:0:
256,192,194155,1,0,0:0:0:0:
256,192,194240,1,0,0:0:0:0:
256,192,194412,1,0,0:0:0:0:
256,192,194583,1,8,0:0:0:0:
256,192,194755,1,0,0:0:0:0:
256,192,194840,1,8,0:0:0:0:
256,192,195097,1,0,0:0:0:0:
256,192,195269,1,8,0:0:0:0:
256,192,195612,1,0,0:0:0:0:
256,192,196126,1,8,0:0:0:0:
256,192,196297,1,0,0:0:0:0:
256,192,196469,1,0,0:0:0:0:
256,192,196640,1,8,0:0:0:0:
256,192,196812,1,0,0:0:0:0:
256,192,196983,1,8,0:0:0:0:
256,192,197155,1,8,0:0:0:0:
256,192,197240,1,8,0:0:0:0:
256,192,197326,1,8,0:0:0:0:
256,192,197497,1,0,0:0:0:0:
256,192,197669,1,12,0:0:0:0:
256,192,198012,1,12,0:0:0:0:
256,192,198355,1,12,0:0:0:0:
256,192,198612,1,4,0:0:0:0:
256,192,198869,1,4,0:0:0:0:
256,192,199040,1,12,0:0:0:0:
256,192,199555,1,0,0:0:0:0:
256,192,199726,1,8,0:0:0:0:
256,192,200069,1,8,0:0:0:0:
256,192,200240,1,0,0:0:0:0:
256,192,200326,1,8,0:0:0:0:
256,192,200583,1,0,0:0:0:0:
256,192,200755,1,8,0:0:0:0:
256,192,200926,1,8,0:0:0:0:
256,192,201097,1,0,0:0:0:0:
256,192,201440,1,8,0:0:0:0:
256,192,201612,1,8,0:0:0:0:
256,192,201783,1,0,0:0:0:0:
256,192,202126,1,0,0:0:0:0:
256,192,202297,1,8,0:0:0:0:
256,192,202469,1,0,0:0:0:0:
256,192,202640,1,0,0:0:0:0:
256,192,202812,1,8,0:0:0:0:
256,192,202983,1,0,0:0:0:0:
256,192,203069,1,8,0:0:0:0:
256,192,203326,1,8,0:0:0:0:
256,192,203669,1,8,0:0:0:0:
256,192,203840,1,0,0:0:0:0:
256,192,204012,1,8,0:0:0:0:
256,192,204355,1,8,0:0:0:0:
256,192,204526,1,0,0:0:0:0:
256,192,204697,1,0,0:0:0:0:
256,192,204869,1,8,0:0:0:0:
256,192,205040,1,0,0:0:0:0:
256,192,205212,1,8,0:0:0:0:
256,192,205555,1,8,0:0:0:0:
256,192,205726,1,0,0:0:0:0:
256,192,205812,1,8,0:0:0:0:
256,192,206069,1,0,0:0:0:0:
256,192,206240,1,8,0:0:0:0:
256,192,206583,1,8,0:0:0:0:
256,192,206755,1,0,0:0:0:0:
256,192,206926,1,8,0:0:0:0:
256,192,207012,1,8,0:0:0:0:
256,192,207097,1,8,0:0:0:0:
256,192,207269,1,0,0:0:0:0:
256,192,207783,1,0,0:0:0:0:
256,192,207955,1,8,0:0:0:0:
256,192,208126,1,8,0:0:0:0:
256,192,208297,1,0,0:0:0:0:
256,192,208469,1,0,0:0:0:0:
256,192,208555,1,8,0:0:0:0:
256,192,208812,1,0,0:0:0:0:
256,192,208983,1,8,0:0:0:0:
256,192,209155,1,0,0:0:0:0:
256,192,209326,1,8,0:0:0:0:
256,192,209669,1,8,0:0:0:0:
256,192,209840,1,8,0:0:0:0:
256,192,210012,1,0,0:0:0:0:
256,192,210355,1,8,0:0:0:0:
256,192,210697,1,0,0:0:0:0:
256,192,210869,1,0,0:0:0:0:
256,192,211040,1,8,0:0:0:0:
256,192,211212,1,0,0:0:0:0:
256,192,211297,1,8,0:0:0:0:
256,192,211555,1,0,0:0:0:0:
256,192,211726,1,8,0:0:0:0:
256,192,212069,1,0,0:0:0:0:
256,192,212240,1,8,0:0:0:0:
256,192,212412,1,8,0:0:0:0:
256,192,212583,1,0,0:0:0:0:
256,192,212755,1,0,0:0:0:0:
256,192,212840,1,0,0:0:0:0:
256,192,212926,1,0,0:0:0:0:
256,192,213097,1,8,0:0:0:0:
256,192,213269,1,0,0:0:0:0:
256,192,213440,1,8,0:0:0:0:
256,192,213783,1,8,0:0:0:0:
256,192,213955,1,0,0:0:0:0:
256,192,214040,1,8,0:0:0:0:
256,192,214297,1,0,0:0:0:0:
256,192,214469,1,8,0:0:0:0:
256,192,214640,1,0,0:0:0:0:
256,192,214812,1,8,0:0:0:0:
256,192,215155,1,8,0:0:0:0:
256,192,215497,1,0,0:0:0:0:
256,192,215669,1,8,0:0:0:0:
256,192,215840,1,0,0:0:0:0:
256,192,216012,1,8,0:0:0:0:
256,192,216183,1,0,0:0:0:0:
256,192,216869,1,0,0:0:0:0:
256,192,217040,1,0,0:0:0:0:
256,192,217212,1,8,0:0:0:0:
256,192,217383,1,0,0:0:0:0:
256,192,217555,1,8,0:0:0:0:
256,192,217726,1,0,0:0:0:0:
256,192,217897,1,8,0:0:0:0:
256,192,218069,1,8,0:0:0:0:
256,192,218240,1,0,0:0:0:0:
256,192,218583,1,8,0:0:0:0:
256,192,218755,1,0,0:0:0:0:
256,192,218926,1,8,0:0:0:0:
256,192,219012,1,8,0:0:0:0:
256,192,219097,1,8,0:0:0:0:
256,192,219269,1,0,0:0:0:0:
256,192,219355,1,8,0:0:0:0:
256,192,219612,1,12,0:0:0:0:
256,192,219783,1,0,0:0:0:0:
256,192,220126,1,0,0:0:0:0:
256,192,220469,1,0,0:0:0:0:
256,192,220640,1,0,0:0:0:0:
256,192,220726,1,0,0:0:0:0:
256,192,220812,1,0,0:0:0:0:
256,192,220983,1,12,0:0:0:0:
256,192,221155,1,0,0:0:0:0:
256,192,221497,1,0,0:0:0:0:
256,192,221840,1,8,0:0:0:0:
256,192,222012,1,0,0:0:0:0:
256,192,222183,1,8,0:0:0:0:
256,192,222269,1,8,0:0:0:0:
256,192,222355,1,8,0:0:0:0:
256,192,222526,1,0,0:0:0:0:
256,192,222697,1,8,0:0:0:0:
256,192,223040,1,0,0:0:0:0:
256,192,223297,1,8,0:0:0:0:
256,192,223383,1,0,0:0:0:0:
256,192,223555,1,8,0:0:0:0:
256,192,223726,1,0,0:0:0:0:
256,192,223812,1,0,0:0:0:0:
256,192,223897,1,0,0:0:0:0:
256,192,224069,1,8,0:0:0:0:
256,192,224240,1,0,0:0:0:0:
256,192,224412,1,8,0:0:0:0:
256,192,224926,1,8,0:0:0:0:
256,192,225097,1,0,0:0:0:0:
256,192,225183,1,0,0:0:0:0:
256,192,225269,1,0,0:0:0:0:
256,192,225440,1,8,0:0:0:0:
256,192,225612,1,0,0:0:0:0:
256,192,225783,1,8,0:0:0:0:
256,192,225869,1,8,0:0:0:0:
256,192,225955,1,8,0:0:0:0:
256,192,226126,1,0,0:0:0:0:
256,192,226297,1,8,0:0:0:0:
256,192,226469,1,0,0:0:0:0:
256,192,226812,1,8,0:0:0:0:
256,192,226983,1,0,0:0:0:0:
256,192,227326,1,0,0:0:0:0:
256,192,227497,1,8,0:0:0:0:
256,192,227840,1,0,0:0:0:0:
256,192,228012,1,0,0:0:0:0:
256,192,228183,1,8,0:0:0:0:
256,192,228269,1,8,0:0:0:0:
256,192,228355,1,8,0:0:0:0:
256,192,228526,1,0,0:0:0:0:
256,192,228783,1,8,0:0:0:0:
256,192,229040,1,8,0:0:0:0:
256,192,229212,1,0,0:0:0:0:
256,192,229555,1,8,0:0:0:0:
256,192,229640,1,8,0:0:0:0:
256,192,229726,1,8,0:0:0:0:
256,192,229897,1,0,0:0:0:0:
256,192,230155,1,8,0:0:0:0:
256,192,230412,1,8,0:0:0:0:
256,192,230583,1,0,0:0:0:0:
256,192,231269,1,0,0:0:0:0:
256,192,231440,1,8,0:0:0:0:
256,192,231783,1,8,0:0:0:0:
256,192,231955,1,4,0:0:0:0:
256,192,232126,1,8,0:0:0:0:
256,192,232469,1,8,0:0:0:0:
256,192,232555,1,8,0:0:0:0:
256,192,232640,1,8,0:0:0:0:
256,192,232812,1,0,0:0:0:0:
256,192,232983,1,8,0:0:0:0:
256,192,233240,1,8,0:0:0:0:
256,192,233326,1,0,0:0:0:0:
256,192,233669,1,8,0:0:0:0:
256,192,233840,1,0,0:0:0:0:
256,192,234012,1,0,0:0:0:0:
256,192,234097,1,0,0:0:0:0:
256,192,234183,1,0,0:0:0:0:
256,192,234355,1,8,0:0:0:0:
256,192,234697,1,12,0:0:0:0:
256,192,234869,1,0,0:0:0:0:
256,192,234955,1,0,0:0:0:0:
256,192,235040,1,0,0:0:0:0:
256,192,235212,1,0,0:0:0:0:
256,192,235383,1,8,0:0:0:0:
256,192,235469,1,8,0:0:0:0:
256,192,235555,1,8,0:0:0:0:
256,192,235726,1,8,0:0:0:0:
256,192,235897,1,0,0:0:0:0:
256,192,236069,1,0,0:0:0:0:
256,192,236183,1,0,0:0:0:0:
256,192,236297,1,0,0:0:0:0:
256,192,236412,1,8,0:0:0:0:
256,192,236755,1,0,0:0:0:0:
256,192,236869,1,0,0:0:0:0:
256,192,236983,1,0,0:0:0:0:
256,192,237097,1,8,0:0:0:0:
256,192,237440,1,4,0:0:0:0:
256,192,237955,1,0,0:0:0:0:
256,192,238126,1,8,0:0:0:0:
256,192,238297,1,0,0:0:0:0:
256,192,238469,1,8,0:0:0:0:
256,192,238640,1,8,0:0:0:0:
256,192,238812,1,4,0:0:0:0:
256,192,239155,1,8,0:0:0:0:
256,192,239326,1,0,0:0:0:0:
256,192,239497,1,8,0:0:0:0:
256,192,239669,1,8,0:0:0:0:
256,192,239840,1,0,0:0:0:0:
256,192,240012,1,8,0:0:0:0:
256,192,240183,1,4,0:0:0:0:
256,192,240526,1,8,0:0:0:0:
256,192,240697,1,0,0:0:0:0:
256,192,240869,1,8,0:0:0:0:
256,192,240955,1,8,0:0:0:0:
256,192,241040,1,8,0:0:0:0:
256,192,241212,1,8,0:0:0:0:
256,192,241383,1,0,0:0:0:0:
256,192,241555,1,12,0:0:0:0:
256,192,241726,1,0,0:0:0:0:
256,192,242069,1,0,0:0:0:0:
256,192,242412,1,0,0:0:0:0:
256,192,242755,1,0,0:0:0:0:
256,192,242926,1,12,0:0:0:0:
256,192,243440,1,8,0:0:0:0:
256,192,243612,1,0,0:0:0:0:
256,192,243955,1,8,0:0:0:0:
256,192,244126,1,0,0:0:0:0:
256,192,244212,1,8,0:0:0:0:
256,192,244469,1,0,0:0:0:0:
256,192,244640,1,8,0:0:0:0:
256,192,244983,1,8,0:0:0:0:
256,192,245155,1,0,0:0:0:0:
256,192,245326,1,8,0:0:0:0:
256,192,245497,1,8,0:0:0:0:
256,192,245669,1,0,0:0:0:0:
256,192,246012,1,8,0:0:0:0:
256,192,246183,1,0,0:0:0:0:
256,192,246355,1,8,0:0:0:0:
256,192,246697,1,0,0:0:0:0:
256,192,246869,1,0,0:0:0:0:
256,192,246955,1,8,0:0:0:0:
256,192,247212,1,0,0:0:0:0:
256,192,247383,1,8,0:0:0:0:
256,192,247555,1,0,0:0:0:0:
256,192,247726,1,8,0:0:0:0:
256,192,247897,1,0,0:0:0:0:
256,192,248069,1,8,0:0:0:0:
256,192,248240,1,8,0:0:0:0:
256,192,248412,1,0,0:0:0:0:
256,192,248926,1,8,0:0:0:0:
256,192,249097,1,0,0:0:0:0:
256,192,249440,1,8,0:0:0:0:
256,192,249612,1,0,0:0:0:0:
256,192,249697,1,8,0:0:0:0:
256,192,249955,1,0,0:0:0:0:
256,192,250126,1,8,0:0:0:0:
256,192,250469,1,8,0:0:0:0:
256,192,250640,1,0,0:0:0:0:
256,192,250812,1,8,0:0:0:0:
256,192,250983,1,0,0:0:0:0:
256,192,251155,1,0,0:0:0:0:
256,192,251497,1,8,0:0:0:0:
256,192,251669,1,0,0:0:0:0:
256,192,251840,1,0,0:0:0:0:
256,192,252183,1,8,0:0:0:0:
256,192,252355,1,0,0:0:0:0:
256,192,252526,1,0,0:0:0:0:
256,192,252697,1,8,0:0:0:0:
256,192,252869,1,0,0:0:0:0:
256,192,253212,1,8,0:0:0:0:
256,192,253555,1,0,0:0:0:0:
256,192,253897,1,12,0:0:0:0:
256,192,254069,1,0,0:0:0:0:
256,192,254240,1,8,0:0:0:0:
256,192,254583,1,0,0:0:0:0:
256,192,254755,1,8,0:0:0:0:
256,192,254926,1,8,0:0:0:0:
256,192,255097,1,0,0:0:0:0:
256,192,255269,1,0,0:0:0:0:
256,192,255612,1,8,0:0:0:0:
256,192,255783,1,0,0:0:0:0:
256,192,255955,1,0,0:0:0:0:
256,192,256126,1,8,0:0:0:0:
256,192,256297,1,8,0:0:0:0:
256,192,256469,1,0,0:0:0:0:
256,192,256640,1,0,0:0:0:0:
256,192,257326,1,0,0:0:0:0:
256,192,257497,1,8,0:0:0:0:
256,192,257669,1,8,0:0:0:0:
256,192,257840,1,8,0:0:0:0:
256,192,258012,1,0,0:0:0:0:
256,192,258355,1,8,0:0:0:0:
256,192,258526,1,8,0:0:0:0:
256,192,258697,1,0,0:0:0:0:
256,192,258869,1,0,0:0:0:0:
256,192,259040,1,8,0:0:0:0:
256,192,259383,1,0,0:0:0:0:
256,192,259897,1,0,0:0:0:0:
256,192,260069,1,8,0:0:0:0:
256,192,260240,1,0,0:0:0:0:
256,192,260412,1,8,0:0:0:0:
256,192,260755,1,0,0:0:0:0:
256,192,260926,1,8,0:0:0:0:
256,192,261097,1,8,0:0:0:0:
256,192,261269,1,0,0:0:0:0:
256,192,261440,1,8,0:0:0:0:
256,192,261783,1,8,0:0:0:0:
256,192,261955,1,0,0:0:0:0:
256,192,262126,1,0,0:0:0:0:
256,192,262469,1,8,0:0:0:0:
256,192,262640,1,0,0:0:0:0:
256,192,262726,1,0,0:0:0:0:
256,192,262812,1,0,0:0:0:0:
256,192,262983,1,8,0:0:0:0:
256,192,263155,1,0,0:0:0:0:
256,192,263326,1,8,0:0:0:0:
256,192,263497,2,0,L|320:192,14,35
256,192,264869,1,4,0:0:0:0:
