osu file format v14

[General]
AudioFilename: audio.mp3
AudioLeadIn: 0
PreviewTime: 81226
Countdown: 0
SampleSet: Normal
StackLeniency: 0.7
Mode: 1
LetterboxInBreaks: 0
WidescreenStoryboard: 0

[Editor]
Bookmarks: 2493,14801,25878,35724,50494,60340,70186,81263,100955,125570
DistanceSpacing: 0.1
BeatDivisor: 2
GridSize: 32
TimelineZoom: 0.8999989

[Metadata]
Title:TempeST
TitleUnicode:ΤεμπεΣΤ
Artist:Zekk
ArtistUnicode:Zekk
Creator:komasy
Version:yzrin's Kantan
Source:Lanota
Tags:J-Core Hardcore Instrumental Rhythm Electronic Video Game yuzu__rinrin
BeatmapID:2255970
BeatmapSetID:1078110

[Difficulty]
HPDrainRate:7
CircleSize:2
OverallDifficulty:3
ApproachRate:10
SliderMultiplier:1.4
SliderTickRate:1

[Events]
//Background and Video events
0,0,"bg.jpg",0,-25
//Break Periods
//Storyboard Layer 0 (Background)
//Storyboard Layer 1 (Fail)
//Storyboard Layer 2 (Pass)
//Storyboard Layer 3 (Foreground)
//Storyboard Layer 4 (Overlay)
//Storyboard Sound Samples

[TimingPoints]
2496,307.692307692308,4,1,0,60,1,0
5034,-100,4,1,0,50,0,0
13879,-100,4,1,0,60,0,0
14802,-100,4,1,0,70,0,0
23265,-100,4,1,0,40,0,0
23726,-100,4,1,0,50,0,0
24034,-100,4,1,0,60,0,0
24342,-100,4,1,0,70,0,0
24649,-100,4,1,0,60,0,0
25957,-100,4,1,0,40,0,0
35342,-100,4,1,0,50,0,0
35649,-100,4,1,0,60,0,0
35726,-100,4,1,0,60,0,1
39419,-100,4,1,0,60,0,0
39496,-100,4,1,0,50,0,0
40598,-100,4,1,0,60,0,0
60419,-100,4,1,0,50,0,0
68880,-100,4,1,0,60,0,0
78765,-100,4,1,0,40,0,0
79111,-100,4,1,0,50,0,0
79419,-100,4,1,0,60,0,0
79726,-100,4,1,0,70,0,0
80034,-100,4,1,0,60,0,0
81213,-100,4,1,0,80,0,0
81265,-100,4,1,0,80,0,1
89880,-100,4,1,0,80,0,0
91111,-100,4,1,0,80,0,1
100957,-100,4,1,0,80,0,0
101034,-100,4,1,0,70,0,0
103726,-100,4,1,0,80,0,1
110803,-100,4,1,0,80,0,0
110880,-100,4,1,0,70,0,0
116034,-100,4,1,0,80,0,1
120649,-100,4,1,0,80,0,0
121188,-100,4,1,0,30,0,0
121880,-111.111111111111,4,1,0,30,0,0
123111,-125,4,1,0,30,0,0
124342,-142.857142857143,4,1,0,30,0,0
125496,-25,4,1,0,5,0,0

[HitObjects]
256,192,2495,12,0,3726,0:0:0:0:
256,192,4957,5,4,0:0:0:0:
256,192,7419,1,8,0:0:0:0:
256,192,8649,1,8,0:0:0:0:
256,192,9265,1,8,0:0:0:0:
256,192,9880,1,4,0:0:0:0:
256,192,11111,1,8,0:0:0:0:
256,192,12342,1,8,0:0:0:0:
256,192,12957,1,8,0:0:0:0:
256,192,13572,1,0,0:0:0:0:
256,192,14803,1,4,0:0:0:0:
256,192,16034,1,0,0:0:0:0:
256,192,16649,1,0,0:0:0:0:
256,192,17265,1,4,0:0:0:0:
256,192,18342,1,4,0:0:0:0:
256,192,19111,1,0,0:0:0:0:
256,192,19726,1,4,0:0:0:0:
256,192,20342,1,8,0:0:0:0:
256,192,20957,1,8,0:0:0:0:
256,192,21265,1,8,0:0:0:0:
256,192,21572,1,8,0:0:0:0:
256,192,22188,2,8,L|352:192,6,70
256,192,23419,12,0,24649,0:0:0:0:
256,192,25880,5,0,0:0:0:0:
256,192,26496,1,0,0:0:0:0:
256,192,27111,5,0,0:0:0:0:
256,192,27726,1,8,0:0:0:0:
256,192,28342,1,0,0:0:0:0:
256,192,29572,1,0,0:0:0:0:
256,192,29880,1,8,0:0:0:0:
256,192,30188,1,0,0:0:0:0:
256,192,30803,1,0,0:0:0:0:
256,192,31419,1,0,0:0:0:0:
256,192,32034,1,0,0:0:0:0:
256,192,32649,1,0,0:0:0:0:
256,192,33265,1,0,0:0:0:0:
256,192,33572,1,0,0:0:0:0:
256,192,33880,1,0,0:0:0:0:
256,192,34496,1,4,0:0:0:0:
256,192,35726,1,0,0:0:0:0:
256,192,36188,1,0,0:0:0:0:
256,192,36957,1,8,0:0:0:0:
256,192,37419,1,8,0:0:0:0:
256,192,38188,1,0,0:0:0:0:
256,192,38649,1,0,0:0:0:0:
256,192,39419,1,4,0:0:0:0:
256,192,40649,1,4,0:0:0:0:
256,192,41880,1,0,0:0:0:0:
256,192,42496,1,8,0:0:0:0:
256,192,43111,1,0,0:0:0:0:
288,192,44342,1,8,0:0:0:0:
288,192,44649,1,8,0:0:0:0:
288,192,44957,1,8,0:0:0:0:
256,192,45572,1,0,0:0:0:0:
256,192,46803,1,0,0:0:0:0:
256,192,47419,1,8,0:0:0:0:
256,192,48034,1,0,0:0:0:0:
256,192,49265,1,4,0:0:0:0:
256,192,49880,1,4,0:0:0:0:
256,192,50496,1,4,0:0:0:0:
256,192,51726,1,0,0:0:0:0:
256,192,52342,1,8,0:0:0:0:
256,192,52957,1,0,0:0:0:0:
256,192,54188,1,8,0:0:0:0:
256,192,54496,1,8,0:0:0:0:
256,192,54803,1,8,0:0:0:0:
256,192,55419,1,4,0:0:0:0:
256,192,56034,1,0,0:0:0:0:
256,192,56649,1,12,0:0:0:0:
256,192,57265,1,8,0:0:0:0:
256,192,57880,1,4,0:0:0:0:
256,192,59111,1,4,0:0:0:0:
256,192,59572,1,4,0:0:0:0:
256,192,60342,1,0,0:0:0:0:
256,192,65265,1,4,0:0:0:0:
256,192,67726,12,0,68957,0:0:0:0:
256,192,70188,5,4,0:0:0:0:
256,192,71419,1,0,0:0:0:0:
256,192,72034,1,0,0:0:0:0:
256,192,72649,1,4,0:0:0:0:
256,192,73726,1,12,0:0:0:0:
256,192,74496,1,8,0:0:0:0:
256,192,75111,1,12,0:0:0:0:
256,192,75726,1,0,0:0:0:0:
256,192,76342,1,0,0:0:0:0:
256,192,76649,1,0,0:0:0:0:
256,192,76957,1,0,0:0:0:0:
256,192,77572,2,0,L|352:192,6,70
256,192,78803,12,0,80034,0:0:0:0:
256,192,81265,5,4,0:0:0:0:
256,192,81880,1,8,0:0:0:0:
256,192,82188,1,0,0:0:0:0:
256,192,82803,1,0,0:0:0:0:
256,192,83111,1,8,0:0:0:0:
256,192,83726,1,0,0:0:0:0:
256,192,84342,1,8,0:0:0:0:
256,192,84803,1,4,0:0:0:0:
256,192,86188,1,4,0:0:0:0:
256,192,86803,1,8,0:0:0:0:
256,192,87111,1,0,0:0:0:0:
256,192,87726,1,0,0:0:0:0:
256,192,88034,1,8,0:0:0:0:
256,192,88649,1,8,0:0:0:0:
256,192,89265,1,8,0:0:0:0:
256,192,89880,1,4,0:0:0:0:
256,192,91111,1,4,0:0:0:0:
256,192,91726,1,8,0:0:0:0:
256,192,92034,1,0,0:0:0:0:
256,192,92649,1,0,0:0:0:0:
256,192,92957,1,8,0:0:0:0:
256,192,93572,1,0,0:0:0:0:
256,192,94188,1,8,0:0:0:0:
256,192,94649,1,4,0:0:0:0:
256,192,96034,1,4,0:0:0:0:
256,192,96649,1,8,0:0:0:0:
256,192,96957,1,0,0:0:0:0:
256,192,97572,1,0,0:0:0:0:
256,192,97880,1,8,0:0:0:0:
256,192,98496,1,4,0:0:0:0:
256,192,99726,1,12,0:0:0:0:
256,192,100342,1,12,0:0:0:0:
256,192,100957,1,0,0:0:0:0:
256,192,102034,12,0,103111,0:0:0:0:
256,192,103726,5,4,0:0:0:0:
256,192,104496,1,12,0:0:0:0:
256,192,105880,1,4,0:0:0:0:
256,192,106496,1,8,0:0:0:0:
256,192,106803,1,0,0:0:0:0:
256,192,107419,1,0,0:0:0:0:
256,192,107726,1,8,0:0:0:0:
256,192,108342,1,8,0:0:0:0:
256,192,108957,1,8,0:0:0:0:
256,192,109572,1,4,0:0:0:0:
256,192,110803,1,0,0:0:0:0:
256,192,111880,1,4,0:0:0:0:
256,192,112649,1,4,0:0:0:0:
256,192,113265,1,4,0:0:0:0:
256,192,114342,1,4,0:0:0:0:
256,192,115111,1,0,0:0:0:0:
256,192,115419,1,8,0:0:0:0:
256,192,116034,1,4,0:0:0:0:
256,192,116957,1,8,0:0:0:0:
256,192,117265,1,8,0:0:0:0:
256,192,117572,1,8,0:0:0:0:
256,192,118188,1,0,0:0:0:0:
256,192,118496,1,0,0:0:0:0:
256,192,118803,1,8,0:0:0:0:
256,192,119111,1,8,0:0:0:0:
256,192,119419,1,4,0:0:0:0:
256,192,120034,1,4,0:0:0:0:
256,192,120649,1,8,0:0:0:0:
256,192,121111,12,4,125572,0:0:0:0:
