osu file format v14

[General]
AudioFilename: audio.mp3
AudioLeadIn: 0
PreviewTime: 81226
Countdown: 0
SampleSet: Normal
StackLeniency: 0.7
Mode: 1
LetterboxInBreaks: 0
WidescreenStoryboard: 0

[Editor]
Bookmarks: 2493,14801,25878,35724,50494,60340,70186,81263,100955,125570
DistanceSpacing: 5.5
BeatDivisor: 4
GridSize: 32
TimelineZoom: 2.899999

[Metadata]
Title:TempeST
TitleUnicode:ΤεμπεΣΤ
Artist:Zekk
ArtistUnicode:Zekk
Creator:komasy
Version:Muzukashii
Source:Lanota
Tags:J-Core Hardcore Instrumental Rhythm Electronic Video Game yuzu__rinrin
BeatmapID:2255967
BeatmapSetID:1078110

[Difficulty]
HPDrainRate:5.5
CircleSize:5
OverallDifficulty:5
ApproachRate:5.5
SliderMultiplier:1.4
SliderTickRate:1

[Events]
//Background and Video events
0,0,"bg.jpg",0,-25
//Break Periods
//Storyboard Layer 0 (Background)
//Storyboard Layer 1 (Fail)
//Storyboard Layer 2 (Pass)
//Storyboard Layer 3 (Foreground)
//Storyboard Layer 4 (Overlay)
//Storyboard Sound Samples

[TimingPoints]
2496,307.692307692308,4,1,0,60,1,0
5034,-100,4,1,0,50,0,0
14187,-100,4,1,0,60,0,0
14802,-100,4,1,0,70,0,0
23342,-100,4,1,0,40,0,0
23726,-100,4,1,0,50,0,0
24034,-100,4,1,0,60,0,0
24342,-100,4,1,0,70,0,0
24572,-100,4,1,0,50,0,0
25957,-100,4,1,0,40,0,0
35342,-100,4,1,0,50,0,0
35649,-100,4,1,0,60,0,0
35726,-100,4,1,0,60,0,1
39419,-100,4,1,0,60,0,0
39496,-100,4,1,0,50,0,0
40598,-100,4,1,0,60,0,0
60419,-100,4,1,0,50,0,0
68880,-100,4,1,0,60,0,0
78765,-100,4,1,0,40,0,0
79111,-100,4,1,0,50,0,0
79419,-100,4,1,0,60,0,0
79726,-100,4,1,0,70,0,0
79957,-100,4,1,0,60,0,0
81213,-100,4,1,0,80,0,0
81265,-100,4,1,0,80,0,1
89880,-100,4,1,0,80,0,0
91111,-100,4,1,0,80,0,1
100957,-100,4,1,0,80,0,0
101034,-100,4,1,0,70,0,0
103726,-100,4,1,0,80,0,1
110803,-100,4,1,0,80,0,0
110880,-100,4,1,0,70,0,0
116034,-100,4,1,0,80,0,1
120649,-100,4,1,0,80,0,0
121188,-83.3333333333333,4,1,0,30,0,0
121880,-111.111111111111,4,1,0,30,0,0
123111,-142.857142857143,4,1,0,30,0,0
124342,-200,4,1,0,30,0,0
125496,-25,4,1,0,5,0,0

[HitObjects]
160,96,2495,5,0,0:0:0:0:
352,96,2572,1,8,0:0:0:0:
352,96,2726,1,0,0:0:0:0:
160,96,2803,1,0,0:0:0:0:
352,96,2957,1,8,0:0:0:0:
15,303,3111,2,0,L|27:250,8,35
352,96,4649,1,8,0:0:0:0:
352,96,4803,1,8,0:0:0:0:
160,288,4957,1,4,0:0:0:0:
352,96,6188,1,8,0:0:0:0:
352,96,7419,1,8,0:0:0:0:
352,96,8034,1,8,0:0:0:0:
352,96,8188,1,8,0:0:0:0:
352,96,8496,1,8,0:0:0:0:
160,96,8649,1,0,0:0:0:0:
352,96,9111,1,8,0:0:0:0:
352,96,9419,1,8,0:0:0:0:
160,96,9572,1,0,0:0:0:0:
352,96,9726,1,8,0:0:0:0:
160,288,9880,5,4,0:0:0:0:
160,96,10342,1,0,0:0:0:0:
160,96,10649,1,0,0:0:0:0:
160,96,10803,1,0,0:0:0:0:
352,96,11111,1,8,0:0:0:0:
352,96,11572,1,8,0:0:0:0:
352,96,11880,1,8,0:0:0:0:
352,96,12034,1,8,0:0:0:0:
160,96,12342,1,0,0:0:0:0:
352,96,12649,1,8,0:0:0:0:
160,96,12957,1,0,0:0:0:0:
160,96,13111,1,0,0:0:0:0:
352,96,13265,1,8,0:0:0:0:
160,288,13572,1,4,0:0:0:0:
352,96,14188,1,8,0:0:0:0:
352,96,14342,1,8,0:0:0:0:
160,96,14496,1,0,0:0:0:0:
160,96,14572,1,0,0:0:0:0:
160,96,14649,1,0,0:0:0:0:
160,288,14803,5,4,0:0:0:0:
352,96,15111,1,8,0:0:0:0:
352,96,15726,1,8,0:0:0:0:
352,96,15880,1,8,0:0:0:0:
160,288,16034,1,4,0:0:0:0:
352,96,16342,1,8,0:0:0:0:
160,288,16649,1,4,0:0:0:0:
160,288,16880,1,4,0:0:0:0:
160,288,17111,1,4,0:0:0:0:
160,288,17265,1,4,0:0:0:0:
352,96,17572,1,8,0:0:0:0:
352,96,18188,1,8,0:0:0:0:
160,288,18342,1,4,0:0:0:0:
352,96,18649,1,8,0:0:0:0:
160,288,18803,1,4,0:0:0:0:
160,96,19111,1,0,0:0:0:0:
352,96,19265,1,8,0:0:0:0:
352,96,19342,1,8,0:0:0:0:
160,96,19419,1,8,0:0:0:0:
160,288,19726,1,4,0:0:0:0:
160,96,20034,1,0,0:0:0:0:
352,96,20188,1,8,0:0:0:0:
160,96,20342,1,0,0:0:0:0:
160,96,20649,1,0,0:0:0:0:
160,96,20957,1,0,0:0:0:0:
352,96,21111,1,8,0:0:0:0:
160,96,21265,1,0,0:0:0:0:
352,96,21419,1,8,0:0:0:0:
160,96,21572,1,0,0:0:0:0:
160,96,21649,1,0,0:0:0:0:
160,96,21726,1,0,0:0:0:0:
352,96,21880,1,8,0:0:0:0:
149,197,22188,2,0,L|184:195,14,35
256,192,23419,12,0,24496,0:0:0:0:
160,96,24649,5,0,0:0:0:0:
160,288,25265,1,4,0:0:0:0:
352,96,25572,1,8,0:0:0:0:
160,288,25880,5,4,0:0:0:0:
352,288,26188,1,12,0:0:0:0:
160,96,26496,1,0,0:0:0:0:
352,96,26649,1,8,0:0:0:0:
352,96,26957,1,8,0:0:0:0:
352,96,27265,1,8,0:0:0:0:
352,96,27572,1,8,0:0:0:0:
160,96,27726,1,0,0:0:0:0:
352,96,27880,1,8,0:0:0:0:
352,96,28188,1,8,0:0:0:0:
352,96,28496,1,8,0:0:0:0:
352,96,28803,1,8,0:0:0:0:
160,96,28957,1,0,0:0:0:0:
352,96,29111,1,8,0:0:0:0:
352,96,29419,1,8,0:0:0:0:
352,96,29726,1,8,0:0:0:0:
160,96,29880,1,0,0:0:0:0:
160,96,30188,1,0,0:0:0:0:
160,96,30265,1,0,0:0:0:0:
160,96,30419,1,0,0:0:0:0:
160,96,30649,1,0,0:0:0:0:
352,288,30803,1,12,0:0:0:0:
352,96,31111,1,8,0:0:0:0:
352,96,31188,1,8,0:0:0:0:
352,96,31265,1,8,0:0:0:0:
160,96,31419,1,0,0:0:0:0:
160,96,31572,1,0,0:0:0:0:
352,96,31726,1,8,0:0:0:0:
160,96,32034,1,0,0:0:0:0:
160,96,32188,1,0,0:0:0:0:
352,96,32342,1,8,0:0:0:0:
352,96,32419,1,8,0:0:0:0:
352,96,32496,1,8,0:0:0:0:
160,96,32649,1,0,0:0:0:0:
352,96,32957,1,8,0:0:0:0:
352,96,33111,1,8,0:0:0:0:
160,96,33265,1,0,0:0:0:0:
352,96,33572,1,8,0:0:0:0:
352,96,33649,1,8,0:0:0:0:
352,96,33726,1,8,0:0:0:0:
160,96,33880,1,0,0:0:0:0:
160,96,34034,1,0,0:0:0:0:
352,96,34188,1,8,0:0:0:0:
160,96,34496,1,0,0:0:0:0:
352,96,34803,1,8,0:0:0:0:
160,96,34957,1,0,0:0:0:0:
352,288,35419,1,12,0:0:0:0:
160,288,35726,5,4,0:0:0:0:
352,96,36034,1,8,0:0:0:0:
160,96,36188,1,0,0:0:0:0:
352,96,36342,1,8,0:0:0:0:
352,96,36419,1,8,0:0:0:0:
352,96,36496,1,8,0:0:0:0:
352,96,36649,1,8,0:0:0:0:
160,96,36957,1,0,0:0:0:0:
352,96,37111,1,8,0:0:0:0:
352,96,37188,1,8,0:0:0:0:
352,96,37265,1,8,0:0:0:0:
160,96,37419,1,0,0:0:0:0:
352,96,37572,1,8,0:0:0:0:
352,96,37880,1,8,0:0:0:0:
160,96,38188,1,0,0:0:0:0:
352,96,38496,1,8,0:0:0:0:
160,96,38649,1,0,0:0:0:0:
352,96,38803,1,8,0:0:0:0:
352,96,38880,1,8,0:0:0:0:
352,96,38957,1,8,0:0:0:0:
352,96,39111,1,8,0:0:0:0:
160,96,39419,1,0,0:0:0:0:
161,97,40188,1,0,0:0:0:0:
270,233,40265,1,0,0:0:0:0:
352,96,40342,1,8,0:0:0:0:
160,288,40649,1,4,0:0:0:0:
352,96,40957,1,8,0:0:0:0:
160,96,41419,1,0,0:0:0:0:
352,96,41572,1,8,0:0:0:0:
160,96,41880,1,0,0:0:0:0:
352,96,42188,1,8,0:0:0:0:
352,96,42419,1,8,0:0:0:0:
160,96,42649,1,0,0:0:0:0:
352,96,42803,1,8,0:0:0:0:
160,96,43111,1,0,0:0:0:0:
352,96,43419,1,8,0:0:0:0:
160,96,43649,1,0,0:0:0:0:
160,96,43880,1,0,0:0:0:0:
352,96,44034,1,8,0:0:0:0:
160,96,44342,1,0,0:0:0:0:
160,96,44496,1,0,0:0:0:0:
352,96,44649,1,8,0:0:0:0:
352,96,44957,1,8,0:0:0:0:
352,96,45034,1,8,0:0:0:0:
160,96,45111,1,0,0:0:0:0:
352,96,45265,1,8,0:0:0:0:
160,96,45572,1,0,0:0:0:0:
352,96,45880,1,8,0:0:0:0:
160,96,46342,1,0,0:0:0:0:
352,96,46496,1,8,0:0:0:0:
160,96,46803,1,0,0:0:0:0:
352,96,47111,1,8,0:0:0:0:
352,96,47342,1,8,0:0:0:0:
160,96,47572,1,0,0:0:0:0:
352,96,47726,1,8,0:0:0:0:
160,96,48034,1,0,0:0:0:0:
352,96,48342,1,8,0:0:0:0:
160,96,48572,1,0,0:0:0:0:
160,96,48803,1,0,0:0:0:0:
352,96,48957,1,8,0:0:0:0:
160,288,49265,1,4,0:0:0:0:
160,288,49496,1,4,0:0:0:0:
352,96,49726,1,8,0:0:0:0:
160,288,49880,1,4,0:0:0:0:
160,288,50496,1,4,0:0:0:0:
352,96,50803,1,8,0:0:0:0:
160,96,51034,1,0,0:0:0:0:
160,96,51265,1,0,0:0:0:0:
352,96,51419,1,8,0:0:0:0:
160,96,51726,1,0,0:0:0:0:
352,96,52034,1,8,0:0:0:0:
352,96,52188,1,8,0:0:0:0:
352,96,52265,1,8,0:0:0:0:
160,96,52496,1,0,0:0:0:0:
352,96,52649,1,8,0:0:0:0:
160,96,52957,1,0,0:0:0:0:
352,96,53265,1,8,0:0:0:0:
352,96,53496,1,0,0:0:0:0:
160,96,53726,1,0,0:0:0:0:
352,96,53880,1,8,0:0:0:0:
160,96,54188,1,0,0:0:0:0:
160,96,54342,1,0,0:0:0:0:
352,96,54496,1,8,0:0:0:0:
160,96,54726,1,8,0:0:0:0:
352,96,54803,1,8,0:0:0:0:
160,96,54957,1,0,0:0:0:0:
352,96,55111,1,8,0:0:0:0:
160,96,55419,1,0,0:0:0:0:
160,96,55649,1,0,0:0:0:0:
160,96,55880,1,0,0:0:0:0:
352,288,56034,1,12,0:0:0:0:
352,96,56496,1,8,0:0:0:0:
160,96,56649,1,0,0:0:0:0:
160,96,56880,1,0,0:0:0:0:
160,96,57111,1,0,0:0:0:0:
352,288,57265,1,12,0:0:0:0:
160,96,57880,1,0,0:0:0:0:
160,96,58034,1,0,0:0:0:0:
352,96,58188,1,8,0:0:0:0:
352,96,58419,1,0,0:0:0:0:
160,96,58496,1,0,0:0:0:0:
160,96,58649,1,0,0:0:0:0:
352,96,58803,1,8,0:0:0:0:
160,288,59111,1,4,0:0:0:0:
352,96,59419,1,8,0:0:0:0:
160,288,59572,1,4,0:0:0:0:
160,288,59880,1,4,0:0:0:0:
160,96,60188,1,0,0:0:0:0:
352,288,60342,5,12,0:0:0:0:
352,96,61419,1,8,0:0:0:0:
352,96,62188,1,8,0:0:0:0:
352,96,62496,1,8,0:0:0:0:
352,96,62803,1,8,0:0:0:0:
352,96,63726,1,8,0:0:0:0:
352,96,63880,1,8,0:0:0:0:
352,96,64034,1,8,0:0:0:0:
352,96,64649,1,8,0:0:0:0:
160,288,65265,1,4,0:0:0:0:
352,96,65880,1,8,0:0:0:0:
352,96,66034,1,8,0:0:0:0:
352,96,66342,1,8,0:0:0:0:
352,96,66803,1,8,0:0:0:0:
352,96,67111,1,8,0:0:0:0:
352,96,67419,1,8,0:0:0:0:
352,96,67726,1,8,0:0:0:0:
352,96,68188,1,8,0:0:0:0:
352,96,68496,1,8,0:0:0:0:
352,96,68649,1,8,0:0:0:0:
352,96,68803,1,8,0:0:0:0:
160,288,68957,1,4,0:0:0:0:
160,96,69419,1,0,0:0:0:0:
352,96,69572,1,8,0:0:0:0:
352,96,69726,1,8,0:0:0:0:
160,96,69880,1,0,0:0:0:0:
160,96,69957,1,0,0:0:0:0:
160,96,70034,1,0,0:0:0:0:
160,288,70188,1,4,0:0:0:0:
352,96,70496,1,8,0:0:0:0:
352,96,71111,1,8,0:0:0:0:
352,96,71265,1,8,0:0:0:0:
160,288,71419,1,4,0:0:0:0:
352,96,71726,1,8,0:0:0:0:
160,288,72034,1,4,0:0:0:0:
160,288,72265,1,4,0:0:0:0:
160,288,72496,1,4,0:0:0:0:
160,288,72649,1,4,0:0:0:0:
352,96,72957,1,8,0:0:0:0:
352,96,73572,1,8,0:0:0:0:
160,288,73726,1,4,0:0:0:0:
352,96,74034,1,8,0:0:0:0:
160,288,74188,1,4,0:0:0:0:
160,96,74496,1,0,0:0:0:0:
352,96,74649,1,8,0:0:0:0:
352,96,74726,1,8,0:0:0:0:
160,96,74803,1,8,0:0:0:0:
352,96,74957,1,8,0:0:0:0:
160,288,75111,1,4,0:0:0:0:
352,96,75419,1,8,0:0:0:0:
160,96,75726,1,0,0:0:0:0:
160,96,75957,1,0,0:0:0:0:
160,96,76034,1,0,0:0:0:0:
352,96,76188,1,8,0:0:0:0:
160,96,76342,1,0,0:0:0:0:
352,96,76496,1,8,0:0:0:0:
160,96,76649,1,0,0:0:0:0:
160,96,76957,1,0,0:0:0:0:
160,96,77188,1,0,0:0:0:0:
160,96,77265,1,0,0:0:0:0:
352,96,77419,1,8,0:0:0:0:
57,320,77572,2,0,L|19:270,14,35
256,192,78803,12,8,79880,0:0:0:0:
160,288,80034,5,4,0:0:0:0:
160,96,80649,1,0,0:0:0:0:
352,288,80957,1,12,0:0:0:0:
160,288,81265,5,4,0:0:0:0:
160,96,81572,1,8,0:0:0:0:
352,96,81726,1,8,0:0:0:0:
160,96,81880,1,0,0:0:0:0:
160,96,82188,1,0,0:0:0:0:
160,96,82342,1,0,0:0:0:0:
160,96,82649,1,0,0:0:0:0:
160,96,82803,1,0,0:0:0:0:
352,96,82957,1,8,0:0:0:0:
160,96,83111,1,0,0:0:0:0:
352,96,83342,1,0,0:0:0:0:
160,96,83726,1,0,0:0:0:0:
160,96,84034,1,0,0:0:0:0:
352,96,84188,1,8,0:0:0:0:
160,96,84342,1,0,0:0:0:0:
160,96,84649,1,0,0:0:0:0:
352,96,84803,1,8,0:0:0:0:
160,96,85111,1,0,0:0:0:0:
160,96,85188,1,0,0:0:0:0:
160,96,85265,1,0,0:0:0:0:
352,96,85419,1,8,0:0:0:0:
160,96,85572,1,0,0:0:0:0:
352,96,85880,1,8,0:0:0:0:
160,288,86188,1,4,0:0:0:0:
160,96,86496,1,8,0:0:0:0:
352,96,86649,1,8,0:0:0:0:
160,96,86803,1,0,0:0:0:0:
160,96,87111,1,0,0:0:0:0:
160,96,87265,1,0,0:0:0:0:
160,96,87572,1,0,0:0:0:0:
160,96,87726,1,0,0:0:0:0:
352,96,87880,1,8,0:0:0:0:
352,96,88034,1,0,0:0:0:0:
160,96,88265,1,0,0:0:0:0:
412,91,88496,1,0,0:0:0:0:
352,96,88649,1,8,0:0:0:0:
352,96,88957,1,8,0:0:0:0:
352,96,89111,1,8,0:0:0:0:
160,96,89265,1,0,0:0:0:0:
160,96,89572,1,8,0:0:0:0:
160,288,89880,1,4,0:0:0:0:
160,288,90111,1,4,0:0:0:0:
160,288,90342,1,4,0:0:0:0:
160,288,90496,1,4,0:0:0:0:
160,288,91111,5,4,0:0:0:0:
160,96,91419,1,8,0:0:0:0:
352,96,91572,1,8,0:0:0:0:
160,96,91726,1,0,0:0:0:0:
160,96,92034,1,0,0:0:0:0:
160,96,92188,1,0,0:0:0:0:
160,96,92496,1,0,0:0:0:0:
160,96,92649,1,0,0:0:0:0:
352,96,92803,1,8,0:0:0:0:
307,105,92957,1,0,0:0:0:0:
340,124,93188,1,0,0:0:0:0:
160,96,93572,1,0,0:0:0:0:
160,96,93880,1,0,0:0:0:0:
352,96,94034,1,8,0:0:0:0:
160,96,94188,1,0,0:0:0:0:
160,96,94496,1,0,0:0:0:0:
352,96,94649,1,8,0:0:0:0:
160,96,94957,1,0,0:0:0:0:
160,96,95034,1,0,0:0:0:0:
160,96,95111,1,0,0:0:0:0:
352,96,95265,1,8,0:0:0:0:
160,96,95419,1,0,0:0:0:0:
352,96,95726,1,8,0:0:0:0:
402,117,95880,1,8,0:0:0:0:
160,288,96034,5,4,0:0:0:0:
160,96,96342,1,8,0:0:0:0:
160,96,96649,1,0,0:0:0:0:
160,96,96957,1,0,0:0:0:0:
352,96,97111,1,8,0:0:0:0:
352,96,97419,1,8,0:0:0:0:
160,96,97572,1,0,0:0:0:0:
315,122,97726,1,8,0:0:0:0:
160,96,97880,1,0,0:0:0:0:
160,96,98111,1,0,0:0:0:0:
160,96,98496,1,0,0:0:0:0:
160,96,98803,1,0,0:0:0:0:
352,96,98957,1,8,0:0:0:0:
160,96,99111,1,0,0:0:0:0:
160,96,99342,1,0,0:0:0:0:
283,144,99419,1,0,0:0:0:0:
160,96,99572,1,0,0:0:0:0:
352,288,99726,1,12,0:0:0:0:
352,288,99957,1,12,0:0:0:0:
352,288,100188,1,12,0:0:0:0:
160,288,100342,1,4,0:0:0:0:
352,288,100649,1,12,0:0:0:0:
160,288,100957,1,4,0:0:0:0:
160,96,102034,1,0,0:0:0:0:
160,96,102342,1,0,0:0:0:0:
352,96,102496,1,8,0:0:0:0:
160,96,102649,1,0,0:0:0:0:
160,96,102803,1,0,0:0:0:0:
160,96,103034,1,0,0:0:0:0:
160,96,103265,1,0,0:0:0:0:
160,96,103342,1,0,0:0:0:0:
160,96,103419,1,0,0:0:0:0:
160,96,103572,1,0,0:0:0:0:
352,288,103726,1,12,0:0:0:0:
160,96,104034,1,0,0:0:0:0:
160,96,104342,1,0,0:0:0:0:
352,96,104496,1,8,0:0:0:0:
352,96,104803,1,8,0:0:0:0:
352,96,104880,1,8,0:0:0:0:
352,96,104957,1,8,0:0:0:0:
352,96,105111,1,8,0:0:0:0:
160,96,105265,1,0,0:0:0:0:
352,96,105572,1,8,0:0:0:0:
160,96,105880,1,4,0:0:0:0:
160,96,106188,1,8,0:0:0:0:
352,96,106342,1,8,0:0:0:0:
160,96,106496,1,0,0:0:0:0:
160,96,106803,1,0,0:0:0:0:
160,96,106957,1,0,0:0:0:0:
160,96,107265,1,0,0:0:0:0:
160,96,107419,1,0,0:0:0:0:
352,96,107572,1,8,0:0:0:0:
160,96,107726,1,0,0:0:0:0:
352,96,107803,1,0,0:0:0:0:
160,96,107957,1,0,0:0:0:0:
352,96,108342,1,8,0:0:0:0:
352,96,108649,1,8,0:0:0:0:
352,96,108803,1,8,0:0:0:0:
160,96,108957,1,0,0:0:0:0:
160,96,109265,1,8,0:0:0:0:
160,288,109572,1,4,0:0:0:0:
160,288,109803,1,4,0:0:0:0:
160,288,110034,1,4,0:0:0:0:
352,96,110188,1,8,0:0:0:0:
160,96,110342,1,0,0:0:0:0:
160,96,110419,1,0,0:0:0:0:
352,96,110496,1,8,0:0:0:0:
160,96,110803,1,4,0:0:0:0:
160,96,111726,1,0,0:0:0:0:
352,96,111880,1,8,0:0:0:0:
352,96,112188,1,8,0:0:0:0:
352,96,112342,1,8,0:0:0:0:
352,96,112649,1,8,0:0:0:0:
352,96,112880,1,8,0:0:0:0:
352,96,113111,1,8,0:0:0:0:
352,96,113265,1,8,0:0:0:0:
352,96,114034,1,8,0:0:0:0:
352,96,114111,1,8,0:0:0:0:
352,96,114188,1,8,0:0:0:0:
160,96,114342,1,0,0:0:0:0:
352,96,114649,1,8,0:0:0:0:
160,96,114803,1,0,0:0:0:0:
160,96,115111,1,0,0:0:0:0:
352,96,115265,1,8,0:0:0:0:
160,96,115419,1,0,0:0:0:0:
160,96,115572,1,0,0:0:0:0:
160,96,115649,1,0,0:0:0:0:
160,96,115726,1,0,0:0:0:0:
352,288,116034,1,12,0:0:0:0:
160,96,116342,1,0,0:0:0:0:
160,96,116649,1,8,0:0:0:0:
352,96,116803,1,8,0:0:0:0:
160,96,116957,1,0,0:0:0:0:
160,96,117265,1,0,0:0:0:0:
352,96,117419,1,8,0:0:0:0:
160,96,117572,1,0,0:0:0:0:
160,96,117880,1,8,0:0:0:0:
352,96,118034,1,0,0:0:0:0:
160,96,118188,1,8,0:0:0:0:
160,96,118265,1,8,0:0:0:0:
160,96,118342,1,8,0:0:0:0:
352,96,118496,1,0,0:0:0:0:
160,96,118649,1,8,0:0:0:0:
352,96,118803,1,0,0:0:0:0:
352,96,118880,1,0,0:0:0:0:
352,96,118957,1,0,0:0:0:0:
160,96,119111,1,8,0:0:0:0:
352,96,119265,1,8,0:0:0:0:
160,288,119419,1,4,0:0:0:0:
160,288,119649,1,4,0:0:0:0:
160,288,119880,1,4,0:0:0:0:
160,288,120034,1,4,0:0:0:0:
352,288,120342,1,12,0:0:0:0:
352,96,120649,1,8,0:0:0:0:
160,96,120957,1,0,0:0:0:0:
160,288,121111,1,4,0:0:0:0:
256,192,121265,12,0,125572,0:0:0:0:
