osu file format v14

[General]
AudioFilename: audio.mp3
AudioLeadIn: 0
PreviewTime: 75254
Countdown: 0
SampleSet: Normal
StackLeniency: 0.7
Mode: 1
LetterboxInBreaks: 0
WidescreenStoryboard: 0

[Editor]
Bookmarks: 30492,45730,60968,76682,107158,137158,167635
DistanceSpacing: 2
BeatDivisor: 16
GridSize: 16
TimelineZoom: 4.199998

[Metadata]
Title:Swampgator
TitleUnicode:Swampgator
Artist:Zekk
ArtistUnicode:Zekk
Creator:IControl
Version:Oni
Source:
Tags:megarex bass avengers 001 trekkie trax
BeatmapID:1415195
BeatmapSetID:669055

[Difficulty]
HPDrainRate:7
CircleSize:5
OverallDifficulty:6
ApproachRate:5
SliderMultiplier:1.4
SliderTickRate:1

[Events]
//Background and Video events
0,0,"cropped-1366-768-737018.jpg",0,0
//Break Periods
//Storyboard Layer 0 (Background)
//Storyboard Layer 1 (Fail)
//Storyboard Layer 2 (Pass)
//Storyboard Layer 3 (Foreground)
//Storyboard Sound Samples

[TimingPoints]
16,476.190476190476,4,1,0,50,1,0
75,-62.5,4,1,0,50,0,0
373,-100,4,1,0,50,0,0
7694,-62.5,4,1,0,50,0,0
7992,-100,4,1,0,50,0,0
75254,-98.0392156862745,4,1,0,50,0,0
75730,-96.1538461538461,4,1,0,50,0,0
76206,-94.3396226415094,4,1,0,50,0,0
76682,-90.9090909090909,4,1,0,50,0,1
83825,-100,4,1,0,50,0,1
84301,-90.9090909090909,4,1,0,50,0,1
89539,-89.2857142857143,4,1,0,50,0,1
90015,-87.719298245614,4,1,0,50,0,1
90492,-100,4,1,0,50,0,0
92396,-92.5925925925926,4,1,0,50,0,0
92635,-90.9090909090909,4,1,0,50,0,1
99063,-100,4,1,0,50,0,1
102396,-98.0392156862745,4,1,0,50,0,1
102635,-96.1538461538461,4,1,0,50,0,1
102754,-94.3396226415094,4,1,0,50,0,1
102873,-90.9090909090909,4,1,0,50,0,1
104777,-89.2857142857143,4,1,0,50,0,1
105254,-87.719298245614,4,1,0,50,0,1
105730,-100,4,1,0,50,0,0
107158,-90.9090909090909,4,1,0,50,0,1
114301,-100,4,1,0,50,0,1
114777,-90.9090909090909,4,1,0,50,0,1
120968,-92.5925925925926,4,1,0,50,0,1
121206,-96.1538461538461,4,1,0,50,0,1
121444,-98.0392156862745,4,1,0,50,0,1
121682,-100,4,1,0,50,0,1
122396,-90.9090909090909,4,1,0,50,0,1
129539,-62.5,4,1,0,50,0,1
130015,-90.9090909090909,4,1,0,50,0,1
136682,-92.5925925925926,4,1,0,50,0,1
136920,-96.1538461538461,4,1,0,50,0,1
137039,-98.0392156862745,4,1,0,50,0,1
137158,-100,4,1,0,50,0,0
152396,-98.0392156862745,4,1,0,50,0,0
154063,-96.1538461538461,4,1,0,50,0,0
155730,-94.3396226415094,4,1,0,50,0,0
159063,-92.5925925925926,4,1,0,50,0,0
163825,-90.9090909090909,4,1,0,50,0,0
167396,-90.9090909090909,4,1,0,50,0,1
168111,-100,4,1,0,50,0,0
168587,-102.040816326531,4,1,0,50,0,0
169539,-104.166666666667,4,1,0,50,0,0
170968,-102.040816326531,4,1,0,50,0,0
171444,-90.9090909090909,4,1,0,50,0,1
175254,-100,4,1,0,50,0,1
175730,-90.9090909090909,4,1,0,50,0,1
183349,-111.111111111111,4,1,0,50,0,0
186682,-90.9090909090909,4,1,0,50,0,1
198587,-83.3333333333333,4,1,0,50,0,1
201682,-84.7457627118644,4,1,0,50,0,1
201920,-87.719298245614,4,1,0,50,0,1
202158,-90.9090909090909,4,1,0,50,0,1
205729,-100,4,1,0,50,0,1
206206,-90.9090909090909,4,1,0,50,0,1
220968,-62.5,4,1,0,50,0,1
221444,-90.9090909090909,4,1,0,50,0,1
228111,-92.5925925925926,4,1,0,50,0,1
228349,-96.1538461538461,4,1,0,50,0,1
228468,-98.0392156862745,4,1,0,50,0,1
228587,-100,4,1,0,50,0,0

[HitObjects]
256,192,16,5,0,0:0:0:0:
256,192,373,12,0,968,0:0:0:0:
256,192,1206,5,0,0:0:0:0:
256,192,1444,1,8,0:0:0:0:
256,192,1682,1,8,0:0:0:0:
256,192,1801,1,0,0:0:0:0:
256,192,1920,1,0,0:0:0:0:
256,192,2158,1,0,0:0:0:0:
256,192,2277,1,8,0:0:0:0:
256,192,2635,1,8,0:0:0:0:
256,192,3111,1,0,0:0:0:0:
256,192,3349,1,8,0:0:0:0:
256,192,3587,1,8,0:0:0:0:
256,192,3706,1,0,0:0:0:0:
256,192,3825,1,0,0:0:0:0:
256,192,4063,1,0,0:0:0:0:
256,192,4182,1,8,0:0:0:0:
256,192,4539,1,8,0:0:0:0:
256,192,5015,1,0,0:0:0:0:
256,192,5254,1,8,0:0:0:0:
256,192,5492,1,8,0:0:0:0:
256,192,5611,1,0,0:0:0:0:
256,192,5730,1,0,0:0:0:0:
256,192,5968,1,0,0:0:0:0:
256,192,6087,1,8,0:0:0:0:
256,192,6444,1,8,0:0:0:0:
256,192,6920,1,0,0:0:0:0:
256,192,7158,1,8,0:0:0:0:
256,192,7396,1,0,0:0:0:0:
256,192,7635,1,0,0:0:0:0:
256,192,7992,12,0,8587,0:0:0:0:
256,192,8825,5,0,0:0:0:0:
256,192,9063,1,8,0:0:0:0:
256,192,9301,1,8,0:0:0:0:
256,192,9420,1,0,0:0:0:0:
256,192,9539,1,0,0:0:0:0:
256,192,9777,1,0,0:0:0:0:
256,192,9896,1,8,0:0:0:0:
256,192,10254,1,8,0:0:0:0:
256,192,10730,1,0,0:0:0:0:
256,192,10968,1,8,0:0:0:0:
256,192,11206,1,8,0:0:0:0:
256,192,11325,1,0,0:0:0:0:
256,192,11444,1,0,0:0:0:0:
256,192,11682,1,0,0:0:0:0:
256,192,11801,1,8,0:0:0:0:
256,192,12158,1,8,0:0:0:0:
256,192,12635,1,0,0:0:0:0:
256,192,12873,1,8,0:0:0:0:
256,192,13111,1,8,0:0:0:0:
256,192,13230,1,0,0:0:0:0:
256,192,13349,1,0,0:0:0:0:
256,192,13587,12,0,14063,0:0:0:0:
256,192,14301,5,8,0:0:0:0:
256,192,14539,1,0,0:0:0:0:
256,192,14658,1,0,0:0:0:0:
256,192,14777,1,8,0:0:0:0:
256,192,14857,1,8,0:0:0:0:
256,192,14936,1,0,0:0:0:0:
256,192,15015,1,0,0:0:0:0:
256,192,15254,1,4,0:0:0:0:
256,192,15492,1,8,0:0:0:0:
256,192,15611,1,0,0:0:0:0:
256,192,15730,1,8,0:0:0:0:
256,192,15849,1,0,0:0:0:0:
256,192,15968,1,8,0:0:0:0:
256,192,16087,1,0,0:0:0:0:
256,192,16206,1,8,0:0:0:0:
256,192,16325,1,8,0:0:0:0:
256,192,16444,1,0,0:0:0:0:
256,192,16563,1,0,0:0:0:0:
256,192,16682,1,8,0:0:0:0:
256,192,16801,1,0,0:0:0:0:
256,192,16920,1,8,0:0:0:0:
256,192,17039,1,8,0:0:0:0:
256,192,17158,1,0,0:0:0:0:
256,192,17277,1,0,0:0:0:0:
256,192,17396,1,8,0:0:0:0:
256,192,17515,1,0,0:0:0:0:
256,192,17635,1,8,0:0:0:0:
256,192,17754,1,0,0:0:0:0:
256,192,17873,1,8,0:0:0:0:
256,192,17992,1,0,0:0:0:0:
256,192,18111,1,0,0:0:0:0:
256,192,18230,1,0,0:0:0:0:
256,192,18349,1,0,0:0:0:0:
256,192,18468,1,0,0:0:0:0:
256,192,18587,1,8,0:0:0:0:
256,192,18825,1,8,0:0:0:0:
256,192,18944,1,0,0:0:0:0:
256,192,19063,1,0,0:0:0:0:
256,192,19182,1,0,0:0:0:0:
256,192,19301,1,8,0:0:0:0:
256,192,19420,1,0,0:0:0:0:
256,192,19539,1,8,0:0:0:0:
256,192,19658,1,8,0:0:0:0:
256,192,19777,1,8,0:0:0:0:
256,192,19896,1,0,0:0:0:0:
256,192,20015,1,8,0:0:0:0:
256,192,20135,1,8,0:0:0:0:
256,192,20254,1,0,0:0:0:0:
256,192,20373,1,0,0:0:0:0:
256,192,20492,1,8,0:0:0:0:
256,192,20611,1,0,0:0:0:0:
256,192,20730,1,8,0:0:0:0:
256,192,20849,1,8,0:0:0:0:
256,192,20968,1,0,0:0:0:0:
256,192,21087,1,0,0:0:0:0:
256,192,21206,1,8,0:0:0:0:
256,192,21325,1,0,0:0:0:0:
256,192,21444,1,8,0:0:0:0:
256,192,21563,1,0,0:0:0:0:
256,192,21682,1,8,0:0:0:0:
256,192,21801,1,0,0:0:0:0:
256,192,21920,1,0,0:0:0:0:
256,192,22158,1,0,0:0:0:0:
256,192,22277,1,0,0:0:0:0:
256,192,22396,1,8,0:0:0:0:
256,192,22476,1,0,0:0:0:0:
256,192,22555,1,0,0:0:0:0:
256,192,22635,1,8,0:0:0:0:
256,192,22714,1,8,0:0:0:0:
256,192,22793,1,0,0:0:0:0:
256,192,22873,1,8,0:0:0:0:
256,192,23111,1,0,0:0:0:0:
256,192,23230,1,0,0:0:0:0:
256,192,23349,1,12,0:0:0:0:
256,192,23587,1,0,0:0:0:0:
256,192,23706,1,0,0:0:0:0:
256,192,23825,1,12,0:0:0:0:
256,192,24063,1,0,0:0:0:0:
256,192,24182,1,0,0:0:0:0:
256,192,24301,1,12,0:0:0:0:
256,192,24539,1,0,0:0:0:0:
256,192,24658,1,0,0:0:0:0:
256,192,24777,1,12,0:0:0:0:
256,192,25015,1,0,0:0:0:0:
256,192,25134,1,0,0:0:0:0:
256,192,25253,1,12,0:0:0:0:
256,192,25373,1,0,0:0:0:0:
256,192,25492,1,0,0:0:0:0:
256,192,25611,1,0,0:0:0:0:
256,192,25730,1,12,0:0:0:0:
256,192,25968,1,0,0:0:0:0:
256,192,26087,1,0,0:0:0:0:
256,192,26206,1,0,0:0:0:0:
256,192,26444,1,8,0:0:0:0:
256,192,26682,1,12,0:0:0:0:
256,192,26801,1,0,0:0:0:0:
256,192,26920,1,0,0:0:0:0:
256,192,27039,1,12,0:0:0:0:
256,192,27158,1,0,0:0:0:0:
256,192,27277,1,0,0:0:0:0:
256,192,27396,1,12,0:0:0:0:
256,192,27515,1,0,0:0:0:0:
256,192,27635,1,0,0:0:0:0:
256,192,27754,1,12,0:0:0:0:
256,192,27873,1,0,0:0:0:0:
256,192,27992,1,0,0:0:0:0:
256,192,28111,1,12,0:0:0:0:
256,192,28230,1,0,0:0:0:0:
256,192,28349,1,8,0:0:0:0:
256,192,28468,1,0,0:0:0:0:
256,192,28587,1,8,0:0:0:0:
256,192,28646,1,8,0:0:0:0:
256,192,28706,1,8,0:0:0:0:
256,192,28825,1,8,0:0:0:0:
256,192,28944,1,0,0:0:0:0:
256,192,29063,1,8,0:0:0:0:
256,192,29123,1,8,0:0:0:0:
256,192,29182,1,8,0:0:0:0:
256,192,29301,1,8,0:0:0:0:
256,192,29420,1,0,0:0:0:0:
256,192,29539,1,8,0:0:0:0:
256,192,29599,1,8,0:0:0:0:
256,192,29658,1,8,0:0:0:0:
256,192,29777,1,0,0:0:0:0:
256,192,30015,1,0,0:0:0:0:
256,192,30095,1,0,0:0:0:0:
256,192,30174,1,0,0:0:0:0:
256,192,30254,1,8,0:0:0:0:
256,192,30492,1,12,0:0:0:0:
256,192,30611,1,0,0:0:0:0:
256,192,30730,1,8,0:0:0:0:
256,192,30968,1,8,0:0:0:0:
256,192,31087,1,8,0:0:0:0:
256,192,31206,1,8,0:0:0:0:
256,192,31325,1,0,0:0:0:0:
256,192,31563,1,8,0:0:0:0:
256,192,31682,1,8,0:0:0:0:
256,192,31920,1,8,0:0:0:0:
256,192,32158,1,0,0:0:0:0:
256,192,32396,1,0,0:0:0:0:
256,192,32515,1,8,0:0:0:0:
256,192,32635,1,8,0:0:0:0:
256,192,32873,1,8,0:0:0:0:
256,192,33230,1,0,0:0:0:0:
256,192,33468,1,0,0:0:0:0:
256,192,33587,1,8,0:0:0:0:
256,192,33825,1,8,0:0:0:0:
256,192,34063,1,0,0:0:0:0:
256,192,34301,1,0,0:0:0:0:
256,192,34420,1,0,0:0:0:0:
256,192,34539,1,8,0:0:0:0:
256,192,34777,1,0,0:0:0:0:
256,192,34896,1,0,0:0:0:0:
256,192,35015,1,8,0:0:0:0:
256,192,35135,1,8,0:0:0:0:
256,192,35373,1,8,0:0:0:0:
256,192,35492,1,0,0:0:0:0:
256,192,35730,1,0,0:0:0:0:
256,192,35968,1,8,0:0:0:0:
256,192,36087,1,0,0:0:0:0:
256,192,36146,1,0,0:0:0:0:
256,192,36206,1,0,0:0:0:0:
256,192,36444,1,8,0:0:0:0:
256,192,36682,1,0,0:0:0:0:
256,192,36801,1,0,0:0:0:0:
256,192,36920,1,8,0:0:0:0:
256,192,37039,1,8,0:0:0:0:
256,192,37277,1,8,0:0:0:0:
256,192,37396,1,0,0:0:0:0:
256,192,37635,1,8,0:0:0:0:
256,192,37873,1,8,0:0:0:0:
256,192,38111,1,4,0:0:0:0:
256,192,38230,1,8,0:0:0:0:
256,192,38349,1,8,0:0:0:0:
256,192,38587,1,8,0:0:0:0:
256,192,38706,1,8,0:0:0:0:
256,192,38825,1,8,0:0:0:0:
256,192,38944,1,0,0:0:0:0:
256,192,39182,1,8,0:0:0:0:
256,192,39301,1,8,0:0:0:0:
256,192,39539,1,8,0:0:0:0:
256,192,39777,1,0,0:0:0:0:
256,192,40015,1,8,0:0:0:0:
256,192,40134,1,0,0:0:0:0:
256,192,40254,1,8,0:0:0:0:
256,192,40492,1,8,0:0:0:0:
256,192,40849,1,0,0:0:0:0:
256,192,41087,1,0,0:0:0:0:
256,192,41206,1,8,0:0:0:0:
256,192,41444,1,8,0:0:0:0:
256,192,41682,1,0,0:0:0:0:
256,192,41920,1,8,0:0:0:0:
256,192,42039,1,0,0:0:0:0:
256,192,42158,1,8,0:0:0:0:
256,192,42396,1,8,0:0:0:0:
256,192,42515,1,0,0:0:0:0:
256,192,42634,1,8,0:0:0:0:
256,192,42754,1,0,0:0:0:0:
256,192,42873,1,8,0:0:0:0:
256,192,42992,1,8,0:0:0:0:
256,192,43111,1,0,0:0:0:0:
256,192,43349,1,8,0:0:0:0:
256,192,43587,1,8,0:0:0:0:
256,192,43646,1,8,0:0:0:0:
256,192,43706,1,0,0:0:0:0:
256,192,43765,1,0,0:0:0:0:
256,192,43825,1,0,0:0:0:0:
256,192,44063,1,8,0:0:0:0:
256,192,44301,1,0,0:0:0:0:
256,192,44420,1,0,0:0:0:0:
256,192,44539,1,8,0:0:0:0:
256,192,44658,1,8,0:0:0:0:
256,192,44777,1,0,0:0:0:0:
256,192,44896,1,8,0:0:0:0:
256,192,45015,1,0,0:0:0:0:
256,192,45135,1,8,0:0:0:0:
256,192,45254,1,8,0:0:0:0:
256,192,45373,12,0,45492,0:0:0:0:
256,192,45730,5,0,0:0:0:0:
256,192,45849,1,0,0:0:0:0:
256,192,45968,1,8,0:0:0:0:
256,192,46087,1,0,0:0:0:0:
256,192,46206,1,8,0:0:0:0:
256,192,46325,1,8,0:0:0:0:
256,192,46385,1,8,0:0:0:0:
256,192,46444,1,0,0:0:0:0:
256,192,46504,1,0,0:0:0:0:
256,192,46563,1,0,0:0:0:0:
256,192,46682,1,8,0:0:0:0:
256,192,46801,1,0,0:0:0:0:
256,192,46920,1,8,0:0:0:0:
256,192,47039,1,0,0:0:0:0:
256,192,47158,1,8,0:0:0:0:
256,192,47277,1,0,0:0:0:0:
256,192,47396,1,8,0:0:0:0:
256,192,47476,1,8,0:0:0:0:
256,192,47555,1,8,0:0:0:0:
256,192,47635,1,0,0:0:0:0:
256,192,47754,1,8,0:0:0:0:
256,192,47873,1,0,0:0:0:0:
256,192,47992,1,0,0:0:0:0:
256,192,48111,1,8,0:0:0:0:
256,192,48230,1,8,0:0:0:0:
256,192,48349,1,8,0:0:0:0:
256,192,48408,1,8,0:0:0:0:
256,192,48468,1,0,0:0:0:0:
256,192,48587,1,0,0:0:0:0:
256,192,48706,1,8,0:0:0:0:
256,192,48825,1,8,0:0:0:0:
256,192,48944,1,0,0:0:0:0:
256,192,49063,1,8,0:0:0:0:
256,192,49182,1,0,0:0:0:0:
256,192,49301,1,8,0:0:0:0:
256,192,49381,1,8,0:0:0:0:
256,192,49460,1,8,0:0:0:0:
256,192,49539,1,0,0:0:0:0:
256,192,49658,1,0,0:0:0:0:
256,192,49777,1,8,0:0:0:0:
256,192,49896,1,0,0:0:0:0:
256,192,50015,1,8,0:0:0:0:
256,192,50135,1,0,0:0:0:0:
256,192,50254,1,8,0:0:0:0:
256,192,50313,1,8,0:0:0:0:
256,192,50373,1,0,0:0:0:0:
256,192,50492,1,0,0:0:0:0:
256,192,50611,1,8,0:0:0:0:
256,192,50730,1,0,0:0:0:0:
256,192,50849,1,0,0:0:0:0:
256,192,50968,1,8,0:0:0:0:
256,192,51087,1,0,0:0:0:0:
256,192,51206,1,8,0:0:0:0:
256,192,51285,1,8,0:0:0:0:
256,192,51365,1,8,0:0:0:0:
256,192,51444,1,0,0:0:0:0:
256,192,51563,1,8,0:0:0:0:
256,192,51682,1,0,0:0:0:0:
256,192,51801,1,0,0:0:0:0:
256,192,51920,1,8,0:0:0:0:
256,192,52039,1,8,0:0:0:0:
256,192,52158,1,0,0:0:0:0:
256,192,52277,1,0,0:0:0:0:
256,192,52396,1,0,0:0:0:0:
256,192,52515,1,8,0:0:0:0:
256,192,52635,1,8,0:0:0:0:
256,192,52754,1,0,0:0:0:0:
256,192,52873,1,8,0:0:0:0:
256,192,52992,1,0,0:0:0:0:
256,192,53111,1,8,0:0:0:0:
256,192,53190,1,8,0:0:0:0:
256,192,53269,1,8,0:0:0:0:
256,192,53349,5,0,0:0:0:0:
256,192,53468,1,0,0:0:0:0:
256,192,53587,1,8,0:0:0:0:
256,192,53706,1,0,0:0:0:0:
256,192,53825,1,8,0:0:0:0:
256,192,53944,1,8,0:0:0:0:
256,192,54004,1,8,0:0:0:0:
256,192,54063,1,0,0:0:0:0:
256,192,54123,1,0,0:0:0:0:
256,192,54182,1,0,0:0:0:0:
256,192,54301,1,8,0:0:0:0:
256,192,54420,1,0,0:0:0:0:
256,192,54539,1,8,0:0:0:0:
256,192,54658,1,0,0:0:0:0:
256,192,54777,1,8,0:0:0:0:
256,192,54896,1,0,0:0:0:0:
256,192,55015,1,8,0:0:0:0:
256,192,55095,1,8,0:0:0:0:
256,192,55174,1,8,0:0:0:0:
256,192,55254,1,0,0:0:0:0:
256,192,55373,1,8,0:0:0:0:
256,192,55492,1,0,0:0:0:0:
256,192,55611,1,0,0:0:0:0:
256,192,55730,1,8,0:0:0:0:
256,192,55849,1,8,0:0:0:0:
256,192,55968,1,8,0:0:0:0:
256,192,56027,1,8,0:0:0:0:
256,192,56087,1,0,0:0:0:0:
256,192,56206,1,0,0:0:0:0:
256,192,56325,1,8,0:0:0:0:
256,192,56444,1,8,0:0:0:0:
256,192,56563,1,0,0:0:0:0:
256,192,56682,1,8,0:0:0:0:
256,192,56801,1,0,0:0:0:0:
256,192,56920,1,8,0:0:0:0:
256,192,57000,1,8,0:0:0:0:
256,192,57079,1,8,0:0:0:0:
256,192,57158,1,0,0:0:0:0:
256,192,57277,1,0,0:0:0:0:
256,192,57396,1,8,0:0:0:0:
256,192,57515,1,0,0:0:0:0:
256,192,57634,1,8,0:0:0:0:
256,192,57754,1,0,0:0:0:0:
256,192,57873,1,8,0:0:0:0:
256,192,57932,1,8,0:0:0:0:
256,192,57992,1,0,0:0:0:0:
256,192,58111,1,0,0:0:0:0:
256,192,58230,1,8,0:0:0:0:
256,192,58349,1,0,0:0:0:0:
256,192,58468,1,0,0:0:0:0:
256,192,58587,1,8,0:0:0:0:
256,192,58706,1,0,0:0:0:0:
256,192,58825,1,8,0:0:0:0:
256,192,58904,1,8,0:0:0:0:
256,192,58984,1,8,0:0:0:0:
256,192,59063,12,0,59777,0:0:0:0:
256,192,60015,5,8,0:0:0:0:
256,192,60135,1,0,0:0:0:0:
256,192,60254,1,0,0:0:0:0:
256,192,60492,1,12,0:0:0:0:
256,192,60968,1,4,0:0:0:0:
256,192,61206,1,8,0:0:0:0:
256,192,61325,1,0,0:0:0:0:
256,192,61444,1,8,0:0:0:0:
256,192,61682,5,8,0:0:0:0:
256,192,61801,1,0,0:0:0:0:
256,192,61920,1,8,0:0:0:0:
256,192,62158,5,8,0:0:0:0:
256,192,62277,1,0,0:0:0:0:
256,192,62396,1,8,0:0:0:0:
256,192,62635,5,0,0:0:0:0:
256,192,62754,1,8,0:0:0:0:
256,192,62873,1,8,0:0:0:0:
256,192,63111,5,8,0:0:0:0:
256,192,63230,1,0,0:0:0:0:
256,192,63349,1,8,0:0:0:0:
256,192,63587,5,0,0:0:0:0:
256,192,63706,1,8,0:0:0:0:
256,192,63825,1,8,0:0:0:0:
256,192,64063,5,8,0:0:0:0:
256,192,64182,1,0,0:0:0:0:
256,192,64301,1,8,0:0:0:0:
256,192,64539,5,0,0:0:0:0:
256,192,64658,1,8,0:0:0:0:
256,192,64777,1,8,0:0:0:0:
256,192,65015,5,8,0:0:0:0:
256,192,65135,1,0,0:0:0:0:
256,192,65254,1,8,0:0:0:0:
256,192,65492,1,0,0:0:0:0:
256,192,65611,1,8,0:0:0:0:
256,192,65730,1,8,0:0:0:0:
256,192,65968,1,8,0:0:0:0:
256,192,66087,1,0,0:0:0:0:
256,192,66206,1,8,0:0:0:0:
256,192,66444,1,0,0:0:0:0:
256,192,66563,1,8,0:0:0:0:
256,192,66682,1,8,0:0:0:0:
256,192,66920,1,8,0:0:0:0:
256,192,67039,1,0,0:0:0:0:
256,192,67158,1,8,0:0:0:0:
256,192,67396,1,0,0:0:0:0:
256,192,67515,1,8,0:0:0:0:
256,192,67635,1,8,0:0:0:0:
256,192,67873,1,8,0:0:0:0:
256,192,67992,1,0,0:0:0:0:
256,192,68111,12,0,68349,0:0:0:0:
256,192,68587,5,8,0:0:0:0:
256,192,68646,1,0,0:0:0:0:
256,192,68706,1,0,0:0:0:0:
256,192,68825,1,8,0:0:0:0:
256,192,68944,1,0,0:0:0:0:
256,192,69063,5,8,0:0:0:0:
256,192,69123,1,0,0:0:0:0:
256,192,69182,1,0,0:0:0:0:
256,192,69301,1,8,0:0:0:0:
256,192,69420,1,0,0:0:0:0:
256,192,69539,5,8,0:0:0:0:
256,192,69599,1,0,0:0:0:0:
256,192,69658,1,0,0:0:0:0:
256,192,69777,1,8,0:0:0:0:
256,192,69896,1,0,0:0:0:0:
256,192,70015,5,8,0:0:0:0:
256,192,70075,1,0,0:0:0:0:
256,192,70135,1,0,0:0:0:0:
256,192,70253,1,8,0:0:0:0:
256,192,70373,1,0,0:0:0:0:
256,192,70492,5,8,0:0:0:0:
256,192,70551,1,0,0:0:0:0:
256,192,70611,1,0,0:0:0:0:
256,192,70730,1,8,0:0:0:0:
256,192,70849,1,0,0:0:0:0:
256,192,70968,5,8,0:0:0:0:
256,192,71027,1,0,0:0:0:0:
256,192,71087,1,0,0:0:0:0:
256,192,71206,1,8,0:0:0:0:
256,192,71325,1,0,0:0:0:0:
256,192,71444,5,8,0:0:0:0:
256,192,71504,1,0,0:0:0:0:
256,192,71563,1,0,0:0:0:0:
256,192,71682,1,8,0:0:0:0:
256,192,71801,1,0,0:0:0:0:
256,192,71920,1,8,0:0:0:0:
256,192,72158,1,0,0:0:0:0:
240,208,72396,5,0,0:0:0:0:
240,208,72456,1,0,0:0:0:0:
240,208,72515,1,8,0:0:0:0:
240,208,72575,1,8,0:0:0:0:
240,208,72635,1,8,0:0:0:0:
240,208,72694,1,0,0:0:0:0:
240,208,72754,1,8,0:0:0:0:
240,208,72814,1,0,0:0:0:0:
240,208,72874,1,0,0:0:0:0:
240,208,72932,1,8,0:0:0:0:
240,208,72992,1,8,0:0:0:0:
240,208,73052,1,8,0:0:0:0:
240,208,73112,1,0,0:0:0:0:
240,208,73171,1,0,0:0:0:0:
240,208,73230,1,8,0:0:0:0:
240,208,73290,1,8,0:0:0:0:
240,208,73350,1,0,0:0:0:0:
240,208,73409,1,0,0:0:0:0:
240,208,73468,1,8,0:0:0:0:
240,208,73528,1,8,0:0:0:0:
240,208,73588,1,0,0:0:0:0:
240,208,73647,1,0,0:0:0:0:
240,208,73706,1,8,0:0:0:0:
240,208,73766,1,8,0:0:0:0:
240,208,73826,1,0,0:0:0:0:
240,208,73885,1,8,0:0:0:0:
240,208,73944,1,0,0:0:0:0:
240,208,74004,1,0,0:0:0:0:
240,208,74064,1,8,0:0:0:0:
240,208,74123,1,8,0:0:0:0:
240,208,74182,1,0,0:0:0:0:
240,208,74242,1,0,0:0:0:0:
240,208,74301,1,8,0:0:0:0:
240,208,75135,1,0,0:0:0:0:
240,208,75254,1,8,0:0:0:0:
240,208,75373,1,0,0:0:0:0:
240,208,75492,1,0,0:0:0:0:
240,208,75551,1,0,0:0:0:0:
240,208,75730,1,8,0:0:0:0:
240,208,75809,1,8,0:0:0:0:
240,208,75889,1,8,0:0:0:0:
240,208,75968,1,0,0:0:0:0:
240,208,76206,1,8,0:0:0:0:
240,208,76444,5,0,0:0:0:0:
240,208,76682,5,12,0:0:0:0:
240,208,76920,1,0,0:0:0:0:
240,208,77039,1,8,0:0:0:0:
240,208,77158,1,8,0:0:0:0:
240,208,77277,1,8,0:0:0:0:
240,208,77396,1,8,0:0:0:0:
240,208,77515,1,8,0:0:0:0:
240,208,77635,1,0,0:0:0:0:
240,208,77754,1,8,0:0:0:0:
240,208,77873,1,8,0:0:0:0:
240,208,77992,1,0,0:0:0:0:
256,192,78111,12,0,78468,0:0:0:0:
240,208,78587,5,8,0:0:0:0:
240,208,78706,1,0,0:0:0:0:
240,208,78825,1,8,0:0:0:0:
240,208,78944,1,8,0:0:0:0:
240,208,79063,1,0,0:0:0:0:
240,208,79182,1,8,0:0:0:0:
240,208,79301,1,0,0:0:0:0:
240,208,79420,1,0,0:0:0:0:
240,208,79539,1,8,0:0:0:0:
240,208,79658,1,0,0:0:0:0:
240,208,79777,1,8,0:0:0:0:
240,208,79896,1,8,0:0:0:0:
240,208,80015,1,8,0:0:0:0:
240,208,80254,1,0,0:0:0:0:
240,208,80492,5,8,0:0:0:0:
240,208,80611,1,8,0:0:0:0:
240,208,80730,1,8,0:0:0:0:
240,208,80789,1,8,0:0:0:0:
240,208,80849,1,0,0:0:0:0:
240,208,80968,1,8,0:0:0:0:
240,208,81087,1,8,0:0:0:0:
240,208,81206,1,0,0:0:0:0:
240,208,81325,1,8,0:0:0:0:
240,208,81444,1,8,0:0:0:0:
240,208,81563,1,8,0:0:0:0:
240,208,81682,1,0,0:0:0:0:
240,208,81920,1,0,0:0:0:0:
240,208,82158,1,0,0:0:0:0:
240,208,82277,1,0,0:0:0:0:
240,208,82396,1,8,0:0:0:0:
240,208,82515,1,8,0:0:0:0:
240,208,82635,1,0,0:0:0:0:
240,208,82754,1,8,0:0:0:0:
240,208,82873,1,8,0:0:0:0:
240,208,82992,1,0,0:0:0:0:
240,208,83111,1,0,0:0:0:0:
240,208,83230,1,8,0:0:0:0:
240,208,83349,1,8,0:0:0:0:
240,208,83468,1,0,0:0:0:0:
240,208,83587,1,8,0:0:0:0:
256,192,83825,12,0,84182,0:0:0:0:
240,208,84301,5,12,0:0:0:0:
240,208,84539,1,8,0:0:0:0:
240,208,84658,1,0,0:0:0:0:
240,208,84777,1,8,0:0:0:0:
240,208,84837,1,8,0:0:0:0:
240,208,84896,1,8,0:0:0:0:
240,208,85015,1,8,0:0:0:0:
240,208,85135,1,0,0:0:0:0:
240,208,85254,1,8,0:0:0:0:
240,208,85373,1,8,0:0:0:0:
256,192,85492,12,0,85849,0:0:0:0:
240,208,85968,5,0,0:0:0:0:
240,208,86087,1,8,0:0:0:0:
240,208,86206,1,8,0:0:0:0:
240,208,86325,1,0,0:0:0:0:
240,208,86444,1,8,0:0:0:0:
240,208,86563,1,8,0:0:0:0:
240,208,86682,1,0,0:0:0:0:
240,208,86801,1,8,0:0:0:0:
240,208,86861,1,8,0:0:0:0:
240,208,86920,1,8,0:0:0:0:
240,208,87039,1,0,0:0:0:0:
240,208,87158,1,8,0:0:0:0:
240,208,87277,1,8,0:0:0:0:
240,208,87396,1,8,0:0:0:0:
240,208,87635,5,0,0:0:0:0:
240,208,87873,1,8,0:0:0:0:
240,208,87992,1,0,0:0:0:0:
240,208,88111,1,8,0:0:0:0:
240,208,88230,1,8,0:0:0:0:
240,208,88349,1,8,0:0:0:0:
240,208,88408,1,8,0:0:0:0:
240,208,88468,1,0,0:0:0:0:
240,208,88587,1,8,0:0:0:0:
240,208,88706,1,0,0:0:0:0:
240,208,88825,1,8,0:0:0:0:
240,208,88944,1,8,0:0:0:0:
240,208,89063,1,8,0:0:0:0:
240,208,89182,1,0,0:0:0:0:
240,208,89301,1,8,0:0:0:0:
240,208,89420,1,8,0:0:0:0:
240,208,89539,1,8,0:0:0:0:
240,208,89658,1,0,0:0:0:0:
240,208,89777,1,8,0:0:0:0:
240,208,89896,1,8,0:0:0:0:
240,208,90015,1,8,0:0:0:0:
240,208,90135,1,0,0:0:0:0:
240,208,90254,1,8,0:0:0:0:
240,208,90373,1,8,0:0:0:0:
256,192,90492,12,0,90968,0:0:0:0:
240,208,91206,5,8,0:0:0:0:
240,208,91325,1,8,0:0:0:0:
240,208,91444,1,0,0:0:0:0:
256,192,91563,12,0,92277,0:0:0:0:
256,192,92396,5,8,0:0:0:0:
256,192,92635,1,8,0:0:0:0:
256,192,92754,1,0,0:0:0:0:
256,192,92873,1,8,0:0:0:0:
256,192,92932,1,8,0:0:0:0:
256,192,93051,1,8,0:0:0:0:
256,192,93111,1,0,0:0:0:0:
256,192,93349,12,0,93706,0:0:0:0:
256,192,93825,5,8,0:0:0:0:
256,192,93944,1,0,0:0:0:0:
256,192,94004,1,8,0:0:0:0:
256,192,94063,1,0,0:0:0:0:
256,192,94182,1,8,0:0:0:0:
256,192,94301,1,8,0:0:0:0:
256,192,94420,1,8,0:0:0:0:
256,192,94539,1,8,0:0:0:0:
256,192,94658,1,0,0:0:0:0:
256,192,94777,1,8,0:0:0:0:
256,192,94896,1,8,0:0:0:0:
256,192,95015,1,8,0:0:0:0:
256,192,95135,1,0,0:0:0:0:
256,192,95254,1,8,0:0:0:0:
256,192,95492,1,0,0:0:0:0:
256,192,95730,5,8,0:0:0:0:
256,192,95849,1,0,0:0:0:0:
256,192,95968,1,8,0:0:0:0:
256,192,96027,1,8,0:0:0:0:
256,192,96087,1,0,0:0:0:0:
256,192,96146,1,0,0:0:0:0:
256,192,96206,1,8,0:0:0:0:
256,192,96325,1,0,0:0:0:0:
256,192,96444,1,8,0:0:0:0:
256,192,96563,1,0,0:0:0:0:
256,192,96682,1,8,0:0:0:0:
256,192,96801,1,8,0:0:0:0:
256,192,96920,1,8,0:0:0:0:
256,192,97039,1,0,0:0:0:0:
256,192,97158,1,8,0:0:0:0:
256,192,97396,1,0,0:0:0:0:
256,192,97515,1,0,0:0:0:0:
256,192,97635,1,8,0:0:0:0:
256,192,97754,1,8,0:0:0:0:
256,192,97873,1,8,0:0:0:0:
256,192,97992,1,0,0:0:0:0:
256,192,98111,1,8,0:0:0:0:
256,192,98230,1,8,0:0:0:0:
256,192,98349,1,8,0:0:0:0:
256,192,98468,1,0,0:0:0:0:
256,192,98587,1,8,0:0:0:0:
256,192,98706,1,0,0:0:0:0:
256,192,98825,1,8,0:0:0:0:
256,192,98944,1,0,0:0:0:0:
256,192,99301,12,0,99420,0:0:0:0:
256,192,99539,5,8,0:0:0:0:
256,192,99658,1,0,0:0:0:0:
256,192,99837,1,0,0:0:0:0:
256,192,100015,1,8,0:0:0:0:
256,192,100095,1,0,0:0:0:0:
256,192,100174,1,0,0:0:0:0:
256,192,100254,1,0,0:0:0:0:
256,192,100333,1,8,0:0:0:0:
256,192,100492,1,0,0:0:0:0:
256,192,100650,1,0,0:0:0:0:
256,192,100730,1,0,0:0:0:0:
256,192,100809,1,8,0:0:0:0:
256,192,100968,1,0,0:0:0:0:
256,192,101127,1,8,0:0:0:0:
256,192,101285,1,0,0:0:0:0:
256,192,101444,1,8,0:0:0:0:
256,192,101603,1,8,0:0:0:0:
256,192,101682,1,0,0:0:0:0:
256,192,101762,1,8,0:0:0:0:
256,192,101841,1,8,0:0:0:0:
256,192,101920,1,0,0:0:0:0:
256,192,102000,1,8,0:0:0:0:
256,192,102079,1,0,0:0:0:0:
256,192,102158,1,0,0:0:0:0:
256,192,102238,1,8,0:0:0:0:
256,192,102317,1,8,0:0:0:0:
256,192,102396,1,0,0:0:0:0:
256,192,102635,1,8,0:0:0:0:
256,192,102754,1,0,0:0:0:0:
256,192,102873,1,12,0:0:0:0:
256,192,103111,1,0,0:0:0:0:
256,192,103349,5,8,0:0:0:0:
256,192,103468,1,0,0:0:0:0:
256,192,103587,1,8,0:0:0:0:
256,192,103646,1,8,0:0:0:0:
256,192,103706,1,8,0:0:0:0:
256,192,103825,1,8,0:0:0:0:
256,192,103944,1,0,0:0:0:0:
256,192,104063,1,8,0:0:0:0:
256,192,104182,1,0,0:0:0:0:
256,192,104301,1,8,0:0:0:0:
256,192,104420,1,8,0:0:0:0:
256,192,104539,1,8,0:0:0:0:
256,192,104777,1,8,0:0:0:0:
256,192,104896,1,0,0:0:0:0:
256,192,105015,1,8,0:0:0:0:
256,192,105135,1,8,0:0:0:0:
256,192,105254,1,8,0:0:0:0:
256,192,105373,1,0,0:0:0:0:
256,192,105492,1,8,0:0:0:0:
256,192,105611,1,0,0:0:0:0:
256,192,105730,12,0,106206,0:0:0:0:
256,192,106325,5,0,0:0:0:0:
256,192,106444,1,8,0:0:0:0:
256,192,106563,1,8,0:0:0:0:
256,192,106682,12,0,107039,0:0:0:0:
256,192,107158,5,12,0:0:0:0:
256,192,107396,1,8,0:0:0:0:
256,192,107515,1,0,0:0:0:0:
256,192,107635,1,8,0:0:0:0:
256,192,107873,1,0,0:0:0:0:
256,192,107992,1,0,0:0:0:0:
256,192,108111,1,8,0:0:0:0:
256,192,108230,1,0,0:0:0:0:
256,192,108349,1,8,0:0:0:0:
256,192,108587,1,0,0:0:0:0:
256,192,108646,1,8,0:0:0:0:
256,192,108706,1,8,0:0:0:0:
256,192,108765,1,0,0:0:0:0:
256,192,108825,1,8,0:0:0:0:
256,192,108944,1,0,0:0:0:0:
256,192,109063,1,8,0:0:0:0:
256,192,109182,1,0,0:0:0:0:
256,192,109301,1,8,0:0:0:0:
256,192,109420,1,8,0:0:0:0:
256,192,109539,1,8,0:0:0:0:
256,192,109777,1,0,0:0:0:0:
256,192,109896,1,8,0:0:0:0:
256,192,110015,1,8,0:0:0:0:
256,192,110135,1,0,0:0:0:0:
256,192,110254,1,8,0:0:0:0:
256,192,110492,1,0,0:0:0:0:
256,192,110730,1,8,0:0:0:0:
256,192,110849,1,8,0:0:0:0:
256,192,110908,1,8,0:0:0:0:
256,192,110968,1,8,0:0:0:0:
256,192,111087,1,0,0:0:0:0:
256,192,111206,1,8,0:0:0:0:
256,192,111325,1,0,0:0:0:0:
256,192,111444,1,8,0:0:0:0:
256,192,111563,1,8,0:0:0:0:
256,192,111682,1,8,0:0:0:0:
256,192,111801,1,0,0:0:0:0:
256,192,111920,1,8,0:0:0:0:
256,192,112039,1,0,0:0:0:0:
256,192,112158,1,8,0:0:0:0:
256,192,112277,1,0,0:0:0:0:
256,192,112396,1,8,0:0:0:0:
256,192,112515,1,8,0:0:0:0:
256,192,112635,1,8,0:0:0:0:
256,192,112754,1,8,0:0:0:0:
256,192,112873,1,0,0:0:0:0:
256,192,112992,1,8,0:0:0:0:
256,192,113111,1,8,0:0:0:0:
256,192,113230,1,0,0:0:0:0:
256,192,113349,1,8,0:0:0:0:
256,192,113587,1,0,0:0:0:0:
256,192,113825,1,0,0:0:0:0:
256,192,114063,5,8,0:0:0:0:
256,192,114301,12,0,114658,0:0:0:0:
256,192,114777,5,8,0:0:0:0:
256,192,114896,1,8,0:0:0:0:
256,192,115015,1,8,0:0:0:0:
256,192,115135,1,8,0:0:0:0:
256,192,115254,1,0,0:0:0:0:
256,192,115373,1,0,0:0:0:0:
256,192,115492,1,8,0:0:0:0:
256,192,115611,1,0,0:0:0:0:
256,192,115730,1,8,0:0:0:0:
256,192,115849,1,0,0:0:0:0:
256,192,115968,1,8,0:0:0:0:
256,192,116206,1,0,0:0:0:0:
256,192,116265,1,8,0:0:0:0:
256,192,116325,1,8,0:0:0:0:
256,192,116385,1,0,0:0:0:0:
256,192,116444,1,8,0:0:0:0:
256,192,116563,1,0,0:0:0:0:
256,192,116682,1,8,0:0:0:0:
256,192,116801,1,0,0:0:0:0:
256,192,116920,1,8,0:0:0:0:
256,192,117039,1,0,0:0:0:0:
256,192,117158,1,8,0:0:0:0:
256,192,117396,1,8,0:0:0:0:
256,192,117515,1,0,0:0:0:0:
256,192,117635,1,8,0:0:0:0:
256,192,117754,1,8,0:0:0:0:
256,192,117873,1,8,0:0:0:0:
256,192,118111,1,0,0:0:0:0:
256,192,118349,1,8,0:0:0:0:
256,192,118468,1,8,0:0:0:0:
256,192,118527,1,0,0:0:0:0:
256,192,118587,1,8,0:0:0:0:
256,192,118706,1,0,0:0:0:0:
256,192,118825,1,8,0:0:0:0:
256,192,118944,1,8,0:0:0:0:
256,192,119063,1,8,0:0:0:0:
256,192,119182,1,0,0:0:0:0:
256,192,119301,1,8,0:0:0:0:
256,192,119420,1,0,0:0:0:0:
256,192,119539,1,8,0:0:0:0:
256,192,119658,1,8,0:0:0:0:
256,192,119777,1,8,0:0:0:0:
256,192,119896,1,0,0:0:0:0:
256,192,120015,1,8,0:0:0:0:
256,192,120135,1,0,0:0:0:0:
256,192,120254,1,8,0:0:0:0:
256,192,120373,1,8,0:0:0:0:
256,192,120492,1,8,0:0:0:0:
256,192,120611,1,0,0:0:0:0:
256,192,120730,1,8,0:0:0:0:
256,192,120849,1,8,0:0:0:0:
256,192,120968,1,8,0:0:0:0:
256,192,121206,1,0,0:0:0:0:
256,192,121444,1,8,0:0:0:0:
256,192,121563,1,0,0:0:0:0:
256,192,121682,1,8,0:0:0:0:
256,192,121801,1,8,0:0:0:0:
256,192,121920,12,0,122277,0:0:0:0:
256,192,122396,5,8,0:0:0:0:
256,192,122635,1,0,0:0:0:0:
256,192,122873,1,8,0:0:0:0:
256,192,123111,1,8,0:0:0:0:
256,192,123230,1,0,0:0:0:0:
256,192,123349,1,8,0:0:0:0:
256,192,123468,1,8,0:0:0:0:
256,192,123587,1,8,0:0:0:0:
256,192,123825,1,8,0:0:0:0:
256,192,123885,1,0,0:0:0:0:
256,192,123944,1,8,0:0:0:0:
256,192,124004,1,8,0:0:0:0:
256,192,124063,1,8,0:0:0:0:
256,192,124182,1,0,0:0:0:0:
256,192,124301,1,8,0:0:0:0:
256,192,124361,1,8,0:0:0:0:
256,192,124420,1,8,0:0:0:0:
256,192,124539,1,8,0:0:0:0:
256,192,124658,1,0,0:0:0:0:
256,192,124777,1,8,0:0:0:0:
256,192,125015,1,0,0:0:0:0:
256,192,125135,1,8,0:0:0:0:
256,192,125254,1,8,0:0:0:0:
256,192,125373,1,0,0:0:0:0:
256,192,125492,1,8,0:0:0:0:
256,192,125730,1,0,0:0:0:0:
256,192,125968,1,8,0:0:0:0:
256,192,126087,1,8,0:0:0:0:
256,192,126146,1,0,0:0:0:0:
256,192,126206,1,8,0:0:0:0:
256,192,126325,1,8,0:0:0:0:
256,192,126444,1,8,0:0:0:0:
256,192,126563,1,0,0:0:0:0:
256,192,126682,1,8,0:0:0:0:
256,192,126920,1,0,0:0:0:0:
256,192,127039,1,8,0:0:0:0:
256,192,127158,1,8,0:0:0:0:
256,192,127277,1,8,0:0:0:0:
256,192,127396,1,8,0:0:0:0:
256,192,127515,1,0,0:0:0:0:
256,192,127635,1,8,0:0:0:0:
256,192,127754,1,0,0:0:0:0:
256,192,127873,1,8,0:0:0:0:
256,192,127992,1,8,0:0:0:0:
256,192,128111,1,0,0:0:0:0:
256,192,128230,1,8,0:0:0:0:
256,192,128349,1,8,0:0:0:0:
256,192,128468,1,0,0:0:0:0:
256,192,128587,1,8,0:0:0:0:
256,192,128825,1,0,0:0:0:0:
256,192,128944,1,0,0:0:0:0:
256,192,129063,1,8,0:0:0:0:
256,192,129301,1,8,0:0:0:0:
256,192,129420,1,0,0:0:0:0:
256,192,129777,12,0,129896,0:0:0:0:
256,192,130015,5,12,0:0:0:0:
256,192,130135,1,0,0:0:0:0:
256,192,130254,1,8,0:0:0:0:
256,192,130373,1,8,0:0:0:0:
256,192,130492,1,0,0:0:0:0:
256,192,130611,1,8,0:0:0:0:
256,192,130730,1,8,0:0:0:0:
256,192,130849,1,0,0:0:0:0:
256,192,130968,1,8,0:0:0:0:
256,192,131087,1,0,0:0:0:0:
256,192,131206,1,8,0:0:0:0:
256,192,131444,1,0,0:0:0:0:
256,192,131504,1,0,0:0:0:0:
256,192,131563,1,8,0:0:0:0:
256,192,131623,1,0,0:0:0:0:
256,192,131682,1,8,0:0:0:0:
256,192,131801,1,0,0:0:0:0:
256,192,131920,1,8,0:0:0:0:
256,192,132039,1,8,0:0:0:0:
256,192,132158,1,8,0:0:0:0:
256,192,132277,1,0,0:0:0:0:
256,192,132396,1,8,0:0:0:0:
256,192,132635,1,8,0:0:0:0:
256,192,132754,1,8,0:0:0:0:
256,192,132873,1,8,0:0:0:0:
256,192,132992,1,0,0:0:0:0:
256,192,133111,1,8,0:0:0:0:
256,192,133230,1,0,0:0:0:0:
256,192,133349,1,8,0:0:0:0:
256,192,133587,1,8,0:0:0:0:
256,192,133706,1,8,0:0:0:0:
256,192,133765,1,8,0:0:0:0:
256,192,133825,1,8,0:0:0:0:
256,192,133944,1,8,0:0:0:0:
256,192,134063,1,8,0:0:0:0:
256,192,134182,1,0,0:0:0:0:
256,192,134301,1,8,0:0:0:0:
256,192,134420,1,0,0:0:0:0:
256,192,134539,1,8,0:0:0:0:
256,192,134658,1,0,0:0:0:0:
256,192,134777,1,8,0:0:0:0:
256,192,134896,1,0,0:0:0:0:
256,192,135015,1,8,0:0:0:0:
256,192,135135,1,8,0:0:0:0:
256,192,135254,1,8,0:0:0:0:
256,192,135373,1,0,0:0:0:0:
256,192,135492,1,8,0:0:0:0:
256,192,135611,1,0,0:0:0:0:
256,192,135730,1,8,0:0:0:0:
256,192,135849,1,8,0:0:0:0:
256,192,135968,1,8,0:0:0:0:
256,192,136087,1,0,0:0:0:0:
256,192,136206,12,0,136682,0:0:0:0:
256,192,136920,5,8,0:0:0:0:
256,192,137039,1,0,0:0:0:0:
256,192,137158,1,8,0:0:0:0:
256,192,137277,1,0,0:0:0:0:
256,192,137396,1,8,0:0:0:0:
256,192,137634,1,8,0:0:0:0:
256,192,137753,1,8,0:0:0:0:
256,192,137872,1,8,0:0:0:0:
256,192,137991,1,0,0:0:0:0:
256,192,138229,1,8,0:0:0:0:
256,192,138348,1,8,0:0:0:0:
256,192,138586,1,8,0:0:0:0:
256,192,138824,1,0,0:0:0:0:
256,192,139062,1,0,0:0:0:0:
256,192,139181,1,8,0:0:0:0:
256,192,139301,1,8,0:0:0:0:
256,192,139539,1,8,0:0:0:0:
256,192,139896,1,0,0:0:0:0:
256,192,140134,1,0,0:0:0:0:
256,192,140253,1,8,0:0:0:0:
256,192,140491,1,8,0:0:0:0:
256,192,140729,1,0,0:0:0:0:
256,192,140967,1,0,0:0:0:0:
256,192,141086,1,0,0:0:0:0:
256,192,141205,1,8,0:0:0:0:
256,192,141443,1,0,0:0:0:0:
256,192,141562,1,0,0:0:0:0:
256,192,141681,1,8,0:0:0:0:
256,192,141801,1,8,0:0:0:0:
256,192,142039,1,8,0:0:0:0:
256,192,142158,1,0,0:0:0:0:
256,192,142396,1,0,0:0:0:0:
256,192,142634,1,8,0:0:0:0:
256,192,142753,1,0,0:0:0:0:
256,192,142812,1,0,0:0:0:0:
256,192,142872,1,0,0:0:0:0:
256,192,143110,1,8,0:0:0:0:
256,192,143348,1,0,0:0:0:0:
256,192,143467,1,0,0:0:0:0:
256,192,143586,1,8,0:0:0:0:
256,192,143705,1,8,0:0:0:0:
256,192,143943,1,8,0:0:0:0:
256,192,144062,1,0,0:0:0:0:
256,192,144301,1,8,0:0:0:0:
256,192,144539,1,8,0:0:0:0:
256,192,144777,1,4,0:0:0:0:
256,192,144896,1,8,0:0:0:0:
256,192,145015,1,8,0:0:0:0:
256,192,145253,1,8,0:0:0:0:
256,192,145372,1,8,0:0:0:0:
256,192,145491,1,8,0:0:0:0:
256,192,145610,1,0,0:0:0:0:
256,192,145848,1,8,0:0:0:0:
256,192,145967,1,8,0:0:0:0:
256,192,146205,1,8,0:0:0:0:
256,192,146443,1,0,0:0:0:0:
256,192,146681,1,8,0:0:0:0:
256,192,146800,1,0,0:0:0:0:
256,192,146920,1,8,0:0:0:0:
256,192,147158,1,8,0:0:0:0:
256,192,147515,1,0,0:0:0:0:
256,192,147753,1,0,0:0:0:0:
256,192,147872,1,8,0:0:0:0:
256,192,148110,1,8,0:0:0:0:
256,192,148348,1,0,0:0:0:0:
256,192,148586,1,8,0:0:0:0:
256,192,148705,1,0,0:0:0:0:
256,192,148824,1,8,0:0:0:0:
256,192,149062,1,8,0:0:0:0:
256,192,149181,1,0,0:0:0:0:
256,192,149300,1,8,0:0:0:0:
256,192,149420,1,0,0:0:0:0:
256,192,149539,1,8,0:0:0:0:
256,192,149658,1,8,0:0:0:0:
256,192,149777,1,0,0:0:0:0:
256,192,150015,1,8,0:0:0:0:
256,192,150253,1,8,0:0:0:0:
256,192,150312,1,8,0:0:0:0:
256,192,150372,1,0,0:0:0:0:
256,192,150431,1,0,0:0:0:0:
256,192,150491,1,0,0:0:0:0:
256,192,150729,1,8,0:0:0:0:
256,192,150967,1,0,0:0:0:0:
256,192,151086,1,0,0:0:0:0:
256,192,151205,1,8,0:0:0:0:
256,192,151324,1,8,0:0:0:0:
256,192,151443,1,0,0:0:0:0:
256,192,151562,1,8,0:0:0:0:
256,192,151681,1,0,0:0:0:0:
256,192,151801,1,8,0:0:0:0:
256,192,151920,1,8,0:0:0:0:
256,192,152396,1,4,0:0:0:0:
256,192,152634,1,8,0:0:0:0:
256,192,152753,1,0,0:0:0:0:
256,192,152872,1,8,0:0:0:0:
256,192,153110,5,8,0:0:0:0:
256,192,153229,1,0,0:0:0:0:
256,192,153348,1,8,0:0:0:0:
256,192,153586,5,8,0:0:0:0:
256,192,153705,1,0,0:0:0:0:
256,192,153824,1,8,0:0:0:0:
256,192,154063,5,0,0:0:0:0:
256,192,154182,1,8,0:0:0:0:
256,192,154301,1,8,0:0:0:0:
256,192,154539,5,8,0:0:0:0:
256,192,154777,1,0,0:0:0:0:
256,192,155015,5,0,0:0:0:0:
256,192,155134,1,8,0:0:0:0:
256,192,155253,1,8,0:0:0:0:
256,192,155491,5,8,0:0:0:0:
256,192,155730,1,0,0:0:0:0:
256,192,155968,5,0,0:0:0:0:
256,192,156087,1,8,0:0:0:0:
256,192,156206,1,8,0:0:0:0:
256,192,156443,5,8,0:0:0:0:
256,192,156563,1,0,0:0:0:0:
256,192,156682,1,8,0:0:0:0:
256,192,156920,1,0,0:0:0:0:
256,192,157039,1,8,0:0:0:0:
256,192,157158,1,8,0:0:0:0:
256,192,157396,1,8,0:0:0:0:
256,192,157515,1,0,0:0:0:0:
256,192,157635,1,8,0:0:0:0:
256,192,157872,1,0,0:0:0:0:
256,192,157991,1,8,0:0:0:0:
256,192,158110,1,8,0:0:0:0:
256,192,158348,1,8,0:0:0:0:
256,192,158467,1,0,0:0:0:0:
256,192,158586,1,8,0:0:0:0:
256,192,158824,1,0,0:0:0:0:
256,192,158943,1,8,0:0:0:0:
256,192,159063,1,8,0:0:0:0:
256,192,159301,1,8,0:0:0:0:
256,192,159420,1,0,0:0:0:0:
256,192,159539,12,0,159777,0:0:0:0:
256,192,160015,5,8,0:0:0:0:
256,192,160074,1,8,0:0:0:0:
256,192,160134,1,0,0:0:0:0:
256,192,160253,1,8,0:0:0:0:
256,192,160372,1,0,0:0:0:0:
256,192,160491,5,8,0:0:0:0:
256,192,160551,1,8,0:0:0:0:
256,192,160610,1,0,0:0:0:0:
256,192,160729,1,8,0:0:0:0:
256,192,160848,1,0,0:0:0:0:
256,192,160967,5,8,0:0:0:0:
256,192,161027,1,8,0:0:0:0:
256,192,161086,1,0,0:0:0:0:
256,192,161205,1,8,0:0:0:0:
256,192,161324,1,0,0:0:0:0:
256,192,161443,5,8,0:0:0:0:
256,192,161504,1,8,0:0:0:0:
256,192,161563,1,0,0:0:0:0:
256,192,161681,1,8,0:0:0:0:
256,192,161801,1,0,0:0:0:0:
256,192,161920,5,8,0:0:0:0:
256,192,161980,1,8,0:0:0:0:
256,192,162039,1,0,0:0:0:0:
256,192,162158,1,8,0:0:0:0:
256,192,162277,1,0,0:0:0:0:
256,192,162396,5,8,0:0:0:0:
256,192,162456,1,8,0:0:0:0:
256,192,162515,1,0,0:0:0:0:
256,192,162634,1,8,0:0:0:0:
256,192,162753,1,0,0:0:0:0:
256,192,162872,5,8,0:0:0:0:
256,192,162932,1,8,0:0:0:0:
256,192,162991,1,0,0:0:0:0:
256,192,163110,1,8,0:0:0:0:
256,192,163229,1,0,0:0:0:0:
256,192,163348,1,8,0:0:0:0:
256,192,163587,1,0,0:0:0:0:
256,192,163825,1,8,0:0:0:0:
256,192,163885,1,8,0:0:0:0:
256,192,163944,1,0,0:0:0:0:
256,192,164004,1,8,0:0:0:0:
256,192,164063,1,0,0:0:0:0:
256,192,164123,1,8,0:0:0:0:
256,192,164182,1,0,0:0:0:0:
256,192,164242,1,0,0:0:0:0:
256,192,164301,1,8,0:0:0:0:
256,192,164361,1,0,0:0:0:0:
256,192,164420,1,8,0:0:0:0:
256,192,164480,1,0,0:0:0:0:
256,192,164539,1,8,0:0:0:0:
256,192,164599,1,8,0:0:0:0:
256,192,164658,1,0,0:0:0:0:
256,192,164718,1,0,0:0:0:0:
256,192,164777,1,8,0:0:0:0:
256,192,164837,1,8,0:0:0:0:
256,192,164896,1,0,0:0:0:0:
256,192,164956,1,0,0:0:0:0:
256,192,165015,1,8,0:0:0:0:
256,192,165075,1,8,0:0:0:0:
256,192,165134,1,0,0:0:0:0:
256,192,165194,1,0,0:0:0:0:
256,192,165254,1,8,0:0:0:0:
256,192,165314,1,8,0:0:0:0:
256,192,165373,1,0,0:0:0:0:
256,192,165433,1,0,0:0:0:0:
256,192,165492,1,8,0:0:0:0:
256,192,165552,1,8,0:0:0:0:
256,192,165611,1,0,0:0:0:0:
256,192,165671,1,0,0:0:0:0:
256,192,165730,1,8,0:0:0:0:
256,192,166682,12,0,167158,0:0:0:0:
240,208,167397,5,8,0:0:0:0:
240,208,167476,1,8,0:0:0:0:
240,208,167556,1,8,0:0:0:0:
240,208,167635,1,0,0:0:0:0:
240,208,167873,1,8,0:0:0:0:
240,208,168111,1,4,0:0:0:0:
240,208,168269,1,0,0:0:0:0:
240,208,168428,1,8,0:0:0:0:
240,208,168508,1,0,0:0:0:0:
240,208,168587,1,8,0:0:0:0:
240,208,168746,1,8,0:0:0:0:
240,208,168904,1,8,0:0:0:0:
240,208,169063,1,0,0:0:0:0:
240,208,169142,1,8,0:0:0:0:
240,208,169222,1,8,0:0:0:0:
240,208,169301,1,0,0:0:0:0:
240,208,169381,1,8,0:0:0:0:
240,208,169539,1,8,0:0:0:0:
240,208,169698,1,8,0:0:0:0:
240,208,169857,1,8,0:0:0:0:
240,208,170015,1,0,0:0:0:0:
240,208,170135,1,8,0:0:0:0:
240,208,170254,1,0,0:0:0:0:
240,208,170492,1,8,0:0:0:0:
240,208,170650,1,0,0:0:0:0:
240,208,170730,1,8,0:0:0:0:
240,208,170809,1,0,0:0:0:0:
240,208,170968,1,0,0:0:0:0:
240,208,171047,1,8,0:0:0:0:
240,208,171127,1,8,0:0:0:0:
240,208,171206,1,0,0:0:0:0:
240,208,171325,1,0,0:0:0:0:
240,208,171444,1,8,0:0:0:0:
240,208,171563,1,8,0:0:0:0:
240,208,171623,1,8,0:0:0:0:
240,208,171682,1,0,0:0:0:0:
240,208,171801,1,0,0:0:0:0:
240,208,171920,1,8,0:0:0:0:
240,208,172039,1,8,0:0:0:0:
240,208,172158,1,8,0:0:0:0:
240,208,172277,1,0,0:0:0:0:
240,208,172396,1,8,0:0:0:0:
240,208,172515,1,0,0:0:0:0:
240,208,172635,1,8,0:0:0:0:
240,208,172873,1,8,0:0:0:0:
240,208,172952,1,0,0:0:0:0:
240,208,173031,1,0,0:0:0:0:
240,208,173111,1,8,0:0:0:0:
240,208,173230,1,0,0:0:0:0:
240,208,173349,1,8,0:0:0:0:
240,208,173587,1,8,0:0:0:0:
240,208,173706,1,0,0:0:0:0:
256,192,173825,12,0,174182,0:0:0:0:
240,208,174301,5,8,0:0:0:0:
240,208,174420,1,0,0:0:0:0:
240,208,174539,1,8,0:0:0:0:
240,208,174658,1,0,0:0:0:0:
240,208,174777,1,8,0:0:0:0:
240,208,175015,1,0,0:0:0:0:
256,192,175254,12,0,175611,0:0:0:0:
240,208,175730,5,12,0:0:0:0:
240,208,175849,1,0,0:0:0:0:
240,208,175968,1,0,0:0:0:0:
240,208,176087,1,8,0:0:0:0:
240,208,176206,1,0,0:0:0:0:
240,208,176325,1,0,0:0:0:0:
240,208,176444,1,8,0:0:0:0:
240,208,176563,1,0,0:0:0:0:
240,208,176682,1,8,0:0:0:0:
240,208,176920,1,8,0:0:0:0:
240,208,177158,1,0,0:0:0:0:
240,208,177396,1,8,0:0:0:0:
240,208,177515,1,0,0:0:0:0:
240,208,177635,1,0,0:0:0:0:
240,208,177754,1,8,0:0:0:0:
240,208,177873,1,8,0:0:0:0:
240,208,178111,1,8,0:0:0:0:
240,208,178230,1,0,0:0:0:0:
240,208,178349,1,8,0:0:0:0:
240,208,178468,1,0,0:0:0:0:
240,208,178587,1,8,0:0:0:0:
240,208,178706,1,8,0:0:0:0:
240,208,178825,1,0,0:0:0:0:
240,208,178944,1,8,0:0:0:0:
240,208,179063,1,0,0:0:0:0:
240,208,179182,1,0,0:0:0:0:
240,208,179301,1,0,0:0:0:0:
240,208,179420,1,0,0:0:0:0:
240,208,179539,1,8,0:0:0:0:
240,208,179658,1,8,0:0:0:0:
240,208,179777,1,8,0:0:0:0:
240,208,179896,1,0,0:0:0:0:
240,208,180015,1,8,0:0:0:0:
240,208,180135,1,8,0:0:0:0:
240,208,180254,1,8,0:0:0:0:
240,208,180373,1,0,0:0:0:0:
240,208,180492,1,8,0:0:0:0:
240,208,180551,1,0,0:0:0:0:
240,208,180611,1,8,0:0:0:0:
240,208,180670,1,8,0:0:0:0:
240,208,180730,1,8,0:0:0:0:
240,208,180849,1,0,0:0:0:0:
240,208,180968,1,8,0:0:0:0:
240,208,181206,1,0,0:0:0:0:
240,208,181325,1,0,0:0:0:0:
240,208,181444,1,8,0:0:0:0:
240,208,181563,1,0,0:0:0:0:
240,208,181682,1,8,0:0:0:0:
240,208,181801,1,0,0:0:0:0:
240,208,181920,1,8,0:0:0:0:
240,208,182039,1,8,0:0:0:0:
240,208,182158,1,8,0:0:0:0:
240,208,182277,1,8,0:0:0:0:
240,208,182396,1,8,0:0:0:0:
240,208,182635,1,0,0:0:0:0:
256,192,182873,12,0,183230,0:0:0:0:
272,192,183349,5,12,0:0:0:0:
272,192,183825,1,0,0:0:0:0:
272,192,184063,1,8,0:0:0:0:
272,192,184301,1,0,0:0:0:0:
272,192,184539,1,0,0:0:0:0:
272,192,184599,1,0,0:0:0:0:
272,192,184658,1,0,0:0:0:0:
272,192,184777,1,8,0:0:0:0:
272,192,185015,1,0,0:0:0:0:
272,192,185254,1,8,0:0:0:0:
272,192,185373,1,0,0:0:0:0:
256,192,185492,12,0,185611,0:0:0:0:
272,192,185730,5,4,0:0:0:0:
272,192,185968,1,8,0:0:0:0:
256,192,186206,12,0,186563,0:0:0:0:
256,192,186682,5,12,0:0:0:0:
256,192,186841,1,8,0:0:0:0:
256,192,187000,1,0,0:0:0:0:
256,192,187079,1,0,0:0:0:0:
256,192,187158,1,8,0:0:0:0:
256,192,187396,1,8,0:0:0:0:
256,192,187635,1,8,0:0:0:0:
256,192,187754,1,8,0:0:0:0:
256,192,187873,1,8,0:0:0:0:
256,192,187992,1,0,0:0:0:0:
256,192,188111,1,8,0:0:0:0:
256,192,188170,1,8,0:0:0:0:
256,192,188230,1,0,0:0:0:0:
256,192,188289,1,0,0:0:0:0:
256,192,188349,1,8,0:0:0:0:
256,192,188468,1,8,0:0:0:0:
256,192,188587,1,8,0:0:0:0:
256,192,188825,1,8,0:0:0:0:
256,192,188944,1,8,0:0:0:0:
256,192,189063,1,0,0:0:0:0:
256,192,189123,1,0,0:0:0:0:
256,192,189182,1,8,0:0:0:0:
256,192,189301,1,8,0:0:0:0:
256,192,189420,1,0,0:0:0:0:
256,192,189539,5,8,0:0:0:0:
256,192,189658,1,8,0:0:0:0:
256,192,189777,1,8,0:0:0:0:
256,192,189896,1,8,0:0:0:0:
256,192,190015,1,0,0:0:0:0:
256,192,190254,1,8,0:0:0:0:
256,192,190492,12,0,190611,0:0:0:0:
256,192,190730,5,8,0:0:0:0:
256,192,190849,1,0,0:0:0:0:
256,192,190968,1,8,0:0:0:0:
256,192,191087,1,0,0:0:0:0:
256,192,191206,1,8,0:0:0:0:
256,192,191325,1,8,0:0:0:0:
256,192,191444,1,0,0:0:0:0:
256,192,191563,1,0,0:0:0:0:
256,192,191682,1,8,0:0:0:0:
256,192,191801,1,8,0:0:0:0:
256,192,191920,1,8,0:0:0:0:
256,192,192158,1,8,0:0:0:0:
256,192,192396,1,0,0:0:0:0:
256,192,192635,1,8,0:0:0:0:
256,192,192754,1,0,0:0:0:0:
256,192,192873,1,8,0:0:0:0:
256,192,192992,1,8,0:0:0:0:
256,192,193111,1,8,0:0:0:0:
256,192,193349,1,0,0:0:0:0:
256,192,193468,1,8,0:0:0:0:
256,192,193587,1,8,0:0:0:0:
256,192,193706,1,0,0:0:0:0:
256,192,193825,1,8,0:0:0:0:
256,192,193944,1,8,0:0:0:0:
256,192,194182,1,8,0:0:0:0:
256,192,194301,1,0,0:0:0:0:
256,192,194420,1,0,0:0:0:0:
256,192,194539,1,0,0:0:0:0:
256,192,194658,1,0,0:0:0:0:
256,192,194777,1,8,0:0:0:0:
256,192,194896,1,8,0:0:0:0:
256,192,195015,1,8,0:0:0:0:
256,192,195135,1,8,0:0:0:0:
256,192,195194,1,0,0:0:0:0:
256,192,195254,1,8,0:0:0:0:
256,192,195373,1,0,0:0:0:0:
256,192,195492,1,8,0:0:0:0:
256,192,195730,1,8,0:0:0:0:
256,192,195789,1,0,0:0:0:0:
256,192,195849,1,8,0:0:0:0:
256,192,195908,1,8,0:0:0:0:
256,192,195968,1,8,0:0:0:0:
256,192,196087,1,0,0:0:0:0:
256,192,196206,1,8,0:0:0:0:
256,192,196444,1,0,0:0:0:0:
256,192,196563,1,0,0:0:0:0:
256,192,196682,12,0,197039,0:0:0:0:
256,192,197158,5,8,0:0:0:0:
256,192,197277,1,8,0:0:0:0:
256,192,197396,1,0,0:0:0:0:
256,192,197515,1,8,0:0:0:0:
256,192,197635,1,0,0:0:0:0:
256,192,197873,1,8,0:0:0:0:
256,192,197992,1,8,0:0:0:0:
256,192,198111,12,0,198468,0:0:0:0:
256,192,198587,5,4,0:0:0:0:
256,192,198825,1,12,0:0:0:0:
256,192,198944,1,0,0:0:0:0:
256,192,199063,1,8,0:0:0:0:
256,192,199182,1,0,0:0:0:0:
256,192,199301,1,8,0:0:0:0:
256,192,199420,1,0,0:0:0:0:
256,192,199480,1,0,0:0:0:0:
256,192,199539,1,8,0:0:0:0:
256,192,199658,1,8,0:0:0:0:
256,192,199718,1,0,0:0:0:0:
256,192,199777,1,8,0:0:0:0:
256,192,199896,1,8,0:0:0:0:
256,192,200015,1,0,0:0:0:0:
256,192,200135,1,0,0:0:0:0:
256,192,200254,1,8,0:0:0:0:
256,192,200373,1,8,0:0:0:0:
256,192,200492,1,0,0:0:0:0:
256,192,200611,1,8,0:0:0:0:
256,192,200730,1,0,0:0:0:0:
256,192,200849,1,8,0:0:0:0:
256,192,200968,12,0,201325,0:0:0:0:
256,192,201444,5,0,0:0:0:0:
256,192,201563,1,0,0:0:0:0:
256,192,201682,1,8,0:0:0:0:
256,192,201920,1,8,0:0:0:0:
256,192,202158,1,8,0:0:0:0:
256,192,202277,1,8,0:0:0:0:
256,192,202336,1,8,0:0:0:0:
256,192,202396,1,8,0:0:0:0:
256,192,202515,1,0,0:0:0:0:
256,192,202634,1,8,0:0:0:0:
256,192,202753,1,0,0:0:0:0:
256,192,202872,1,8,0:0:0:0:
256,192,202991,1,8,0:0:0:0:
256,192,203110,1,8,0:0:0:0:
256,192,203229,1,0,0:0:0:0:
256,192,203348,1,8,0:0:0:0:
256,192,203467,1,0,0:0:0:0:
256,192,203586,1,8,0:0:0:0:
256,192,203705,1,0,0:0:0:0:
256,192,203824,1,8,0:0:0:0:
256,192,203943,1,8,0:0:0:0:
256,192,204063,1,8,0:0:0:0:
256,192,204182,1,8,0:0:0:0:
256,192,204301,1,0,0:0:0:0:
256,192,204420,1,8,0:0:0:0:
256,192,204539,1,8,0:0:0:0:
256,192,204658,1,0,0:0:0:0:
256,192,204777,1,8,0:0:0:0:
256,192,205015,1,0,0:0:0:0:
256,192,205253,1,0,0:0:0:0:
256,192,205491,5,8,0:0:0:0:
256,192,205729,12,0,206086,0:0:0:0:
256,192,206206,5,8,0:0:0:0:
256,192,206324,1,8,0:0:0:0:
256,192,206443,1,8,0:0:0:0:
256,192,206563,1,8,0:0:0:0:
256,192,206682,1,0,0:0:0:0:
256,192,206801,1,0,0:0:0:0:
256,192,206920,1,8,0:0:0:0:
256,192,207039,1,0,0:0:0:0:
256,192,207158,1,8,0:0:0:0:
256,192,207277,1,0,0:0:0:0:
256,192,207396,1,8,0:0:0:0:
256,192,207634,1,0,0:0:0:0:
256,192,207693,1,8,0:0:0:0:
256,192,207753,1,8,0:0:0:0:
256,192,207813,1,0,0:0:0:0:
256,192,207872,1,8,0:0:0:0:
256,192,207991,1,0,0:0:0:0:
256,192,208110,1,8,0:0:0:0:
256,192,208229,1,0,0:0:0:0:
256,192,208348,1,8,0:0:0:0:
256,192,208467,1,0,0:0:0:0:
256,192,208586,1,8,0:0:0:0:
256,192,208824,1,8,0:0:0:0:
256,192,208943,1,0,0:0:0:0:
256,192,209063,1,8,0:0:0:0:
256,192,209182,1,8,0:0:0:0:
256,192,209301,1,8,0:0:0:0:
256,192,209539,1,0,0:0:0:0:
256,192,209777,1,8,0:0:0:0:
256,192,209896,1,8,0:0:0:0:
256,192,209955,1,0,0:0:0:0:
256,192,210015,1,8,0:0:0:0:
256,192,210134,1,0,0:0:0:0:
256,192,210253,1,8,0:0:0:0:
256,192,210372,1,8,0:0:0:0:
256,192,210491,1,8,0:0:0:0:
256,192,210610,1,0,0:0:0:0:
256,192,210729,1,8,0:0:0:0:
256,192,210848,1,0,0:0:0:0:
256,192,210967,1,8,0:0:0:0:
256,192,211086,1,8,0:0:0:0:
256,192,211205,1,8,0:0:0:0:
256,192,211324,1,0,0:0:0:0:
256,192,211443,1,8,0:0:0:0:
256,192,211563,1,0,0:0:0:0:
256,192,211682,1,8,0:0:0:0:
256,192,211801,1,8,0:0:0:0:
256,192,211920,1,8,0:0:0:0:
256,192,212039,1,0,0:0:0:0:
256,192,212158,1,8,0:0:0:0:
256,192,212277,1,8,0:0:0:0:
256,192,212396,1,8,0:0:0:0:
256,192,212634,1,0,0:0:0:0:
256,192,212872,1,8,0:0:0:0:
256,192,212991,1,0,0:0:0:0:
256,192,213110,1,8,0:0:0:0:
256,192,213229,1,8,0:0:0:0:
256,192,213348,12,0,213705,0:0:0:0:
256,192,213824,5,8,0:0:0:0:
256,192,214063,1,0,0:0:0:0:
256,192,214301,1,8,0:0:0:0:
256,192,214539,1,8,0:0:0:0:
256,192,214658,1,0,0:0:0:0:
256,192,214777,1,8,0:0:0:0:
256,192,214896,1,8,0:0:0:0:
256,192,215015,1,8,0:0:0:0:
256,192,215253,1,8,0:0:0:0:
256,192,215313,1,0,0:0:0:0:
256,192,215372,1,8,0:0:0:0:
256,192,215432,1,8,0:0:0:0:
256,192,215491,1,8,0:0:0:0:
256,192,215610,1,0,0:0:0:0:
256,192,215729,1,8,0:0:0:0:
256,192,215789,1,8,0:0:0:0:
256,192,215848,1,8,0:0:0:0:
256,192,215967,1,8,0:0:0:0:
256,192,216086,1,0,0:0:0:0:
256,192,216205,1,8,0:0:0:0:
256,192,216443,1,0,0:0:0:0:
256,192,216563,1,8,0:0:0:0:
256,192,216682,1,8,0:0:0:0:
256,192,216801,1,0,0:0:0:0:
256,192,216920,1,8,0:0:0:0:
256,192,217158,1,0,0:0:0:0:
256,192,217396,1,8,0:0:0:0:
256,192,217515,1,8,0:0:0:0:
256,192,217574,1,0,0:0:0:0:
256,192,217634,1,8,0:0:0:0:
256,192,217753,1,8,0:0:0:0:
256,192,217872,1,8,0:0:0:0:
256,192,217991,1,0,0:0:0:0:
256,192,218110,1,8,0:0:0:0:
256,192,218348,1,0,0:0:0:0:
256,192,218467,1,8,0:0:0:0:
256,192,218586,1,8,0:0:0:0:
256,192,218705,1,8,0:0:0:0:
256,192,218824,1,8,0:0:0:0:
256,192,218943,1,0,0:0:0:0:
256,192,219063,1,8,0:0:0:0:
256,192,219182,1,0,0:0:0:0:
256,192,219301,1,8,0:0:0:0:
256,192,219420,1,8,0:0:0:0:
256,192,219539,1,0,0:0:0:0:
256,192,219658,1,8,0:0:0:0:
256,192,219777,1,8,0:0:0:0:
256,192,219896,1,0,0:0:0:0:
256,192,220015,1,8,0:0:0:0:
256,192,220253,1,0,0:0:0:0:
256,192,220372,1,0,0:0:0:0:
256,192,220491,1,8,0:0:0:0:
256,192,220729,1,8,0:0:0:0:
256,192,220848,1,0,0:0:0:0:
256,192,221205,12,0,221324,0:0:0:0:
256,192,221444,5,12,0:0:0:0:
256,192,221563,1,0,0:0:0:0:
256,192,221682,1,8,0:0:0:0:
256,192,221801,1,8,0:0:0:0:
256,192,221920,1,0,0:0:0:0:
256,192,222039,1,8,0:0:0:0:
256,192,222158,1,8,0:0:0:0:
256,192,222277,1,0,0:0:0:0:
256,192,222396,1,8,0:0:0:0:
256,192,222515,1,0,0:0:0:0:
256,192,222634,1,8,0:0:0:0:
256,192,222872,1,0,0:0:0:0:
256,192,222932,1,0,0:0:0:0:
256,192,222991,1,8,0:0:0:0:
256,192,223051,1,0,0:0:0:0:
256,192,223110,1,8,0:0:0:0:
256,192,223229,1,0,0:0:0:0:
256,192,223348,1,8,0:0:0:0:
256,192,223467,1,8,0:0:0:0:
256,192,223586,1,8,0:0:0:0:
256,192,223705,1,0,0:0:0:0:
256,192,223824,1,8,0:0:0:0:
256,192,224063,1,8,0:0:0:0:
256,192,224182,1,8,0:0:0:0:
256,192,224301,1,8,0:0:0:0:
256,192,224420,1,0,0:0:0:0:
256,192,224539,1,8,0:0:0:0:
256,192,224658,1,0,0:0:0:0:
256,192,224777,1,8,0:0:0:0:
256,192,225015,1,8,0:0:0:0:
256,192,225134,1,8,0:0:0:0:
256,192,225193,1,8,0:0:0:0:
256,192,225253,1,8,0:0:0:0:
256,192,225372,1,8,0:0:0:0:
256,192,225491,1,8,0:0:0:0:
256,192,225610,1,0,0:0:0:0:
256,192,225729,1,8,0:0:0:0:
256,192,225848,1,0,0:0:0:0:
256,192,225967,1,8,0:0:0:0:
256,192,226086,1,0,0:0:0:0:
256,192,226205,1,8,0:0:0:0:
256,192,226324,1,0,0:0:0:0:
256,192,226443,1,8,0:0:0:0:
256,192,226563,1,8,0:0:0:0:
256,192,226682,1,8,0:0:0:0:
256,192,226801,1,0,0:0:0:0:
256,192,226920,1,8,0:0:0:0:
256,192,227039,1,0,0:0:0:0:
256,192,227158,1,8,0:0:0:0:
256,192,227277,1,8,0:0:0:0:
256,192,227396,1,8,0:0:0:0:
256,192,227515,1,0,0:0:0:0:
256,192,227634,12,0,228110,0:0:0:0:
256,192,228349,5,8,0:0:0:0:
256,192,228468,1,0,0:0:0:0:
256,192,228587,1,12,0:0:0:0:
256,192,228825,1,0,0:0:0:0:
256,192,228944,1,8,0:0:0:0:
256,192,229063,1,0,0:0:0:0:
256,192,229262,1,8,0:0:0:0:
256,192,229361,1,0,0:0:0:0:
256,192,229420,1,0,0:0:0:0:
256,192,229539,1,0,0:0:0:0:
256,192,229658,1,8,0:0:0:0:
256,192,229777,1,8,0:0:0:0:
256,192,230015,1,8,0:0:0:0:
256,192,230135,1,0,0:0:0:0:
256,192,230254,1,8,0:0:0:0:
256,192,230373,1,0,0:0:0:0:
256,192,230492,1,0,0:0:0:0:
256,192,230730,1,8,0:0:0:0:
256,192,230849,1,0,0:0:0:0:
256,192,230968,1,0,0:0:0:0:
256,192,231166,1,8,0:0:0:0:
256,192,231265,1,0,0:0:0:0:
256,192,231325,1,0,0:0:0:0:
256,192,231444,1,0,0:0:0:0:
256,192,231563,1,8,0:0:0:0:
256,192,231682,1,8,0:0:0:0:
256,192,231841,1,0,0:0:0:0:
256,192,231920,1,8,0:0:0:0:
256,192,232040,1,0,0:0:0:0:
256,192,232159,1,8,0:0:0:0:
256,192,232278,1,8,0:0:0:0:
256,192,232397,1,0,0:0:0:0:
256,192,232635,1,8,0:0:0:0:
256,192,232754,1,0,0:0:0:0:
256,192,232873,1,0,0:0:0:0:
256,192,233071,1,8,0:0:0:0:
256,192,233170,1,0,0:0:0:0:
256,192,233230,1,0,0:0:0:0:
256,192,233349,1,0,0:0:0:0:
256,192,233468,1,8,0:0:0:0:
256,192,233587,1,8,0:0:0:0:
256,192,233746,1,0,0:0:0:0:
256,192,233825,1,8,0:0:0:0:
256,192,233945,1,0,0:0:0:0:
256,192,234064,1,8,0:0:0:0:
256,192,234183,1,0,0:0:0:0:
256,192,234302,1,0,0:0:0:0:
256,192,234540,1,8,0:0:0:0:
256,192,234659,1,0,0:0:0:0:
256,192,234778,1,0,0:0:0:0:
256,192,234976,1,8,0:0:0:0:
256,192,235075,1,0,0:0:0:0:
256,192,235135,1,0,0:0:0:0:
256,192,235254,1,0,0:0:0:0:
256,192,235373,1,8,0:0:0:0:
256,192,235492,1,8,0:0:0:0:
256,192,235730,1,8,0:0:0:0:
256,192,235789,1,0,0:0:0:0:
256,192,235850,1,8,0:0:0:0:
256,192,235969,1,8,0:0:0:0:
256,192,236088,1,0,0:0:0:0:
256,192,236207,1,0,0:0:0:0:
256,192,236444,1,0,0:0:0:0:
256,192,236563,1,8,0:0:0:0:
256,192,236682,1,0,0:0:0:0:
256,192,236881,1,8,0:0:0:0:
256,192,236980,1,0,0:0:0:0:
256,192,237039,1,0,0:0:0:0:
256,192,237158,1,0,0:0:0:0:
256,192,237277,1,8,0:0:0:0:
256,192,237396,1,8,0:0:0:0:
256,192,237634,1,8,0:0:0:0:
256,192,237754,1,0,0:0:0:0:
256,192,237873,1,8,0:0:0:0:
256,192,237992,1,0,0:0:0:0:
256,192,238111,1,0,0:0:0:0:
256,192,238349,1,8,0:0:0:0:
256,192,238468,1,0,0:0:0:0:
256,192,238587,1,0,0:0:0:0:
256,192,238646,1,8,0:0:0:0:
256,192,238765,1,8,0:0:0:0:
256,192,238884,1,8,0:0:0:0:
256,192,238944,1,0,0:0:0:0:
256,192,239063,1,0,0:0:0:0:
256,192,239182,1,8,0:0:0:0:
256,192,239301,1,8,0:0:0:0:
256,192,239460,1,0,0:0:0:0:
256,192,239539,1,8,0:0:0:0:
256,192,239659,1,0,0:0:0:0:
256,192,239778,1,8,0:0:0:0:
256,192,239897,1,8,0:0:0:0:
256,192,240016,1,0,0:0:0:0:
256,192,240254,1,8,0:0:0:0:
256,192,240373,1,0,0:0:0:0:
256,192,240492,1,0,0:0:0:0:
256,192,240690,1,8,0:0:0:0:
256,192,240789,5,0,0:0:0:0:
256,192,240849,1,0,0:0:0:0:
256,192,240968,1,0,0:0:0:0:
256,192,241087,1,8,0:0:0:0:
256,192,241206,1,8,0:0:0:0:
256,192,241365,1,0,0:0:0:0:
256,192,241444,1,8,0:0:0:0:
256,192,241564,1,0,0:0:0:0:
256,192,241683,1,8,0:0:0:0:
256,192,241801,1,8,0:0:0:0:
256,192,241920,12,0,243825,0:0:0:0:
