osu file format v14

[General]
AudioFilename: audio.mp3
AudioLeadIn: 0
PreviewTime: 91864
Countdown: 0
SampleSet: None
StackLeniency: 0.2
Mode: 1
LetterboxInBreaks: 0
WidescreenStoryboard: 1

[Editor]
Bookmarks: 8385,16733,25081,33429,50124,66820,83516,100211,116907,133603,141951,150298
DistanceSpacing: 3
BeatDivisor: 4
GridSize: 32
TimelineZoom: 3.5

[Metadata]
Title:Sugary Daydream
TitleUnicode:Sugary Daydream
Artist:Zekk
ArtistUnicode:Zekk
Creator:Jaye
Version:Muzukashii
Source:
Tags:Ex-Series
BeatmapID:1531089
BeatmapSetID:708322

[Difficulty]
HPDrainRate:6
CircleSize:2
OverallDifficulty:5
ApproachRate:10
SliderMultiplier:1.3999999666214
SliderTickRate:1

[Events]
//Background and Video events
0,0,"12. [Emily] evening-wallpaper.jpg",0,0
//Break Periods
//Storyboard Layer 0 (Background)
//Storyboard Layer 1 (Fail)
//Storyboard Layer 2 (Pass)
//Storyboard Layer 3 (Foreground)
//Storyboard Sound Samples

[TimingPoints]
38,260.869565217391,4,1,0,70,1,0
25081,-100,4,1,0,85,0,0
32907,-100,4,1,0,100,0,0
33429,-100,4,1,0,100,0,1
40733,-100,4,1,0,100,0,0
41777,-100,4,1,0,100,0,1
50124,-100,4,1,0,100,0,0
51168,-100,4,1,0,100,0,1
59516,-100,4,1,0,100,0,0
60037,-100,4,1,0,100,0,1
65777,-100,4,1,0,100,0,0
66820,-100,4,1,0,85,0,0
99951,-100,4,1,0,100,0,1
107516,-100,4,1,0,100,0,0
109081,-100,4,1,0,100,0,1
114559,-100,4,1,0,100,0,0
117951,-100,4,1,0,100,0,1
126298,-100,4,1,0,100,0,0
126820,-100,4,1,0,100,0,1
132559,-100,4,1,0,100,0,0
141951,-100,4,1,0,100,0,1
150298,-100,4,1,0,85,0,0

[HitObjects]
256,192,38,5,0,0:0:0:0:
256,192,298,1,8,0:0:0:0:
256,192,820,1,8,0:0:0:0:
256,192,1081,1,0,0:0:0:0:
256,192,1342,1,8,0:0:0:0:
256,192,1603,1,0,0:0:0:0:
256,192,1864,1,8,0:0:0:0:
256,192,2124,1,0,0:0:0:0:
256,192,2385,1,8,0:0:0:0:
256,192,2907,1,8,0:0:0:0:
256,192,3168,1,0,0:0:0:0:
256,192,3429,1,8,0:0:0:0:
256,192,3690,1,0,0:0:0:0:
256,192,3951,1,8,0:0:0:0:
256,192,4211,1,0,0:0:0:0:
256,192,4472,1,8,0:0:0:0:
256,192,4994,1,0,0:0:0:0:
256,192,5255,1,0,0:0:0:0:
256,192,5516,1,8,0:0:0:0:
256,192,5777,1,0,0:0:0:0:
256,192,6038,1,8,0:0:0:0:
256,192,6298,1,0,0:0:0:0:
256,192,6559,1,8,0:0:0:0:
256,192,7081,1,8,0:0:0:0:
256,192,7342,1,0,0:0:0:0:
256,192,7472,1,8,0:0:0:0:
256,192,7537,1,8,0:0:0:0:
256,192,7603,1,8,0:0:0:0:
256,192,7733,1,8,0:0:0:0:
256,192,7864,1,0,0:0:0:0:
256,192,8125,1,8,0:0:0:0:
256,192,8385,1,0,0:0:0:0:
256,192,8646,1,8,0:0:0:0:
256,192,9168,1,8,0:0:0:0:
256,192,9429,1,0,0:0:0:0:
256,192,9690,1,8,0:0:0:0:
256,192,9951,1,0,0:0:0:0:
256,192,10211,1,8,0:0:0:0:
256,192,10472,1,0,0:0:0:0:
256,192,10733,1,8,0:0:0:0:
256,192,11255,1,8,0:0:0:0:
256,192,11516,1,0,0:0:0:0:
256,192,11777,1,8,0:0:0:0:
256,192,12038,1,0,0:0:0:0:
256,192,12298,1,8,0:0:0:0:
256,192,12429,1,0,0:0:0:0:
256,192,12559,1,0,0:0:0:0:
256,192,12820,1,8,0:0:0:0:
256,192,13342,1,8,0:0:0:0:
256,192,13603,1,0,0:0:0:0:
256,192,13864,1,8,0:0:0:0:
256,192,14125,1,0,0:0:0:0:
256,192,14385,1,8,0:0:0:0:
256,192,14516,1,0,0:0:0:0:
256,192,14646,1,0,0:0:0:0:
256,192,14907,1,8,0:0:0:0:
256,192,15429,1,8,0:0:0:0:
256,192,15690,1,0,0:0:0:0:
256,192,15951,1,0,0:0:0:0:
256,192,16212,1,8,0:0:0:0:
256,192,16342,1,8,0:0:0:0:
256,192,16407,1,8,0:0:0:0:
256,192,16472,1,8,0:0:0:0:
256,192,16733,1,0,0:0:0:0:
256,192,16994,1,8,0:0:0:0:
256,192,17124,1,8,0:0:0:0:
256,192,17646,1,8,0:0:0:0:
256,192,18037,1,8,0:0:0:0:
256,192,18168,1,8,0:0:0:0:
256,192,18690,1,8,0:0:0:0:
256,192,19081,1,8,0:0:0:0:
256,192,19211,1,8,0:0:0:0:
256,192,19733,1,8,0:0:0:0:
256,192,20124,1,8,0:0:0:0:
256,192,20255,1,8,0:0:0:0:
256,192,20385,1,0,0:0:0:0:
256,192,20516,1,8,0:0:0:0:
256,192,20646,1,0,0:0:0:0:
256,192,20907,1,0,0:0:0:0:
256,192,21168,1,8,0:0:0:0:
256,192,21429,1,8,0:0:0:0:
256,192,21559,1,0,0:0:0:0:
256,192,21690,1,8,0:0:0:0:
256,192,21951,1,0,0:0:0:0:
256,192,22211,1,8,0:0:0:0:
256,192,22472,1,0,0:0:0:0:
256,192,22603,1,8,0:0:0:0:
256,192,22733,1,8,0:0:0:0:
256,192,22994,1,0,0:0:0:0:
256,192,23255,1,8,0:0:0:0:
256,192,23516,1,8,0:0:0:0:
256,192,23646,1,0,0:0:0:0:
256,192,23777,1,8,0:0:0:0:
256,192,24037,1,0,0:0:0:0:
256,192,24298,1,8,0:0:0:0:
256,192,24559,1,8,0:0:0:0:
256,192,25081,1,8,0:0:0:0:
256,192,25342,1,0,0:0:0:0:
256,192,25472,1,8,0:0:0:0:
256,192,25733,1,0,0:0:0:0:
256,192,25864,1,8,0:0:0:0:
256,192,25994,1,8,0:0:0:0:
256,192,26385,1,0,0:0:0:0:
256,192,26646,1,8,0:0:0:0:
256,192,27168,1,8,0:0:0:0:
256,192,27429,1,0,0:0:0:0:
256,192,27559,1,8,0:0:0:0:
256,192,27820,1,8,0:0:0:0:
256,192,27951,1,8,0:0:0:0:
256,192,28081,1,0,0:0:0:0:
256,192,28472,1,8,0:0:0:0:
256,192,28733,1,0,0:0:0:0:
256,192,29255,1,8,0:0:0:0:
256,192,29516,1,0,0:0:0:0:
256,192,29646,1,8,0:0:0:0:
256,192,29907,1,0,0:0:0:0:
256,192,30038,1,8,0:0:0:0:
256,192,30168,1,8,0:0:0:0:
256,192,30429,1,8,0:0:0:0:
256,192,30690,1,0,0:0:0:0:
256,192,31342,1,8,0:0:0:0:
256,192,31603,1,0,0:0:0:0:
256,192,31733,1,8,0:0:0:0:
256,192,31994,1,8,0:0:0:0:
256,192,32125,1,0,0:0:0:0:
256,192,32385,1,8,0:0:0:0:
256,192,32646,1,0,0:0:0:0:
256,192,32907,1,12,0:0:0:0:
256,192,33037,1,12,0:0:0:0:
256,192,33168,1,12,0:0:0:0:
256,192,33429,1,0,0:0:0:0:
256,192,33559,1,0,0:0:0:0:
256,192,33690,1,8,0:0:0:0:
256,192,33820,1,0,0:0:0:0:
256,192,34081,1,8,0:0:0:0:
256,192,34211,1,0,0:0:0:0:
256,192,34342,1,0,0:0:0:0:
256,192,34472,1,8,0:0:0:0:
256,192,34603,1,0,0:0:0:0:
256,192,34864,1,8,0:0:0:0:
256,192,34994,1,0,0:0:0:0:
256,192,35124,1,0,0:0:0:0:
256,192,35255,1,8,0:0:0:0:
256,192,35516,1,0,0:0:0:0:
256,192,35777,1,0,0:0:0:0:
256,192,35972,1,8,0:0:0:0:
256,192,36168,1,8,0:0:0:0:
256,192,36364,1,8,0:0:0:0:
256,192,36559,1,8,0:0:0:0:
256,192,36755,1,8,0:0:0:0:
256,192,36951,1,8,0:0:0:0:
256,192,37081,1,0,0:0:0:0:
256,192,37603,1,0,0:0:0:0:
256,192,37733,1,0,0:0:0:0:
256,192,37864,1,8,0:0:0:0:
256,192,37994,1,0,0:0:0:0:
256,192,38255,1,8,0:0:0:0:
256,192,38385,1,0,0:0:0:0:
256,192,38516,1,0,0:0:0:0:
256,192,38646,1,8,0:0:0:0:
256,192,38777,1,0,0:0:0:0:
256,192,39038,1,8,0:0:0:0:
256,192,39168,1,0,0:0:0:0:
256,192,39298,1,0,0:0:0:0:
256,192,39429,1,8,0:0:0:0:
256,192,39690,1,0,0:0:0:0:
256,192,39951,1,0,0:0:0:0:
256,192,40146,1,8,0:0:0:0:
256,192,40342,1,8,0:0:0:0:
256,192,40472,1,0,0:0:0:0:
256,192,40537,1,0,0:0:0:0:
256,192,40603,1,0,0:0:0:0:
256,192,40733,1,8,0:0:0:0:
256,192,41255,1,0,0:0:0:0:
256,192,41516,1,8,0:0:0:0:
256,192,41777,1,0,0:0:0:0:
256,192,42037,1,0,0:0:0:0:
256,192,42168,1,8,0:0:0:0:
256,192,42298,1,0,0:0:0:0:
256,192,42559,1,8,0:0:0:0:
256,192,42820,1,0,0:0:0:0:
256,192,43081,1,8,0:0:0:0:
256,192,43211,1,0,0:0:0:0:
256,192,43277,1,0,0:0:0:0:
256,192,43342,1,0,0:0:0:0:
256,192,43472,1,8,0:0:0:0:
256,192,43603,1,8,0:0:0:0:
256,192,43864,1,0,0:0:0:0:
256,192,44124,1,8,0:0:0:0:
256,192,44255,1,8,0:0:0:0:
256,192,44385,1,0,0:0:0:0:
256,192,44646,1,8,0:0:0:0:
256,192,44907,1,8,0:0:0:0:
256,192,45037,1,0,0:0:0:0:
256,192,45168,1,8,0:0:0:0:
256,192,45298,1,8,0:0:0:0:
256,192,45364,1,8,0:0:0:0:
256,192,45429,1,8,0:0:0:0:
256,192,45559,1,8,0:0:0:0:
256,192,45690,1,0,0:0:0:0:
256,192,45951,1,0,0:0:0:0:
256,192,46211,1,0,0:0:0:0:
256,192,46342,1,8,0:0:0:0:
256,192,46472,1,0,0:0:0:0:
256,192,46733,1,8,0:0:0:0:
256,192,46994,1,0,0:0:0:0:
256,192,47255,1,8,0:0:0:0:
256,192,47385,1,0,0:0:0:0:
256,192,47516,1,0,0:0:0:0:
256,192,47581,1,0,0:0:0:0:
256,192,47646,1,0,0:0:0:0:
256,192,47777,1,8,0:0:0:0:
256,192,48038,1,0,0:0:0:0:
256,192,48298,1,8,0:0:0:0:
256,192,48429,1,0,0:0:0:0:
256,192,48559,1,0,0:0:0:0:
256,192,48820,1,8,0:0:0:0:
256,192,49081,1,8,0:0:0:0:
256,192,49211,1,8,0:0:0:0:
256,192,49342,1,0,0:0:0:0:
256,192,49603,1,8,0:0:0:0:
256,192,49668,1,8,0:0:0:0:
256,192,49733,1,8,0:0:0:0:
256,192,49864,1,8,0:0:0:0:
256,192,50124,1,0,0:0:0:0:
256,192,50385,1,8,0:0:0:0:
256,192,50646,1,0,0:0:0:0:
256,192,50907,1,8,0:0:0:0:
256,192,51168,1,0,0:0:0:0:
256,192,51429,1,8,0:0:0:0:
256,192,51559,1,0,0:0:0:0:
256,192,51690,1,8,0:0:0:0:
256,192,51951,1,8,0:0:0:0:
256,192,52211,1,0,0:0:0:0:
256,192,52472,1,8,0:0:0:0:
256,192,52603,1,8,0:0:0:0:
256,192,52668,1,8,0:0:0:0:
256,192,52733,1,8,0:0:0:0:
256,192,52864,1,8,0:0:0:0:
256,192,52994,1,0,0:0:0:0:
256,192,53255,1,0,0:0:0:0:
256,192,53516,1,8,0:0:0:0:
256,192,53646,1,0,0:0:0:0:
256,192,53777,1,8,0:0:0:0:
256,192,53907,1,8,0:0:0:0:
256,192,53972,1,8,0:0:0:0:
256,192,54037,1,8,0:0:0:0:
256,192,54298,1,8,0:0:0:0:
256,192,54559,1,8,0:0:0:0:
256,192,54690,1,0,0:0:0:0:
256,192,54755,1,0,0:0:0:0:
256,192,54820,1,0,0:0:0:0:
256,192,54951,1,8,0:0:0:0:
256,192,55081,1,0,0:0:0:0:
256,192,55342,1,0,0:0:0:0:
256,192,55603,1,8,0:0:0:0:
256,192,55733,1,0,0:0:0:0:
256,192,55864,1,8,0:0:0:0:
256,192,55929,1,8,0:0:0:0:
256,192,55994,1,8,0:0:0:0:
256,192,56124,1,8,0:0:0:0:
256,192,56385,1,0,0:0:0:0:
256,192,56646,1,8,0:0:0:0:
256,192,56777,1,0,0:0:0:0:
256,192,56842,1,0,0:0:0:0:
256,192,56907,1,0,0:0:0:0:
256,192,57037,1,0,0:0:0:0:
256,192,57168,1,8,0:0:0:0:
256,192,57429,1,0,0:0:0:0:
256,192,57690,1,8,0:0:0:0:
256,192,57820,1,0,0:0:0:0:
256,192,57951,1,8,0:0:0:0:
256,192,58211,1,0,0:0:0:0:
256,192,58472,1,0,0:0:0:0:
256,192,58603,1,8,0:0:0:0:
256,192,58864,1,8,0:0:0:0:
256,192,59124,1,8,0:0:0:0:
256,192,59385,1,0,0:0:0:0:
256,192,59516,1,0,0:0:0:0:
256,192,60037,1,12,0:0:0:0:
256,192,60298,1,8,0:0:0:0:
256,192,60429,1,8,0:0:0:0:
256,192,60494,1,8,0:0:0:0:
256,192,60559,1,8,0:0:0:0:
256,192,60820,1,8,0:0:0:0:
256,192,61081,1,8,0:0:0:0:
256,192,61211,1,0,0:0:0:0:
256,192,61342,1,8,0:0:0:0:
256,192,61603,1,8,0:0:0:0:
256,192,61733,1,0,0:0:0:0:
256,192,61798,1,0,0:0:0:0:
256,192,61864,1,0,0:0:0:0:
256,192,61994,1,0,0:0:0:0:
256,192,62124,1,8,0:0:0:0:
256,192,62385,1,8,0:0:0:0:
256,192,62646,1,0,0:0:0:0:
256,192,62907,1,8,0:0:0:0:
256,192,63037,1,8,0:0:0:0:
256,192,63102,1,8,0:0:0:0:
256,192,63167,1,8,0:0:0:0:
256,192,63298,1,0,0:0:0:0:
256,192,63429,1,0,0:0:0:0:
256,192,63690,1,8,0:0:0:0:
256,192,63951,1,8,0:0:0:0:
256,192,64081,1,0,0:0:0:0:
256,192,64211,1,8,0:0:0:0:
256,192,64342,1,0,0:0:0:0:
256,192,64472,1,8,0:0:0:0:
256,192,64733,1,0,0:0:0:0:
256,192,64864,1,8,0:0:0:0:
256,192,65124,1,8,0:0:0:0:
256,192,65385,1,0,0:0:0:0:
256,192,65516,1,8,0:0:0:0:
256,192,65777,1,0,0:0:0:0:
256,192,66037,1,8,0:0:0:0:
256,192,66298,1,8,0:0:0:0:
256,192,66820,1,0,0:0:0:0:
256,192,67081,1,8,0:0:0:0:
256,192,67342,1,0,0:0:0:0:
256,192,67472,1,0,0:0:0:0:
256,192,67603,1,8,0:0:0:0:
256,192,67864,1,8,0:0:0:0:
256,192,67994,1,8,0:0:0:0:
256,192,68124,1,0,0:0:0:0:
256,192,68255,1,8,0:0:0:0:
256,192,68907,1,0,0:0:0:0:
256,192,69168,1,8,0:0:0:0:
256,192,69429,1,8,0:0:0:0:
256,192,69559,1,0,0:0:0:0:
256,192,69690,1,8,0:0:0:0:
256,192,69951,1,0,0:0:0:0:
256,192,70081,1,8,0:0:0:0:
256,192,70211,1,0,0:0:0:0:
256,192,70342,1,8,0:0:0:0:
256,192,70994,1,0,0:0:0:0:
256,192,71255,1,8,0:0:0:0:
256,192,71516,1,0,0:0:0:0:
256,192,71646,1,0,0:0:0:0:
256,192,71777,1,8,0:0:0:0:
256,192,72037,1,0,0:0:0:0:
256,192,72168,1,8,0:0:0:0:
256,192,72298,1,0,0:0:0:0:
256,192,72429,1,0,0:0:0:0:
256,192,73081,1,0,0:0:0:0:
256,192,73342,1,8,0:0:0:0:
256,192,73603,1,8,0:0:0:0:
256,192,73733,1,8,0:0:0:0:
256,192,73864,1,0,0:0:0:0:
256,192,74124,1,8,0:0:0:0:
256,192,74255,1,8,0:0:0:0:
256,192,74385,1,8,0:0:0:0:
256,192,74516,1,8,0:0:0:0:
256,192,75168,1,0,0:0:0:0:
256,192,75429,1,8,0:0:0:0:
256,192,75690,1,0,0:0:0:0:
256,192,75820,1,0,0:0:0:0:
256,192,75951,1,8,0:0:0:0:
256,192,76211,1,0,0:0:0:0:
256,192,76342,1,0,0:0:0:0:
256,192,76472,1,0,0:0:0:0:
256,192,76603,1,8,0:0:0:0:
256,192,76733,1,8,0:0:0:0:
256,192,77255,1,0,0:0:0:0:
256,192,77516,1,8,0:0:0:0:
256,192,77777,1,0,0:0:0:0:
256,192,77907,1,0,0:0:0:0:
256,192,78038,1,8,0:0:0:0:
256,192,78298,1,0,0:0:0:0:
256,192,78429,1,0,0:0:0:0:
256,192,78559,1,8,0:0:0:0:
256,192,78690,1,8,0:0:0:0:
256,192,78820,1,0,0:0:0:0:
256,192,79342,1,0,0:0:0:0:
256,192,79603,1,8,0:0:0:0:
256,192,79864,1,0,0:0:0:0:
256,192,79994,1,0,0:0:0:0:
256,192,80125,1,8,0:0:0:0:
256,192,80385,1,0,0:0:0:0:
256,192,80516,1,8,0:0:0:0:
256,192,80646,1,8,0:0:0:0:
256,192,80777,1,0,0:0:0:0:
256,192,80907,1,8,0:0:0:0:
256,192,81429,1,0,0:0:0:0:
256,192,81559,1,0,0:0:0:0:
256,192,81690,1,8,0:0:0:0:
256,192,81951,1,8,0:0:0:0:
256,192,82081,1,8,0:0:0:0:
256,192,82211,1,8,0:0:0:0:
256,192,82342,1,8,0:0:0:0:
256,192,82472,1,0,0:0:0:0:
256,192,82733,1,8,0:0:0:0:
256,192,82994,1,0,0:0:0:0:
256,192,83255,1,8,0:0:0:0:
256,192,83516,1,0,0:0:0:0:
256,192,83777,1,8,0:0:0:0:
256,192,83907,1,8,0:0:0:0:
256,192,84429,1,8,0:0:0:0:
256,192,84820,1,8,0:0:0:0:
256,192,84951,1,8,0:0:0:0:
256,192,85473,1,8,0:0:0:0:
256,192,85864,1,8,0:0:0:0:
256,192,85994,1,8,0:0:0:0:
256,192,86516,1,8,0:0:0:0:
256,192,86907,1,8,0:0:0:0:
256,192,87038,1,8,0:0:0:0:
256,192,87168,1,0,0:0:0:0:
256,192,87690,1,0,0:0:0:0:
256,192,87951,1,8,0:0:0:0:
256,192,88212,1,8,0:0:0:0:
256,192,88342,1,0,0:0:0:0:
256,192,88473,1,8,0:0:0:0:
256,192,88734,1,0,0:0:0:0:
256,192,88994,1,8,0:0:0:0:
256,192,89255,1,0,0:0:0:0:
256,192,89386,1,8,0:0:0:0:
256,192,89516,1,8,0:0:0:0:
256,192,89777,1,0,0:0:0:0:
256,192,90038,1,8,0:0:0:0:
256,192,90299,1,8,0:0:0:0:
256,192,90429,1,0,0:0:0:0:
256,192,90560,1,8,0:0:0:0:
256,192,90820,1,0,0:0:0:0:
256,192,91081,1,8,0:0:0:0:
256,192,91342,1,8,0:0:0:0:
256,192,91864,1,8,0:0:0:0:
256,192,92125,1,0,0:0:0:0:
256,192,92255,1,8,0:0:0:0:
256,192,92516,1,0,0:0:0:0:
256,192,92647,1,8,0:0:0:0:
256,192,92777,1,8,0:0:0:0:
256,192,93168,1,0,0:0:0:0:
256,192,93429,1,8,0:0:0:0:
256,192,93951,1,8,0:0:0:0:
256,192,94212,1,0,0:0:0:0:
256,192,94342,1,8,0:0:0:0:
256,192,94603,1,0,0:0:0:0:
256,192,94734,1,8,0:0:0:0:
256,192,94864,1,8,0:0:0:0:
256,192,94994,1,8,0:0:0:0:
256,192,95516,1,0,0:0:0:0:
256,192,96038,1,8,0:0:0:0:
256,192,96299,1,0,0:0:0:0:
256,192,96559,1,8,0:0:0:0:
256,192,96820,1,0,0:0:0:0:
256,192,97081,1,8,0:0:0:0:
256,192,97342,1,0,0:0:0:0:
256,192,97603,1,8,0:0:0:0:
256,192,97733,1,8,0:0:0:0:
256,192,97864,1,0,0:0:0:0:
256,192,98124,1,0,0:0:0:0:
256,192,98385,1,0,0:0:0:0:
256,192,98516,1,8,0:0:0:0:
256,192,98777,1,8,0:0:0:0:
256,192,98907,1,0,0:0:0:0:
256,192,99168,1,12,0:0:0:0:
256,192,99690,1,4,0:0:0:0:
256,192,99951,1,12,0:0:0:0:
256,192,100211,1,0,0:0:0:0:
256,192,100342,1,8,0:0:0:0:
256,192,100603,1,8,0:0:0:0:
256,192,100733,1,0,0:0:0:0:
256,192,100994,1,0,0:0:0:0:
256,192,101124,1,8,0:0:0:0:
256,192,101385,1,8,0:0:0:0:
256,192,101516,1,0,0:0:0:0:
256,192,101777,1,0,0:0:0:0:
256,192,101842,1,0,0:0:0:0:
256,192,101907,1,0,0:0:0:0:
256,192,102037,1,8,0:0:0:0:
256,192,102298,1,8,0:0:0:0:
256,192,102494,1,8,0:0:0:0:
256,192,102690,1,8,0:0:0:0:
256,192,102885,1,8,0:0:0:0:
256,192,103081,1,8,0:0:0:0:
256,192,103342,1,0,0:0:0:0:
256,192,103603,1,8,0:0:0:0:
256,192,103864,1,0,0:0:0:0:
256,192,103994,1,0,0:0:0:0:
256,192,104124,1,8,0:0:0:0:
256,192,104386,1,0,0:0:0:0:
256,192,104646,1,0,0:0:0:0:
256,192,104711,1,0,0:0:0:0:
256,192,104777,1,0,0:0:0:0:
256,192,104907,1,8,0:0:0:0:
256,192,105429,1,0,0:0:0:0:
256,192,105559,1,0,0:0:0:0:
256,192,105690,1,8,0:0:0:0:
256,192,105820,1,8,0:0:0:0:
256,192,106472,1,0,0:0:0:0:
256,192,106733,1,0,0:0:0:0:
256,192,106864,1,8,0:0:0:0:
256,192,107124,1,8,0:0:0:0:
256,192,107255,1,0,0:0:0:0:
256,192,107385,1,8,0:0:0:0:
256,192,107451,1,8,0:0:0:0:
256,192,107516,1,8,0:0:0:0:
256,192,108037,1,0,0:0:0:0:
256,192,108298,1,8,0:0:0:0:
256,192,108559,1,0,0:0:0:0:
256,192,108690,1,8,0:0:0:0:
256,192,108820,1,8,0:0:0:0:
256,192,108951,1,0,0:0:0:0:
256,192,109081,1,8,0:0:0:0:
256,192,109342,1,0,0:0:0:0:
256,192,109603,1,8,0:0:0:0:
256,192,109733,1,0,0:0:0:0:
256,192,109864,1,8,0:0:0:0:
256,192,109994,1,8,0:0:0:0:
256,192,110124,1,0,0:0:0:0:
256,192,110385,1,8,0:0:0:0:
256,192,110646,1,8,0:0:0:0:
256,192,110842,1,8,0:0:0:0:
256,192,111037,1,8,0:0:0:0:
256,192,111233,1,8,0:0:0:0:
256,192,111429,1,8,0:0:0:0:
256,192,111690,1,8,0:0:0:0:
256,192,111951,1,0,0:0:0:0:
256,192,112211,1,8,0:0:0:0:
256,192,112277,1,8,0:0:0:0:
256,192,112342,1,8,0:0:0:0:
256,192,112472,1,0,0:0:0:0:
256,192,112733,1,8,0:0:0:0:
256,192,112864,1,0,0:0:0:0:
256,192,112994,1,0,0:0:0:0:
256,192,113059,1,0,0:0:0:0:
256,192,113124,1,0,0:0:0:0:
256,192,113255,1,8,0:0:0:0:
256,192,113777,1,8,0:0:0:0:
256,192,113907,1,8,0:0:0:0:
256,192,114037,1,0,0:0:0:0:
256,192,114168,1,0,0:0:0:0:
256,192,114820,1,8,0:0:0:0:
256,192,114951,1,8,0:0:0:0:
256,192,115081,1,0,0:0:0:0:
256,192,115342,1,0,0:0:0:0:
256,192,115472,1,0,0:0:0:0:
256,192,115603,1,8,0:0:0:0:
256,192,115733,1,8,0:0:0:0:
256,192,115798,1,8,0:0:0:0:
256,192,115864,1,8,0:0:0:0:
256,192,116124,1,0,0:0:0:0:
256,192,116385,1,0,0:0:0:0:
256,192,116646,1,8,0:0:0:0:
256,192,116907,1,0,0:0:0:0:
256,192,117168,1,8,0:0:0:0:
256,192,117429,1,0,0:0:0:0:
256,192,117690,1,8,0:0:0:0:
256,192,117951,1,8,0:0:0:0:
256,192,118081,1,0,0:0:0:0:
256,192,118212,1,8,0:0:0:0:
256,192,118473,1,8,0:0:0:0:
256,192,118603,1,0,0:0:0:0:
256,192,118668,1,0,0:0:0:0:
256,192,118734,1,0,0:0:0:0:
256,192,118994,1,0,0:0:0:0:
256,192,119125,1,0,0:0:0:0:
256,192,119255,1,8,0:0:0:0:
256,192,119516,1,0,0:0:0:0:
256,192,119647,1,8,0:0:0:0:
256,192,119777,1,0,0:0:0:0:
256,192,120038,1,0,0:0:0:0:
256,192,120168,1,0,0:0:0:0:
256,192,120299,1,8,0:0:0:0:
256,192,120560,1,8,0:0:0:0:
256,192,120690,1,8,0:0:0:0:
256,192,120755,1,8,0:0:0:0:
256,192,120820,1,8,0:0:0:0:
256,192,121081,1,0,0:0:0:0:
256,192,121212,1,0,0:0:0:0:
256,192,121277,1,0,0:0:0:0:
256,192,121342,1,0,0:0:0:0:
256,192,121603,1,0,0:0:0:0:
256,192,121668,1,0,0:0:0:0:
256,192,121734,1,0,0:0:0:0:
256,192,121864,1,8,0:0:0:0:
256,192,122125,1,0,0:0:0:0:
256,192,122255,1,8,0:0:0:0:
256,192,122386,1,8,0:0:0:0:
256,192,122647,1,8,0:0:0:0:
256,192,122711,1,8,0:0:0:0:
256,192,122777,1,8,0:0:0:0:
256,192,122907,1,8,0:0:0:0:
256,192,123168,1,0,0:0:0:0:
256,192,123299,1,0,0:0:0:0:
256,192,123429,1,8,0:0:0:0:
256,192,123690,1,0,0:0:0:0:
256,192,123820,1,0,0:0:0:0:
256,192,123951,1,8,0:0:0:0:
256,192,124212,1,0,0:0:0:0:
256,192,124342,1,0,0:0:0:0:
256,192,124407,1,0,0:0:0:0:
256,192,124473,1,0,0:0:0:0:
256,192,124734,1,8,0:0:0:0:
256,192,124994,1,0,0:0:0:0:
256,192,125255,1,0,0:0:0:0:
256,192,125386,1,8,0:0:0:0:
256,192,125647,1,8,0:0:0:0:
256,192,125907,1,8,0:0:0:0:
256,192,126168,1,8,0:0:0:0:
256,192,126299,1,0,0:0:0:0:
256,192,126820,1,12,0:0:0:0:
256,192,127081,1,8,0:0:0:0:
256,192,127212,1,8,0:0:0:0:
256,192,127277,1,8,0:0:0:0:
256,192,127342,1,8,0:0:0:0:
256,192,127473,1,0,0:0:0:0:
256,192,127603,1,8,0:0:0:0:
256,192,127864,1,8,0:0:0:0:
256,192,127994,1,0,0:0:0:0:
256,192,128125,1,8,0:0:0:0:
256,192,128386,1,0,0:0:0:0:
256,192,128516,1,0,0:0:0:0:
256,192,128647,1,8,0:0:0:0:
256,192,128711,1,8,0:0:0:0:
256,192,128777,1,8,0:0:0:0:
256,192,128907,1,8,0:0:0:0:
256,192,129038,1,8,0:0:0:0:
256,192,129168,1,8,0:0:0:0:
256,192,129429,1,8,0:0:0:0:
256,192,129560,1,0,0:0:0:0:
256,192,129691,1,8,0:0:0:0:
256,192,129951,1,0,0:0:0:0:
256,192,130081,1,0,0:0:0:0:
256,192,130211,1,8,0:0:0:0:
256,192,130472,1,8,0:0:0:0:
256,192,130602,1,0,0:0:0:0:
256,192,130733,1,8,0:0:0:0:
256,192,130798,1,8,0:0:0:0:
256,192,130863,1,8,0:0:0:0:
256,192,130993,1,8,0:0:0:0:
256,192,131254,1,0,0:0:0:0:
256,192,131515,1,0,0:0:0:0:
256,192,131646,1,8,0:0:0:0:
256,192,131776,1,0,0:0:0:0:
256,192,131841,1,0,0:0:0:0:
256,192,131907,1,0,0:0:0:0:
256,192,132037,1,8,0:0:0:0:
256,192,132167,1,0,0:0:0:0:
256,192,132298,1,8,0:0:0:0:
256,192,132559,1,0,0:0:0:0:
256,192,132689,1,0,0:0:0:0:
256,192,132819,1,8,0:0:0:0:
256,192,133080,1,8,0:0:0:0:
256,192,133603,1,0,0:0:0:0:
256,192,133733,1,0,0:0:0:0:
256,192,133864,1,8,0:0:0:0:
256,192,133994,1,0,0:0:0:0:
256,192,134255,1,8,0:0:0:0:
256,192,134385,1,0,0:0:0:0:
256,192,134516,1,0,0:0:0:0:
256,192,134646,1,8,0:0:0:0:
256,192,134777,1,0,0:0:0:0:
256,192,135037,1,8,0:0:0:0:
256,192,135168,1,8,0:0:0:0:
256,192,135298,1,0,0:0:0:0:
256,192,135429,1,8,0:0:0:0:
256,192,135690,1,0,0:0:0:0:
256,192,135951,1,8,0:0:0:0:
256,192,136146,1,8,0:0:0:0:
256,192,136342,1,8,0:0:0:0:
256,192,136537,1,8,0:0:0:0:
256,192,136733,1,8,0:0:0:0:
256,192,136929,1,8,0:0:0:0:
256,192,137124,1,8,0:0:0:0:
256,192,137255,1,8,0:0:0:0:
256,192,137385,1,0,0:0:0:0:
256,192,137516,1,8,0:0:0:0:
256,192,137777,1,0,0:0:0:0:
256,192,137907,1,0,0:0:0:0:
256,192,138038,1,8,0:0:0:0:
256,192,138168,1,0,0:0:0:0:
256,192,138429,1,8,0:0:0:0:
256,192,138559,1,0,0:0:0:0:
256,192,138690,1,0,0:0:0:0:
256,192,138820,1,8,0:0:0:0:
256,192,138951,1,0,0:0:0:0:
256,192,139211,1,8,0:0:0:0:
256,192,139342,1,8,0:0:0:0:
256,192,139472,1,0,0:0:0:0:
256,192,139603,1,8,0:0:0:0:
256,192,139864,1,0,0:0:0:0:
256,192,140124,1,8,0:0:0:0:
256,192,140320,1,8,0:0:0:0:
256,192,140516,1,8,0:0:0:0:
256,192,140711,1,8,0:0:0:0:
256,192,140907,1,0,0:0:0:0:
256,192,141037,1,8,0:0:0:0:
256,192,141168,1,8,0:0:0:0:
256,192,141298,1,0,0:0:0:0:
256,192,141690,1,0,0:0:0:0:
256,192,141951,1,0,0:0:0:0:
256,192,142081,1,0,0:0:0:0:
256,192,142211,1,8,0:0:0:0:
256,192,142342,1,8,0:0:0:0:
256,192,142407,1,8,0:0:0:0:
256,192,142472,1,8,0:0:0:0:
256,192,142603,1,0,0:0:0:0:
256,192,142733,1,8,0:0:0:0:
256,192,142994,1,0,0:0:0:0:
256,192,143124,1,8,0:0:0:0:
256,192,143255,1,8,0:0:0:0:
256,192,143320,1,8,0:0:0:0:
256,192,143385,1,8,0:0:0:0:
256,192,143516,1,0,0:0:0:0:
256,192,143646,1,8,0:0:0:0:
256,192,143777,1,0,0:0:0:0:
256,192,144037,1,0,0:0:0:0:
256,192,144168,1,0,0:0:0:0:
256,192,144299,1,8,0:0:0:0:
256,192,144364,1,8,0:0:0:0:
256,192,144429,1,8,0:0:0:0:
256,192,144559,1,0,0:0:0:0:
256,192,144690,1,0,0:0:0:0:
256,192,144820,1,8,0:0:0:0:
256,192,145081,1,8,0:0:0:0:
256,192,145211,1,8,0:0:0:0:
256,192,145342,1,8,0:0:0:0:
256,192,145472,1,0,0:0:0:0:
256,192,145603,1,8,0:0:0:0:
256,192,145733,1,8,0:0:0:0:
256,192,145798,1,8,0:0:0:0:
256,192,145864,1,8,0:0:0:0:
256,192,146124,1,0,0:0:0:0:
256,192,146255,1,0,0:0:0:0:
256,192,146385,1,8,0:0:0:0:
256,192,146516,1,8,0:0:0:0:
256,192,146581,1,8,0:0:0:0:
256,192,146646,1,8,0:0:0:0:
256,192,146777,1,0,0:0:0:0:
256,192,146907,1,0,0:0:0:0:
256,192,147168,1,0,0:0:0:0:
256,192,147298,1,8,0:0:0:0:
256,192,147429,1,8,0:0:0:0:
256,192,147559,1,0,0:0:0:0:
256,192,147690,1,0,0:0:0:0:
256,192,147755,1,0,0:0:0:0:
256,192,147820,1,0,0:0:0:0:
256,192,147951,1,8,0:0:0:0:
256,192,148211,1,0,0:0:0:0:
256,192,148342,1,0,0:0:0:0:
256,192,148472,1,8,0:0:0:0:
256,192,148603,1,8,0:0:0:0:
256,192,148668,1,8,0:0:0:0:
256,192,148733,1,8,0:0:0:0:
256,192,148864,1,0,0:0:0:0:
256,192,148994,1,8,0:0:0:0:
256,192,149255,1,8,0:0:0:0:
256,192,149385,1,0,0:0:0:0:
256,192,149516,1,0,0:0:0:0:
256,192,149646,1,8,0:0:0:0:
256,192,149907,1,8,0:0:0:0:
256,192,150037,1,0,0:0:0:0:
256,192,150298,1,8,0:0:0:0:
256,192,150559,1,8,0:0:0:0:
256,192,150690,1,0,0:0:0:0:
256,192,150951,1,8,0:0:0:0:
256,192,151081,1,0,0:0:0:0:
256,192,151342,1,0,0:0:0:0:
256,192,151472,1,8,0:0:0:0:
256,192,151733,1,0,0:0:0:0:
256,192,151864,1,8,0:0:0:0:
256,192,151994,1,0,0:0:0:0:
256,192,152124,1,8,0:0:0:0:
256,192,152385,1,8,0:0:0:0:
256,192,152581,1,8,0:0:0:0:
256,192,152777,1,0,0:0:0:0:
256,192,152972,1,0,0:0:0:0:
256,192,153168,1,8,0:0:0:0:
256,192,153429,1,0,0:0:0:0:
256,192,153494,1,0,0:0:0:0:
256,192,153559,1,0,0:0:0:0:
256,192,153690,1,8,0:0:0:0:
