osu file format v14

[General]
AudioFilename: audio.mp3
AudioLeadIn: 0
PreviewTime: -1
Countdown: 0
SampleSet: None
StackLeniency: 0.7
Mode: 3
LetterboxInBreaks: 0
SpecialStyle: 0
WidescreenStoryboard: 1

[Editor]
DistanceSpacing: 0.8
BeatDivisor: 8
GridSize: 4
TimelineZoom: 1.2

[Metadata]
Title:Skrillexore
TitleUnicode:Skrillexore
Artist:Zekk
ArtistUnicode:Zekk
Creator:Tribow
Version:a_mai1298's Normal
Source:
Tags:shuffle project bassline hardcore skrillex mashup
BeatmapID:1402972
BeatmapSetID:652020

[Difficulty]
HPDrainRate:8
CircleSize:4
OverallDifficulty:8
ApproachRate:5
SliderMultiplier:1.4
SliderTickRate:1

[Events]
//Background and Video events
0,0,"ZekkSkrill.png",0,0
//Break Periods
2,156546,166118
//Storyboard Layer 0 (Background)
//Storyboard Layer 1 (Fail)
//Storyboard Layer 2 (Pass)
//Storyboard Layer 3 (Foreground)
//Storyboard Sound Samples

[TimingPoints]
4,342.857142857143,4,2,0,27,1,0

[HitObjects]
64,192,5489,5,0,0:0:0:0:
320,192,5489,1,0,0:0:0:0:
192,192,5832,1,0,0:0:0:0:
320,192,5832,1,0,0:0:0:0:
448,192,6175,1,0,0:0:0:0:
320,192,6175,1,0,0:0:0:0:
64,192,6432,1,0,0:0:0:0:
192,192,6432,1,0,0:0:0:0:
192,192,6689,1,0,0:0:0:0:
448,192,6689,1,0,0:0:0:0:
320,192,6861,1,0,0:0:0:0:
64,192,6861,1,0,0:0:0:0:
192,192,7204,1,0,0:0:0:0:
448,192,7204,1,0,0:0:0:0:
320,192,7546,1,0,0:0:0:0:
192,192,7546,1,0,0:0:0:0:
64,192,7804,1,0,0:0:0:0:
192,192,7804,1,0,0:0:0:0:
192,192,8061,1,0,0:0:0:0:
448,192,8061,1,0,0:0:0:0:
320,192,8232,1,0,0:0:0:0:
64,192,8232,1,0,0:0:0:0:
64,192,8575,1,0,0:0:0:0:
448,192,8575,1,0,0:0:0:0:
320,192,8918,1,0,0:0:0:0:
448,192,8918,1,0,0:0:0:0:
320,192,9175,1,0,0:0:0:0:
192,192,9175,1,0,0:0:0:0:
320,192,9432,1,0,0:0:0:0:
64,192,9432,1,0,0:0:0:0:
192,192,9604,1,0,0:0:0:0:
448,192,9604,1,0,0:0:0:0:
320,192,9946,1,0,0:0:0:0:
64,192,9946,1,0,0:0:0:0:
320,192,10289,1,0,0:0:0:0:
448,192,10289,1,0,0:0:0:0:
192,192,10546,1,0,0:0:0:0:
448,192,10546,1,0,0:0:0:0:
320,192,10804,1,0,0:0:0:0:
64,192,10804,1,0,0:0:0:0:
192,192,10975,1,0,0:0:0:0:
448,192,10975,1,0,0:0:0:0:
192,192,11318,1,0,0:0:0:0:
64,192,11318,1,0,0:0:0:0:
192,192,11661,1,0,0:0:0:0:
448,192,11661,1,0,0:0:0:0:
320,192,11918,1,0,0:0:0:0:
64,192,11918,1,0,0:0:0:0:
448,192,12175,1,0,0:0:0:0:
192,192,12175,1,0,0:0:0:0:
320,192,12346,1,0,0:0:0:0:
64,192,12346,1,0,0:0:0:0:
192,192,12518,1,0,0:0:0:0:
320,192,12689,1,0,0:0:0:0:
448,192,12689,1,0,0:0:0:0:
192,192,12861,1,0,0:0:0:0:
64,192,13032,1,0,0:0:0:0:
320,192,13032,1,0,0:0:0:0:
192,192,13204,1,0,0:0:0:0:
320,192,13375,1,0,0:0:0:0:
448,192,13375,1,0,0:0:0:0:
192,192,13546,1,0,0:0:0:0:
320,192,13718,1,0,0:0:0:0:
64,192,13718,1,0,0:0:0:0:
320,192,15432,1,0,0:0:0:0:
448,192,15775,1,0,0:0:0:0:
192,192,15775,1,0,0:0:0:0:
64,192,15775,1,0,0:0:0:0:
448,192,16461,1,0,0:0:0:0:
320,192,16461,1,0,0:0:0:0:
192,192,16632,1,0,0:0:0:0:
64,192,16804,1,0,0:0:0:0:
320,192,16804,1,0,0:0:0:0:
192,192,16975,1,0,0:0:0:0:
320,192,17146,1,0,0:0:0:0:
448,192,17146,1,0,0:0:0:0:
192,192,17318,1,0,0:0:0:0:
320,192,17489,1,0,0:0:0:0:
64,192,17489,1,0,0:0:0:0:
448,192,17661,1,0,0:0:0:0:
320,192,17832,1,0,0:0:0:0:
192,192,17832,1,0,0:0:0:0:
64,192,18004,1,0,0:0:0:0:
192,192,18175,1,0,0:0:0:0:
448,192,18175,1,0,0:0:0:0:
64,192,18346,1,0,0:0:0:0:
320,192,18518,128,0,18861:0:0:0:0:
192,192,18861,1,0,0:0:0:0:
448,192,19032,1,0,0:0:0:0:
64,192,19204,1,0,0:0:0:0:
192,192,19204,1,0,0:0:0:0:
320,192,19375,1,0,0:0:0:0:
448,192,19546,1,0,0:0:0:0:
64,192,19546,1,0,0:0:0:0:
320,192,19718,1,0,0:0:0:0:
192,192,19889,1,0,0:0:0:0:
64,192,19889,1,0,0:0:0:0:
320,192,20061,1,0,0:0:0:0:
192,192,20232,1,0,0:0:0:0:
448,192,20232,1,0,0:0:0:0:
320,192,20404,1,0,0:0:0:0:
192,192,20575,1,0,0:0:0:0:
64,192,20575,1,0,0:0:0:0:
448,192,20746,1,0,0:0:0:0:
192,192,20918,1,0,0:0:0:0:
320,192,20918,1,0,0:0:0:0:
448,192,21089,1,0,0:0:0:0:
320,192,21261,1,0,0:0:0:0:
64,192,21261,1,0,0:0:0:0:
192,192,21432,1,0,0:0:0:0:
320,192,21604,1,0,0:0:0:0:
448,192,21604,1,0,0:0:0:0:
64,192,21775,1,0,0:0:0:0:
192,192,21946,1,0,0:0:0:0:
448,192,21946,1,0,0:0:0:0:
320,192,22118,1,0,0:0:0:0:
64,192,22289,1,0,0:0:0:0:
448,192,22289,1,0,0:0:0:0:
320,192,22461,1,0,0:0:0:0:
192,192,22632,1,0,0:0:0:0:
64,192,22632,1,0,0:0:0:0:
448,192,22804,1,0,0:0:0:0:
320,192,22975,1,0,0:0:0:0:
192,192,22975,1,0,0:0:0:0:
64,192,23146,1,0,0:0:0:0:
448,192,23318,1,0,0:0:0:0:
320,192,23318,1,0,0:0:0:0:
192,192,23489,1,0,0:0:0:0:
448,192,23661,1,0,0:0:0:0:
64,192,23661,1,0,0:0:0:0:
192,192,23832,1,0,0:0:0:0:
320,192,24004,128,0,24346:0:0:0:0:
192,192,24346,1,0,0:0:0:0:
448,192,24518,1,0,0:0:0:0:
320,192,24689,1,0,0:0:0:0:
192,192,24689,1,0,0:0:0:0:
64,192,24861,1,0,0:0:0:0:
448,192,25032,1,0,0:0:0:0:
320,192,25032,1,0,0:0:0:0:
64,192,25204,1,0,0:0:0:0:
192,192,25375,1,0,0:0:0:0:
448,192,25375,1,0,0:0:0:0:
320,192,25546,1,0,0:0:0:0:
192,192,25718,1,0,0:0:0:0:
64,192,25718,1,0,0:0:0:0:
448,192,25889,1,0,0:0:0:0:
192,192,26061,1,0,0:0:0:0:
320,192,26061,1,0,0:0:0:0:
448,192,26232,1,0,0:0:0:0:
64,192,26404,1,0,0:0:0:0:
320,192,26404,1,0,0:0:0:0:
448,192,26575,1,0,0:0:0:0:
192,192,26746,1,0,0:0:0:0:
64,192,26746,1,0,0:0:0:0:
192,192,27261,1,0,0:0:0:0:
320,192,27261,1,0,0:0:0:0:
448,192,27432,128,0,28804:0:0:0:0:
320,192,27946,1,0,0:0:0:0:
192,192,28118,1,0,0:0:0:0:
64,192,28375,1,0,0:0:0:0:
192,192,28632,1,0,0:0:0:0:
64,192,28804,128,0,30175:0:0:0:0:
320,192,29146,1,0,0:0:0:0:
192,192,29232,1,0,0:0:0:0:
448,192,29489,1,0,0:0:0:0:
320,192,29746,1,0,0:0:0:0:
192,192,30004,1,0,0:0:0:0:
448,192,30175,1,0,0:0:0:0:
320,192,30346,1,0,0:0:0:0:
192,192,30346,1,0,0:0:0:0:
64,192,30518,1,0,0:0:0:0:
448,192,30689,1,0,0:0:0:0:
320,192,30775,1,0,0:0:0:0:
192,192,30861,1,0,0:0:0:0:
64,192,30946,1,0,0:0:0:0:
320,192,31118,1,0,0:0:0:0:
192,192,31204,1,0,0:0:0:0:
448,192,31375,1,0,0:0:0:0:
64,192,31546,1,0,0:0:0:0:
192,192,31718,1,0,0:0:0:0:
320,192,31718,1,0,0:0:0:0:
448,192,31889,1,0,0:0:0:0:
64,192,32061,1,0,0:0:0:0:
192,192,32146,1,0,0:0:0:0:
320,192,32232,1,0,0:0:0:0:
448,192,32318,1,0,0:0:0:0:
192,192,32489,1,0,0:0:0:0:
320,192,32575,1,0,0:0:0:0:
64,192,32746,1,0,0:0:0:0:
448,192,32918,128,0,34289:0:0:0:0:
192,192,33432,1,0,0:0:0:0:
64,192,33604,1,0,0:0:0:0:
320,192,33604,1,0,0:0:0:0:
320,192,33861,1,0,0:0:0:0:
192,192,34118,1,0,0:0:0:0:
64,192,34289,128,0,35661:0:0:0:0:
320,192,34632,1,0,0:0:0:0:
448,192,34718,1,0,0:0:0:0:
320,192,34975,1,0,0:0:0:0:
192,192,34975,1,0,0:0:0:0:
448,192,35232,1,0,0:0:0:0:
192,192,35489,1,0,0:0:0:0:
320,192,35489,1,0,0:0:0:0:
448,192,35661,1,0,0:0:0:0:
320,192,35832,1,0,0:0:0:0:
192,192,35832,1,0,0:0:0:0:
64,192,36004,1,0,0:0:0:0:
448,192,36175,1,0,0:0:0:0:
320,192,36261,1,0,0:0:0:0:
192,192,36346,1,0,0:0:0:0:
64,192,36432,1,0,0:0:0:0:
192,192,36604,1,0,0:0:0:0:
320,192,36689,1,0,0:0:0:0:
448,192,37032,128,0,37204:0:0:0:0:
320,192,37204,128,0,37375:0:0:0:0:
192,192,37375,128,0,37546:0:0:0:0:
64,192,37546,1,0,0:0:0:0:
448,192,37718,1,0,0:0:0:0:
320,192,37718,1,0,0:0:0:0:
192,192,37889,1,0,0:0:0:0:
64,192,38061,1,0,0:0:0:0:
320,192,38061,128,0,38404:0:0:0:0:
448,192,38404,1,0,0:0:0:0:
192,192,38575,1,0,0:0:0:0:
64,192,38746,1,0,0:0:0:0:
448,192,38746,1,0,0:0:0:0:
192,192,38918,1,0,0:0:0:0:
320,192,39089,1,0,0:0:0:0:
448,192,39089,1,0,0:0:0:0:
192,192,39261,1,0,0:0:0:0:
320,192,39432,1,0,0:0:0:0:
64,192,39432,1,0,0:0:0:0:
448,192,39604,1,0,0:0:0:0:
320,192,39775,1,0,0:0:0:0:
192,192,39775,1,0,0:0:0:0:
64,192,39946,1,0,0:0:0:0:
320,192,40118,1,0,0:0:0:0:
448,192,40118,1,0,0:0:0:0:
192,192,40289,1,0,0:0:0:0:
320,192,40461,128,0,40804:0:0:0:0:
64,192,40804,1,0,0:0:0:0:
448,192,40975,1,0,0:0:0:0:
64,192,41146,1,0,0:0:0:0:
192,192,41146,1,0,0:0:0:0:
320,192,41318,1,0,0:0:0:0:
448,192,41489,1,0,0:0:0:0:
64,192,41489,1,0,0:0:0:0:
320,192,41661,1,0,0:0:0:0:
192,192,41832,1,0,0:0:0:0:
64,192,41832,1,0,0:0:0:0:
320,192,42004,1,0,0:0:0:0:
192,192,42175,1,0,0:0:0:0:
448,192,42175,1,0,0:0:0:0:
320,192,42346,1,0,0:0:0:0:
192,192,42518,1,0,0:0:0:0:
64,192,42518,1,0,0:0:0:0:
448,192,42689,1,0,0:0:0:0:
192,192,42861,1,0,0:0:0:0:
64,192,42861,1,0,0:0:0:0:
448,192,43032,1,0,0:0:0:0:
320,192,43204,1,0,0:0:0:0:
64,192,43204,1,0,0:0:0:0:
192,192,43375,1,0,0:0:0:0:
320,192,43546,1,0,0:0:0:0:
448,192,43546,1,0,0:0:0:0:
64,192,43718,1,0,0:0:0:0:
192,192,43889,1,0,0:0:0:0:
448,192,43889,1,0,0:0:0:0:
320,192,44061,1,0,0:0:0:0:
448,192,44232,1,0,0:0:0:0:
64,192,44232,1,0,0:0:0:0:
320,192,44404,1,0,0:0:0:0:
192,192,44575,1,0,0:0:0:0:
64,192,44575,1,0,0:0:0:0:
448,192,44746,1,0,0:0:0:0:
320,192,44918,1,0,0:0:0:0:
192,192,44918,1,0,0:0:0:0:
64,192,45089,1,0,0:0:0:0:
448,192,45261,1,0,0:0:0:0:
320,192,45261,1,0,0:0:0:0:
192,192,45432,1,0,0:0:0:0:
448,192,45604,1,0,0:0:0:0:
64,192,45604,1,0,0:0:0:0:
192,192,45775,1,0,0:0:0:0:
320,192,45946,128,0,46289:0:0:0:0:
192,192,46289,1,0,0:0:0:0:
448,192,46461,1,0,0:0:0:0:
320,192,46632,1,0,0:0:0:0:
192,192,46632,1,0,0:0:0:0:
64,192,46804,1,0,0:0:0:0:
320,192,46975,1,0,0:0:0:0:
448,192,46975,1,0,0:0:0:0:
64,192,47146,1,0,0:0:0:0:
192,192,47318,1,0,0:0:0:0:
448,192,47318,1,0,0:0:0:0:
320,192,47489,1,0,0:0:0:0:
192,192,47661,1,0,0:0:0:0:
64,192,47661,1,0,0:0:0:0:
448,192,47832,1,0,0:0:0:0:
192,192,48004,1,0,0:0:0:0:
320,192,48004,1,0,0:0:0:0:
448,192,48175,1,0,0:0:0:0:
320,192,48346,1,0,0:0:0:0:
64,192,48346,1,0,0:0:0:0:
448,192,48518,1,0,0:0:0:0:
192,192,48689,1,0,0:0:0:0:
64,192,48689,1,0,0:0:0:0:
192,192,49204,1,0,0:0:0:0:
320,192,49204,1,0,0:0:0:0:
448,192,49375,128,0,50746:0:0:0:0:
320,192,49889,1,0,0:0:0:0:
192,192,50061,1,0,0:0:0:0:
64,192,50318,1,0,0:0:0:0:
192,192,50575,1,0,0:0:0:0:
64,192,50746,128,0,52118:0:0:0:0:
320,192,51089,1,0,0:0:0:0:
192,192,51175,1,0,0:0:0:0:
448,192,51432,1,0,0:0:0:0:
320,192,51689,1,0,0:0:0:0:
192,192,51946,1,0,0:0:0:0:
448,192,52118,1,0,0:0:0:0:
320,192,52289,1,0,0:0:0:0:
192,192,52289,1,0,0:0:0:0:
64,192,52461,1,0,0:0:0:0:
448,192,52632,1,0,0:0:0:0:
320,192,52718,1,0,0:0:0:0:
192,192,52804,1,0,0:0:0:0:
64,192,52889,1,0,0:0:0:0:
320,192,53061,1,0,0:0:0:0:
192,192,53146,1,0,0:0:0:0:
448,192,53318,1,0,0:0:0:0:
64,192,53489,1,0,0:0:0:0:
192,192,53661,1,0,0:0:0:0:
320,192,53661,1,0,0:0:0:0:
448,192,53832,1,0,0:0:0:0:
64,192,54004,1,0,0:0:0:0:
192,192,54089,1,0,0:0:0:0:
320,192,54175,1,0,0:0:0:0:
448,192,54261,1,0,0:0:0:0:
192,192,54432,1,0,0:0:0:0:
320,192,54518,1,0,0:0:0:0:
64,192,54689,1,0,0:0:0:0:
448,192,54861,128,0,56232:0:0:0:0:
192,192,55375,1,0,0:0:0:0:
64,192,55546,1,0,0:0:0:0:
320,192,55546,1,0,0:0:0:0:
320,192,55804,1,0,0:0:0:0:
192,192,56061,1,0,0:0:0:0:
64,192,56232,128,0,57604:0:0:0:0:
320,192,56575,1,0,0:0:0:0:
448,192,56661,1,0,0:0:0:0:
320,192,56918,1,0,0:0:0:0:
192,192,56918,1,0,0:0:0:0:
448,192,57175,1,0,0:0:0:0:
192,192,57432,1,0,0:0:0:0:
320,192,57432,1,0,0:0:0:0:
448,192,57604,1,0,0:0:0:0:
320,192,57775,1,0,0:0:0:0:
192,192,57775,1,0,0:0:0:0:
64,192,57946,1,0,0:0:0:0:
448,192,58118,1,0,0:0:0:0:
320,192,58204,1,0,0:0:0:0:
192,192,58289,1,0,0:0:0:0:
64,192,58375,1,0,0:0:0:0:
320,192,58632,128,0,58975:0:0:0:0:
192,192,58975,1,0,0:0:0:0:
448,192,58975,128,0,59489:0:0:0:0:
64,192,59489,1,0,0:0:0:0:
448,192,59661,1,0,0:0:0:0:
192,192,59832,1,0,0:0:0:0:
64,192,60004,1,0,0:0:0:0:
320,192,60004,1,0,0:0:0:0:
192,192,60175,1,0,0:0:0:0:
448,192,60346,1,0,0:0:0:0:
320,192,60346,1,0,0:0:0:0:
64,192,60518,1,0,0:0:0:0:
320,192,60689,1,0,0:0:0:0:
192,192,60861,1,0,0:0:0:0:
448,192,61032,1,0,0:0:0:0:
192,192,61204,1,0,0:0:0:0:
448,192,61375,1,0,0:0:0:0:
320,192,61546,1,0,0:0:0:0:
64,192,61718,1,0,0:0:0:0:
320,192,61889,1,0,0:0:0:0:
192,192,62061,1,0,0:0:0:0:
320,192,62232,1,0,0:0:0:0:
448,192,62404,1,0,0:0:0:0:
320,192,62575,1,0,0:0:0:0:
192,192,62746,1,0,0:0:0:0:
320,192,62918,1,0,0:0:0:0:
64,192,63089,1,0,0:0:0:0:
192,192,63261,1,0,0:0:0:0:
448,192,63432,1,0,0:0:0:0:
320,192,63604,1,0,0:0:0:0:
448,192,63775,1,0,0:0:0:0:
320,192,63946,1,0,0:0:0:0:
192,192,64118,1,0,0:0:0:0:
64,192,64289,1,0,0:0:0:0:
320,192,64461,1,0,0:0:0:0:
192,192,64632,1,0,0:0:0:0:
320,192,64804,1,0,0:0:0:0:
192,192,64975,1,0,0:0:0:0:
448,192,65146,1,0,0:0:0:0:
192,192,65318,1,0,0:0:0:0:
320,192,65489,1,0,0:0:0:0:
192,192,65661,1,0,0:0:0:0:
64,192,65832,1,0,0:0:0:0:
320,192,66004,1,0,0:0:0:0:
192,192,66175,1,0,0:0:0:0:
448,192,66346,1,0,0:0:0:0:
192,192,66518,1,0,0:0:0:0:
320,192,66689,1,0,0:0:0:0:
448,192,66861,1,0,0:0:0:0:
320,192,67032,1,0,0:0:0:0:
64,192,67204,1,0,0:0:0:0:
192,192,67375,1,0,0:0:0:0:
448,192,67546,1,0,0:0:0:0:
192,192,67718,1,0,0:0:0:0:
320,192,67889,1,0,0:0:0:0:
64,192,68061,1,0,0:0:0:0:
192,192,68232,1,0,0:0:0:0:
320,192,68404,1,0,0:0:0:0:
192,192,68575,1,0,0:0:0:0:
448,192,68746,1,0,0:0:0:0:
320,192,68918,1,0,0:0:0:0:
64,192,69089,1,0,0:0:0:0:
320,192,69261,1,0,0:0:0:0:
192,192,69432,1,0,0:0:0:0:
320,192,69604,1,0,0:0:0:0:
192,192,69775,1,0,0:0:0:0:
64,192,69946,1,0,0:0:0:0:
320,192,70118,1,0,0:0:0:0:
448,192,70289,1,0,0:0:0:0:
192,192,70461,1,0,0:0:0:0:
448,192,70632,1,0,0:0:0:0:
64,192,70804,1,0,0:0:0:0:
320,192,70975,1,0,0:0:0:0:
192,192,71146,1,0,0:0:0:0:
448,192,71318,1,0,0:0:0:0:
320,192,71318,1,0,0:0:0:0:
64,192,71489,1,0,0:0:0:0:
320,192,71661,1,0,0:0:0:0:
192,192,71832,1,0,0:0:0:0:
448,192,72004,1,0,0:0:0:0:
192,192,72175,1,0,0:0:0:0:
448,192,72346,1,0,0:0:0:0:
320,192,72518,1,0,0:0:0:0:
64,192,72689,1,0,0:0:0:0:
320,192,72861,1,0,0:0:0:0:
192,192,73032,1,0,0:0:0:0:
320,192,73204,1,0,0:0:0:0:
448,192,73375,1,0,0:0:0:0:
320,192,73546,1,0,0:0:0:0:
192,192,73718,1,0,0:0:0:0:
320,192,73889,1,0,0:0:0:0:
64,192,74061,1,0,0:0:0:0:
192,192,74232,1,0,0:0:0:0:
448,192,74404,1,0,0:0:0:0:
320,192,74575,1,0,0:0:0:0:
448,192,74746,1,0,0:0:0:0:
320,192,74918,1,0,0:0:0:0:
192,192,75089,1,0,0:0:0:0:
64,192,75261,1,0,0:0:0:0:
320,192,75432,1,0,0:0:0:0:
192,192,75604,1,0,0:0:0:0:
320,192,75775,1,0,0:0:0:0:
192,192,75946,1,0,0:0:0:0:
448,192,76118,1,0,0:0:0:0:
192,192,76289,1,0,0:0:0:0:
320,192,76461,1,0,0:0:0:0:
192,192,76632,1,0,0:0:0:0:
64,192,76804,1,0,0:0:0:0:
320,192,76975,1,0,0:0:0:0:
192,192,77146,1,0,0:0:0:0:
448,192,77318,1,0,0:0:0:0:
192,192,77489,1,0,0:0:0:0:
320,192,77661,1,0,0:0:0:0:
448,192,77832,1,0,0:0:0:0:
320,192,78004,1,0,0:0:0:0:
64,192,78175,1,0,0:0:0:0:
192,192,78346,1,0,0:0:0:0:
448,192,78518,1,0,0:0:0:0:
192,192,78689,1,0,0:0:0:0:
320,192,78861,1,0,0:0:0:0:
64,192,79032,1,0,0:0:0:0:
192,192,79204,1,0,0:0:0:0:
320,192,79375,1,0,0:0:0:0:
192,192,79546,1,0,0:0:0:0:
448,192,79718,1,0,0:0:0:0:
320,192,79889,1,0,0:0:0:0:
64,192,80061,1,0,0:0:0:0:
320,192,80232,1,0,0:0:0:0:
192,192,80404,1,0,0:0:0:0:
320,192,80575,1,0,0:0:0:0:
192,192,80746,1,0,0:0:0:0:
64,192,80918,1,0,0:0:0:0:
320,192,81089,1,0,0:0:0:0:
448,192,81261,1,0,0:0:0:0:
192,192,81432,1,0,0:0:0:0:
448,192,81604,1,0,0:0:0:0:
64,192,81775,1,0,0:0:0:0:
320,192,81946,1,0,0:0:0:0:
192,192,82118,1,0,0:0:0:0:
320,192,82289,1,0,0:0:0:0:
448,192,82289,1,0,0:0:0:0:
64,192,82461,1,0,0:0:0:0:
192,192,82632,1,0,0:0:0:0:
448,192,82804,1,0,0:0:0:0:
320,192,82975,1,0,0:0:0:0:
64,192,83146,1,0,0:0:0:0:
192,192,83318,1,0,0:0:0:0:
448,192,83489,1,0,0:0:0:0:
320,192,83661,1,0,0:0:0:0:
192,192,83661,1,0,0:0:0:0:
64,192,83832,1,0,0:0:0:0:
192,192,84004,1,0,0:0:0:0:
448,192,84175,1,0,0:0:0:0:
320,192,84346,1,0,0:0:0:0:
192,192,84346,1,0,0:0:0:0:
64,192,84518,1,0,0:0:0:0:
192,192,84689,1,0,0:0:0:0:
320,192,84689,1,0,0:0:0:0:
448,192,85032,128,0,85375:0:0:0:0:
320,192,85375,1,0,0:0:0:0:
192,192,85546,1,0,0:0:0:0:
64,192,85718,1,0,0:0:0:0:
192,192,85889,1,0,0:0:0:0:
320,192,85975,1,0,0:0:0:0:
448,192,86061,1,0,0:0:0:0:
192,192,86232,1,0,0:0:0:0:
320,192,86404,1,0,0:0:0:0:
448,192,86404,1,0,0:0:0:0:
192,192,86575,1,0,0:0:0:0:
320,192,86746,1,0,0:0:0:0:
64,192,86746,1,0,0:0:0:0:
192,192,86918,1,0,0:0:0:0:
448,192,87089,1,0,0:0:0:0:
64,192,87089,1,0,0:0:0:0:
192,192,87261,1,0,0:0:0:0:
320,192,87432,128,0,87775:0:0:0:0:
192,192,87775,1,0,0:0:0:0:
448,192,87946,1,0,0:0:0:0:
320,192,88118,1,0,0:0:0:0:
64,192,88118,1,0,0:0:0:0:
192,192,88289,1,0,0:0:0:0:
320,192,88461,1,0,0:0:0:0:
448,192,88461,1,0,0:0:0:0:
64,192,88632,1,0,0:0:0:0:
192,192,88804,1,0,0:0:0:0:
448,192,88804,1,0,0:0:0:0:
320,192,88975,1,0,0:0:0:0:
64,192,89146,1,0,0:0:0:0:
64,192,89318,1,0,0:0:0:0:
448,192,89489,128,0,89832:0:0:0:0:
64,192,89832,1,0,0:0:0:0:
64,192,90004,1,0,0:0:0:0:
448,192,90175,128,0,90518:0:0:0:0:
64,192,90518,1,0,0:0:0:0:
192,192,90689,1,0,0:0:0:0:
320,192,90861,128,0,91204:0:0:0:0:
64,192,91204,128,0,91546:0:0:0:0:
448,192,91889,1,0,0:0:0:0:
448,192,92061,1,0,0:0:0:0:
320,192,92232,1,0,0:0:0:0:
320,192,92404,1,0,0:0:0:0:
192,192,92575,1,0,0:0:0:0:
64,192,92746,1,0,0:0:0:0:
448,192,92918,1,0,0:0:0:0:
320,192,92918,1,0,0:0:0:0:
64,192,93261,128,0,93604:0:0:0:0:
320,192,93604,128,0,93946:0:0:0:0:
448,192,93604,1,0,0:0:0:0:
192,192,93946,128,0,94289:0:0:0:0:
320,192,94289,1,0,0:0:0:0:
448,192,94289,128,0,94632:0:0:0:0:
320,192,94632,128,0,94975:0:0:0:0:
64,192,94632,128,0,94975:0:0:0:0:
448,192,94975,1,0,0:0:0:0:
192,192,94975,1,0,0:0:0:0:
320,192,95146,1,0,0:0:0:0:
192,192,95318,1,0,0:0:0:0:
64,192,95318,1,0,0:0:0:0:
320,192,95489,1,0,0:0:0:0:
448,192,95661,1,0,0:0:0:0:
320,192,95832,1,0,0:0:0:0:
192,192,96004,1,0,0:0:0:0:
64,192,96004,1,0,0:0:0:0:
448,192,96175,1,0,0:0:0:0:
320,192,96261,1,0,0:0:0:0:
192,192,96346,1,0,0:0:0:0:
64,192,96518,1,0,0:0:0:0:
320,192,96689,1,0,0:0:0:0:
448,192,96689,1,0,0:0:0:0:
192,192,96861,1,0,0:0:0:0:
320,192,96946,1,0,0:0:0:0:
448,192,97032,1,0,0:0:0:0:
320,192,97204,1,0,0:0:0:0:
192,192,97375,1,0,0:0:0:0:
64,192,97375,1,0,0:0:0:0:
320,192,97546,1,0,0:0:0:0:
192,192,97718,1,0,0:0:0:0:
448,192,97718,1,0,0:0:0:0:
64,192,97889,1,0,0:0:0:0:
320,192,98061,1,0,0:0:0:0:
448,192,98061,1,0,0:0:0:0:
192,192,98232,1,0,0:0:0:0:
64,192,98404,1,0,0:0:0:0:
320,192,98404,128,0,98746:0:0:0:0:
448,192,98746,1,0,0:0:0:0:
192,192,98918,1,0,0:0:0:0:
448,192,99089,1,0,0:0:0:0:
64,192,99089,1,0,0:0:0:0:
320,192,99261,1,0,0:0:0:0:
64,192,99432,1,0,0:0:0:0:
448,192,99432,1,0,0:0:0:0:
192,192,99604,1,0,0:0:0:0:
448,192,99775,1,0,0:0:0:0:
64,192,99775,1,0,0:0:0:0:
320,192,99946,1,0,0:0:0:0:
64,192,100118,1,0,0:0:0:0:
448,192,100118,1,0,0:0:0:0:
192,192,100289,1,0,0:0:0:0:
448,192,100461,1,0,0:0:0:0:
64,192,100461,1,0,0:0:0:0:
192,192,100632,1,0,0:0:0:0:
320,192,100804,1,0,0:0:0:0:
448,192,100804,1,0,0:0:0:0:
192,192,100975,1,0,0:0:0:0:
320,192,101146,1,0,0:0:0:0:
448,192,101146,1,0,0:0:0:0:
192,192,101318,1,0,0:0:0:0:
320,192,101489,1,0,0:0:0:0:
64,192,101661,1,0,0:0:0:0:
448,192,101832,128,0,102175:0:0:0:0:
192,192,102175,128,0,102518:0:0:0:0:
64,192,102518,1,0,0:0:0:0:
448,192,102861,1,0,0:0:0:0:
448,192,103032,1,0,0:0:0:0:
320,192,103204,1,0,0:0:0:0:
320,192,103375,1,0,0:0:0:0:
192,192,103546,1,0,0:0:0:0:
64,192,103718,1,0,0:0:0:0:
320,192,103889,1,0,0:0:0:0:
448,192,103889,1,0,0:0:0:0:
192,192,104061,1,0,0:0:0:0:
320,192,104232,128,0,104575:0:0:0:0:
64,192,104575,1,0,0:0:0:0:
448,192,104918,128,0,105261:0:0:0:0:
64,192,104918,1,0,0:0:0:0:
192,192,105261,128,0,105604:0:0:0:0:
320,192,105604,1,0,0:0:0:0:
448,192,106632,128,0,106975:0:0:0:0:
320,192,106975,128,0,107318:0:0:0:0:
192,192,107318,1,0,0:0:0:0:
64,192,107489,1,0,0:0:0:0:
320,192,107661,1,0,0:0:0:0:
448,192,107661,1,0,0:0:0:0:
192,192,107832,1,0,0:0:0:0:
320,192,107918,1,0,0:0:0:0:
448,192,108004,1,0,0:0:0:0:
192,192,108175,1,0,0:0:0:0:
320,192,108346,1,0,0:0:0:0:
64,192,108346,1,0,0:0:0:0:
192,192,108518,1,0,0:0:0:0:
320,192,108689,1,0,0:0:0:0:
448,192,108689,1,0,0:0:0:0:
64,192,108861,1,0,0:0:0:0:
192,192,109032,1,0,0:0:0:0:
320,192,109032,1,0,0:0:0:0:
64,192,109375,128,0,109718:0:0:0:0:
448,192,109718,1,0,0:0:0:0:
320,192,109889,1,0,0:0:0:0:
192,192,110061,1,0,0:0:0:0:
64,192,110061,1,0,0:0:0:0:
320,192,110232,1,0,0:0:0:0:
448,192,110404,1,0,0:0:0:0:
192,192,110404,1,0,0:0:0:0:
64,192,110575,1,0,0:0:0:0:
320,192,110746,1,0,0:0:0:0:
448,192,110746,1,0,0:0:0:0:
192,192,110918,1,0,0:0:0:0:
64,192,111089,1,0,0:0:0:0:
448,192,111261,1,0,0:0:0:0:
192,192,111432,128,0,111775:0:0:0:0:
448,192,111775,1,0,0:0:0:0:
64,192,111946,1,0,0:0:0:0:
320,192,112118,128,0,112461:0:0:0:0:
192,192,112461,1,0,0:0:0:0:
64,192,112632,1,0,0:0:0:0:
448,192,112804,128,0,113146:0:0:0:0:
320,192,113146,128,0,113489:0:0:0:0:
192,192,113489,1,0,0:0:0:0:
64,192,113489,1,0,0:0:0:0:
448,192,113661,1,0,0:0:0:0:
320,192,113746,1,0,0:0:0:0:
192,192,113832,128,0,114518:0:0:0:0:
448,192,114518,1,0,0:0:0:0:
64,192,114689,1,0,0:0:0:0:
192,192,114775,1,0,0:0:0:0:
320,192,114861,1,0,0:0:0:0:
448,192,115032,1,0,0:0:0:0:
192,192,115204,1,0,0:0:0:0:
64,192,115204,1,0,0:0:0:0:
320,192,115546,1,0,0:0:0:0:
448,192,115546,1,0,0:0:0:0:
192,192,115889,1,0,0:0:0:0:
64,192,115889,1,0,0:0:0:0:
448,192,116232,1,0,0:0:0:0:
64,192,116232,1,0,0:0:0:0:
320,192,116575,128,0,116918:0:0:0:0:
192,192,116918,1,0,0:0:0:0:
448,192,116918,1,0,0:0:0:0:
192,192,117261,1,0,0:0:0:0:
64,192,117261,1,0,0:0:0:0:
320,192,117432,1,0,0:0:0:0:
448,192,117604,1,0,0:0:0:0:
320,192,117775,1,0,0:0:0:0:
192,192,117946,1,0,0:0:0:0:
64,192,117946,1,0,0:0:0:0:
448,192,118118,1,0,0:0:0:0:
320,192,118204,1,0,0:0:0:0:
192,192,118289,1,0,0:0:0:0:
64,192,118461,1,0,0:0:0:0:
320,192,118632,1,0,0:0:0:0:
448,192,118632,1,0,0:0:0:0:
64,192,118804,1,0,0:0:0:0:
192,192,118889,1,0,0:0:0:0:
320,192,118975,1,0,0:0:0:0:
448,192,119146,1,0,0:0:0:0:
64,192,119318,1,0,0:0:0:0:
192,192,119318,1,0,0:0:0:0:
448,192,119489,1,0,0:0:0:0:
192,192,119661,1,0,0:0:0:0:
64,192,119661,1,0,0:0:0:0:
320,192,119832,1,0,0:0:0:0:
448,192,120004,1,0,0:0:0:0:
192,192,120004,1,0,0:0:0:0:
64,192,120175,1,0,0:0:0:0:
320,192,120346,1,0,0:0:0:0:
448,192,120346,1,0,0:0:0:0:
192,192,120518,1,0,0:0:0:0:
320,192,120689,1,0,0:0:0:0:
448,192,120689,1,0,0:0:0:0:
64,192,120861,1,0,0:0:0:0:
192,192,121032,1,0,0:0:0:0:
320,192,121032,1,0,0:0:0:0:
448,192,121204,1,0,0:0:0:0:
192,192,121375,1,0,0:0:0:0:
64,192,121375,1,0,0:0:0:0:
320,192,121546,1,0,0:0:0:0:
448,192,121718,1,0,0:0:0:0:
192,192,121718,1,0,0:0:0:0:
64,192,121889,1,0,0:0:0:0:
192,192,122061,1,0,0:0:0:0:
320,192,122061,1,0,0:0:0:0:
448,192,122061,1,0,0:0:0:0:
192,192,123432,1,0,0:0:0:0:
448,192,123432,128,0,124118:0:0:0:0:
192,192,124118,1,0,0:0:0:0:
64,192,124289,1,0,0:0:0:0:
320,192,124461,1,0,0:0:0:0:
192,192,124632,1,0,0:0:0:0:
320,192,124804,1,0,0:0:0:0:
448,192,124804,128,0,125489:0:0:0:0:
64,192,125489,1,0,0:0:0:0:
192,192,125661,1,0,0:0:0:0:
320,192,125832,1,0,0:0:0:0:
192,192,126004,1,0,0:0:0:0:
448,192,126175,128,0,126861:0:0:0:0:
320,192,126175,1,0,0:0:0:0:
320,192,126861,1,0,0:0:0:0:
192,192,127032,1,0,0:0:0:0:
64,192,127204,1,0,0:0:0:0:
192,192,127375,1,0,0:0:0:0:
448,192,127546,128,0,128232:0:0:0:0:
320,192,127546,1,0,0:0:0:0:
192,192,128232,1,0,0:0:0:0:
320,192,128404,1,0,0:0:0:0:
64,192,128575,1,0,0:0:0:0:
192,192,128746,1,0,0:0:0:0:
320,192,128918,1,0,0:0:0:0:
320,192,129089,1,0,0:0:0:0:
192,192,129261,1,0,0:0:0:0:
192,192,129432,1,0,0:0:0:0:
448,192,129604,1,0,0:0:0:0:
320,192,129775,1,0,0:0:0:0:
64,192,129946,1,0,0:0:0:0:
192,192,130118,1,0,0:0:0:0:
320,192,130289,1,0,0:0:0:0:
192,192,130461,1,0,0:0:0:0:
320,192,130632,1,0,0:0:0:0:
192,192,130804,1,0,0:0:0:0:
448,192,130975,1,0,0:0:0:0:
64,192,131146,1,0,0:0:0:0:
448,192,131318,1,0,0:0:0:0:
64,192,131489,1,0,0:0:0:0:
192,192,131661,1,0,0:0:0:0:
448,192,131661,1,0,0:0:0:0:
448,192,134404,128,0,134746:0:0:0:0:
320,192,134746,1,0,0:0:0:0:
64,192,135089,128,0,135346:0:0:0:0:
448,192,135346,128,0,135604:0:0:0:0:
192,192,135604,1,0,0:0:0:0:
64,192,135775,128,0,136118:0:0:0:0:
320,192,136118,1,0,0:0:0:0:
448,192,136289,1,0,0:0:0:0:
320,192,136461,1,0,0:0:0:0:
64,192,136632,1,0,0:0:0:0:
192,192,136804,1,0,0:0:0:0:
320,192,136889,1,0,0:0:0:0:
192,192,137061,1,0,0:0:0:0:
448,192,137146,128,0,137489:0:0:0:0:
320,192,137489,1,0,0:0:0:0:
64,192,137661,1,0,0:0:0:0:
192,192,137832,128,0,138175:0:0:0:0:
448,192,138175,128,0,138518:0:0:0:0:
64,192,138518,1,0,0:0:0:0:
192,192,138518,1,0,0:0:0:0:
320,192,138861,1,0,0:0:0:0:
448,192,138861,1,0,0:0:0:0:
320,192,139204,1,0,0:0:0:0:
64,192,139204,1,0,0:0:0:0:
192,192,139546,1,0,0:0:0:0:
448,192,139546,1,0,0:0:0:0:
320,192,139889,128,0,140232:0:0:0:0:
192,192,140232,1,0,0:0:0:0:
320,192,140575,1,0,0:0:0:0:
448,192,140575,1,0,0:0:0:0:
64,192,140832,1,0,0:0:0:0:
192,192,140918,1,0,0:0:0:0:
320,192,141089,1,0,0:0:0:0:
448,192,141089,1,0,0:0:0:0:
192,192,141261,128,0,141604:0:0:0:0:
320,192,141604,1,0,0:0:0:0:
192,192,141946,1,0,0:0:0:0:
64,192,141946,1,0,0:0:0:0:
192,192,142289,1,0,0:0:0:0:
448,192,142289,1,0,0:0:0:0:
448,192,142632,128,0,142975:0:0:0:0:
320,192,142975,1,0,0:0:0:0:
192,192,143146,1,0,0:0:0:0:
64,192,143318,128,0,144004:0:0:0:0:
448,192,144004,1,0,0:0:0:0:
448,192,144689,1,0,0:0:0:0:
320,192,144775,1,0,0:0:0:0:
64,192,144861,1,0,0:0:0:0:
192,192,144946,1,0,0:0:0:0:
320,192,145204,1,0,0:0:0:0:
192,192,145375,1,0,0:0:0:0:
448,192,145375,1,0,0:0:0:0:
64,192,145718,128,0,146061:0:0:0:0:
192,192,146061,1,0,0:0:0:0:
320,192,146404,1,0,0:0:0:0:
448,192,146404,1,0,0:0:0:0:
192,192,146575,1,0,0:0:0:0:
320,192,146746,1,0,0:0:0:0:
64,192,146746,1,0,0:0:0:0:
192,192,147089,1,0,0:0:0:0:
320,192,147261,1,0,0:0:0:0:
64,192,147432,1,0,0:0:0:0:
448,192,147432,1,0,0:0:0:0:
192,192,147604,1,0,0:0:0:0:
320,192,147775,1,0,0:0:0:0:
448,192,147775,1,0,0:0:0:0:
64,192,147946,1,0,0:0:0:0:
192,192,148118,1,0,0:0:0:0:
448,192,148118,1,0,0:0:0:0:
64,192,148461,128,0,148804:0:0:0:0:
192,192,148804,1,0,0:0:0:0:
320,192,148975,1,0,0:0:0:0:
448,192,149146,1,0,0:0:0:0:
192,192,149146,1,0,0:0:0:0:
320,192,149318,1,0,0:0:0:0:
192,192,149489,1,0,0:0:0:0:
64,192,149489,1,0,0:0:0:0:
320,192,149575,1,0,0:0:0:0:
448,192,149661,1,0,0:0:0:0:
192,192,149832,1,0,0:0:0:0:
320,192,150004,1,0,0:0:0:0:
64,192,150175,1,0,0:0:0:0:
448,192,150175,1,0,0:0:0:0:
192,192,150518,1,0,0:0:0:0:
320,192,150518,1,0,0:0:0:0:
448,192,150861,1,0,0:0:0:0:
64,192,150861,1,0,0:0:0:0:
320,192,151204,128,0,151546:0:0:0:0:
64,192,151546,1,0,0:0:0:0:
448,192,151718,1,0,0:0:0:0:
64,192,151889,1,0,0:0:0:0:
448,192,152061,1,0,0:0:0:0:
192,192,152232,1,0,0:0:0:0:
64,192,152232,1,0,0:0:0:0:
448,192,152404,1,0,0:0:0:0:
320,192,152575,1,0,0:0:0:0:
448,192,152746,1,0,0:0:0:0:
320,192,152918,1,0,0:0:0:0:
64,192,152918,1,0,0:0:0:0:
192,192,153089,1,0,0:0:0:0:
320,192,153261,1,0,0:0:0:0:
448,192,153261,1,0,0:0:0:0:
64,192,153432,1,0,0:0:0:0:
192,192,153604,1,0,0:0:0:0:
448,192,153604,1,0,0:0:0:0:
320,192,153775,1,0,0:0:0:0:
192,192,153946,1,0,0:0:0:0:
64,192,153946,1,0,0:0:0:0:
320,192,154289,1,0,0:0:0:0:
448,192,154289,1,0,0:0:0:0:
192,192,154975,1,0,0:0:0:0:
320,192,155232,1,0,0:0:0:0:
192,192,155489,1,0,0:0:0:0:
64,192,155661,1,0,0:0:0:0:
448,192,156004,1,0,0:0:0:0:
192,192,156346,1,0,0:0:0:0:
64,192,156346,1,0,0:0:0:0:
192,192,167318,5,0,0:0:0:0:
448,192,167318,1,0,0:0:0:0:
320,192,167661,1,0,0:0:0:0:
64,192,167918,1,0,0:0:0:0:
192,192,168004,1,0,0:0:0:0:
320,192,168089,1,0,0:0:0:0:
448,192,168175,1,0,0:0:0:0:
192,192,168346,1,0,0:0:0:0:
448,192,168518,1,0,0:0:0:0:
320,192,168689,1,0,0:0:0:0:
64,192,168689,1,0,0:0:0:0:
448,192,169032,1,0,0:0:0:0:
192,192,169289,1,0,0:0:0:0:
320,192,169546,1,0,0:0:0:0:
448,192,169546,1,0,0:0:0:0:
192,192,169718,1,0,0:0:0:0:
320,192,169889,1,0,0:0:0:0:
64,192,170061,1,0,0:0:0:0:
192,192,170061,1,0,0:0:0:0:
192,192,170404,1,0,0:0:0:0:
320,192,170661,1,0,0:0:0:0:
448,192,170918,1,0,0:0:0:0:
192,192,170918,1,0,0:0:0:0:
320,192,171089,1,0,0:0:0:0:
192,192,171261,1,0,0:0:0:0:
64,192,171432,1,0,0:0:0:0:
448,192,171432,1,0,0:0:0:0:
320,192,171775,1,0,0:0:0:0:
448,192,171775,1,0,0:0:0:0:
192,192,172032,1,0,0:0:0:0:
320,192,172289,1,0,0:0:0:0:
192,192,172461,1,0,0:0:0:0:
64,192,172461,1,0,0:0:0:0:
448,192,172632,1,0,0:0:0:0:
320,192,172804,1,0,0:0:0:0:
64,192,172804,1,0,0:0:0:0:
448,192,173146,1,0,0:0:0:0:
64,192,173404,1,0,0:0:0:0:
192,192,173489,1,0,0:0:0:0:
448,192,173575,1,0,0:0:0:0:
320,192,173661,1,0,0:0:0:0:
192,192,173832,1,0,0:0:0:0:
448,192,173832,1,0,0:0:0:0:
320,192,174004,1,0,0:0:0:0:
192,192,174175,1,0,0:0:0:0:
64,192,174175,1,0,0:0:0:0:
320,192,174518,1,0,0:0:0:0:
448,192,174518,1,0,0:0:0:0:
448,192,174775,1,0,0:0:0:0:
192,192,174861,1,0,0:0:0:0:
64,192,174861,1,0,0:0:0:0:
192,192,175204,1,0,0:0:0:0:
320,192,175204,1,0,0:0:0:0:
320,192,175546,1,0,0:0:0:0:
320,192,175718,1,0,0:0:0:0:
192,192,175889,1,0,0:0:0:0:
192,192,176061,1,0,0:0:0:0:
320,192,176146,1,0,0:0:0:0:
448,192,176232,1,0,0:0:0:0:
448,192,176404,1,0,0:0:0:0:
64,192,176575,1,0,0:0:0:0:
64,192,176746,1,0,0:0:0:0:
448,192,176918,1,0,0:0:0:0:
320,192,177089,1,0,0:0:0:0:
192,192,177261,1,0,0:0:0:0:
64,192,177432,1,0,0:0:0:0:
192,192,177518,1,0,0:0:0:0:
320,192,177604,1,0,0:0:0:0:
448,192,177689,1,0,0:0:0:0:
64,192,177775,1,0,0:0:0:0:
192,192,177861,1,0,0:0:0:0:
320,192,177946,1,0,0:0:0:0:
448,192,178032,1,0,0:0:0:0:
64,192,178118,1,0,0:0:0:0:
192,192,178204,1,0,0:0:0:0:
320,192,178289,1,0,0:0:0:0:
448,192,178632,1,0,0:0:0:0:
64,192,178889,1,0,0:0:0:0:
192,192,178975,1,0,0:0:0:0:
320,192,179061,1,0,0:0:0:0:
448,192,179146,1,0,0:0:0:0:
320,192,179318,1,0,0:0:0:0:
192,192,179489,1,0,0:0:0:0:
64,192,179661,1,0,0:0:0:0:
320,192,180004,1,0,0:0:0:0:
448,192,180261,1,0,0:0:0:0:
320,192,180346,1,0,0:0:0:0:
192,192,180432,1,0,0:0:0:0:
64,192,180518,1,0,0:0:0:0:
192,192,180689,1,0,0:0:0:0:
320,192,180861,1,0,0:0:0:0:
448,192,181032,1,0,0:0:0:0:
320,192,181204,1,0,0:0:0:0:
192,192,181375,1,0,0:0:0:0:
64,192,181546,1,0,0:0:0:0:
192,192,181632,1,0,0:0:0:0:
320,192,181718,1,0,0:0:0:0:
448,192,181804,1,0,0:0:0:0:
64,192,181889,1,0,0:0:0:0:
192,192,181975,1,0,0:0:0:0:
320,192,182061,1,0,0:0:0:0:
448,192,182146,1,0,0:0:0:0:
64,192,182232,1,0,0:0:0:0:
192,192,182318,1,0,0:0:0:0:
320,192,182404,128,0,183261:0:0:0:0:
320,192,183432,1,0,0:0:0:0:
64,192,183775,1,0,0:0:0:0:
192,192,183775,1,0,0:0:0:0:
448,192,184118,1,0,0:0:0:0:
320,192,184118,1,0,0:0:0:0:
320,192,184461,1,0,0:0:0:0:
192,192,184461,1,0,0:0:0:0:
192,192,184804,1,0,0:0:0:0:
64,192,184804,1,0,0:0:0:0:
320,192,185146,1,0,0:0:0:0:
448,192,185146,1,0,0:0:0:0:
192,192,185318,1,0,0:0:0:0:
64,192,185489,1,0,0:0:0:0:
192,192,185661,1,0,0:0:0:0:
320,192,185832,1,0,0:0:0:0:
64,192,185832,1,0,0:0:0:0:
192,192,186175,1,0,0:0:0:0:
448,192,186175,1,0,0:0:0:0:
320,192,186518,1,0,0:0:0:0:
64,192,186518,1,0,0:0:0:0:
448,192,186861,1,0,0:0:0:0:
64,192,186861,1,0,0:0:0:0:
320,192,187204,1,0,0:0:0:0:
448,192,187375,1,0,0:0:0:0:
192,192,187546,1,0,0:0:0:0:
64,192,187718,1,0,0:0:0:0:
320,192,187889,1,0,0:0:0:0:
448,192,187889,1,0,0:0:0:0:
320,192,188232,1,0,0:0:0:0:
192,192,188232,1,0,0:0:0:0:
192,192,188575,1,0,0:0:0:0:
64,192,188575,1,0,0:0:0:0:
320,192,188746,1,0,0:0:0:0:
64,192,188918,1,0,0:0:0:0:
448,192,188918,1,0,0:0:0:0:
192,192,189089,1,0,0:0:0:0:
448,192,189261,1,0,0:0:0:0:
64,192,189261,1,0,0:0:0:0:
64,192,189604,1,0,0:0:0:0:
192,192,189604,1,0,0:0:0:0:
320,192,189946,1,0,0:0:0:0:
448,192,189946,1,0,0:0:0:0:
192,192,190289,1,0,0:0:0:0:
320,192,190289,1,0,0:0:0:0:
192,192,190632,1,0,0:0:0:0:
64,192,190632,1,0,0:0:0:0:
320,192,190804,1,0,0:0:0:0:
448,192,190975,1,0,0:0:0:0:
320,192,191146,1,0,0:0:0:0:
192,192,191318,1,0,0:0:0:0:
64,192,191318,1,0,0:0:0:0:
320,192,191489,1,0,0:0:0:0:
448,192,191661,128,0,192004:0:0:0:0:
320,192,192004,1,0,0:0:0:0:
192,192,192346,1,0,0:0:0:0:
64,192,192346,1,0,0:0:0:0:
320,192,192689,1,0,0:0:0:0:
448,192,192689,1,0,0:0:0:0:
192,192,192861,1,0,0:0:0:0:
320,192,193032,1,0,0:0:0:0:
64,192,193204,1,0,0:0:0:0:
448,192,193375,1,0,0:0:0:0:
320,192,193375,1,0,0:0:0:0:
320,192,193718,1,0,0:0:0:0:
448,192,193718,1,0,0:0:0:0:
192,192,193889,1,0,0:0:0:0:
64,192,193889,1,0,0:0:0:0:
448,192,194232,1,0,0:0:0:0:
320,192,194318,1,0,0:0:0:0:
192,192,194404,1,0,0:0:0:0:
64,192,194489,1,0,0:0:0:0:
192,192,194575,1,0,0:0:0:0:
448,192,194746,128,0,195089:0:0:0:0:
320,192,195089,1,0,0:0:0:0:
192,192,195432,1,0,0:0:0:0:
64,192,195432,1,0,0:0:0:0:
448,192,195604,1,0,0:0:0:0:
320,192,195689,1,0,0:0:0:0:
192,192,195775,1,0,0:0:0:0:
64,192,195946,1,0,0:0:0:0:
192,192,196032,1,0,0:0:0:0:
320,192,196118,1,0,0:0:0:0:
64,192,196289,1,0,0:0:0:0:
320,192,196461,1,0,0:0:0:0:
448,192,196461,1,0,0:0:0:0:
64,192,196632,1,0,0:0:0:0:
192,192,196804,1,0,0:0:0:0:
448,192,196804,1,0,0:0:0:0:
320,192,196975,1,0,0:0:0:0:
64,192,197146,128,0,197489:0:0:0:0:
320,192,197489,128,0,197832:0:0:0:0:
192,192,197832,128,0,198175:0:0:0:0:
448,192,198175,128,0,198518:0:0:0:0:
64,192,198518,1,0,0:0:0:0:
320,192,198689,128,0,199546:0:0:0:0:
192,192,198861,1,0,0:0:0:0:
64,192,199204,1,0,0:0:0:0:
192,192,199546,1,0,0:0:0:0:
448,192,199718,1,0,0:0:0:0:
320,192,199889,1,0,0:0:0:0:
64,192,199889,1,0,0:0:0:0:
192,192,200061,1,0,0:0:0:0:
320,192,200232,1,0,0:0:0:0:
448,192,200232,1,0,0:0:0:0:
192,192,200575,1,0,0:0:0:0:
320,192,200575,1,0,0:0:0:0:
448,192,200918,1,0,0:0:0:0:
64,192,200918,1,0,0:0:0:0:
320,192,201089,1,0,0:0:0:0:
192,192,201261,1,0,0:0:0:0:
64,192,201261,1,0,0:0:0:0:
448,192,201432,1,0,0:0:0:0:
192,192,201604,1,0,0:0:0:0:
320,192,201604,1,0,0:0:0:0:
64,192,201775,1,0,0:0:0:0:
448,192,201946,1,0,0:0:0:0:
64,192,202118,1,0,0:0:0:0:
448,192,202289,1,0,0:0:0:0:
320,192,202289,1,0,0:0:0:0:
192,192,202461,1,0,0:0:0:0:
320,192,202632,128,0,202975:0:0:0:0:
64,192,202632,1,0,0:0:0:0:
448,192,202975,1,0,0:0:0:0:
192,192,203146,1,0,0:0:0:0:
320,192,203318,1,0,0:0:0:0:
64,192,203489,1,0,0:0:0:0:
192,192,203661,1,0,0:0:0:0:
320,192,203832,1,0,0:0:0:0:
192,192,204004,1,0,0:0:0:0:
448,192,204175,1,0,0:0:0:0:
320,192,204346,1,0,0:0:0:0:
192,192,204518,1,0,0:0:0:0:
448,192,205375,1,0,0:0:0:0:
64,192,205375,1,0,0:0:0:0:
192,192,205546,1,0,0:0:0:0:
64,192,205718,1,0,0:0:0:0:
320,192,205718,128,0,206061:0:0:0:0:
448,192,206061,128,0,206232:0:0:0:0:
192,192,206404,128,0,206575:0:0:0:0:
320,192,206746,128,0,206918:0:0:0:0:
64,192,207089,1,0,0:0:0:0:
448,192,207261,1,0,0:0:0:0:
64,192,207432,1,0,0:0:0:0:
448,192,207604,1,0,0:0:0:0:
64,192,207775,1,0,0:0:0:0:
192,192,207861,1,0,0:0:0:0:
320,192,207946,1,0,0:0:0:0:
448,192,208032,1,0,0:0:0:0:
64,192,208118,128,0,208461:0:0:0:0:
320,192,208461,128,0,208804:0:0:0:0:
448,192,208804,128,0,208975:0:0:0:0:
192,192,209146,128,0,209318:0:0:0:0:
320,192,209318,128,0,209489:0:0:0:0:
192,192,209489,128,0,209661:0:0:0:0:
64,192,209661,128,0,209832:0:0:0:0:
192,192,210175,1,0,0:0:0:0:
448,192,210175,1,0,0:0:0:0:
64,192,210518,1,0,0:0:0:0:
192,192,210604,1,0,0:0:0:0:
320,192,210689,1,0,0:0:0:0:
448,192,210775,1,0,0:0:0:0:
64,192,210861,1,0,0:0:0:0:
192,192,210946,1,0,0:0:0:0:
320,192,211032,1,0,0:0:0:0:
64,192,211204,128,0,211546:0:0:0:0:
320,192,211546,1,0,0:0:0:0:
448,192,211546,1,0,0:0:0:0:
64,192,211889,1,0,0:0:0:0:
320,192,211889,1,0,0:0:0:0:
192,192,212061,1,0,0:0:0:0:
448,192,212232,1,0,0:0:0:0:
320,192,212232,1,0,0:0:0:0:
64,192,212404,1,0,0:0:0:0:
448,192,212575,1,0,0:0:0:0:
64,192,212746,1,0,0:0:0:0:
448,192,212918,1,0,0:0:0:0:
64,192,213089,1,0,0:0:0:0:
448,192,213261,1,0,0:0:0:0:
320,192,213346,1,0,0:0:0:0:
192,192,213432,1,0,0:0:0:0:
64,192,213518,1,0,0:0:0:0:
448,192,213604,128,0,213946:0:0:0:0:
64,192,213946,1,0,0:0:0:0:
192,192,214289,1,0,0:0:0:0:
320,192,214289,1,0,0:0:0:0:
320,192,214632,128,0,214804:0:0:0:0:
448,192,214804,128,0,214975:0:0:0:0:
192,192,214975,128,0,215146:0:0:0:0:
64,192,215146,128,0,215318:0:0:0:0:
448,192,215318,128,0,215489:0:0:0:0:
192,192,215832,5,0,0:0:0:0:
320,192,215832,1,0,0:0:0:0:
320,192,216346,1,0,0:0:0:0:
448,192,216518,1,0,0:0:0:0:
64,192,216689,5,0,0:0:0:0:
192,192,216689,1,0,0:0:0:0:
320,192,216861,1,0,0:0:0:0:
192,192,217032,1,0,0:0:0:0:
320,192,217204,1,0,0:0:0:0:
192,192,217375,1,0,0:0:0:0:
448,192,217375,1,0,0:0:0:0:
320,192,217546,1,0,0:0:0:0:
192,192,217718,1,0,0:0:0:0:
64,192,217718,1,0,0:0:0:0:
320,192,217889,1,0,0:0:0:0:
192,192,218061,1,0,0:0:0:0:
448,192,218061,1,0,0:0:0:0:
64,192,218232,1,0,0:0:0:0:
192,192,218404,1,0,0:0:0:0:
448,192,218575,1,0,0:0:0:0:
320,192,218746,128,0,219089:0:0:0:0:
64,192,219089,128,0,219432:0:0:0:0:
192,192,219432,1,0,0:0:0:0:
320,192,219604,1,0,0:0:0:0:
192,192,219775,1,0,0:0:0:0:
448,192,219946,1,0,0:0:0:0:
320,192,220118,1,0,0:0:0:0:
64,192,220118,1,0,0:0:0:0:
192,192,220289,1,0,0:0:0:0:
320,192,220461,1,0,0:0:0:0:
448,192,220461,1,0,0:0:0:0:
64,192,220632,1,0,0:0:0:0:
192,192,220804,1,0,0:0:0:0:
320,192,220804,1,0,0:0:0:0:
64,192,220975,1,0,0:0:0:0:
192,192,221146,1,0,0:0:0:0:
448,192,221146,1,0,0:0:0:0:
320,192,221318,1,0,0:0:0:0:
192,192,221489,1,0,0:0:0:0:
64,192,221489,1,0,0:0:0:0:
448,192,221661,1,0,0:0:0:0:
192,192,221832,1,0,0:0:0:0:
64,192,221832,1,0,0:0:0:0:
320,192,222004,1,0,0:0:0:0:
192,192,222175,1,0,0:0:0:0:
64,192,222175,1,0,0:0:0:0:
320,192,222346,1,0,0:0:0:0:
448,192,222518,1,0,0:0:0:0:
192,192,222689,1,0,0:0:0:0:
320,192,222861,1,0,0:0:0:0:
448,192,222861,1,0,0:0:0:0:
192,192,223032,1,0,0:0:0:0:
320,192,223204,1,0,0:0:0:0:
448,192,223204,1,0,0:0:0:0:
64,192,223375,1,0,0:0:0:0:
192,192,223546,1,0,0:0:0:0:
320,192,223546,1,0,0:0:0:0:
448,192,223718,1,0,0:0:0:0:
320,192,223889,1,0,0:0:0:0:
64,192,223889,1,0,0:0:0:0:
192,192,224061,1,0,0:0:0:0:
64,192,224232,128,0,224575:0:0:0:0:
448,192,224575,128,0,224918:0:0:0:0:
64,192,224918,1,0,0:0:0:0:
192,192,225089,1,0,0:0:0:0:
320,192,225261,1,0,0:0:0:0:
448,192,225432,1,0,0:0:0:0:
192,192,225604,1,0,0:0:0:0:
64,192,225604,1,0,0:0:0:0:
320,192,225946,1,0,0:0:0:0:
448,192,225946,1,0,0:0:0:0:
192,192,226118,1,0,0:0:0:0:
64,192,226632,1,0,0:0:0:0:
320,192,226632,1,0,0:0:0:0:
448,192,226804,1,0,0:0:0:0:
320,192,226975,1,0,0:0:0:0:
192,192,226975,1,0,0:0:0:0:
192,192,227232,1,0,0:0:0:0:
64,192,227318,1,0,0:0:0:0:
448,192,227489,1,0,0:0:0:0:
192,192,227661,1,0,0:0:0:0:
192,192,227832,1,0,0:0:0:0:
320,192,228004,1,0,0:0:0:0:
64,192,228175,1,0,0:0:0:0:
320,192,228346,1,0,0:0:0:0:
448,192,228346,1,0,0:0:0:0:
192,192,228518,1,0,0:0:0:0:
320,192,228689,1,0,0:0:0:0:
448,192,228861,1,0,0:0:0:0:
192,192,229032,1,0,0:0:0:0:
64,192,229032,1,0,0:0:0:0:
320,192,229204,1,0,0:0:0:0:
192,192,229375,1,0,0:0:0:0:
448,192,229375,1,0,0:0:0:0:
64,192,229546,1,0,0:0:0:0:
192,192,229718,1,0,0:0:0:0:
448,192,229889,1,0,0:0:0:0:
320,192,230061,1,0,0:0:0:0:
192,192,230232,1,0,0:0:0:0:
320,192,230404,1,0,0:0:0:0:
448,192,230404,1,0,0:0:0:0:
64,192,230575,1,0,0:0:0:0:
192,192,230746,1,0,0:0:0:0:
320,192,230918,1,0,0:0:0:0:
448,192,231089,1,0,0:0:0:0:
320,192,231261,1,0,0:0:0:0:
192,192,231432,1,0,0:0:0:0:
64,192,231604,1,0,0:0:0:0:
320,192,231775,1,0,0:0:0:0:
192,192,231946,1,0,0:0:0:0:
320,192,232118,1,0,0:0:0:0:
192,192,232289,1,0,0:0:0:0:
448,192,232461,1,0,0:0:0:0:
192,192,232718,1,0,0:0:0:0:
448,192,232975,1,0,0:0:0:0:
192,192,233146,1,0,0:0:0:0:
64,192,233146,1,0,0:0:0:0:
320,192,233318,1,0,0:0:0:0:
448,192,233489,1,0,0:0:0:0:
192,192,233661,1,0,0:0:0:0:
320,192,233832,1,0,0:0:0:0:
448,192,233832,1,0,0:0:0:0:
64,192,234004,1,0,0:0:0:0:
192,192,234175,1,0,0:0:0:0:
320,192,234346,1,0,0:0:0:0:
192,192,234518,1,0,0:0:0:0:
448,192,234518,1,0,0:0:0:0:
64,192,234689,1,0,0:0:0:0:
320,192,234861,1,0,0:0:0:0:
448,192,234861,1,0,0:0:0:0:
192,192,235032,1,0,0:0:0:0:
320,192,235204,1,0,0:0:0:0:
448,192,235375,1,0,0:0:0:0:
192,192,235546,1,0,0:0:0:0:
64,192,235718,1,0,0:0:0:0:
320,192,235889,1,0,0:0:0:0:
448,192,235889,1,0,0:0:0:0:
192,192,236061,1,0,0:0:0:0:
192,192,236232,1,0,0:0:0:0:
448,192,236404,1,0,0:0:0:0:
320,192,236575,1,0,0:0:0:0:
64,192,236746,1,0,0:0:0:0:
192,192,236918,1,0,0:0:0:0:
320,192,237089,1,0,0:0:0:0:
192,192,237261,1,0,0:0:0:0:
192,192,237432,1,0,0:0:0:0:
448,192,237604,1,0,0:0:0:0:
320,192,237775,1,0,0:0:0:0:
64,192,237946,1,0,0:0:0:0:
320,192,238204,1,0,0:0:0:0:
448,192,238289,1,0,0:0:0:0:
192,192,238461,1,0,0:0:0:0:
64,192,238461,1,0,0:0:0:0:
320,192,238632,1,0,0:0:0:0:
448,192,238632,1,0,0:0:0:0:
320,192,238804,1,0,0:0:0:0:
192,192,238975,1,0,0:0:0:0:
64,192,239146,1,0,0:0:0:0:
192,192,239318,1,0,0:0:0:0:
320,192,239318,1,0,0:0:0:0:
64,192,239489,1,0,0:0:0:0:
320,192,239661,1,0,0:0:0:0:
448,192,239832,1,0,0:0:0:0:
64,192,240004,1,0,0:0:0:0:
192,192,240004,1,0,0:0:0:0:
320,192,240175,1,0,0:0:0:0:
192,192,240346,1,0,0:0:0:0:
448,192,240346,1,0,0:0:0:0:
64,192,240518,1,0,0:0:0:0:
192,192,240689,1,0,0:0:0:0:
320,192,240861,1,0,0:0:0:0:
192,192,241032,1,0,0:0:0:0:
64,192,241204,1,0,0:0:0:0:
192,192,241375,1,0,0:0:0:0:
320,192,241375,1,0,0:0:0:0:
448,192,241546,1,0,0:0:0:0:
320,192,241718,1,0,0:0:0:0:
64,192,241889,1,0,0:0:0:0:
192,192,242061,1,0,0:0:0:0:
448,192,242232,1,0,0:0:0:0:
320,192,242404,1,0,0:0:0:0:
64,192,242575,1,0,0:0:0:0:
192,192,242746,1,0,0:0:0:0:
320,192,242918,1,0,0:0:0:0:
320,192,243089,1,0,0:0:0:0:
448,192,243261,1,0,0:0:0:0:
64,192,243432,1,0,0:0:0:0:
192,192,243689,1,0,0:0:0:0:
448,192,243946,1,0,0:0:0:0:
192,192,244118,1,0,0:0:0:0:
64,192,244118,1,0,0:0:0:0:
192,192,244289,1,0,0:0:0:0:
448,192,244461,1,0,0:0:0:0:
320,192,244632,1,0,0:0:0:0:
192,192,244804,1,0,0:0:0:0:
64,192,244804,1,0,0:0:0:0:
320,192,244975,1,0,0:0:0:0:
192,192,245146,1,0,0:0:0:0:
448,192,245318,1,0,0:0:0:0:
320,192,245489,1,0,0:0:0:0:
192,192,245489,1,0,0:0:0:0:
64,192,245661,1,0,0:0:0:0:
320,192,245832,1,0,0:0:0:0:
448,192,245832,1,0,0:0:0:0:
192,192,246004,1,0,0:0:0:0:
320,192,246175,1,0,0:0:0:0:
448,192,246346,1,0,0:0:0:0:
320,192,246518,1,0,0:0:0:0:
192,192,246689,1,0,0:0:0:0:
192,192,246861,1,0,0:0:0:0:
320,192,247032,1,0,0:0:0:0:
192,192,247204,1,0,0:0:0:0:
320,192,247375,1,0,0:0:0:0:
448,192,247546,1,0,0:0:0:0:
64,192,247718,1,0,0:0:0:0:
448,192,247889,1,0,0:0:0:0:
64,192,248061,1,0,0:0:0:0:
320,192,248232,1,0,0:0:0:0:
192,192,248404,1,0,0:0:0:0:
64,192,248575,1,0,0:0:0:0:
320,192,248746,1,0,0:0:0:0:
192,192,248918,1,0,0:0:0:0:
320,192,249175,1,0,0:0:0:0:
448,192,249261,1,0,0:0:0:0:
192,192,249432,1,0,0:0:0:0:
64,192,249432,1,0,0:0:0:0:
320,192,249604,1,0,0:0:0:0:
448,192,249604,1,0,0:0:0:0:
192,192,249946,1,0,0:0:0:0:
448,192,249946,1,0,0:0:0:0:
192,192,250289,1,0,0:0:0:0:
64,192,250289,1,0,0:0:0:0:
320,192,250632,1,0,0:0:0:0:
64,192,250632,1,0,0:0:0:0:
192,192,250975,1,0,0:0:0:0:
320,192,250975,1,0,0:0:0:0:
320,192,251318,1,0,0:0:0:0:
448,192,251318,1,0,0:0:0:0:
192,192,251661,1,0,0:0:0:0:
64,192,251661,1,0,0:0:0:0:
448,192,252004,1,0,0:0:0:0:
64,192,252004,1,0,0:0:0:0:
320,192,252346,1,0,0:0:0:0:
448,192,252346,1,0,0:0:0:0:
320,192,252689,1,0,0:0:0:0:
192,192,252689,1,0,0:0:0:0:
192,192,253032,1,0,0:0:0:0:
64,192,253032,1,0,0:0:0:0:
192,192,253375,1,0,0:0:0:0:
448,192,253375,1,0,0:0:0:0:
448,192,253718,1,0,0:0:0:0:
64,192,253718,1,0,0:0:0:0:
320,192,254061,1,0,0:0:0:0:
64,192,254061,1,0,0:0:0:0:
448,192,254232,1,0,0:0:0:0:
192,192,254404,1,0,0:0:0:0:
64,192,254404,1,0,0:0:0:0:
64,192,254661,1,0,0:0:0:0:
448,192,254746,1,0,0:0:0:0:
320,192,254746,1,0,0:0:0:0:
192,192,254918,1,0,0:0:0:0:
320,192,255089,1,0,0:0:0:0:
64,192,255089,1,0,0:0:0:0:
192,192,255432,1,0,0:0:0:0:
320,192,255432,1,0,0:0:0:0:
192,192,255775,1,0,0:0:0:0:
448,192,255775,1,0,0:0:0:0:
448,192,256118,1,0,0:0:0:0:
64,192,256118,1,0,0:0:0:0:
192,192,256461,1,0,0:0:0:0:
320,192,256461,1,0,0:0:0:0:
192,192,256804,1,0,0:0:0:0:
64,192,256804,1,0,0:0:0:0:
448,192,257146,1,0,0:0:0:0:
64,192,257146,1,0,0:0:0:0:
320,192,257489,1,0,0:0:0:0:
448,192,257489,1,0,0:0:0:0:
320,192,257832,1,0,0:0:0:0:
64,192,257832,1,0,0:0:0:0:
192,192,258175,1,0,0:0:0:0:
448,192,258175,1,0,0:0:0:0:
320,192,258518,1,0,0:0:0:0:
192,192,258518,1,0,0:0:0:0:
448,192,258861,1,0,0:0:0:0:
64,192,258861,1,0,0:0:0:0:
64,192,259204,1,0,0:0:0:0:
320,192,259204,1,0,0:0:0:0:
192,192,259546,1,0,0:0:0:0:
448,192,259546,1,0,0:0:0:0:
320,192,259889,1,0,0:0:0:0:
448,192,259889,1,0,0:0:0:0:
64,192,260232,1,0,0:0:0:0:
192,192,260232,1,0,0:0:0:0:
320,192,260575,1,0,0:0:0:0:
192,192,260746,1,0,0:0:0:0:
448,192,260918,1,0,0:0:0:0:
64,192,261089,1,0,0:0:0:0:
192,192,261261,1,0,0:0:0:0:
320,192,261261,1,0,0:0:0:0:
64,192,261432,1,0,0:0:0:0:
192,192,261604,1,0,0:0:0:0:
448,192,261775,1,0,0:0:0:0:
320,192,262118,1,0,0:0:0:0:
64,192,262461,1,0,0:0:0:0:
320,192,262632,1,0,0:0:0:0:
192,192,262632,1,0,0:0:0:0:
448,192,262804,1,0,0:0:0:0:
192,192,262975,1,0,0:0:0:0:
64,192,263146,1,0,0:0:0:0:
448,192,263318,1,0,0:0:0:0:
320,192,263489,1,0,0:0:0:0:
192,192,263661,1,0,0:0:0:0:
64,192,263832,1,0,0:0:0:0:
320,192,264004,1,0,0:0:0:0:
192,192,264004,1,0,0:0:0:0:
448,192,264175,1,0,0:0:0:0:
320,192,264346,1,0,0:0:0:0:
192,192,264518,1,0,0:0:0:0:
64,192,264689,1,0,0:0:0:0:
192,192,264861,1,0,0:0:0:0:
320,192,265032,1,0,0:0:0:0:
448,192,265204,1,0,0:0:0:0:
192,192,265375,1,0,0:0:0:0:
320,192,265375,1,0,0:0:0:0:
64,192,265632,1,0,0:0:0:0:
192,192,265889,1,0,0:0:0:0:
448,192,266061,1,0,0:0:0:0:
64,192,266232,1,0,0:0:0:0:
320,192,266404,1,0,0:0:0:0:
448,192,266575,1,0,0:0:0:0:
192,192,266746,1,0,0:0:0:0:
320,192,266746,1,0,0:0:0:0:
64,192,266918,1,0,0:0:0:0:
192,192,267089,1,0,0:0:0:0:
320,192,267261,1,0,0:0:0:0:
448,192,267432,1,0,0:0:0:0:
64,192,267432,1,0,0:0:0:0:
320,192,267604,1,0,0:0:0:0:
64,192,267946,1,0,0:0:0:0:
192,192,268118,1,0,0:0:0:0:
320,192,268118,1,0,0:0:0:0:
448,192,268289,1,0,0:0:0:0:
320,192,268461,1,0,0:0:0:0:
192,192,268632,1,0,0:0:0:0:
448,192,268804,1,0,0:0:0:0:
64,192,268804,1,0,0:0:0:0:
192,192,268975,1,0,0:0:0:0:
448,192,269146,1,0,0:0:0:0:
64,192,269318,1,0,0:0:0:0:
192,192,269489,1,0,0:0:0:0:
320,192,269489,1,0,0:0:0:0:
448,192,269661,1,0,0:0:0:0:
64,192,269832,1,0,0:0:0:0:
192,192,270004,1,0,0:0:0:0:
320,192,270089,1,0,0:0:0:0:
448,192,270175,1,0,0:0:0:0:
192,192,270346,1,0,0:0:0:0:
320,192,270518,5,0,0:0:0:0:
64,192,270689,1,0,0:0:0:0:
192,192,270861,5,0,0:0:0:0:
320,192,270861,1,0,0:0:0:0:
448,192,271118,1,0,0:0:0:0:
192,192,271375,1,0,0:0:0:0:
64,192,271546,1,0,0:0:0:0:
448,192,271546,1,0,0:0:0:0:
320,192,271718,1,0,0:0:0:0:
448,192,271889,1,0,0:0:0:0:
192,192,272061,1,0,0:0:0:0:
64,192,272404,1,0,0:0:0:0:
320,192,272575,1,0,0:0:0:0:
448,192,272746,1,0,0:0:0:0:
192,192,273089,1,0,0:0:0:0:
64,192,273432,1,0,0:0:0:0:
192,192,273604,1,0,0:0:0:0:
448,192,273775,1,0,0:0:0:0:
320,192,273946,1,0,0:0:0:0:
64,192,274118,1,0,0:0:0:0:
