osu file format v14

[General]
AudioFilename: audio.mp3
AudioLeadIn: 0
PreviewTime: -1
Countdown: 0
SampleSet: None
StackLeniency: 0.7
Mode: 3
LetterboxInBreaks: 0
SpecialStyle: 0
WidescreenStoryboard: 1

[Editor]
DistanceSpacing: 0.8
BeatDivisor: 4
GridSize: 4
TimelineZoom: 1.2

[Metadata]
Title:Skrillexore
TitleUnicode:Skrillexore
Artist:Zekk
ArtistUnicode:Zekk
Creator:Tribow
Version:Yo Skrill Drop it Hard
Source:
Tags:shuffle project bassline hardcore skrillex mashup a_mai1298
BeatmapID:1402973
BeatmapSetID:652020

[Difficulty]
HPDrainRate:8
CircleSize:4
OverallDifficulty:8
ApproachRate:5
SliderMultiplier:1.4
SliderTickRate:1

[Events]
//Background and Video events
0,0,"ZekkSkrill.png",0,0
//Break Periods
//Storyboard Layer 0 (Background)
//Storyboard Layer 1 (Fail)
//Storyboard Layer 2 (Pass)
//Storyboard Layer 3 (Foreground)
//Storyboard Sound Samples

[TimingPoints]
4,342.857142857143,4,2,0,27,1,0

[HitObjects]
64,192,4,5,0,0:0:0:0:
448,192,4,1,0,0:0:0:0:
320,192,89,1,0,0:0:0:0:
192,192,175,1,0,0:0:0:0:
64,192,346,1,0,0:0:0:0:
192,192,432,1,0,0:0:0:0:
320,192,518,1,0,0:0:0:0:
448,192,604,1,0,0:0:0:0:
320,192,689,1,0,0:0:0:0:
448,192,775,1,0,0:0:0:0:
64,192,861,1,0,0:0:0:0:
320,192,946,1,0,0:0:0:0:
192,192,1032,1,0,0:0:0:0:
448,192,1118,1,0,0:0:0:0:
64,192,1204,1,0,0:0:0:0:
192,192,1289,1,0,0:0:0:0:
320,192,1375,1,0,0:0:0:0:
448,192,1461,1,0,0:0:0:0:
192,192,1546,1,0,0:0:0:0:
448,192,1718,1,0,0:0:0:0:
320,192,1804,1,0,0:0:0:0:
192,192,1889,1,0,0:0:0:0:
64,192,1975,1,0,0:0:0:0:
192,192,2061,1,0,0:0:0:0:
64,192,2146,1,0,0:0:0:0:
448,192,2232,1,0,0:0:0:0:
192,192,2318,1,0,0:0:0:0:
320,192,2404,1,0,0:0:0:0:
64,192,2489,1,0,0:0:0:0:
448,192,2575,1,0,0:0:0:0:
192,192,2661,1,0,0:0:0:0:
320,192,2746,1,0,0:0:0:0:
448,192,2832,1,0,0:0:0:0:
64,192,2918,1,0,0:0:0:0:
192,192,3004,1,0,0:0:0:0:
448,192,3089,1,0,0:0:0:0:
320,192,3175,1,0,0:0:0:0:
448,192,3261,1,0,0:0:0:0:
192,192,3346,1,0,0:0:0:0:
320,192,3432,1,0,0:0:0:0:
448,192,3518,1,0,0:0:0:0:
192,192,3604,1,0,0:0:0:0:
64,192,3689,1,0,0:0:0:0:
448,192,3775,1,0,0:0:0:0:
320,192,3861,1,0,0:0:0:0:
448,192,3946,1,0,0:0:0:0:
320,192,4032,1,0,0:0:0:0:
64,192,4118,1,0,0:0:0:0:
192,192,4204,1,0,0:0:0:0:
448,192,4289,1,0,0:0:0:0:
320,192,4375,1,0,0:0:0:0:
64,192,4461,1,0,0:0:0:0:
192,192,4546,1,0,0:0:0:0:
64,192,4632,1,0,0:0:0:0:
192,192,4718,1,0,0:0:0:0:
320,192,4804,1,0,0:0:0:0:
448,192,4889,1,0,0:0:0:0:
64,192,4975,1,0,0:0:0:0:
192,192,5061,1,0,0:0:0:0:
448,192,5146,1,0,0:0:0:0:
192,192,5232,1,0,0:0:0:0:
320,192,5318,1,0,0:0:0:0:
64,192,5404,1,0,0:0:0:0:
192,192,5489,1,0,0:0:0:0:
448,192,5489,1,0,0:0:0:0:
320,192,5575,1,0,0:0:0:0:
448,192,5661,1,0,0:0:0:0:
64,192,5746,1,0,0:0:0:0:
192,192,5832,1,0,0:0:0:0:
320,192,5832,1,0,0:0:0:0:
448,192,5918,1,0,0:0:0:0:
320,192,6004,1,0,0:0:0:0:
192,192,6089,1,0,0:0:0:0:
64,192,6175,1,0,0:0:0:0:
320,192,6175,1,0,0:0:0:0:
448,192,6261,1,0,0:0:0:0:
192,192,6346,1,0,0:0:0:0:
320,192,6432,1,0,0:0:0:0:
64,192,6432,1,0,0:0:0:0:
448,192,6518,1,0,0:0:0:0:
192,192,6604,1,0,0:0:0:0:
320,192,6689,1,0,0:0:0:0:
64,192,6689,1,0,0:0:0:0:
448,192,6775,1,0,0:0:0:0:
320,192,6861,1,0,0:0:0:0:
192,192,6861,1,0,0:0:0:0:
64,192,6946,1,0,0:0:0:0:
448,192,7032,1,0,0:0:0:0:
320,192,7118,1,0,0:0:0:0:
192,192,7204,1,0,0:0:0:0:
64,192,7204,1,0,0:0:0:0:
320,192,7289,1,0,0:0:0:0:
448,192,7375,1,0,0:0:0:0:
64,192,7461,1,0,0:0:0:0:
192,192,7546,1,0,0:0:0:0:
320,192,7546,1,0,0:0:0:0:
448,192,7632,1,0,0:0:0:0:
64,192,7718,1,0,0:0:0:0:
192,192,7804,1,0,0:0:0:0:
320,192,7804,1,0,0:0:0:0:
448,192,7889,1,0,0:0:0:0:
64,192,7975,1,0,0:0:0:0:
192,192,8061,1,0,0:0:0:0:
320,192,8061,1,0,0:0:0:0:
448,192,8146,1,0,0:0:0:0:
320,192,8232,1,0,0:0:0:0:
64,192,8232,1,0,0:0:0:0:
192,192,8318,1,0,0:0:0:0:
64,192,8404,1,0,0:0:0:0:
448,192,8489,1,0,0:0:0:0:
320,192,8575,1,0,0:0:0:0:
192,192,8575,1,0,0:0:0:0:
64,192,8661,1,0,0:0:0:0:
320,192,8746,1,0,0:0:0:0:
448,192,8832,1,0,0:0:0:0:
192,192,8918,1,0,0:0:0:0:
64,192,8918,1,0,0:0:0:0:
320,192,9004,1,0,0:0:0:0:
448,192,9089,1,0,0:0:0:0:
192,192,9175,1,0,0:0:0:0:
64,192,9175,1,0,0:0:0:0:
320,192,9261,1,0,0:0:0:0:
448,192,9346,1,0,0:0:0:0:
192,192,9432,1,0,0:0:0:0:
64,192,9432,1,0,0:0:0:0:
320,192,9518,1,0,0:0:0:0:
448,192,9604,1,0,0:0:0:0:
192,192,9604,1,0,0:0:0:0:
64,192,9689,1,0,0:0:0:0:
320,192,9775,1,0,0:0:0:0:
192,192,9861,1,0,0:0:0:0:
64,192,9946,1,0,0:0:0:0:
448,192,9946,1,0,0:0:0:0:
320,192,10032,1,0,0:0:0:0:
192,192,10118,1,0,0:0:0:0:
64,192,10204,1,0,0:0:0:0:
192,192,10289,1,0,0:0:0:0:
448,192,10289,1,0,0:0:0:0:
320,192,10375,1,0,0:0:0:0:
448,192,10461,1,0,0:0:0:0:
320,192,10546,1,0,0:0:0:0:
64,192,10546,1,0,0:0:0:0:
192,192,10632,1,0,0:0:0:0:
64,192,10718,1,0,0:0:0:0:
448,192,10804,1,0,0:0:0:0:
192,192,10804,1,0,0:0:0:0:
320,192,10889,1,0,0:0:0:0:
448,192,10975,1,0,0:0:0:0:
192,192,10975,1,0,0:0:0:0:
64,192,10975,1,0,0:0:0:0:
320,192,11061,1,0,0:0:0:0:
192,192,11146,1,0,0:0:0:0:
64,192,11232,1,0,0:0:0:0:
192,192,11318,1,0,0:0:0:0:
320,192,11318,1,0,0:0:0:0:
448,192,11404,1,0,0:0:0:0:
64,192,11489,1,0,0:0:0:0:
192,192,11575,1,0,0:0:0:0:
320,192,11661,1,0,0:0:0:0:
448,192,11661,1,0,0:0:0:0:
192,192,11746,1,0,0:0:0:0:
64,192,11832,1,0,0:0:0:0:
448,192,11918,1,0,0:0:0:0:
320,192,11918,1,0,0:0:0:0:
192,192,12004,1,0,0:0:0:0:
64,192,12089,1,0,0:0:0:0:
448,192,12175,1,0,0:0:0:0:
320,192,12175,1,0,0:0:0:0:
192,192,12261,1,0,0:0:0:0:
64,192,12346,1,0,0:0:0:0:
448,192,12346,1,0,0:0:0:0:
320,192,12432,1,0,0:0:0:0:
192,192,12518,1,0,0:0:0:0:
64,192,12604,1,0,0:0:0:0:
192,192,12689,1,0,0:0:0:0:
448,192,12689,1,0,0:0:0:0:
320,192,12775,1,0,0:0:0:0:
448,192,12861,1,0,0:0:0:0:
64,192,12946,1,0,0:0:0:0:
448,192,13032,1,0,0:0:0:0:
192,192,13032,1,0,0:0:0:0:
320,192,13118,1,0,0:0:0:0:
64,192,13204,1,0,0:0:0:0:
448,192,13289,1,0,0:0:0:0:
192,192,13289,1,0,0:0:0:0:
320,192,13375,1,0,0:0:0:0:
64,192,13461,1,0,0:0:0:0:
448,192,13546,1,0,0:0:0:0:
192,192,13546,1,0,0:0:0:0:
320,192,13632,1,0,0:0:0:0:
448,192,13718,1,0,0:0:0:0:
64,192,13718,1,0,0:0:0:0:
320,192,13804,1,0,0:0:0:0:
192,192,13889,1,0,0:0:0:0:
448,192,13975,1,0,0:0:0:0:
64,192,14061,1,0,0:0:0:0:
448,192,14146,1,0,0:0:0:0:
192,192,14232,1,0,0:0:0:0:
320,192,14318,1,0,0:0:0:0:
64,192,14404,1,0,0:0:0:0:
320,192,14489,1,0,0:0:0:0:
192,192,14575,1,0,0:0:0:0:
64,192,14661,1,0,0:0:0:0:
192,192,14746,1,0,0:0:0:0:
64,192,14832,1,0,0:0:0:0:
192,192,14918,1,0,0:0:0:0:
64,192,15004,1,0,0:0:0:0:
192,192,15089,1,0,0:0:0:0:
448,192,15175,1,0,0:0:0:0:
64,192,15261,1,0,0:0:0:0:
320,192,15346,1,0,0:0:0:0:
192,192,15432,1,0,0:0:0:0:
64,192,15432,1,0,0:0:0:0:
320,192,15518,1,0,0:0:0:0:
448,192,15604,1,0,0:0:0:0:
64,192,15689,1,0,0:0:0:0:
320,192,15775,1,0,0:0:0:0:
448,192,15775,1,0,0:0:0:0:
192,192,15861,1,0,0:0:0:0:
64,192,16032,1,0,0:0:0:0:
192,192,16118,128,0,16289:0:0:0:0:
320,192,16204,1,0,0:0:0:0:
448,192,16289,128,0,16461:0:0:0:0:
192,192,16461,1,0,0:0:0:0:
64,192,16461,1,0,0:0:0:0:
320,192,16518,1,0,0:0:0:0:
448,192,16575,1,0,0:0:0:0:
64,192,16632,1,0,0:0:0:0:
192,192,16689,1,0,0:0:0:0:
320,192,16746,1,0,0:0:0:0:
448,192,16804,1,0,0:0:0:0:
192,192,16804,1,0,0:0:0:0:
64,192,16804,1,0,0:0:0:0:
320,192,16975,1,0,0:0:0:0:
64,192,16975,1,0,0:0:0:0:
192,192,17146,1,0,0:0:0:0:
320,192,17146,1,0,0:0:0:0:
448,192,17318,1,0,0:0:0:0:
448,192,17404,1,0,0:0:0:0:
64,192,17489,1,0,0:0:0:0:
192,192,17489,1,0,0:0:0:0:
320,192,17489,128,0,17661:0:0:0:0:
448,192,17661,128,0,17832:0:0:0:0:
320,192,17832,1,0,0:0:0:0:
64,192,17832,1,0,0:0:0:0:
192,192,18004,1,0,0:0:0:0:
320,192,18004,1,0,0:0:0:0:
192,192,18175,1,0,0:0:0:0:
64,192,18175,1,0,0:0:0:0:
448,192,18175,1,0,0:0:0:0:
320,192,18261,1,0,0:0:0:0:
64,192,18318,1,0,0:0:0:0:
192,192,18346,1,0,0:0:0:0:
320,192,18375,1,0,0:0:0:0:
448,192,18404,1,0,0:0:0:0:
64,192,18461,1,0,0:0:0:0:
320,192,18518,1,0,0:0:0:0:
448,192,18518,1,0,0:0:0:0:
192,192,18604,1,0,0:0:0:0:
64,192,18689,1,0,0:0:0:0:
448,192,18775,1,0,0:0:0:0:
320,192,18861,1,0,0:0:0:0:
192,192,18861,1,0,0:0:0:0:
64,192,18861,1,0,0:0:0:0:
192,192,19032,1,0,0:0:0:0:
192,192,19118,1,0,0:0:0:0:
320,192,19204,1,0,0:0:0:0:
448,192,19204,1,0,0:0:0:0:
64,192,19261,1,0,0:0:0:0:
192,192,19318,1,0,0:0:0:0:
320,192,19375,1,0,0:0:0:0:
448,192,19432,1,0,0:0:0:0:
64,192,19489,1,0,0:0:0:0:
192,192,19546,1,0,0:0:0:0:
320,192,19546,1,0,0:0:0:0:
448,192,19718,1,0,0:0:0:0:
192,192,19718,1,0,0:0:0:0:
64,192,19889,1,0,0:0:0:0:
448,192,19889,1,0,0:0:0:0:
64,192,20061,1,0,0:0:0:0:
320,192,20061,1,0,0:0:0:0:
192,192,20232,1,0,0:0:0:0:
448,192,20232,1,0,0:0:0:0:
320,192,20232,1,0,0:0:0:0:
64,192,20404,1,0,0:0:0:0:
64,192,20489,1,0,0:0:0:0:
192,192,20575,1,0,0:0:0:0:
320,192,20575,1,0,0:0:0:0:
448,192,20632,1,0,0:0:0:0:
192,192,20746,1,0,0:0:0:0:
320,192,20804,1,0,0:0:0:0:
448,192,20861,1,0,0:0:0:0:
192,192,20918,1,0,0:0:0:0:
64,192,20975,1,0,0:0:0:0:
320,192,21032,1,0,0:0:0:0:
192,192,21089,1,0,0:0:0:0:
64,192,21146,1,0,0:0:0:0:
448,192,21204,1,0,0:0:0:0:
320,192,21261,1,0,0:0:0:0:
64,192,21261,1,0,0:0:0:0:
192,192,21346,128,0,21518:0:0:0:0:
320,192,21518,1,0,0:0:0:0:
448,192,21518,1,0,0:0:0:0:
192,192,21604,1,0,0:0:0:0:
64,192,21604,1,0,0:0:0:0:
448,192,21604,1,0,0:0:0:0:
320,192,21775,1,0,0:0:0:0:
320,192,21861,1,0,0:0:0:0:
192,192,21946,1,0,0:0:0:0:
64,192,21946,1,0,0:0:0:0:
448,192,22004,1,0,0:0:0:0:
320,192,22061,1,0,0:0:0:0:
64,192,22118,1,0,0:0:0:0:
192,192,22175,1,0,0:0:0:0:
320,192,22232,1,0,0:0:0:0:
448,192,22289,1,0,0:0:0:0:
64,192,22289,1,0,0:0:0:0:
192,192,22289,1,0,0:0:0:0:
448,192,22461,1,0,0:0:0:0:
320,192,22461,1,0,0:0:0:0:
320,192,22632,1,0,0:0:0:0:
192,192,22632,1,0,0:0:0:0:
64,192,22804,1,0,0:0:0:0:
64,192,22889,1,0,0:0:0:0:
320,192,22975,1,0,0:0:0:0:
448,192,22975,1,0,0:0:0:0:
192,192,22975,128,0,23146:0:0:0:0:
64,192,23146,128,0,23318:0:0:0:0:
192,192,23318,1,0,0:0:0:0:
448,192,23318,1,0,0:0:0:0:
320,192,23489,1,0,0:0:0:0:
192,192,23489,1,0,0:0:0:0:
448,192,23661,1,0,0:0:0:0:
320,192,23661,1,0,0:0:0:0:
64,192,23661,1,0,0:0:0:0:
192,192,23746,1,0,0:0:0:0:
448,192,23804,1,0,0:0:0:0:
320,192,23832,1,0,0:0:0:0:
192,192,23861,1,0,0:0:0:0:
64,192,23889,1,0,0:0:0:0:
448,192,23946,1,0,0:0:0:0:
320,192,24004,1,0,0:0:0:0:
192,192,24004,1,0,0:0:0:0:
64,192,24089,1,0,0:0:0:0:
448,192,24175,1,0,0:0:0:0:
192,192,24261,1,0,0:0:0:0:
320,192,24346,1,0,0:0:0:0:
448,192,24346,1,0,0:0:0:0:
64,192,24346,1,0,0:0:0:0:
192,192,24518,1,0,0:0:0:0:
192,192,24604,1,0,0:0:0:0:
448,192,24689,1,0,0:0:0:0:
64,192,24689,1,0,0:0:0:0:
320,192,24746,1,0,0:0:0:0:
192,192,24804,1,0,0:0:0:0:
64,192,24861,1,0,0:0:0:0:
320,192,24918,1,0,0:0:0:0:
448,192,24975,1,0,0:0:0:0:
192,192,25032,1,0,0:0:0:0:
64,192,25032,1,0,0:0:0:0:
320,192,25032,1,0,0:0:0:0:
448,192,25204,1,0,0:0:0:0:
192,192,25204,1,0,0:0:0:0:
320,192,25375,1,0,0:0:0:0:
192,192,25375,1,0,0:0:0:0:
64,192,25546,1,0,0:0:0:0:
448,192,25546,1,0,0:0:0:0:
320,192,25718,1,0,0:0:0:0:
192,192,25718,1,0,0:0:0:0:
64,192,25718,1,0,0:0:0:0:
448,192,25889,1,0,0:0:0:0:
448,192,25975,1,0,0:0:0:0:
320,192,26061,1,0,0:0:0:0:
192,192,26061,1,0,0:0:0:0:
64,192,26118,1,0,0:0:0:0:
448,192,26175,1,0,0:0:0:0:
320,192,26232,1,0,0:0:0:0:
192,192,26289,1,0,0:0:0:0:
64,192,26346,1,0,0:0:0:0:
448,192,26404,1,0,0:0:0:0:
320,192,26404,1,0,0:0:0:0:
192,192,26404,1,0,0:0:0:0:
192,192,26575,1,0,0:0:0:0:
64,192,26575,1,0,0:0:0:0:
320,192,26596,1,0,0:0:0:0:
448,192,26618,1,0,0:0:0:0:
64,192,26746,1,0,0:0:0:0:
192,192,26746,128,0,26975:0:0:0:0:
320,192,26975,128,0,27204:0:0:0:0:
448,192,27204,128,0,27432:0:0:0:0:
192,192,27204,1,0,0:0:0:0:
64,192,27204,1,0,0:0:0:0:
192,192,27432,1,0,0:0:0:0:
64,192,27432,1,0,0:0:0:0:
320,192,27489,1,0,0:0:0:0:
448,192,27546,1,0,0:0:0:0:
64,192,27604,1,0,0:0:0:0:
192,192,27661,1,0,0:0:0:0:
320,192,27718,1,0,0:0:0:0:
448,192,27775,1,0,0:0:0:0:
192,192,27775,1,0,0:0:0:0:
64,192,27861,1,0,0:0:0:0:
320,192,27861,1,0,0:0:0:0:
192,192,27946,1,0,0:0:0:0:
448,192,27946,1,0,0:0:0:0:
320,192,28118,1,0,0:0:0:0:
448,192,28118,1,0,0:0:0:0:
64,192,28118,1,0,0:0:0:0:
192,192,28204,1,0,0:0:0:0:
320,192,28289,1,0,0:0:0:0:
192,192,28375,1,0,0:0:0:0:
64,192,28375,1,0,0:0:0:0:
320,192,28418,1,0,0:0:0:0:
448,192,28461,1,0,0:0:0:0:
64,192,28518,1,0,0:0:0:0:
192,192,28575,1,0,0:0:0:0:
320,192,28632,1,0,0:0:0:0:
448,192,28632,1,0,0:0:0:0:
192,192,28689,1,0,0:0:0:0:
64,192,28746,1,0,0:0:0:0:
448,192,28804,128,0,28975:0:0:0:0:
320,192,28804,1,0,0:0:0:0:
64,192,28889,1,0,0:0:0:0:
192,192,28975,128,0,29146:0:0:0:0:
448,192,29061,1,0,0:0:0:0:
320,192,29146,128,0,29318:0:0:0:0:
64,192,29146,1,0,0:0:0:0:
448,192,29232,1,0,0:0:0:0:
64,192,29318,128,0,29489:0:0:0:0:
192,192,29318,1,0,0:0:0:0:
320,192,29404,1,0,0:0:0:0:
448,192,29489,128,0,29661:0:0:0:0:
192,192,29489,1,0,0:0:0:0:
64,192,29575,1,0,0:0:0:0:
320,192,29661,128,0,29832:0:0:0:0:
192,192,29661,1,0,0:0:0:0:
64,192,29746,1,0,0:0:0:0:
448,192,29746,1,0,0:0:0:0:
192,192,29832,128,0,30004:0:0:0:0:
448,192,29918,1,0,0:0:0:0:
64,192,30004,128,0,30175:0:0:0:0:
320,192,30004,1,0,0:0:0:0:
192,192,30089,1,0,0:0:0:0:
320,192,30175,1,0,0:0:0:0:
448,192,30175,1,0,0:0:0:0:
192,192,30232,1,0,0:0:0:0:
64,192,30289,1,0,0:0:0:0:
448,192,30346,1,0,0:0:0:0:
320,192,30404,1,0,0:0:0:0:
192,192,30461,1,0,0:0:0:0:
64,192,30518,1,0,0:0:0:0:
320,192,30575,1,0,0:0:0:0:
448,192,30632,1,0,0:0:0:0:
64,192,30689,1,0,0:0:0:0:
192,192,30689,1,0,0:0:0:0:
320,192,30775,1,0,0:0:0:0:
448,192,30775,1,0,0:0:0:0:
192,192,30861,1,0,0:0:0:0:
64,192,30861,1,0,0:0:0:0:
448,192,30861,1,0,0:0:0:0:
320,192,30946,1,0,0:0:0:0:
64,192,30946,1,0,0:0:0:0:
192,192,31118,1,0,0:0:0:0:
64,192,31118,1,0,0:0:0:0:
320,192,31204,1,0,0:0:0:0:
448,192,31204,1,0,0:0:0:0:
192,192,31261,1,0,0:0:0:0:
64,192,31318,1,0,0:0:0:0:
448,192,31375,1,0,0:0:0:0:
320,192,31432,1,0,0:0:0:0:
192,192,31489,1,0,0:0:0:0:
448,192,31546,1,0,0:0:0:0:
64,192,31546,1,0,0:0:0:0:
320,192,31718,1,0,0:0:0:0:
192,192,31718,1,0,0:0:0:0:
448,192,31889,128,0,32061:0:0:0:0:
192,192,31889,1,0,0:0:0:0:
192,192,32061,1,0,0:0:0:0:
64,192,32061,1,0,0:0:0:0:
320,192,32146,1,0,0:0:0:0:
448,192,32146,1,0,0:0:0:0:
64,192,32232,1,0,0:0:0:0:
192,192,32232,1,0,0:0:0:0:
448,192,32232,1,0,0:0:0:0:
320,192,32318,1,0,0:0:0:0:
64,192,32318,1,0,0:0:0:0:
448,192,32489,1,0,0:0:0:0:
320,192,32489,1,0,0:0:0:0:
192,192,32575,1,0,0:0:0:0:
64,192,32575,1,0,0:0:0:0:
320,192,32632,1,0,0:0:0:0:
448,192,32689,1,0,0:0:0:0:
192,192,32746,1,0,0:0:0:0:
64,192,32804,1,0,0:0:0:0:
320,192,32861,1,0,0:0:0:0:
448,192,32918,1,0,0:0:0:0:
64,192,32918,1,0,0:0:0:0:
192,192,32975,1,0,0:0:0:0:
320,192,33032,1,0,0:0:0:0:
448,192,33089,1,0,0:0:0:0:
192,192,33146,1,0,0:0:0:0:
64,192,33204,1,0,0:0:0:0:
320,192,33261,1,0,0:0:0:0:
448,192,33261,1,0,0:0:0:0:
192,192,33346,1,0,0:0:0:0:
64,192,33346,1,0,0:0:0:0:
320,192,33432,1,0,0:0:0:0:
448,192,33432,1,0,0:0:0:0:
192,192,33604,1,0,0:0:0:0:
64,192,33604,1,0,0:0:0:0:
320,192,33604,1,0,0:0:0:0:
448,192,33661,1,0,0:0:0:0:
192,192,33718,1,0,0:0:0:0:
64,192,33775,1,0,0:0:0:0:
320,192,33832,1,0,0:0:0:0:
192,192,33889,1,0,0:0:0:0:
64,192,33946,1,0,0:0:0:0:
448,192,33946,1,0,0:0:0:0:
320,192,34004,1,0,0:0:0:0:
192,192,34061,1,0,0:0:0:0:
64,192,34118,1,0,0:0:0:0:
448,192,34118,1,0,0:0:0:0:
320,192,34175,1,0,0:0:0:0:
192,192,34232,1,0,0:0:0:0:
64,192,34289,128,0,34461:0:0:0:0:
448,192,34289,1,0,0:0:0:0:
192,192,34375,1,0,0:0:0:0:
320,192,34461,128,0,34632:0:0:0:0:
64,192,34546,1,0,0:0:0:0:
192,192,34632,128,0,34804:0:0:0:0:
448,192,34632,1,0,0:0:0:0:
64,192,34718,1,0,0:0:0:0:
448,192,34804,128,0,34975:0:0:0:0:
320,192,34804,1,0,0:0:0:0:
192,192,34889,1,0,0:0:0:0:
64,192,34975,128,0,35146:0:0:0:0:
320,192,34975,1,0,0:0:0:0:
448,192,35061,1,0,0:0:0:0:
192,192,35146,128,0,35318:0:0:0:0:
320,192,35146,1,0,0:0:0:0:
64,192,35232,1,0,0:0:0:0:
448,192,35232,1,0,0:0:0:0:
320,192,35318,128,0,35489:0:0:0:0:
64,192,35404,1,0,0:0:0:0:
448,192,35489,128,0,35661:0:0:0:0:
192,192,35489,1,0,0:0:0:0:
320,192,35575,1,0,0:0:0:0:
192,192,35661,1,0,0:0:0:0:
64,192,35661,1,0,0:0:0:0:
320,192,35718,1,0,0:0:0:0:
448,192,35775,1,0,0:0:0:0:
320,192,35832,1,0,0:0:0:0:
64,192,35832,1,0,0:0:0:0:
192,192,35889,1,0,0:0:0:0:
320,192,35946,1,0,0:0:0:0:
448,192,36004,1,0,0:0:0:0:
64,192,36004,1,0,0:0:0:0:
320,192,36175,1,0,0:0:0:0:
448,192,36175,1,0,0:0:0:0:
192,192,36261,1,0,0:0:0:0:
64,192,36261,1,0,0:0:0:0:
320,192,36346,1,0,0:0:0:0:
64,192,36346,1,0,0:0:0:0:
448,192,36346,1,0,0:0:0:0:
192,192,36432,1,0,0:0:0:0:
448,192,36432,1,0,0:0:0:0:
320,192,36604,1,0,0:0:0:0:
64,192,36604,1,0,0:0:0:0:
192,192,36689,1,0,0:0:0:0:
320,192,36689,1,0,0:0:0:0:
448,192,36689,1,0,0:0:0:0:
64,192,36746,1,0,0:0:0:0:
192,192,36804,1,0,0:0:0:0:
320,192,36861,1,0,0:0:0:0:
448,192,36918,1,0,0:0:0:0:
64,192,36975,1,0,0:0:0:0:
192,192,37032,1,0,0:0:0:0:
320,192,37032,1,0,0:0:0:0:
448,192,37032,1,0,0:0:0:0:
448,192,37204,1,0,0:0:0:0:
320,192,37204,1,0,0:0:0:0:
192,192,37204,1,0,0:0:0:0:
192,192,37375,1,0,0:0:0:0:
320,192,37375,1,0,0:0:0:0:
448,192,37375,1,0,0:0:0:0:
64,192,37546,1,0,0:0:0:0:
320,192,37546,1,0,0:0:0:0:
192,192,37718,1,0,0:0:0:0:
64,192,37718,1,0,0:0:0:0:
448,192,37718,128,0,37889:0:0:0:0:
320,192,37889,128,0,38061:0:0:0:0:
192,192,38061,1,0,0:0:0:0:
64,192,38061,1,0,0:0:0:0:
64,192,38232,1,0,0:0:0:0:
320,192,38404,1,0,0:0:0:0:
448,192,38404,1,0,0:0:0:0:
192,192,38461,1,0,0:0:0:0:
64,192,38518,1,0,0:0:0:0:
320,192,38575,1,0,0:0:0:0:
448,192,38632,1,0,0:0:0:0:
64,192,38689,1,0,0:0:0:0:
192,192,38746,1,0,0:0:0:0:
320,192,38746,1,0,0:0:0:0:
448,192,38746,128,0,38918:0:0:0:0:
64,192,38918,1,0,0:0:0:0:
320,192,38918,1,0,0:0:0:0:
192,192,39089,1,0,0:0:0:0:
320,192,39089,128,0,39261:0:0:0:0:
448,192,39261,128,0,39432:0:0:0:0:
64,192,39261,1,0,0:0:0:0:
320,192,39432,1,0,0:0:0:0:
64,192,39432,1,0,0:0:0:0:
192,192,39432,128,0,39604:0:0:0:0:
64,192,39604,1,0,0:0:0:0:
320,192,39604,1,0,0:0:0:0:
448,192,39604,128,0,39775:0:0:0:0:
192,192,39775,128,0,39946:0:0:0:0:
320,192,39775,1,0,0:0:0:0:
64,192,39946,128,0,40118:0:0:0:0:
448,192,39946,1,0,0:0:0:0:
192,192,40118,1,0,0:0:0:0:
320,192,40118,1,0,0:0:0:0:
448,192,40118,1,0,0:0:0:0:
64,192,40204,1,0,0:0:0:0:
192,192,40289,1,0,0:0:0:0:
320,192,40289,1,0,0:0:0:0:
64,192,40461,1,0,0:0:0:0:
448,192,40461,1,0,0:0:0:0:
192,192,40518,1,0,0:0:0:0:
320,192,40575,1,0,0:0:0:0:
448,192,40632,1,0,0:0:0:0:
192,192,40689,1,0,0:0:0:0:
64,192,40746,1,0,0:0:0:0:
192,192,40804,1,0,0:0:0:0:
320,192,40804,1,0,0:0:0:0:
448,192,40804,1,0,0:0:0:0:
320,192,40975,1,0,0:0:0:0:
320,192,41061,1,0,0:0:0:0:
192,192,41146,1,0,0:0:0:0:
64,192,41146,1,0,0:0:0:0:
320,192,41204,1,0,0:0:0:0:
448,192,41261,1,0,0:0:0:0:
64,192,41318,1,0,0:0:0:0:
192,192,41375,1,0,0:0:0:0:
320,192,41432,1,0,0:0:0:0:
64,192,41489,128,0,41661:0:0:0:0:
448,192,41489,1,0,0:0:0:0:
192,192,41489,1,0,0:0:0:0:
192,192,41661,1,0,0:0:0:0:
320,192,41661,1,0,0:0:0:0:
448,192,41832,1,0,0:0:0:0:
320,192,41832,1,0,0:0:0:0:
64,192,41832,1,0,0:0:0:0:
192,192,42004,128,0,42175:0:0:0:0:
64,192,42175,1,0,0:0:0:0:
320,192,42175,1,0,0:0:0:0:
448,192,42175,128,0,42346:0:0:0:0:
320,192,42346,1,0,0:0:0:0:
192,192,42346,128,0,42518:0:0:0:0:
64,192,42518,128,0,42689:0:0:0:0:
448,192,42518,1,0,0:0:0:0:
448,192,42689,1,0,0:0:0:0:
320,192,42711,1,0,0:0:0:0:
192,192,42732,1,0,0:0:0:0:
64,192,42754,1,0,0:0:0:0:
192,192,42861,1,0,0:0:0:0:
320,192,42861,1,0,0:0:0:0:
448,192,42861,1,0,0:0:0:0:
64,192,43032,1,0,0:0:0:0:
320,192,43032,1,0,0:0:0:0:
448,192,43204,1,0,0:0:0:0:
192,192,43204,1,0,0:0:0:0:
320,192,43289,128,0,43461:0:0:0:0:
448,192,43461,1,0,0:0:0:0:
64,192,43461,1,0,0:0:0:0:
320,192,43546,1,0,0:0:0:0:
192,192,43546,1,0,0:0:0:0:
64,192,43546,1,0,0:0:0:0:
192,192,43718,1,0,0:0:0:0:
192,192,43804,1,0,0:0:0:0:
64,192,43889,1,0,0:0:0:0:
448,192,43889,1,0,0:0:0:0:
320,192,43946,1,0,0:0:0:0:
192,192,44004,1,0,0:0:0:0:
448,192,44061,1,0,0:0:0:0:
320,192,44118,1,0,0:0:0:0:
192,192,44175,1,0,0:0:0:0:
320,192,44232,1,0,0:0:0:0:
448,192,44232,1,0,0:0:0:0:
64,192,44232,128,0,44404:0:0:0:0:
192,192,44404,1,0,0:0:0:0:
448,192,44404,1,0,0:0:0:0:
64,192,44575,1,0,0:0:0:0:
320,192,44575,128,0,44746:0:0:0:0:
448,192,44746,128,0,44918:0:0:0:0:
192,192,44746,1,0,0:0:0:0:
64,192,44918,1,0,0:0:0:0:
320,192,44918,1,0,0:0:0:0:
192,192,44918,128,0,45089:0:0:0:0:
320,192,45089,1,0,0:0:0:0:
448,192,45089,1,0,0:0:0:0:
64,192,45089,128,0,45261:0:0:0:0:
192,192,45261,1,0,0:0:0:0:
320,192,45261,128,0,45432:0:0:0:0:
448,192,45432,128,0,45604:0:0:0:0:
192,192,45432,1,0,0:0:0:0:
64,192,45604,1,0,0:0:0:0:
192,192,45604,1,0,0:0:0:0:
320,192,45604,1,0,0:0:0:0:
448,192,45689,1,0,0:0:0:0:
320,192,45775,1,0,0:0:0:0:
64,192,45775,1,0,0:0:0:0:
192,192,45946,1,0,0:0:0:0:
320,192,45946,1,0,0:0:0:0:
448,192,46004,1,0,0:0:0:0:
64,192,46061,1,0,0:0:0:0:
192,192,46118,1,0,0:0:0:0:
320,192,46175,1,0,0:0:0:0:
448,192,46232,1,0,0:0:0:0:
64,192,46289,1,0,0:0:0:0:
192,192,46289,1,0,0:0:0:0:
320,192,46289,1,0,0:0:0:0:
64,192,46461,1,0,0:0:0:0:
64,192,46546,1,0,0:0:0:0:
320,192,46632,1,0,0:0:0:0:
192,192,46632,1,0,0:0:0:0:
448,192,46689,1,0,0:0:0:0:
192,192,46746,1,0,0:0:0:0:
64,192,46804,1,0,0:0:0:0:
448,192,46861,1,0,0:0:0:0:
320,192,46918,1,0,0:0:0:0:
448,192,46975,1,0,0:0:0:0:
192,192,46975,1,0,0:0:0:0:
64,192,46975,128,0,47146:0:0:0:0:
192,192,47146,1,0,0:0:0:0:
320,192,47146,1,0,0:0:0:0:
64,192,47318,1,0,0:0:0:0:
320,192,47318,1,0,0:0:0:0:
448,192,47318,1,0,0:0:0:0:
192,192,47489,128,0,47661:0:0:0:0:
64,192,47661,128,0,47832:0:0:0:0:
320,192,47661,1,0,0:0:0:0:
448,192,47661,1,0,0:0:0:0:
448,192,47832,1,0,0:0:0:0:
320,192,47875,1,0,0:0:0:0:
192,192,47918,1,0,0:0:0:0:
64,192,47961,1,0,0:0:0:0:
320,192,48004,1,0,0:0:0:0:
448,192,48004,1,0,0:0:0:0:
192,192,48061,1,0,0:0:0:0:
64,192,48118,1,0,0:0:0:0:
320,192,48175,1,0,0:0:0:0:
192,192,48232,1,0,0:0:0:0:
64,192,48289,1,0,0:0:0:0:
192,192,48346,1,0,0:0:0:0:
320,192,48346,1,0,0:0:0:0:
448,192,48346,1,0,0:0:0:0:
192,192,48518,1,0,0:0:0:0:
64,192,48518,1,0,0:0:0:0:
448,192,48518,1,0,0:0:0:0:
320,192,48689,128,0,48918:0:0:0:0:
448,192,48689,1,0,0:0:0:0:
192,192,48918,128,0,49146:0:0:0:0:
64,192,49146,128,0,49375:0:0:0:0:
320,192,49146,1,0,0:0:0:0:
448,192,49146,1,0,0:0:0:0:
448,192,49375,1,0,0:0:0:0:
320,192,49375,1,0,0:0:0:0:
192,192,49432,1,0,0:0:0:0:
64,192,49489,1,0,0:0:0:0:
448,192,49546,1,0,0:0:0:0:
320,192,49604,1,0,0:0:0:0:
192,192,49661,1,0,0:0:0:0:
64,192,49718,1,0,0:0:0:0:
320,192,49718,1,0,0:0:0:0:
448,192,49804,1,0,0:0:0:0:
192,192,49804,1,0,0:0:0:0:
320,192,49889,1,0,0:0:0:0:
64,192,49889,1,0,0:0:0:0:
192,192,50061,1,0,0:0:0:0:
64,192,50061,1,0,0:0:0:0:
448,192,50061,1,0,0:0:0:0:
320,192,50146,1,0,0:0:0:0:
192,192,50232,1,0,0:0:0:0:
320,192,50318,1,0,0:0:0:0:
448,192,50318,1,0,0:0:0:0:
192,192,50361,1,0,0:0:0:0:
64,192,50404,1,0,0:0:0:0:
448,192,50461,1,0,0:0:0:0:
320,192,50518,1,0,0:0:0:0:
192,192,50575,1,0,0:0:0:0:
64,192,50575,1,0,0:0:0:0:
320,192,50632,1,0,0:0:0:0:
448,192,50689,1,0,0:0:0:0:
64,192,50746,128,0,50918:0:0:0:0:
192,192,50746,1,0,0:0:0:0:
448,192,50832,1,0,0:0:0:0:
320,192,50918,128,0,51089:0:0:0:0:
64,192,51004,1,0,0:0:0:0:
192,192,51089,128,0,51261:0:0:0:0:
448,192,51089,1,0,0:0:0:0:
64,192,51175,1,0,0:0:0:0:
448,192,51261,128,0,51432:0:0:0:0:
320,192,51261,1,0,0:0:0:0:
192,192,51346,1,0,0:0:0:0:
64,192,51432,128,0,51604:0:0:0:0:
320,192,51432,1,0,0:0:0:0:
448,192,51518,1,0,0:0:0:0:
192,192,51604,128,0,51775:0:0:0:0:
320,192,51604,1,0,0:0:0:0:
448,192,51689,1,0,0:0:0:0:
64,192,51689,1,0,0:0:0:0:
320,192,51775,128,0,51946:0:0:0:0:
64,192,51861,1,0,0:0:0:0:
448,192,51946,128,0,52118:0:0:0:0:
192,192,51946,1,0,0:0:0:0:
320,192,52032,1,0,0:0:0:0:
192,192,52118,1,0,0:0:0:0:
64,192,52118,1,0,0:0:0:0:
320,192,52175,1,0,0:0:0:0:
448,192,52232,1,0,0:0:0:0:
64,192,52289,1,0,0:0:0:0:
192,192,52346,1,0,0:0:0:0:
320,192,52404,1,0,0:0:0:0:
448,192,52461,1,0,0:0:0:0:
192,192,52518,1,0,0:0:0:0:
64,192,52575,1,0,0:0:0:0:
448,192,52632,1,0,0:0:0:0:
320,192,52632,1,0,0:0:0:0:
192,192,52718,1,0,0:0:0:0:
64,192,52718,1,0,0:0:0:0:
320,192,52804,1,0,0:0:0:0:
448,192,52804,1,0,0:0:0:0:
64,192,52804,1,0,0:0:0:0:
192,192,52889,1,0,0:0:0:0:
448,192,52889,1,0,0:0:0:0:
320,192,53061,1,0,0:0:0:0:
448,192,53061,1,0,0:0:0:0:
192,192,53146,1,0,0:0:0:0:
64,192,53146,1,0,0:0:0:0:
320,192,53204,1,0,0:0:0:0:
448,192,53261,1,0,0:0:0:0:
64,192,53318,1,0,0:0:0:0:
192,192,53375,1,0,0:0:0:0:
320,192,53432,1,0,0:0:0:0:
64,192,53489,1,0,0:0:0:0:
448,192,53489,1,0,0:0:0:0:
192,192,53661,1,0,0:0:0:0:
320,192,53661,1,0,0:0:0:0:
64,192,53832,128,0,54004:0:0:0:0:
320,192,53832,1,0,0:0:0:0:
320,192,54004,1,0,0:0:0:0:
448,192,54004,1,0,0:0:0:0:
192,192,54089,1,0,0:0:0:0:
64,192,54089,1,0,0:0:0:0:
448,192,54175,1,0,0:0:0:0:
320,192,54175,1,0,0:0:0:0:
64,192,54175,1,0,0:0:0:0:
192,192,54261,1,0,0:0:0:0:
448,192,54261,1,0,0:0:0:0:
64,192,54432,1,0,0:0:0:0:
192,192,54432,1,0,0:0:0:0:
320,192,54518,1,0,0:0:0:0:
448,192,54518,1,0,0:0:0:0:
192,192,54575,1,0,0:0:0:0:
64,192,54632,1,0,0:0:0:0:
320,192,54689,1,0,0:0:0:0:
448,192,54746,1,0,0:0:0:0:
192,192,54804,1,0,0:0:0:0:
64,192,54861,1,0,0:0:0:0:
448,192,54861,1,0,0:0:0:0:
320,192,54918,1,0,0:0:0:0:
192,192,54975,1,0,0:0:0:0:
64,192,55032,1,0,0:0:0:0:
320,192,55089,1,0,0:0:0:0:
448,192,55146,1,0,0:0:0:0:
192,192,55204,1,0,0:0:0:0:
64,192,55204,1,0,0:0:0:0:
320,192,55289,1,0,0:0:0:0:
448,192,55289,1,0,0:0:0:0:
192,192,55375,1,0,0:0:0:0:
64,192,55375,1,0,0:0:0:0:
320,192,55546,1,0,0:0:0:0:
448,192,55546,1,0,0:0:0:0:
192,192,55546,1,0,0:0:0:0:
64,192,55604,1,0,0:0:0:0:
320,192,55661,1,0,0:0:0:0:
448,192,55718,1,0,0:0:0:0:
192,192,55775,1,0,0:0:0:0:
320,192,55832,1,0,0:0:0:0:
448,192,55889,1,0,0:0:0:0:
64,192,55889,1,0,0:0:0:0:
192,192,55946,1,0,0:0:0:0:
320,192,56004,1,0,0:0:0:0:
448,192,56061,1,0,0:0:0:0:
64,192,56061,1,0,0:0:0:0:
192,192,56118,1,0,0:0:0:0:
320,192,56175,1,0,0:0:0:0:
448,192,56232,128,0,56404:0:0:0:0:
64,192,56232,1,0,0:0:0:0:
320,192,56318,1,0,0:0:0:0:
192,192,56404,128,0,56575:0:0:0:0:
448,192,56489,1,0,0:0:0:0:
320,192,56575,128,0,56746:0:0:0:0:
64,192,56575,1,0,0:0:0:0:
448,192,56661,1,0,0:0:0:0:
64,192,56746,128,0,56918:0:0:0:0:
192,192,56746,1,0,0:0:0:0:
320,192,56832,1,0,0:0:0:0:
448,192,56918,128,0,57089:0:0:0:0:
192,192,56918,1,0,0:0:0:0:
64,192,57004,1,0,0:0:0:0:
320,192,57089,128,0,57261:0:0:0:0:
192,192,57089,1,0,0:0:0:0:
448,192,57175,1,0,0:0:0:0:
64,192,57175,1,0,0:0:0:0:
192,192,57261,128,0,57432:0:0:0:0:
448,192,57346,1,0,0:0:0:0:
64,192,57432,128,0,57604:0:0:0:0:
320,192,57432,1,0,0:0:0:0:
192,192,57518,1,0,0:0:0:0:
320,192,57604,1,0,0:0:0:0:
448,192,57604,1,0,0:0:0:0:
192,192,57661,1,0,0:0:0:0:
64,192,57718,1,0,0:0:0:0:
192,192,57775,1,0,0:0:0:0:
448,192,57775,1,0,0:0:0:0:
320,192,57832,1,0,0:0:0:0:
192,192,57889,1,0,0:0:0:0:
64,192,57946,1,0,0:0:0:0:
320,192,57946,1,0,0:0:0:0:
448,192,58032,1,0,0:0:0:0:
192,192,58032,1,0,0:0:0:0:
320,192,58118,1,0,0:0:0:0:
64,192,58118,1,0,0:0:0:0:
448,192,58204,1,0,0:0:0:0:
192,192,58204,1,0,0:0:0:0:
64,192,58289,1,0,0:0:0:0:
320,192,58289,1,0,0:0:0:0:
192,192,58375,1,0,0:0:0:0:
448,192,58375,1,0,0:0:0:0:
64,192,58461,1,0,0:0:0:0:
320,192,58461,1,0,0:0:0:0:
192,192,58546,1,0,0:0:0:0:
448,192,58546,1,0,0:0:0:0:
448,192,58632,1,0,0:0:0:0:
64,192,58632,1,0,0:0:0:0:
320,192,58718,1,0,0:0:0:0:
192,192,58718,1,0,0:0:0:0:
64,192,58804,1,0,0:0:0:0:
448,192,58804,128,0,58975:0:0:0:0:
320,192,58975,1,0,0:0:0:0:
192,192,58975,1,0,0:0:0:0:
64,192,59018,1,0,0:0:0:0:
448,192,59061,1,0,0:0:0:0:
320,192,59104,1,0,0:0:0:0:
192,192,59146,1,0,0:0:0:0:
64,192,59189,1,0,0:0:0:0:
320,192,59232,1,0,0:0:0:0:
448,192,59275,1,0,0:0:0:0:
192,192,59318,128,0,59489:0:0:0:0:
64,192,59489,1,0,0:0:0:0:
320,192,59489,1,0,0:0:0:0:
320,192,59661,1,0,0:0:0:0:
448,192,59661,1,0,0:0:0:0:
192,192,59661,1,0,0:0:0:0:
64,192,59832,1,0,0:0:0:0:
320,192,60004,1,0,0:0:0:0:
448,192,60004,1,0,0:0:0:0:
192,192,60061,1,0,0:0:0:0:
64,192,60118,1,0,0:0:0:0:
448,192,60175,1,0,0:0:0:0:
320,192,60232,1,0,0:0:0:0:
192,192,60289,1,0,0:0:0:0:
64,192,60346,1,0,0:0:0:0:
448,192,60346,1,0,0:0:0:0:
320,192,60518,1,0,0:0:0:0:
192,192,60689,1,0,0:0:0:0:
64,192,60861,1,0,0:0:0:0:
320,192,61032,1,0,0:0:0:0:
192,192,61204,1,0,0:0:0:0:
448,192,61375,1,0,0:0:0:0:
320,192,61546,1,0,0:0:0:0:
64,192,61718,1,0,0:0:0:0:
192,192,61889,1,0,0:0:0:0:
320,192,62061,1,0,0:0:0:0:
64,192,62232,1,0,0:0:0:0:
448,192,62404,1,0,0:0:0:0:
192,192,62575,1,0,0:0:0:0:
320,192,62746,1,0,0:0:0:0:
448,192,62918,1,0,0:0:0:0:
192,192,63089,1,0,0:0:0:0:
320,192,63261,1,0,0:0:0:0:
192,192,63432,1,0,0:0:0:0:
64,192,63604,1,0,0:0:0:0:
448,192,63775,1,0,0:0:0:0:
320,192,63946,1,0,0:0:0:0:
192,192,64118,1,0,0:0:0:0:
448,192,64289,1,0,0:0:0:0:
64,192,64461,1,0,0:0:0:0:
320,192,64632,1,0,0:0:0:0:
192,192,64804,1,0,0:0:0:0:
64,192,64975,1,0,0:0:0:0:
320,192,65146,1,0,0:0:0:0:
448,192,65318,1,0,0:0:0:0:
192,192,65489,1,0,0:0:0:0:
320,192,65661,1,0,0:0:0:0:
192,192,65832,1,0,0:0:0:0:
64,192,65918,1,0,0:0:0:0:
320,192,66004,1,0,0:0:0:0:
192,192,66089,1,0,0:0:0:0:
448,192,66175,1,0,0:0:0:0:
320,192,66261,1,0,0:0:0:0:
64,192,66346,1,0,0:0:0:0:
448,192,66432,1,0,0:0:0:0:
192,192,66518,1,0,0:0:0:0:
320,192,66604,1,0,0:0:0:0:
64,192,66689,1,0,0:0:0:0:
192,192,66775,1,0,0:0:0:0:
448,192,66861,1,0,0:0:0:0:
64,192,66946,1,0,0:0:0:0:
320,192,67032,1,0,0:0:0:0:
192,192,67118,1,0,0:0:0:0:
448,192,67204,1,0,0:0:0:0:
64,192,67289,1,0,0:0:0:0:
320,192,67375,1,0,0:0:0:0:
192,192,67461,1,0,0:0:0:0:
448,192,67546,1,0,0:0:0:0:
64,192,67632,1,0,0:0:0:0:
320,192,67718,1,0,0:0:0:0:
192,192,67804,1,0,0:0:0:0:
448,192,67889,1,0,0:0:0:0:
192,192,67975,1,0,0:0:0:0:
320,192,68061,1,0,0:0:0:0:
64,192,68146,1,0,0:0:0:0:
320,192,68232,1,0,0:0:0:0:
192,192,68318,1,0,0:0:0:0:
448,192,68404,1,0,0:0:0:0:
64,192,68489,1,0,0:0:0:0:
320,192,68575,1,0,0:0:0:0:
192,192,68661,1,0,0:0:0:0:
64,192,68746,1,0,0:0:0:0:
448,192,68832,1,0,0:0:0:0:
192,192,68918,1,0,0:0:0:0:
320,192,69004,1,0,0:0:0:0:
64,192,69089,1,0,0:0:0:0:
192,192,69175,1,0,0:0:0:0:
320,192,69261,1,0,0:0:0:0:
448,192,69346,1,0,0:0:0:0:
192,192,69432,1,0,0:0:0:0:
320,192,69518,1,0,0:0:0:0:
64,192,69604,1,0,0:0:0:0:
448,192,69689,1,0,0:0:0:0:
320,192,69775,1,0,0:0:0:0:
192,192,69861,1,0,0:0:0:0:
64,192,69946,1,0,0:0:0:0:
320,192,70032,1,0,0:0:0:0:
192,192,70118,1,0,0:0:0:0:
64,192,70204,1,0,0:0:0:0:
448,192,70289,1,0,0:0:0:0:
192,192,70375,1,0,0:0:0:0:
320,192,70461,1,0,0:0:0:0:
64,192,70546,1,0,0:0:0:0:
192,192,70632,1,0,0:0:0:0:
320,192,70718,1,0,0:0:0:0:
448,192,70804,1,0,0:0:0:0:
64,192,70889,1,0,0:0:0:0:
320,192,70975,1,0,0:0:0:0:
192,192,71061,1,0,0:0:0:0:
64,192,71146,1,0,0:0:0:0:
448,192,71232,1,0,0:0:0:0:
320,192,71318,1,0,0:0:0:0:
192,192,71318,1,0,0:0:0:0:
64,192,71318,1,0,0:0:0:0:
448,192,71404,1,0,0:0:0:0:
320,192,71489,1,0,0:0:0:0:
192,192,71575,1,0,0:0:0:0:
64,192,71575,1,0,0:0:0:0:
320,192,71661,1,0,0:0:0:0:
448,192,71746,1,0,0:0:0:0:
192,192,71832,1,0,0:0:0:0:
64,192,71832,1,0,0:0:0:0:
320,192,71918,1,0,0:0:0:0:
448,192,72004,1,0,0:0:0:0:
64,192,72089,1,0,0:0:0:0:
320,192,72175,1,0,0:0:0:0:
192,192,72261,1,0,0:0:0:0:
448,192,72346,1,0,0:0:0:0:
64,192,72432,1,0,0:0:0:0:
448,192,72518,1,0,0:0:0:0:
192,192,72604,1,0,0:0:0:0:
320,192,72689,1,0,0:0:0:0:
448,192,72689,1,0,0:0:0:0:
192,192,72775,1,0,0:0:0:0:
64,192,72861,1,0,0:0:0:0:
320,192,72946,1,0,0:0:0:0:
448,192,72946,1,0,0:0:0:0:
192,192,73032,1,0,0:0:0:0:
64,192,73118,1,0,0:0:0:0:
320,192,73204,1,0,0:0:0:0:
448,192,73204,1,0,0:0:0:0:
192,192,73289,1,0,0:0:0:0:
64,192,73375,1,0,0:0:0:0:
320,192,73461,1,0,0:0:0:0:
192,192,73546,1,0,0:0:0:0:
448,192,73632,1,0,0:0:0:0:
64,192,73718,1,0,0:0:0:0:
320,192,73804,1,0,0:0:0:0:
192,192,73889,1,0,0:0:0:0:
448,192,73975,1,0,0:0:0:0:
320,192,74061,1,0,0:0:0:0:
64,192,74061,1,0,0:0:0:0:
192,192,74146,1,0,0:0:0:0:
64,192,74232,1,0,0:0:0:0:
192,192,74318,1,0,0:0:0:0:
448,192,74318,1,0,0:0:0:0:
320,192,74404,1,0,0:0:0:0:
448,192,74489,1,0,0:0:0:0:
320,192,74575,1,0,0:0:0:0:
64,192,74575,1,0,0:0:0:0:
192,192,74661,1,0,0:0:0:0:
64,192,74746,1,0,0:0:0:0:
448,192,74832,1,0,0:0:0:0:
192,192,74918,1,0,0:0:0:0:
320,192,75004,1,0,0:0:0:0:
192,192,75089,1,0,0:0:0:0:
448,192,75175,1,0,0:0:0:0:
64,192,75261,1,0,0:0:0:0:
320,192,75346,1,0,0:0:0:0:
64,192,75432,1,0,0:0:0:0:
448,192,75432,1,0,0:0:0:0:
192,192,75518,1,0,0:0:0:0:
320,192,75604,1,0,0:0:0:0:
448,192,75689,1,0,0:0:0:0:
64,192,75689,1,0,0:0:0:0:
192,192,75775,1,0,0:0:0:0:
320,192,75861,1,0,0:0:0:0:
448,192,75946,1,0,0:0:0:0:
64,192,75946,1,0,0:0:0:0:
192,192,76032,1,0,0:0:0:0:
320,192,76118,1,0,0:0:0:0:
64,192,76204,1,0,0:0:0:0:
448,192,76289,1,0,0:0:0:0:
192,192,76375,1,0,0:0:0:0:
320,192,76461,1,0,0:0:0:0:
64,192,76546,1,0,0:0:0:0:
448,192,76632,1,0,0:0:0:0:
192,192,76718,1,0,0:0:0:0:
320,192,76804,1,0,0:0:0:0:
64,192,76804,1,0,0:0:0:0:
448,192,76889,1,0,0:0:0:0:
192,192,76975,1,0,0:0:0:0:
64,192,77061,1,0,0:0:0:0:
320,192,77061,1,0,0:0:0:0:
448,192,77146,1,0,0:0:0:0:
192,192,77232,1,0,0:0:0:0:
64,192,77318,1,0,0:0:0:0:
320,192,77318,1,0,0:0:0:0:
448,192,77404,1,0,0:0:0:0:
192,192,77489,1,0,0:0:0:0:
320,192,77575,1,0,0:0:0:0:
64,192,77661,1,0,0:0:0:0:
448,192,77746,1,0,0:0:0:0:
192,192,77832,1,0,0:0:0:0:
64,192,77918,1,0,0:0:0:0:
192,192,78004,1,0,0:0:0:0:
64,192,78089,1,0,0:0:0:0:
192,192,78175,1,0,0:0:0:0:
448,192,78175,1,0,0:0:0:0:
320,192,78261,1,0,0:0:0:0:
64,192,78346,1,0,0:0:0:0:
192,192,78432,1,0,0:0:0:0:
448,192,78432,1,0,0:0:0:0:
320,192,78518,1,0,0:0:0:0:
64,192,78604,1,0,0:0:0:0:
192,192,78689,1,0,0:0:0:0:
448,192,78689,1,0,0:0:0:0:
320,192,78775,1,0,0:0:0:0:
64,192,78861,1,0,0:0:0:0:
448,192,78946,1,0,0:0:0:0:
64,192,79032,1,0,0:0:0:0:
320,192,79118,1,0,0:0:0:0:
192,192,79204,1,0,0:0:0:0:
448,192,79289,1,0,0:0:0:0:
64,192,79375,1,0,0:0:0:0:
320,192,79461,1,0,0:0:0:0:
192,192,79546,1,0,0:0:0:0:
64,192,79546,1,0,0:0:0:0:
320,192,79632,1,0,0:0:0:0:
448,192,79718,1,0,0:0:0:0:
192,192,79804,1,0,0:0:0:0:
64,192,79804,1,0,0:0:0:0:
320,192,79889,1,0,0:0:0:0:
448,192,79975,1,0,0:0:0:0:
192,192,80061,1,0,0:0:0:0:
64,192,80061,1,0,0:0:0:0:
320,192,80146,1,0,0:0:0:0:
448,192,80232,1,0,0:0:0:0:
64,192,80318,1,0,0:0:0:0:
320,192,80404,1,0,0:0:0:0:
192,192,80489,1,0,0:0:0:0:
448,192,80575,1,0,0:0:0:0:
64,192,80661,1,0,0:0:0:0:
320,192,80746,1,0,0:0:0:0:
192,192,80832,1,0,0:0:0:0:
448,192,80918,1,0,0:0:0:0:
64,192,80918,1,0,0:0:0:0:
320,192,81004,1,0,0:0:0:0:
192,192,81089,1,0,0:0:0:0:
64,192,81175,1,0,0:0:0:0:
448,192,81175,1,0,0:0:0:0:
320,192,81261,1,0,0:0:0:0:
192,192,81346,1,0,0:0:0:0:
64,192,81432,1,0,0:0:0:0:
448,192,81432,1,0,0:0:0:0:
320,192,81518,1,0,0:0:0:0:
192,192,81604,1,0,0:0:0:0:
448,192,81689,1,0,0:0:0:0:
64,192,81775,1,0,0:0:0:0:
320,192,81861,1,0,0:0:0:0:
192,192,81946,1,0,0:0:0:0:
320,192,82032,1,0,0:0:0:0:
64,192,82118,1,0,0:0:0:0:
448,192,82204,1,0,0:0:0:0:
320,192,82289,1,0,0:0:0:0:
192,192,82289,1,0,0:0:0:0:
64,192,82289,1,0,0:0:0:0:
64,192,82461,1,0,0:0:0:0:
64,192,82632,1,0,0:0:0:0:
320,192,82632,1,0,0:0:0:0:
64,192,82804,1,0,0:0:0:0:
448,192,82804,1,0,0:0:0:0:
64,192,82975,1,0,0:0:0:0:
320,192,82975,1,0,0:0:0:0:
64,192,83146,1,0,0:0:0:0:
64,192,83318,1,0,0:0:0:0:
192,192,83318,1,0,0:0:0:0:
64,192,83489,1,0,0:0:0:0:
320,192,83489,1,0,0:0:0:0:
64,192,83661,1,0,0:0:0:0:
448,192,83661,128,0,84089:0:0:0:0:
64,192,83832,1,0,0:0:0:0:
64,192,84004,1,0,0:0:0:0:
320,192,84089,128,0,84346:0:0:0:0:
64,192,84175,1,0,0:0:0:0:
64,192,84346,1,0,0:0:0:0:
192,192,84346,128,0,84689:0:0:0:0:
64,192,84518,1,0,0:0:0:0:
64,192,84689,1,0,0:0:0:0:
448,192,84689,1,0,0:0:0:0:
320,192,84746,1,0,0:0:0:0:
192,192,84804,1,0,0:0:0:0:
64,192,84861,1,0,0:0:0:0:
448,192,84918,1,0,0:0:0:0:
320,192,84975,1,0,0:0:0:0:
192,192,85032,1,0,0:0:0:0:
64,192,85032,1,0,0:0:0:0:
320,192,85075,1,0,0:0:0:0:
448,192,85118,1,0,0:0:0:0:
64,192,85161,1,0,0:0:0:0:
192,192,85204,1,0,0:0:0:0:
320,192,85246,1,0,0:0:0:0:
448,192,85289,1,0,0:0:0:0:
64,192,85332,1,0,0:0:0:0:
192,192,85375,1,0,0:0:0:0:
320,192,85375,1,0,0:0:0:0:
448,192,85375,1,0,0:0:0:0:
64,192,85546,1,0,0:0:0:0:
320,192,85546,1,0,0:0:0:0:
192,192,85718,1,0,0:0:0:0:
448,192,85718,1,0,0:0:0:0:
64,192,85775,1,0,0:0:0:0:
320,192,85832,1,0,0:0:0:0:
192,192,85889,1,0,0:0:0:0:
448,192,85889,1,0,0:0:0:0:
64,192,85975,1,0,0:0:0:0:
320,192,85975,1,0,0:0:0:0:
192,192,86061,1,0,0:0:0:0:
64,192,86061,1,0,0:0:0:0:
448,192,86061,1,0,0:0:0:0:
320,192,86232,128,0,86404:0:0:0:0:
64,192,86404,1,0,0:0:0:0:
448,192,86404,1,0,0:0:0:0:
320,192,86575,1,0,0:0:0:0:
192,192,86575,1,0,0:0:0:0:
64,192,86746,1,0,0:0:0:0:
320,192,86746,1,0,0:0:0:0:
448,192,86746,1,0,0:0:0:0:
320,192,86918,1,0,0:0:0:0:
64,192,86918,1,0,0:0:0:0:
448,192,87089,1,0,0:0:0:0:
192,192,87089,1,0,0:0:0:0:
320,192,87175,1,0,0:0:0:0:
64,192,87175,1,0,0:0:0:0:
448,192,87261,1,0,0:0:0:0:
192,192,87289,1,0,0:0:0:0:
64,192,87318,1,0,0:0:0:0:
192,192,87432,1,0,0:0:0:0:
320,192,87432,1,0,0:0:0:0:
448,192,87432,1,0,0:0:0:0:
64,192,87489,1,0,0:0:0:0:
448,192,87546,1,0,0:0:0:0:
320,192,87604,1,0,0:0:0:0:
192,192,87661,1,0,0:0:0:0:
64,192,87718,1,0,0:0:0:0:
320,192,87775,1,0,0:0:0:0:
192,192,87775,1,0,0:0:0:0:
64,192,87946,128,0,88118:0:0:0:0:
192,192,88118,1,0,0:0:0:0:
320,192,88118,1,0,0:0:0:0:
448,192,88118,1,0,0:0:0:0:
320,192,88289,1,0,0:0:0:0:
64,192,88289,1,0,0:0:0:0:
192,192,88461,1,0,0:0:0:0:
448,192,88461,1,0,0:0:0:0:
320,192,88546,1,0,0:0:0:0:
448,192,88589,1,0,0:0:0:0:
320,192,88632,1,0,0:0:0:0:
192,192,88689,1,0,0:0:0:0:
64,192,88746,1,0,0:0:0:0:
320,192,88804,1,0,0:0:0:0:
448,192,88804,1,0,0:0:0:0:
192,192,88804,128,0,88975:0:0:0:0:
64,192,88975,128,0,89146:0:0:0:0:
192,192,89146,1,0,0:0:0:0:
320,192,89146,1,0,0:0:0:0:
448,192,89146,1,0,0:0:0:0:
320,192,89318,1,0,0:0:0:0:
64,192,89318,1,0,0:0:0:0:
192,192,89489,1,0,0:0:0:0:
64,192,89489,1,0,0:0:0:0:
448,192,89489,1,0,0:0:0:0:
320,192,89575,1,0,0:0:0:0:
64,192,89575,1,0,0:0:0:0:
192,192,89746,1,0,0:0:0:0:
448,192,89746,1,0,0:0:0:0:
320,192,89832,1,0,0:0:0:0:
192,192,89832,1,0,0:0:0:0:
64,192,90004,1,0,0:0:0:0:
448,192,90004,1,0,0:0:0:0:
192,192,90175,1,0,0:0:0:0:
320,192,90175,1,0,0:0:0:0:
448,192,90175,1,0,0:0:0:0:
64,192,90261,1,0,0:0:0:0:
320,192,90261,1,0,0:0:0:0:
192,192,90432,1,0,0:0:0:0:
320,192,90432,1,0,0:0:0:0:
192,192,90518,1,0,0:0:0:0:
448,192,90518,128,0,90689:0:0:0:0:
64,192,90689,1,0,0:0:0:0:
320,192,90689,128,0,90861:0:0:0:0:
192,192,90861,128,0,91204:0:0:0:0:
64,192,90861,1,0,0:0:0:0:
448,192,90861,1,0,0:0:0:0:
64,192,91204,1,0,0:0:0:0:
448,192,91204,128,0,91546:0:0:0:0:
320,192,91546,1,0,0:0:0:0:
192,192,91546,1,0,0:0:0:0:
64,192,91546,1,0,0:0:0:0:
448,192,91718,1,0,0:0:0:0:
192,192,91718,1,0,0:0:0:0:
320,192,91804,1,0,0:0:0:0:
64,192,91804,1,0,0:0:0:0:
192,192,91889,128,0,91975:0:0:0:0:
320,192,91889,128,0,91975:0:0:0:0:
448,192,91889,128,0,91975:0:0:0:0:
320,192,92061,128,0,92146:0:0:0:0:
192,192,92061,128,0,92146:0:0:0:0:
64,192,92232,128,0,92318:0:0:0:0:
192,192,92232,128,0,92318:0:0:0:0:
320,192,92232,128,0,92318:0:0:0:0:
448,192,92404,128,0,92489:0:0:0:0:
192,192,92404,128,0,92489:0:0:0:0:
448,192,92575,128,0,92661:0:0:0:0:
320,192,92575,128,0,92661:0:0:0:0:
64,192,92746,128,0,92832:0:0:0:0:
192,192,92746,128,0,92832:0:0:0:0:
192,192,92918,1,0,0:0:0:0:
320,192,92918,1,0,0:0:0:0:
448,192,92918,1,0,0:0:0:0:
64,192,93004,1,0,0:0:0:0:
192,192,93089,1,0,0:0:0:0:
448,192,93089,1,0,0:0:0:0:
320,192,93261,1,0,0:0:0:0:
192,192,93261,1,0,0:0:0:0:
64,192,93318,1,0,0:0:0:0:
448,192,93375,1,0,0:0:0:0:
320,192,93432,1,0,0:0:0:0:
192,192,93489,1,0,0:0:0:0:
64,192,93546,1,0,0:0:0:0:
192,192,93604,1,0,0:0:0:0:
320,192,93604,1,0,0:0:0:0:
448,192,93604,1,0,0:0:0:0:
64,192,93661,1,0,0:0:0:0:
192,192,93718,1,0,0:0:0:0:
320,192,93775,1,0,0:0:0:0:
448,192,93832,1,0,0:0:0:0:
64,192,93889,1,0,0:0:0:0:
192,192,93946,1,0,0:0:0:0:
320,192,93946,1,0,0:0:0:0:
448,192,94004,1,0,0:0:0:0:
64,192,94061,1,0,0:0:0:0:
192,192,94118,1,0,0:0:0:0:
320,192,94175,1,0,0:0:0:0:
448,192,94232,1,0,0:0:0:0:
320,192,94289,1,0,0:0:0:0:
192,192,94289,1,0,0:0:0:0:
64,192,94289,1,0,0:0:0:0:
448,192,94346,1,0,0:0:0:0:
320,192,94404,1,0,0:0:0:0:
192,192,94461,1,0,0:0:0:0:
64,192,94518,1,0,0:0:0:0:
448,192,94575,1,0,0:0:0:0:
64,192,94632,1,0,0:0:0:0:
192,192,94632,1,0,0:0:0:0:
320,192,94675,1,0,0:0:0:0:
448,192,94718,1,0,0:0:0:0:
192,192,94761,1,0,0:0:0:0:
64,192,94804,1,0,0:0:0:0:
320,192,94846,1,0,0:0:0:0:
448,192,94889,1,0,0:0:0:0:
192,192,94932,1,0,0:0:0:0:
320,192,94975,1,0,0:0:0:0:
64,192,94975,1,0,0:0:0:0:
448,192,94975,1,0,0:0:0:0:
192,192,95032,1,0,0:0:0:0:
320,192,95089,1,0,0:0:0:0:
448,192,95146,1,0,0:0:0:0:
64,192,95204,1,0,0:0:0:0:
192,192,95261,1,0,0:0:0:0:
320,192,95318,1,0,0:0:0:0:
448,192,95318,1,0,0:0:0:0:
192,192,95375,1,0,0:0:0:0:
64,192,95432,1,0,0:0:0:0:
448,192,95489,1,0,0:0:0:0:
320,192,95546,1,0,0:0:0:0:
192,192,95604,1,0,0:0:0:0:
64,192,95661,128,0,95832:0:0:0:0:
192,192,95832,1,0,0:0:0:0:
448,192,95832,1,0,0:0:0:0:
320,192,96004,1,0,0:0:0:0:
192,192,96004,1,0,0:0:0:0:
192,192,96175,1,0,0:0:0:0:
448,192,96175,1,0,0:0:0:0:
320,192,96261,1,0,0:0:0:0:
64,192,96261,1,0,0:0:0:0:
192,192,96346,1,0,0:0:0:0:
320,192,96346,1,0,0:0:0:0:
448,192,96346,1,0,0:0:0:0:
320,192,96518,1,0,0:0:0:0:
64,192,96518,1,0,0:0:0:0:
192,192,96689,1,0,0:0:0:0:
320,192,96689,1,0,0:0:0:0:
64,192,96861,1,0,0:0:0:0:
320,192,96861,1,0,0:0:0:0:
448,192,96946,1,0,0:0:0:0:
192,192,96946,1,0,0:0:0:0:
320,192,97032,1,0,0:0:0:0:
192,192,97032,1,0,0:0:0:0:
64,192,97032,1,0,0:0:0:0:
448,192,97204,128,0,97375:0:0:0:0:
320,192,97375,1,0,0:0:0:0:
64,192,97375,1,0,0:0:0:0:
192,192,97546,1,0,0:0:0:0:
448,192,97546,1,0,0:0:0:0:
320,192,97632,1,0,0:0:0:0:
448,192,97718,1,0,0:0:0:0:
192,192,97718,1,0,0:0:0:0:
64,192,97718,1,0,0:0:0:0:
320,192,97889,1,0,0:0:0:0:
64,192,97889,1,0,0:0:0:0:
192,192,98061,1,0,0:0:0:0:
320,192,98061,1,0,0:0:0:0:
448,192,98146,1,0,0:0:0:0:
64,192,98232,1,0,0:0:0:0:
320,192,98261,1,0,0:0:0:0:
448,192,98289,1,0,0:0:0:0:
448,192,98404,1,0,0:0:0:0:
192,192,98404,1,0,0:0:0:0:
64,192,98404,1,0,0:0:0:0:
320,192,98461,1,0,0:0:0:0:
192,192,98518,1,0,0:0:0:0:
64,192,98575,1,0,0:0:0:0:
448,192,98632,1,0,0:0:0:0:
320,192,98689,1,0,0:0:0:0:
64,192,98746,1,0,0:0:0:0:
448,192,98746,1,0,0:0:0:0:
192,192,98918,1,0,0:0:0:0:
320,192,99089,1,0,0:0:0:0:
448,192,99089,1,0,0:0:0:0:
64,192,99089,1,0,0:0:0:0:
192,192,99175,1,0,0:0:0:0:
64,192,99261,1,0,0:0:0:0:
320,192,99261,1,0,0:0:0:0:
192,192,99432,1,0,0:0:0:0:
320,192,99432,1,0,0:0:0:0:
64,192,99518,1,0,0:0:0:0:
192,192,99561,1,0,0:0:0:0:
64,192,99604,1,0,0:0:0:0:
448,192,99661,1,0,0:0:0:0:
320,192,99718,1,0,0:0:0:0:
192,192,99775,1,0,0:0:0:0:
64,192,99775,1,0,0:0:0:0:
448,192,99775,1,0,0:0:0:0:
320,192,99832,1,0,0:0:0:0:
448,192,99889,1,0,0:0:0:0:
64,192,99946,1,0,0:0:0:0:
192,192,100004,1,0,0:0:0:0:
320,192,100061,1,0,0:0:0:0:
448,192,100118,1,0,0:0:0:0:
64,192,100118,1,0,0:0:0:0:
192,192,100204,1,0,0:0:0:0:
320,192,100289,1,0,0:0:0:0:
320,192,100375,1,0,0:0:0:0:
448,192,100461,1,0,0:0:0:0:
192,192,100461,1,0,0:0:0:0:
64,192,100461,1,0,0:0:0:0:
192,192,100546,1,0,0:0:0:0:
320,192,100632,1,0,0:0:0:0:
448,192,100718,1,0,0:0:0:0:
320,192,100804,1,0,0:0:0:0:
192,192,100804,1,0,0:0:0:0:
192,192,100889,1,0,0:0:0:0:
320,192,100975,1,0,0:0:0:0:
448,192,101061,1,0,0:0:0:0:
320,192,101146,1,0,0:0:0:0:
192,192,101146,1,0,0:0:0:0:
64,192,101146,1,0,0:0:0:0:
192,192,101232,1,0,0:0:0:0:
320,192,101318,1,0,0:0:0:0:
64,192,101318,1,0,0:0:0:0:
192,192,101489,1,0,0:0:0:0:
448,192,101489,128,0,101661:0:0:0:0:
320,192,101661,128,0,101832:0:0:0:0:
64,192,101661,1,0,0:0:0:0:
192,192,101832,1,0,0:0:0:0:
64,192,101832,1,0,0:0:0:0:
448,192,101832,128,0,102175:0:0:0:0:
64,192,102175,128,0,102518:0:0:0:0:
320,192,102175,1,0,0:0:0:0:
192,192,102518,1,0,0:0:0:0:
320,192,102518,1,0,0:0:0:0:
448,192,102518,1,0,0:0:0:0:
64,192,102689,1,0,0:0:0:0:
320,192,102689,1,0,0:0:0:0:
448,192,102775,1,0,0:0:0:0:
192,192,102775,1,0,0:0:0:0:
64,192,102861,128,0,102946:0:0:0:0:
192,192,102861,128,0,102946:0:0:0:0:
320,192,102861,128,0,102946:0:0:0:0:
448,192,103032,128,0,103118:0:0:0:0:
192,192,103032,128,0,103118:0:0:0:0:
320,192,103204,128,0,103289:0:0:0:0:
448,192,103204,128,0,103289:0:0:0:0:
64,192,103204,128,0,103289:0:0:0:0:
192,192,103375,128,0,103461:0:0:0:0:
320,192,103375,128,0,103461:0:0:0:0:
64,192,103546,128,0,103632:0:0:0:0:
448,192,103546,128,0,103632:0:0:0:0:
320,192,103718,128,0,103804:0:0:0:0:
64,192,103718,128,0,103804:0:0:0:0:
192,192,103889,1,0,0:0:0:0:
320,192,103889,1,0,0:0:0:0:
448,192,103889,1,0,0:0:0:0:
64,192,103975,1,0,0:0:0:0:
192,192,104061,1,0,0:0:0:0:
448,192,104061,1,0,0:0:0:0:
320,192,104146,1,0,0:0:0:0:
192,192,104232,1,0,0:0:0:0:
448,192,104232,1,0,0:0:0:0:
64,192,104232,128,0,104575:0:0:0:0:
192,192,104575,1,0,0:0:0:0:
320,192,104575,1,0,0:0:0:0:
448,192,104575,1,0,0:0:0:0:
320,192,104689,1,0,0:0:0:0:
448,192,104689,1,0,0:0:0:0:
448,192,104804,1,0,0:0:0:0:
320,192,104804,1,0,0:0:0:0:
192,192,104918,1,0,0:0:0:0:
320,192,104918,1,0,0:0:0:0:
448,192,104918,1,0,0:0:0:0:
64,192,104918,128,0,105261:0:0:0:0:
192,192,105261,1,0,0:0:0:0:
320,192,105261,1,0,0:0:0:0:
448,192,105261,1,0,0:0:0:0:
64,192,105318,1,0,0:0:0:0:
448,192,105375,1,0,0:0:0:0:
320,192,105432,1,0,0:0:0:0:
192,192,105489,1,0,0:0:0:0:
64,192,105546,1,0,0:0:0:0:
192,192,105604,1,0,0:0:0:0:
320,192,105604,1,0,0:0:0:0:
448,192,105946,1,0,0:0:0:0:
320,192,106118,1,0,0:0:0:0:
192,192,106289,1,0,0:0:0:0:
320,192,106632,1,0,0:0:0:0:
448,192,106632,1,0,0:0:0:0:
192,192,106718,1,0,0:0:0:0:
64,192,106718,1,0,0:0:0:0:
320,192,106804,1,0,0:0:0:0:
448,192,106804,1,0,0:0:0:0:
192,192,106889,1,0,0:0:0:0:
64,192,106889,1,0,0:0:0:0:
320,192,106975,1,0,0:0:0:0:
448,192,106975,1,0,0:0:0:0:
192,192,107018,1,0,0:0:0:0:
64,192,107061,1,0,0:0:0:0:
448,192,107104,1,0,0:0:0:0:
320,192,107146,1,0,0:0:0:0:
192,192,107189,1,0,0:0:0:0:
64,192,107232,1,0,0:0:0:0:
448,192,107275,1,0,0:0:0:0:
320,192,107318,1,0,0:0:0:0:
192,192,107318,1,0,0:0:0:0:
64,192,107318,1,0,0:0:0:0:
448,192,107489,1,0,0:0:0:0:
192,192,107489,1,0,0:0:0:0:
320,192,107661,1,0,0:0:0:0:
64,192,107661,1,0,0:0:0:0:
448,192,107718,1,0,0:0:0:0:
192,192,107775,1,0,0:0:0:0:
320,192,107832,1,0,0:0:0:0:
64,192,107832,1,0,0:0:0:0:
448,192,107918,1,0,0:0:0:0:
192,192,107918,1,0,0:0:0:0:
320,192,108004,1,0,0:0:0:0:
448,192,108004,1,0,0:0:0:0:
64,192,108004,1,0,0:0:0:0:
192,192,108175,128,0,108346:0:0:0:0:
448,192,108346,1,0,0:0:0:0:
64,192,108346,1,0,0:0:0:0:
192,192,108518,1,0,0:0:0:0:
320,192,108518,1,0,0:0:0:0:
448,192,108689,1,0,0:0:0:0:
192,192,108689,1,0,0:0:0:0:
64,192,108689,1,0,0:0:0:0:
192,192,108861,1,0,0:0:0:0:
448,192,108861,1,0,0:0:0:0:
64,192,109032,1,0,0:0:0:0:
320,192,109032,1,0,0:0:0:0:
192,192,109118,1,0,0:0:0:0:
448,192,109118,1,0,0:0:0:0:
64,192,109204,1,0,0:0:0:0:
320,192,109232,1,0,0:0:0:0:
448,192,109261,1,0,0:0:0:0:
320,192,109375,1,0,0:0:0:0:
192,192,109375,1,0,0:0:0:0:
64,192,109375,1,0,0:0:0:0:
448,192,109432,1,0,0:0:0:0:
64,192,109489,1,0,0:0:0:0:
192,192,109546,1,0,0:0:0:0:
320,192,109604,1,0,0:0:0:0:
448,192,109661,1,0,0:0:0:0:
192,192,109718,1,0,0:0:0:0:
320,192,109718,1,0,0:0:0:0:
448,192,109889,128,0,110061:0:0:0:0:
320,192,110061,1,0,0:0:0:0:
192,192,110061,1,0,0:0:0:0:
64,192,110061,1,0,0:0:0:0:
192,192,110232,1,0,0:0:0:0:
448,192,110232,1,0,0:0:0:0:
320,192,110404,1,0,0:0:0:0:
64,192,110404,1,0,0:0:0:0:
192,192,110489,1,0,0:0:0:0:
64,192,110532,1,0,0:0:0:0:
192,192,110575,1,0,0:0:0:0:
320,192,110632,1,0,0:0:0:0:
448,192,110689,1,0,0:0:0:0:
192,192,110746,1,0,0:0:0:0:
64,192,110746,1,0,0:0:0:0:
320,192,110746,128,0,110918:0:0:0:0:
448,192,110918,128,0,111089:0:0:0:0:
320,192,111089,1,0,0:0:0:0:
192,192,111089,1,0,0:0:0:0:
64,192,111089,1,0,0:0:0:0:
192,192,111261,1,0,0:0:0:0:
448,192,111261,1,0,0:0:0:0:
320,192,111432,1,0,0:0:0:0:
448,192,111432,1,0,0:0:0:0:
64,192,111432,1,0,0:0:0:0:
192,192,111518,1,0,0:0:0:0:
448,192,111518,1,0,0:0:0:0:
320,192,111689,1,0,0:0:0:0:
64,192,111689,1,0,0:0:0:0:
192,192,111775,1,0,0:0:0:0:
320,192,111775,1,0,0:0:0:0:
448,192,111946,1,0,0:0:0:0:
64,192,111946,1,0,0:0:0:0:
320,192,112118,1,0,0:0:0:0:
192,192,112118,1,0,0:0:0:0:
64,192,112118,1,0,0:0:0:0:
448,192,112204,1,0,0:0:0:0:
192,192,112204,1,0,0:0:0:0:
320,192,112375,1,0,0:0:0:0:
192,192,112375,1,0,0:0:0:0:
320,192,112461,1,0,0:0:0:0:
64,192,112461,128,0,112632:0:0:0:0:
448,192,112632,1,0,0:0:0:0:
192,192,112632,128,0,112804:0:0:0:0:
320,192,112804,128,0,113146:0:0:0:0:
448,192,112804,1,0,0:0:0:0:
64,192,112804,1,0,0:0:0:0:
448,192,113146,1,0,0:0:0:0:
64,192,113146,1,0,0:0:0:0:
192,192,113204,1,0,0:0:0:0:
320,192,113261,1,0,0:0:0:0:
448,192,113318,1,0,0:0:0:0:
64,192,113375,1,0,0:0:0:0:
192,192,113432,1,0,0:0:0:0:
64,192,113489,1,0,0:0:0:0:
320,192,113489,1,0,0:0:0:0:
448,192,113489,1,0,0:0:0:0:
192,192,113661,1,0,0:0:0:0:
64,192,113661,1,0,0:0:0:0:
320,192,113746,1,0,0:0:0:0:
448,192,113746,1,0,0:0:0:0:
192,192,113832,1,0,0:0:0:0:
64,192,113832,1,0,0:0:0:0:
320,192,113875,1,0,0:0:0:0:
448,192,113918,1,0,0:0:0:0:
64,192,113961,1,0,0:0:0:0:
192,192,114004,1,0,0:0:0:0:
320,192,114046,1,0,0:0:0:0:
448,192,114089,1,0,0:0:0:0:
64,192,114132,1,0,0:0:0:0:
192,192,114175,1,0,0:0:0:0:
320,192,114175,1,0,0:0:0:0:
448,192,114218,1,0,0:0:0:0:
64,192,114261,1,0,0:0:0:0:
192,192,114304,1,0,0:0:0:0:
320,192,114346,1,0,0:0:0:0:
448,192,114389,1,0,0:0:0:0:
64,192,114432,1,0,0:0:0:0:
192,192,114475,1,0,0:0:0:0:
320,192,114518,1,0,0:0:0:0:
448,192,114518,1,0,0:0:0:0:
64,192,114689,1,0,0:0:0:0:
320,192,114689,1,0,0:0:0:0:
448,192,114775,1,0,0:0:0:0:
192,192,114775,1,0,0:0:0:0:
320,192,114861,1,0,0:0:0:0:
192,192,114861,1,0,0:0:0:0:
64,192,114861,1,0,0:0:0:0:
448,192,114946,1,0,0:0:0:0:
320,192,115032,1,0,0:0:0:0:
64,192,115032,1,0,0:0:0:0:
192,192,115204,1,0,0:0:0:0:
320,192,115204,1,0,0:0:0:0:
448,192,115261,1,0,0:0:0:0:
64,192,115318,1,0,0:0:0:0:
192,192,115375,1,0,0:0:0:0:
320,192,115432,1,0,0:0:0:0:
448,192,115489,1,0,0:0:0:0:
320,192,115546,1,0,0:0:0:0:
192,192,115546,1,0,0:0:0:0:
64,192,115546,1,0,0:0:0:0:
448,192,115604,1,0,0:0:0:0:
320,192,115661,1,0,0:0:0:0:
192,192,115718,1,0,0:0:0:0:
64,192,115775,1,0,0:0:0:0:
448,192,115832,1,0,0:0:0:0:
320,192,115889,1,0,0:0:0:0:
192,192,115889,1,0,0:0:0:0:
64,192,115946,1,0,0:0:0:0:
448,192,116004,1,0,0:0:0:0:
320,192,116061,1,0,0:0:0:0:
192,192,116118,1,0,0:0:0:0:
64,192,116175,1,0,0:0:0:0:
192,192,116232,1,0,0:0:0:0:
320,192,116232,1,0,0:0:0:0:
448,192,116232,1,0,0:0:0:0:
64,192,116289,1,0,0:0:0:0:
192,192,116346,1,0,0:0:0:0:
320,192,116404,1,0,0:0:0:0:
448,192,116461,1,0,0:0:0:0:
64,192,116518,1,0,0:0:0:0:
448,192,116575,1,0,0:0:0:0:
320,192,116575,1,0,0:0:0:0:
192,192,116618,1,0,0:0:0:0:
64,192,116661,1,0,0:0:0:0:
320,192,116704,1,0,0:0:0:0:
448,192,116746,1,0,0:0:0:0:
192,192,116789,1,0,0:0:0:0:
64,192,116832,1,0,0:0:0:0:
320,192,116875,1,0,0:0:0:0:
192,192,116918,1,0,0:0:0:0:
448,192,116918,1,0,0:0:0:0:
64,192,116918,1,0,0:0:0:0:
320,192,116975,1,0,0:0:0:0:
192,192,117032,1,0,0:0:0:0:
64,192,117089,1,0,0:0:0:0:
448,192,117146,1,0,0:0:0:0:
320,192,117204,1,0,0:0:0:0:
192,192,117261,1,0,0:0:0:0:
64,192,117261,1,0,0:0:0:0:
320,192,117318,1,0,0:0:0:0:
448,192,117375,1,0,0:0:0:0:
64,192,117432,1,0,0:0:0:0:
192,192,117489,1,0,0:0:0:0:
320,192,117546,1,0,0:0:0:0:
448,192,117604,128,0,117775:0:0:0:0:
320,192,117775,1,0,0:0:0:0:
64,192,117775,1,0,0:0:0:0:
192,192,117946,1,0,0:0:0:0:
320,192,117946,1,0,0:0:0:0:
320,192,118118,1,0,0:0:0:0:
64,192,118118,1,0,0:0:0:0:
192,192,118204,1,0,0:0:0:0:
448,192,118204,1,0,0:0:0:0:
320,192,118289,1,0,0:0:0:0:
192,192,118289,1,0,0:0:0:0:
64,192,118289,1,0,0:0:0:0:
192,192,118461,1,0,0:0:0:0:
448,192,118461,1,0,0:0:0:0:
320,192,118632,1,0,0:0:0:0:
192,192,118632,1,0,0:0:0:0:
448,192,118804,1,0,0:0:0:0:
192,192,118804,1,0,0:0:0:0:
64,192,118889,1,0,0:0:0:0:
320,192,118889,1,0,0:0:0:0:
192,192,118975,1,0,0:0:0:0:
320,192,118975,1,0,0:0:0:0:
448,192,118975,1,0,0:0:0:0:
64,192,119146,128,0,119318:0:0:0:0:
192,192,119318,1,0,0:0:0:0:
448,192,119318,1,0,0:0:0:0:
320,192,119489,1,0,0:0:0:0:
64,192,119489,128,0,119661:0:0:0:0:
320,192,119661,1,0,0:0:0:0:
448,192,119661,1,0,0:0:0:0:
192,192,119661,1,0,0:0:0:0:
192,192,119832,1,0,0:0:0:0:
448,192,119832,128,0,120004:0:0:0:0:
320,192,120004,1,0,0:0:0:0:
192,192,120004,1,0,0:0:0:0:
64,192,120089,1,0,0:0:0:0:
448,192,120175,1,0,0:0:0:0:
320,192,120204,1,0,0:0:0:0:
192,192,120232,1,0,0:0:0:0:
64,192,120346,1,0,0:0:0:0:
320,192,120346,1,0,0:0:0:0:
448,192,120346,1,0,0:0:0:0:
192,192,120404,1,0,0:0:0:0:
320,192,120461,1,0,0:0:0:0:
448,192,120518,1,0,0:0:0:0:
64,192,120575,1,0,0:0:0:0:
192,192,120632,1,0,0:0:0:0:
448,192,120689,1,0,0:0:0:0:
64,192,120689,1,0,0:0:0:0:
320,192,120746,1,0,0:0:0:0:
192,192,120804,1,0,0:0:0:0:
64,192,120861,1,0,0:0:0:0:
320,192,120918,1,0,0:0:0:0:
448,192,120975,1,0,0:0:0:0:
320,192,121032,1,0,0:0:0:0:
192,192,121032,1,0,0:0:0:0:
64,192,121032,1,0,0:0:0:0:
448,192,121118,1,0,0:0:0:0:
320,192,121204,1,0,0:0:0:0:
64,192,121204,1,0,0:0:0:0:
192,192,121375,1,0,0:0:0:0:
320,192,121375,1,0,0:0:0:0:
448,192,121375,128,0,121718:0:0:0:0:
320,192,121718,1,0,0:0:0:0:
192,192,121718,1,0,0:0:0:0:
64,192,121718,128,0,121889:0:0:0:0:
320,192,121832,1,0,0:0:0:0:
192,192,121889,128,0,122061:0:0:0:0:
320,192,121946,1,0,0:0:0:0:
64,192,122061,1,0,0:0:0:0:
448,192,122061,1,0,0:0:0:0:
320,192,122146,1,0,0:0:0:0:
192,192,122232,1,0,0:0:0:0:
64,192,122318,1,0,0:0:0:0:
320,192,122404,1,0,0:0:0:0:
448,192,122446,1,0,0:0:0:0:
192,192,122489,1,0,0:0:0:0:
320,192,122532,1,0,0:0:0:0:
64,192,122575,1,0,0:0:0:0:
448,192,122746,1,0,0:0:0:0:
320,192,122832,1,0,0:0:0:0:
192,192,122918,1,0,0:0:0:0:
64,192,123004,1,0,0:0:0:0:
448,192,123089,1,0,0:0:0:0:
192,192,123175,1,0,0:0:0:0:
320,192,123261,1,0,0:0:0:0:
64,192,123346,1,0,0:0:0:0:
320,192,123432,1,0,0:0:0:0:
448,192,123432,1,0,0:0:0:0:
192,192,123475,1,0,0:0:0:0:
64,192,123518,1,0,0:0:0:0:
448,192,123561,1,0,0:0:0:0:
320,192,123604,1,0,0:0:0:0:
192,192,123646,1,0,0:0:0:0:
64,192,123689,1,0,0:0:0:0:
320,192,123732,1,0,0:0:0:0:
448,192,123775,1,0,0:0:0:0:
64,192,123818,1,0,0:0:0:0:
192,192,123861,1,0,0:0:0:0:
320,192,123904,1,0,0:0:0:0:
448,192,123946,1,0,0:0:0:0:
64,192,123989,1,0,0:0:0:0:
192,192,124032,1,0,0:0:0:0:
320,192,124075,1,0,0:0:0:0:
448,192,124118,1,0,0:0:0:0:
64,192,124118,1,0,0:0:0:0:
320,192,124289,1,0,0:0:0:0:
192,192,124289,1,0,0:0:0:0:
64,192,124461,1,0,0:0:0:0:
320,192,124461,1,0,0:0:0:0:
192,192,124632,1,0,0:0:0:0:
448,192,124632,1,0,0:0:0:0:
64,192,124804,1,0,0:0:0:0:
448,192,124804,1,0,0:0:0:0:
192,192,124846,1,0,0:0:0:0:
320,192,124889,1,0,0:0:0:0:
448,192,124932,1,0,0:0:0:0:
64,192,124975,1,0,0:0:0:0:
192,192,125018,1,0,0:0:0:0:
448,192,125061,1,0,0:0:0:0:
320,192,125104,1,0,0:0:0:0:
192,192,125146,1,0,0:0:0:0:
64,192,125189,1,0,0:0:0:0:
448,192,125232,1,0,0:0:0:0:
320,192,125275,1,0,0:0:0:0:
192,192,125318,1,0,0:0:0:0:
64,192,125361,1,0,0:0:0:0:
448,192,125404,1,0,0:0:0:0:
320,192,125446,1,0,0:0:0:0:
192,192,125489,1,0,0:0:0:0:
64,192,125489,1,0,0:0:0:0:
192,192,125661,1,0,0:0:0:0:
448,192,125661,128,0,125832:0:0:0:0:
320,192,125832,1,0,0:0:0:0:
64,192,125832,1,0,0:0:0:0:
320,192,126004,1,0,0:0:0:0:
192,192,126175,1,0,0:0:0:0:
64,192,126175,1,0,0:0:0:0:
320,192,126218,1,0,0:0:0:0:
448,192,126261,1,0,0:0:0:0:
64,192,126304,1,0,0:0:0:0:
192,192,126346,1,0,0:0:0:0:
320,192,126389,1,0,0:0:0:0:
448,192,126432,1,0,0:0:0:0:
192,192,126475,1,0,0:0:0:0:
64,192,126518,1,0,0:0:0:0:
448,192,126561,1,0,0:0:0:0:
320,192,126604,1,0,0:0:0:0:
192,192,126646,1,0,0:0:0:0:
64,192,126689,1,0,0:0:0:0:
448,192,126732,1,0,0:0:0:0:
320,192,126775,1,0,0:0:0:0:
192,192,126818,1,0,0:0:0:0:
64,192,126861,1,0,0:0:0:0:
448,192,126861,1,0,0:0:0:0:
448,192,127032,1,0,0:0:0:0:
192,192,127032,1,0,0:0:0:0:
192,192,127204,1,0,0:0:0:0:
320,192,127204,1,0,0:0:0:0:
320,192,127375,1,0,0:0:0:0:
64,192,127375,1,0,0:0:0:0:
192,192,127546,1,0,0:0:0:0:
64,192,127546,1,0,0:0:0:0:
320,192,127589,1,0,0:0:0:0:
448,192,127632,1,0,0:0:0:0:
192,192,127675,1,0,0:0:0:0:
64,192,127718,1,0,0:0:0:0:
448,192,127761,1,0,0:0:0:0:
320,192,127804,1,0,0:0:0:0:
192,192,127846,1,0,0:0:0:0:
64,192,127889,1,0,0:0:0:0:
320,192,127932,1,0,0:0:0:0:
448,192,127975,1,0,0:0:0:0:
64,192,128018,1,0,0:0:0:0:
192,192,128061,1,0,0:0:0:0:
320,192,128104,1,0,0:0:0:0:
448,192,128146,1,0,0:0:0:0:
64,192,128189,1,0,0:0:0:0:
192,192,128232,1,0,0:0:0:0:
320,192,128232,1,0,0:0:0:0:
64,192,128404,1,0,0:0:0:0:
448,192,128404,1,0,0:0:0:0:
192,192,128575,1,0,0:0:0:0:
448,192,128575,1,0,0:0:0:0:
320,192,128746,1,0,0:0:0:0:
64,192,128746,1,0,0:0:0:0:
192,192,128918,1,0,0:0:0:0:
64,192,128918,1,0,0:0:0:0:
320,192,129004,1,0,0:0:0:0:
448,192,129032,1,0,0:0:0:0:
192,192,129089,1,0,0:0:0:0:
64,192,129089,1,0,0:0:0:0:
320,192,129175,1,0,0:0:0:0:
192,192,129261,1,0,0:0:0:0:
64,192,129261,1,0,0:0:0:0:
448,192,129346,1,0,0:0:0:0:
192,192,129432,1,0,0:0:0:0:
64,192,129432,1,0,0:0:0:0:
320,192,129518,1,0,0:0:0:0:
192,192,129604,1,0,0:0:0:0:
64,192,129604,1,0,0:0:0:0:
448,192,129689,1,0,0:0:0:0:
320,192,129718,1,0,0:0:0:0:
192,192,129775,1,0,0:0:0:0:
64,192,129775,1,0,0:0:0:0:
448,192,129861,1,0,0:0:0:0:
192,192,129946,1,0,0:0:0:0:
64,192,129946,1,0,0:0:0:0:
320,192,130032,1,0,0:0:0:0:
192,192,130118,1,0,0:0:0:0:
64,192,130118,1,0,0:0:0:0:
448,192,130204,1,0,0:0:0:0:
192,192,130289,1,0,0:0:0:0:
64,192,130289,1,0,0:0:0:0:
320,192,130375,1,0,0:0:0:0:
448,192,130404,1,0,0:0:0:0:
192,192,130461,1,0,0:0:0:0:
64,192,130461,1,0,0:0:0:0:
320,192,130546,1,0,0:0:0:0:
192,192,130632,1,0,0:0:0:0:
64,192,130632,1,0,0:0:0:0:
448,192,130718,1,0,0:0:0:0:
192,192,130804,1,0,0:0:0:0:
64,192,130804,1,0,0:0:0:0:
320,192,130889,1,0,0:0:0:0:
192,192,130975,1,0,0:0:0:0:
64,192,130975,1,0,0:0:0:0:
448,192,131061,1,0,0:0:0:0:
320,192,131089,1,0,0:0:0:0:
192,192,131146,1,0,0:0:0:0:
64,192,131146,1,0,0:0:0:0:
448,192,131232,1,0,0:0:0:0:
192,192,131318,1,0,0:0:0:0:
64,192,131318,1,0,0:0:0:0:
320,192,131404,1,0,0:0:0:0:
192,192,131489,1,0,0:0:0:0:
64,192,131489,1,0,0:0:0:0:
448,192,131532,1,0,0:0:0:0:
320,192,131575,1,0,0:0:0:0:
192,192,131618,1,0,0:0:0:0:
64,192,131661,1,0,0:0:0:0:
448,192,131661,1,0,0:0:0:0:
320,192,131832,1,0,0:0:0:0:
448,192,132004,1,0,0:0:0:0:
192,192,132004,1,0,0:0:0:0:
64,192,132175,1,0,0:0:0:0:
448,192,132175,1,0,0:0:0:0:
448,192,132346,1,0,0:0:0:0:
192,192,132346,1,0,0:0:0:0:
448,192,132518,1,0,0:0:0:0:
320,192,132518,1,0,0:0:0:0:
448,192,132689,1,0,0:0:0:0:
192,192,132689,1,0,0:0:0:0:
448,192,132861,1,0,0:0:0:0:
64,192,132861,1,0,0:0:0:0:
320,192,133032,1,0,0:0:0:0:
64,192,133032,1,0,0:0:0:0:
448,192,133118,1,0,0:0:0:0:
320,192,133204,1,0,0:0:0:0:
64,192,133204,1,0,0:0:0:0:
192,192,133289,1,0,0:0:0:0:
64,192,133375,1,0,0:0:0:0:
448,192,133375,1,0,0:0:0:0:
320,192,133461,1,0,0:0:0:0:
192,192,133546,1,0,0:0:0:0:
448,192,133546,1,0,0:0:0:0:
320,192,133632,1,0,0:0:0:0:
448,192,133718,1,0,0:0:0:0:
64,192,133718,1,0,0:0:0:0:
192,192,133804,1,0,0:0:0:0:
320,192,133804,1,0,0:0:0:0:
64,192,133889,1,0,0:0:0:0:
448,192,133889,1,0,0:0:0:0:
320,192,133975,1,0,0:0:0:0:
192,192,133975,1,0,0:0:0:0:
64,192,134061,1,0,0:0:0:0:
448,192,134061,1,0,0:0:0:0:
320,192,134146,1,0,0:0:0:0:
192,192,134146,1,0,0:0:0:0:
64,192,134232,1,0,0:0:0:0:
448,192,134232,1,0,0:0:0:0:
320,192,134404,1,0,0:0:0:0:
448,192,134404,1,0,0:0:0:0:
192,192,134461,1,0,0:0:0:0:
64,192,134518,1,0,0:0:0:0:
320,192,134575,1,0,0:0:0:0:
448,192,134632,1,0,0:0:0:0:
64,192,134689,1,0,0:0:0:0:
192,192,134746,1,0,0:0:0:0:
320,192,134746,1,0,0:0:0:0:
448,192,134789,1,0,0:0:0:0:
64,192,134832,1,0,0:0:0:0:
192,192,134875,1,0,0:0:0:0:
320,192,134918,1,0,0:0:0:0:
448,192,134961,1,0,0:0:0:0:
64,192,135004,1,0,0:0:0:0:
192,192,135046,1,0,0:0:0:0:
320,192,135089,1,0,0:0:0:0:
448,192,135089,128,0,135261:0:0:0:0:
448,192,135346,128,0,135518:0:0:0:0:
320,192,135346,1,0,0:0:0:0:
192,192,135346,1,0,0:0:0:0:
64,192,135518,1,0,0:0:0:0:
320,192,135518,1,0,0:0:0:0:
192,192,135604,1,0,0:0:0:0:
320,192,135604,1,0,0:0:0:0:
448,192,135604,1,0,0:0:0:0:
64,192,135775,1,0,0:0:0:0:
192,192,135775,1,0,0:0:0:0:
320,192,135832,1,0,0:0:0:0:
448,192,135889,1,0,0:0:0:0:
64,192,135946,1,0,0:0:0:0:
192,192,136004,1,0,0:0:0:0:
320,192,136061,1,0,0:0:0:0:
64,192,136118,1,0,0:0:0:0:
448,192,136118,1,0,0:0:0:0:
192,192,136118,1,0,0:0:0:0:
192,192,136289,1,0,0:0:0:0:
448,192,136289,1,0,0:0:0:0:
448,192,136461,1,0,0:0:0:0:
64,192,136461,1,0,0:0:0:0:
320,192,136632,1,0,0:0:0:0:
192,192,136632,1,0,0:0:0:0:
64,192,136718,1,0,0:0:0:0:
448,192,136718,1,0,0:0:0:0:
320,192,136718,1,0,0:0:0:0:
64,192,136889,1,0,0:0:0:0:
448,192,136889,1,0,0:0:0:0:
320,192,136975,1,0,0:0:0:0:
192,192,136975,1,0,0:0:0:0:
64,192,136975,1,0,0:0:0:0:
64,192,137146,1,0,0:0:0:0:
448,192,137146,1,0,0:0:0:0:
320,192,137204,1,0,0:0:0:0:
192,192,137261,1,0,0:0:0:0:
64,192,137318,1,0,0:0:0:0:
320,192,137375,1,0,0:0:0:0:
448,192,137432,1,0,0:0:0:0:
192,192,137489,1,0,0:0:0:0:
64,192,137489,1,0,0:0:0:0:
320,192,137489,1,0,0:0:0:0:
448,192,137661,1,0,0:0:0:0:
64,192,137661,1,0,0:0:0:0:
320,192,137832,1,0,0:0:0:0:
64,192,137832,1,0,0:0:0:0:
448,192,138089,1,0,0:0:0:0:
320,192,138089,1,0,0:0:0:0:
64,192,138089,1,0,0:0:0:0:
320,192,138261,1,0,0:0:0:0:
192,192,138261,1,0,0:0:0:0:
192,192,138346,1,0,0:0:0:0:
64,192,138346,1,0,0:0:0:0:
448,192,138346,1,0,0:0:0:0:
320,192,138518,1,0,0:0:0:0:
448,192,138518,1,0,0:0:0:0:
192,192,138575,1,0,0:0:0:0:
64,192,138632,1,0,0:0:0:0:
448,192,138689,1,0,0:0:0:0:
320,192,138746,1,0,0:0:0:0:
192,192,138804,1,0,0:0:0:0:
320,192,138861,1,0,0:0:0:0:
448,192,138861,1,0,0:0:0:0:
64,192,138861,1,0,0:0:0:0:
192,192,138918,1,0,0:0:0:0:
320,192,138975,1,0,0:0:0:0:
448,192,139032,1,0,0:0:0:0:
64,192,139089,1,0,0:0:0:0:
192,192,139146,1,0,0:0:0:0:
320,192,139204,1,0,0:0:0:0:
448,192,139204,1,0,0:0:0:0:
192,192,139261,1,0,0:0:0:0:
64,192,139318,1,0,0:0:0:0:
448,192,139375,1,0,0:0:0:0:
320,192,139432,1,0,0:0:0:0:
192,192,139489,1,0,0:0:0:0:
64,192,139546,1,0,0:0:0:0:
320,192,139546,1,0,0:0:0:0:
448,192,139546,1,0,0:0:0:0:
192,192,139632,1,0,0:0:0:0:
448,192,139718,1,0,0:0:0:0:
192,192,139804,1,0,0:0:0:0:
320,192,139889,1,0,0:0:0:0:
448,192,139889,1,0,0:0:0:0:
192,192,139946,1,0,0:0:0:0:
64,192,140004,1,0,0:0:0:0:
448,192,140061,1,0,0:0:0:0:
320,192,140118,1,0,0:0:0:0:
192,192,140175,1,0,0:0:0:0:
64,192,140232,1,0,0:0:0:0:
448,192,140232,1,0,0:0:0:0:
192,192,140275,1,0,0:0:0:0:
320,192,140318,1,0,0:0:0:0:
448,192,140361,1,0,0:0:0:0:
192,192,140404,1,0,0:0:0:0:
64,192,140446,1,0,0:0:0:0:
448,192,140489,1,0,0:0:0:0:
320,192,140532,1,0,0:0:0:0:
192,192,140575,1,0,0:0:0:0:
64,192,140575,128,0,140832:0:0:0:0:
192,192,140832,1,0,0:0:0:0:
320,192,140832,1,0,0:0:0:0:
448,192,140832,1,0,0:0:0:0:
64,192,140918,128,0,141089:0:0:0:0:
320,192,140918,1,0,0:0:0:0:
448,192,141089,1,0,0:0:0:0:
192,192,141261,1,0,0:0:0:0:
320,192,141261,1,0,0:0:0:0:
448,192,141318,1,0,0:0:0:0:
64,192,141375,1,0,0:0:0:0:
192,192,141432,1,0,0:0:0:0:
320,192,141489,1,0,0:0:0:0:
448,192,141546,1,0,0:0:0:0:
320,192,141604,1,0,0:0:0:0:
192,192,141604,1,0,0:0:0:0:
64,192,141604,1,0,0:0:0:0:
192,192,141775,1,0,0:0:0:0:
448,192,141775,1,0,0:0:0:0:
320,192,141946,1,0,0:0:0:0:
192,192,141946,1,0,0:0:0:0:
64,192,142118,128,0,142289:0:0:0:0:
192,192,142289,1,0,0:0:0:0:
320,192,142289,1,0,0:0:0:0:
448,192,142289,1,0,0:0:0:0:
64,192,142461,1,0,0:0:0:0:
320,192,142461,1,0,0:0:0:0:
192,192,142632,1,0,0:0:0:0:
320,192,142632,1,0,0:0:0:0:
448,192,142689,1,0,0:0:0:0:
64,192,142746,1,0,0:0:0:0:
192,192,142804,1,0,0:0:0:0:
320,192,142861,1,0,0:0:0:0:
448,192,142918,1,0,0:0:0:0:
320,192,142975,1,0,0:0:0:0:
192,192,142975,1,0,0:0:0:0:
64,192,142975,1,0,0:0:0:0:
64,192,143146,1,0,0:0:0:0:
448,192,143146,1,0,0:0:0:0:
448,192,143318,1,0,0:0:0:0:
320,192,143318,1,0,0:0:0:0:
192,192,143346,1,0,0:0:0:0:
64,192,143375,1,0,0:0:0:0:
448,192,143404,1,0,0:0:0:0:
320,192,143446,1,0,0:0:0:0:
192,192,143489,1,0,0:0:0:0:
64,192,143546,1,0,0:0:0:0:
448,192,143604,1,0,0:0:0:0:
320,192,143661,1,0,0:0:0:0:
192,192,143718,1,0,0:0:0:0:
64,192,143775,1,0,0:0:0:0:
448,192,143832,1,0,0:0:0:0:
320,192,143918,1,0,0:0:0:0:
192,192,144004,1,0,0:0:0:0:
64,192,144004,1,0,0:0:0:0:
448,192,144346,1,0,0:0:0:0:
320,192,144518,1,0,0:0:0:0:
192,192,144689,1,0,0:0:0:0:
64,192,144689,1,0,0:0:0:0:
320,192,144775,1,0,0:0:0:0:
448,192,144775,1,0,0:0:0:0:
192,192,144861,1,0,0:0:0:0:
64,192,144861,1,0,0:0:0:0:
320,192,144946,1,0,0:0:0:0:
448,192,144946,1,0,0:0:0:0:
448,192,145204,1,0,0:0:0:0:
320,192,145204,1,0,0:0:0:0:
192,192,145204,1,0,0:0:0:0:
64,192,145204,1,0,0:0:0:0:
192,192,145375,1,0,0:0:0:0:
64,192,145375,1,0,0:0:0:0:
320,192,145432,1,0,0:0:0:0:
448,192,145489,1,0,0:0:0:0:
64,192,145546,1,0,0:0:0:0:
192,192,145604,1,0,0:0:0:0:
320,192,145661,1,0,0:0:0:0:
192,192,145718,1,0,0:0:0:0:
64,192,145718,1,0,0:0:0:0:
320,192,145761,1,0,0:0:0:0:
448,192,145804,1,0,0:0:0:0:
64,192,145846,1,0,0:0:0:0:
192,192,145889,1,0,0:0:0:0:
448,192,145932,1,0,0:0:0:0:
320,192,145975,1,0,0:0:0:0:
192,192,146018,1,0,0:0:0:0:
64,192,146061,1,0,0:0:0:0:
448,192,146061,128,0,146404:0:0:0:0:
192,192,146232,1,0,0:0:0:0:
64,192,146404,1,0,0:0:0:0:
320,192,146404,1,0,0:0:0:0:
192,192,146404,1,0,0:0:0:0:
320,192,146575,1,0,0:0:0:0:
64,192,146575,1,0,0:0:0:0:
192,192,146746,1,0,0:0:0:0:
448,192,146746,128,0,147089:0:0:0:0:
192,192,146918,1,0,0:0:0:0:
320,192,147089,1,0,0:0:0:0:
192,192,147089,1,0,0:0:0:0:
64,192,147089,1,0,0:0:0:0:
320,192,147261,1,0,0:0:0:0:
64,192,147261,1,0,0:0:0:0:
192,192,147432,1,0,0:0:0:0:
320,192,147432,1,0,0:0:0:0:
448,192,147604,1,0,0:0:0:0:
192,192,147604,1,0,0:0:0:0:
320,192,147689,1,0,0:0:0:0:
64,192,147689,1,0,0:0:0:0:
192,192,147689,1,0,0:0:0:0:
64,192,147775,1,0,0:0:0:0:
448,192,147775,1,0,0:0:0:0:
192,192,147861,1,0,0:0:0:0:
320,192,147861,1,0,0:0:0:0:
448,192,147946,1,0,0:0:0:0:
192,192,147946,1,0,0:0:0:0:
64,192,147946,1,0,0:0:0:0:
320,192,148118,1,0,0:0:0:0:
448,192,148118,1,0,0:0:0:0:
192,192,148175,1,0,0:0:0:0:
64,192,148232,1,0,0:0:0:0:
448,192,148289,1,0,0:0:0:0:
320,192,148346,1,0,0:0:0:0:
192,192,148404,1,0,0:0:0:0:
320,192,148461,1,0,0:0:0:0:
448,192,148461,1,0,0:0:0:0:
192,192,148504,1,0,0:0:0:0:
64,192,148546,1,0,0:0:0:0:
320,192,148589,1,0,0:0:0:0:
448,192,148632,1,0,0:0:0:0:
64,192,148675,1,0,0:0:0:0:
192,192,148718,1,0,0:0:0:0:
320,192,148761,1,0,0:0:0:0:
448,192,148804,1,0,0:0:0:0:
64,192,148804,128,0,148975:0:0:0:0:
320,192,148975,1,0,0:0:0:0:
448,192,148975,1,0,0:0:0:0:
192,192,149018,1,0,0:0:0:0:
64,192,149018,1,0,0:0:0:0:
320,192,149061,1,0,0:0:0:0:
448,192,149061,1,0,0:0:0:0:
64,192,149146,1,0,0:0:0:0:
192,192,149146,1,0,0:0:0:0:
448,192,149146,1,0,0:0:0:0:
320,192,149318,1,0,0:0:0:0:
64,192,149318,1,0,0:0:0:0:
192,192,149489,1,0,0:0:0:0:
448,192,149489,1,0,0:0:0:0:
320,192,149604,1,0,0:0:0:0:
192,192,149604,1,0,0:0:0:0:
320,192,149718,1,0,0:0:0:0:
192,192,149718,1,0,0:0:0:0:
64,192,149832,1,0,0:0:0:0:
320,192,149832,1,0,0:0:0:0:
448,192,149832,1,0,0:0:0:0:
448,192,150004,1,0,0:0:0:0:
64,192,150004,1,0,0:0:0:0:
320,192,150175,1,0,0:0:0:0:
64,192,150175,1,0,0:0:0:0:
192,192,150346,1,0,0:0:0:0:
448,192,150346,1,0,0:0:0:0:
320,192,150432,1,0,0:0:0:0:
64,192,150432,1,0,0:0:0:0:
448,192,150432,1,0,0:0:0:0:
192,192,150518,1,0,0:0:0:0:
320,192,150518,1,0,0:0:0:0:
448,192,150604,1,0,0:0:0:0:
64,192,150604,1,0,0:0:0:0:
320,192,150689,1,0,0:0:0:0:
192,192,150689,1,0,0:0:0:0:
64,192,150689,1,0,0:0:0:0:
448,192,150861,1,0,0:0:0:0:
64,192,150861,1,0,0:0:0:0:
192,192,150918,1,0,0:0:0:0:
320,192,150975,1,0,0:0:0:0:
448,192,151032,1,0,0:0:0:0:
64,192,151089,1,0,0:0:0:0:
192,192,151146,1,0,0:0:0:0:
448,192,151204,1,0,0:0:0:0:
320,192,151204,1,0,0:0:0:0:
192,192,151246,1,0,0:0:0:0:
64,192,151289,1,0,0:0:0:0:
448,192,151332,1,0,0:0:0:0:
320,192,151375,1,0,0:0:0:0:
192,192,151418,1,0,0:0:0:0:
64,192,151461,1,0,0:0:0:0:
448,192,151504,1,0,0:0:0:0:
320,192,151546,1,0,0:0:0:0:
192,192,151546,1,0,0:0:0:0:
64,192,151546,1,0,0:0:0:0:
320,192,151718,1,0,0:0:0:0:
192,192,151718,1,0,0:0:0:0:
64,192,151718,1,0,0:0:0:0:
192,192,151889,1,0,0:0:0:0:
64,192,151889,1,0,0:0:0:0:
448,192,151889,1,0,0:0:0:0:
320,192,152061,1,0,0:0:0:0:
192,192,152061,1,0,0:0:0:0:
448,192,152146,1,0,0:0:0:0:
64,192,152146,1,0,0:0:0:0:
192,192,152232,1,0,0:0:0:0:
320,192,152232,1,0,0:0:0:0:
448,192,152232,1,0,0:0:0:0:
320,192,152404,1,0,0:0:0:0:
448,192,152404,1,0,0:0:0:0:
64,192,152404,1,0,0:0:0:0:
320,192,152575,1,0,0:0:0:0:
192,192,152575,1,0,0:0:0:0:
64,192,152575,1,0,0:0:0:0:
64,192,152746,1,0,0:0:0:0:
448,192,152746,1,0,0:0:0:0:
448,192,152918,1,0,0:0:0:0:
192,192,152918,1,0,0:0:0:0:
320,192,153089,1,0,0:0:0:0:
64,192,153089,1,0,0:0:0:0:
192,192,153175,1,0,0:0:0:0:
320,192,153175,1,0,0:0:0:0:
448,192,153175,1,0,0:0:0:0:
448,192,153261,1,0,0:0:0:0:
64,192,153261,1,0,0:0:0:0:
320,192,153346,1,0,0:0:0:0:
192,192,153346,1,0,0:0:0:0:
64,192,153432,1,0,0:0:0:0:
320,192,153432,1,0,0:0:0:0:
448,192,153432,1,0,0:0:0:0:
192,192,153604,1,0,0:0:0:0:
64,192,153604,1,0,0:0:0:0:
320,192,153661,1,0,0:0:0:0:
448,192,153718,1,0,0:0:0:0:
192,192,153775,1,0,0:0:0:0:
64,192,153832,1,0,0:0:0:0:
448,192,153889,1,0,0:0:0:0:
192,192,153946,1,0,0:0:0:0:
320,192,153946,1,0,0:0:0:0:
64,192,153946,1,0,0:0:0:0:
64,192,154118,1,0,0:0:0:0:
448,192,154118,1,0,0:0:0:0:
320,192,154289,1,0,0:0:0:0:
192,192,154289,1,0,0:0:0:0:
320,192,154632,1,0,0:0:0:0:
192,192,154975,1,0,0:0:0:0:
64,192,154975,1,0,0:0:0:0:
448,192,155018,1,0,0:0:0:0:
320,192,155061,1,0,0:0:0:0:
192,192,155104,1,0,0:0:0:0:
448,192,155146,1,0,0:0:0:0:
320,192,155189,1,0,0:0:0:0:
192,192,155232,1,0,0:0:0:0:
64,192,155232,1,0,0:0:0:0:
448,192,155275,1,0,0:0:0:0:
320,192,155318,1,0,0:0:0:0:
192,192,155361,1,0,0:0:0:0:
448,192,155404,1,0,0:0:0:0:
320,192,155446,1,0,0:0:0:0:
64,192,155489,1,0,0:0:0:0:
192,192,155489,1,0,0:0:0:0:
448,192,155532,1,0,0:0:0:0:
320,192,155575,1,0,0:0:0:0:
192,192,155618,1,0,0:0:0:0:
64,192,155661,1,0,0:0:0:0:
448,192,155661,1,0,0:0:0:0:
320,192,155832,1,0,0:0:0:0:
320,192,156004,1,0,0:0:0:0:
192,192,156004,1,0,0:0:0:0:
64,192,156004,128,0,156346:0:0:0:0:
192,192,156346,1,0,0:0:0:0:
320,192,156346,128,0,156518:0:0:0:0:
448,192,156518,128,0,156689:0:0:0:0:
192,192,157204,128,0,157375:0:0:0:0:
64,192,157375,128,0,157718:0:0:0:0:
192,192,157718,128,0,157889:0:0:0:0:
320,192,157889,128,0,158061:0:0:0:0:
320,192,158575,128,0,158746:0:0:0:0:
192,192,158746,128,0,159089:0:0:0:0:
64,192,159089,128,0,159261:0:0:0:0:
320,192,159261,128,0,159432:0:0:0:0:
192,192,159946,128,0,160118:0:0:0:0:
64,192,160118,128,0,160461:0:0:0:0:
320,192,160461,128,0,160632:0:0:0:0:
448,192,160632,128,0,160804:0:0:0:0:
320,192,161318,128,0,161489:0:0:0:0:
192,192,161489,128,0,161832:0:0:0:0:
64,192,161832,128,0,161918:0:0:0:0:
64,192,162004,128,0,162518:0:0:0:0:
192,192,162518,128,0,162746:0:0:0:0:
320,192,162746,128,0,162861:0:0:0:0:
448,192,162861,128,0,163204:0:0:0:0:
192,192,163546,1,0,0:0:0:0:
320,192,163718,1,0,0:0:0:0:
448,192,163889,1,0,0:0:0:0:
320,192,164061,1,0,0:0:0:0:
192,192,164232,1,0,0:0:0:0:
64,192,165089,1,0,0:0:0:0:
320,192,165261,1,0,0:0:0:0:
192,192,165432,1,0,0:0:0:0:
448,192,165604,1,0,0:0:0:0:
64,192,166461,1,0,0:0:0:0:
320,192,166632,1,0,0:0:0:0:
192,192,166804,1,0,0:0:0:0:
448,192,166975,1,0,0:0:0:0:
64,192,166975,1,0,0:0:0:0:
320,192,167146,1,0,0:0:0:0:
64,192,167146,1,0,0:0:0:0:
192,192,167318,1,0,0:0:0:0:
320,192,167318,1,0,0:0:0:0:
192,192,167661,1,0,0:0:0:0:
448,192,167661,1,0,0:0:0:0:
320,192,167889,1,0,0:0:0:0:
192,192,168004,1,0,0:0:0:0:
448,192,168004,1,0,0:0:0:0:
64,192,168175,1,0,0:0:0:0:
192,192,168346,1,0,0:0:0:0:
320,192,168346,1,0,0:0:0:0:
64,192,168518,1,0,0:0:0:0:
192,192,168689,1,0,0:0:0:0:
448,192,168689,1,0,0:0:0:0:
192,192,169032,1,0,0:0:0:0:
64,192,169032,1,0,0:0:0:0:
448,192,169261,1,0,0:0:0:0:
320,192,169375,1,0,0:0:0:0:
192,192,169375,1,0,0:0:0:0:
64,192,169546,1,0,0:0:0:0:
192,192,169718,1,0,0:0:0:0:
448,192,169718,1,0,0:0:0:0:
320,192,169889,1,0,0:0:0:0:
320,192,170061,1,0,0:0:0:0:
192,192,170061,1,0,0:0:0:0:
64,192,170404,1,0,0:0:0:0:
320,192,170404,1,0,0:0:0:0:
192,192,170632,1,0,0:0:0:0:
64,192,170746,1,0,0:0:0:0:
448,192,170746,1,0,0:0:0:0:
320,192,170918,1,0,0:0:0:0:
192,192,171089,1,0,0:0:0:0:
448,192,171089,1,0,0:0:0:0:
320,192,171261,1,0,0:0:0:0:
64,192,171261,1,0,0:0:0:0:
192,192,171432,1,0,0:0:0:0:
64,192,171432,1,0,0:0:0:0:
64,192,171775,1,0,0:0:0:0:
448,192,171775,1,0,0:0:0:0:
192,192,172004,1,0,0:0:0:0:
64,192,172118,1,0,0:0:0:0:
320,192,172118,1,0,0:0:0:0:
448,192,172289,1,0,0:0:0:0:
320,192,172461,1,0,0:0:0:0:
192,192,172461,1,0,0:0:0:0:
448,192,172632,1,0,0:0:0:0:
320,192,172804,1,0,0:0:0:0:
64,192,172804,1,0,0:0:0:0:
192,192,173146,1,0,0:0:0:0:
320,192,173146,1,0,0:0:0:0:
64,192,173375,1,0,0:0:0:0:
192,192,173489,1,0,0:0:0:0:
448,192,173489,1,0,0:0:0:0:
64,192,173661,1,0,0:0:0:0:
192,192,173832,1,0,0:0:0:0:
320,192,173832,1,0,0:0:0:0:
64,192,174004,1,0,0:0:0:0:
64,192,174175,1,0,0:0:0:0:
448,192,174175,1,0,0:0:0:0:
192,192,174518,1,0,0:0:0:0:
320,192,174518,1,0,0:0:0:0:
320,192,174746,1,0,0:0:0:0:
192,192,174861,1,0,0:0:0:0:
448,192,174861,1,0,0:0:0:0:
320,192,175032,1,0,0:0:0:0:
64,192,175204,1,0,0:0:0:0:
448,192,175204,1,0,0:0:0:0:
320,192,175375,1,0,0:0:0:0:
192,192,175546,1,0,0:0:0:0:
64,192,175546,1,0,0:0:0:0:
64,192,175718,1,0,0:0:0:0:
448,192,175718,1,0,0:0:0:0:
192,192,175889,1,0,0:0:0:0:
448,192,175889,1,0,0:0:0:0:
320,192,176061,1,0,0:0:0:0:
192,192,176061,1,0,0:0:0:0:
64,192,176232,1,0,0:0:0:0:
320,192,176232,1,0,0:0:0:0:
64,192,176404,1,0,0:0:0:0:
448,192,176404,1,0,0:0:0:0:
320,192,176575,1,0,0:0:0:0:
64,192,176575,1,0,0:0:0:0:
192,192,176746,1,0,0:0:0:0:
320,192,176746,1,0,0:0:0:0:
448,192,176918,1,0,0:0:0:0:
192,192,176918,1,0,0:0:0:0:
448,192,177089,1,0,0:0:0:0:
64,192,177089,1,0,0:0:0:0:
192,192,177261,1,0,0:0:0:0:
448,192,177261,1,0,0:0:0:0:
320,192,177432,1,0,0:0:0:0:
192,192,177432,1,0,0:0:0:0:
64,192,177604,1,0,0:0:0:0:
192,192,177689,1,0,0:0:0:0:
320,192,177775,1,0,0:0:0:0:
448,192,177861,1,0,0:0:0:0:
64,192,177946,1,0,0:0:0:0:
192,192,178032,1,0,0:0:0:0:
320,192,178118,1,0,0:0:0:0:
448,192,178204,1,0,0:0:0:0:
64,192,178289,128,0,178889:0:0:0:0:
192,192,178289,1,0,0:0:0:0:
320,192,178632,1,0,0:0:0:0:
64,192,178975,128,0,179575:0:0:0:0:
192,192,178975,1,0,0:0:0:0:
320,192,179318,1,0,0:0:0:0:
64,192,179661,128,0,180261:0:0:0:0:
192,192,179661,1,0,0:0:0:0:
320,192,180004,1,0,0:0:0:0:
64,192,180346,128,0,180946:0:0:0:0:
192,192,180346,1,0,0:0:0:0:
320,192,180689,1,0,0:0:0:0:
64,192,181032,128,0,181632:0:0:0:0:
192,192,181032,1,0,0:0:0:0:
320,192,181204,1,0,0:0:0:0:
192,192,181375,1,0,0:0:0:0:
320,192,181546,1,0,0:0:0:0:
64,192,181718,128,0,182318:0:0:0:0:
192,192,181718,1,0,0:0:0:0:
320,192,181804,1,0,0:0:0:0:
448,192,181889,1,0,0:0:0:0:
192,192,181975,1,0,0:0:0:0:
320,192,182061,1,0,0:0:0:0:
448,192,182146,1,0,0:0:0:0:
192,192,182232,1,0,0:0:0:0:
320,192,182318,1,0,0:0:0:0:
448,192,182404,1,0,0:0:0:0:
64,192,182404,128,0,182661:0:0:0:0:
320,192,182489,1,0,0:0:0:0:
448,192,182575,1,0,0:0:0:0:
320,192,182661,1,0,0:0:0:0:
192,192,182661,128,0,182918:0:0:0:0:
448,192,182746,1,0,0:0:0:0:
320,192,182832,1,0,0:0:0:0:
448,192,182918,1,0,0:0:0:0:
64,192,182918,128,0,183089:0:0:0:0:
320,192,183004,1,0,0:0:0:0:
448,192,183089,1,0,0:0:0:0:
192,192,183089,128,0,183346:0:0:0:0:
320,192,183346,1,0,0:0:0:0:
448,192,183432,1,0,0:0:0:0:
320,192,183461,1,0,0:0:0:0:
192,192,183489,1,0,0:0:0:0:
64,192,183518,1,0,0:0:0:0:
64,192,183775,1,0,0:0:0:0:
192,192,183775,1,0,0:0:0:0:
448,192,183775,1,0,0:0:0:0:
320,192,183775,1,0,0:0:0:0:
192,192,183946,1,0,0:0:0:0:
320,192,184118,1,0,0:0:0:0:
64,192,184118,1,0,0:0:0:0:
448,192,184118,128,0,184204:0:0:0:0:
192,192,184289,1,0,0:0:0:0:
448,192,184461,128,0,184546:0:0:0:0:
64,192,184461,1,0,0:0:0:0:
192,192,184632,1,0,0:0:0:0:
192,192,184718,1,0,0:0:0:0:
64,192,184804,1,0,0:0:0:0:
320,192,184804,1,0,0:0:0:0:
448,192,184804,128,0,184889:0:0:0:0:
192,192,184975,1,0,0:0:0:0:
192,192,185061,1,0,0:0:0:0:
64,192,185146,1,0,0:0:0:0:
448,192,185146,128,0,185232:0:0:0:0:
448,192,185318,128,0,185404:0:0:0:0:
192,192,185318,1,0,0:0:0:0:
448,192,185489,128,0,185575:0:0:0:0:
320,192,185489,1,0,0:0:0:0:
64,192,185489,1,0,0:0:0:0:
448,192,185661,128,0,185746:0:0:0:0:
320,192,185832,1,0,0:0:0:0:
192,192,185832,1,0,0:0:0:0:
192,192,185918,1,0,0:0:0:0:
192,192,186004,1,0,0:0:0:0:
192,192,186089,1,0,0:0:0:0:
64,192,186175,1,0,0:0:0:0:
320,192,186175,1,0,0:0:0:0:
448,192,186175,1,0,0:0:0:0:
192,192,186218,1,0,0:0:0:0:
64,192,186261,1,0,0:0:0:0:
448,192,186304,1,0,0:0:0:0:
320,192,186346,1,0,0:0:0:0:
192,192,186389,1,0,0:0:0:0:
64,192,186432,1,0,0:0:0:0:
448,192,186475,1,0,0:0:0:0:
320,192,186518,1,0,0:0:0:0:
192,192,186518,1,0,0:0:0:0:
192,192,186689,1,0,0:0:0:0:
64,192,186861,1,0,0:0:0:0:
320,192,186861,1,0,0:0:0:0:
448,192,186861,128,0,186946:0:0:0:0:
192,192,187032,1,0,0:0:0:0:
64,192,187204,1,0,0:0:0:0:
320,192,187204,128,0,187375:0:0:0:0:
448,192,187375,128,0,187546:0:0:0:0:
192,192,187375,1,0,0:0:0:0:
320,192,187546,1,0,0:0:0:0:
64,192,187546,1,0,0:0:0:0:
192,192,187546,128,0,187718:0:0:0:0:
64,192,187718,128,0,187889:0:0:0:0:
448,192,187718,1,0,0:0:0:0:
192,192,187889,1,0,0:0:0:0:
448,192,187889,1,0,0:0:0:0:
320,192,188061,1,0,0:0:0:0:
192,192,188061,1,0,0:0:0:0:
64,192,188232,1,0,0:0:0:0:
320,192,188232,1,0,0:0:0:0:
448,192,188232,1,0,0:0:0:0:
192,192,188404,128,0,188575:0:0:0:0:
64,192,188575,1,0,0:0:0:0:
448,192,188575,1,0,0:0:0:0:
320,192,188618,1,0,0:0:0:0:
192,192,188661,1,0,0:0:0:0:
64,192,188704,1,0,0:0:0:0:
448,192,188746,1,0,0:0:0:0:
320,192,188746,1,0,0:0:0:0:
192,192,188789,1,0,0:0:0:0:
64,192,188832,1,0,0:0:0:0:
448,192,188875,1,0,0:0:0:0:
320,192,188918,1,0,0:0:0:0:
64,192,188918,1,0,0:0:0:0:
192,192,188918,1,0,0:0:0:0:
448,192,188975,1,0,0:0:0:0:
64,192,189032,1,0,0:0:0:0:
192,192,189089,1,0,0:0:0:0:
320,192,189146,1,0,0:0:0:0:
448,192,189204,1,0,0:0:0:0:
64,192,189261,1,0,0:0:0:0:
192,192,189261,1,0,0:0:0:0:
320,192,189261,1,0,0:0:0:0:
320,192,189432,1,0,0:0:0:0:
192,192,189604,1,0,0:0:0:0:
448,192,189604,1,0,0:0:0:0:
64,192,189604,128,0,189689:0:0:0:0:
320,192,189775,1,0,0:0:0:0:
448,192,189946,1,0,0:0:0:0:
64,192,189946,128,0,190032:0:0:0:0:
320,192,190118,1,0,0:0:0:0:
320,192,190204,1,0,0:0:0:0:
448,192,190289,1,0,0:0:0:0:
192,192,190289,1,0,0:0:0:0:
64,192,190289,128,0,190375:0:0:0:0:
320,192,190461,1,0,0:0:0:0:
320,192,190546,1,0,0:0:0:0:
448,192,190632,1,0,0:0:0:0:
64,192,190632,128,0,190718:0:0:0:0:
64,192,190804,128,0,190889:0:0:0:0:
320,192,190804,1,0,0:0:0:0:
64,192,190975,128,0,191061:0:0:0:0:
448,192,190975,1,0,0:0:0:0:
192,192,190975,1,0,0:0:0:0:
64,192,191146,128,0,191232:0:0:0:0:
320,192,191146,1,0,0:0:0:0:
192,192,191318,1,0,0:0:0:0:
320,192,191318,1,0,0:0:0:0:
320,192,191404,1,0,0:0:0:0:
320,192,191489,1,0,0:0:0:0:
320,192,191575,1,0,0:0:0:0:
448,192,191661,1,0,0:0:0:0:
192,192,191661,1,0,0:0:0:0:
64,192,191661,1,0,0:0:0:0:
320,192,191704,1,0,0:0:0:0:
192,192,191746,1,0,0:0:0:0:
64,192,191789,1,0,0:0:0:0:
448,192,191832,1,0,0:0:0:0:
320,192,191875,1,0,0:0:0:0:
192,192,191918,1,0,0:0:0:0:
64,192,191961,1,0,0:0:0:0:
192,192,192004,1,0,0:0:0:0:
448,192,192004,1,0,0:0:0:0:
448,192,192175,1,0,0:0:0:0:
448,192,192346,1,0,0:0:0:0:
64,192,192346,128,0,192432:0:0:0:0:
192,192,192346,1,0,0:0:0:0:
320,192,192518,1,0,0:0:0:0:
448,192,192689,1,0,0:0:0:0:
64,192,192689,128,0,192861:0:0:0:0:
192,192,192861,1,0,0:0:0:0:
320,192,192861,128,0,193032:0:0:0:0:
448,192,193032,1,0,0:0:0:0:
64,192,193032,1,0,0:0:0:0:
192,192,193032,128,0,193204:0:0:0:0:
448,192,193204,128,0,193375:0:0:0:0:
64,192,193204,1,0,0:0:0:0:
192,192,193375,128,0,193718:0:0:0:0:
320,192,193375,1,0,0:0:0:0:
320,192,193718,1,0,0:0:0:0:
64,192,193718,1,0,0:0:0:0:
64,192,193889,1,0,0:0:0:0:
320,192,193889,128,0,194232:0:0:0:0:
448,192,194232,1,0,0:0:0:0:
192,192,194232,1,0,0:0:0:0:
320,192,194318,1,0,0:0:0:0:
64,192,194318,1,0,0:0:0:0:
192,192,194318,1,0,0:0:0:0:
192,192,194404,1,0,0:0:0:0:
448,192,194404,128,0,194746:0:0:0:0:
320,192,194489,1,0,0:0:0:0:
64,192,194489,1,0,0:0:0:0:
192,192,194746,1,0,0:0:0:0:
64,192,194746,1,0,0:0:0:0:
320,192,194789,1,0,0:0:0:0:
448,192,194832,1,0,0:0:0:0:
192,192,194875,1,0,0:0:0:0:
64,192,194918,1,0,0:0:0:0:
448,192,194961,1,0,0:0:0:0:
320,192,195004,1,0,0:0:0:0:
64,192,195046,1,0,0:0:0:0:
320,192,195089,1,0,0:0:0:0:
192,192,195089,128,0,195175:0:0:0:0:
448,192,195089,128,0,195175:0:0:0:0:
64,192,195261,1,0,0:0:0:0:
192,192,195432,128,0,195518:0:0:0:0:
448,192,195432,128,0,195518:0:0:0:0:
320,192,195604,1,0,0:0:0:0:
320,192,195689,1,0,0:0:0:0:
448,192,195775,128,0,195861:0:0:0:0:
192,192,195775,128,0,195861:0:0:0:0:
64,192,195775,1,0,0:0:0:0:
320,192,195946,1,0,0:0:0:0:
320,192,196032,1,0,0:0:0:0:
192,192,196118,128,0,196204:0:0:0:0:
448,192,196118,128,0,196204:0:0:0:0:
320,192,196289,128,0,196375:0:0:0:0:
64,192,196461,1,0,0:0:0:0:
192,192,196461,128,0,196546:0:0:0:0:
448,192,196461,128,0,196546:0:0:0:0:
320,192,196632,128,0,196718:0:0:0:0:
192,192,196804,1,0,0:0:0:0:
64,192,196804,1,0,0:0:0:0:
64,192,196889,1,0,0:0:0:0:
64,192,196975,1,0,0:0:0:0:
64,192,197061,1,0,0:0:0:0:
64,192,197146,1,0,0:0:0:0:
192,192,197146,1,0,0:0:0:0:
320,192,197146,1,0,0:0:0:0:
448,192,197189,1,0,0:0:0:0:
64,192,197232,1,0,0:0:0:0:
192,192,197275,1,0,0:0:0:0:
320,192,197318,1,0,0:0:0:0:
448,192,197361,1,0,0:0:0:0:
64,192,197404,1,0,0:0:0:0:
192,192,197446,1,0,0:0:0:0:
320,192,197489,1,0,0:0:0:0:
448,192,197489,1,0,0:0:0:0:
320,192,197661,1,0,0:0:0:0:
64,192,197832,1,0,0:0:0:0:
320,192,197832,1,0,0:0:0:0:
448,192,197832,1,0,0:0:0:0:
192,192,198004,1,0,0:0:0:0:
64,192,198175,1,0,0:0:0:0:
192,192,198175,1,0,0:0:0:0:
448,192,198175,1,0,0:0:0:0:
320,192,198346,1,0,0:0:0:0:
448,192,198518,1,0,0:0:0:0:
320,192,198518,1,0,0:0:0:0:
64,192,198518,1,0,0:0:0:0:
192,192,198689,1,0,0:0:0:0:
320,192,198689,1,0,0:0:0:0:
448,192,198732,1,0,0:0:0:0:
64,192,198775,1,0,0:0:0:0:
192,192,198818,1,0,0:0:0:0:
320,192,198861,1,0,0:0:0:0:
448,192,198861,1,0,0:0:0:0:
64,192,198904,1,0,0:0:0:0:
192,192,198946,1,0,0:0:0:0:
320,192,198989,1,0,0:0:0:0:
448,192,199032,1,0,0:0:0:0:
64,192,199075,1,0,0:0:0:0:
192,192,199118,1,0,0:0:0:0:
320,192,199161,1,0,0:0:0:0:
448,192,199204,1,0,0:0:0:0:
64,192,199204,1,0,0:0:0:0:
192,192,199246,1,0,0:0:0:0:
448,192,199289,1,0,0:0:0:0:
320,192,199332,1,0,0:0:0:0:
192,192,199375,1,0,0:0:0:0:
64,192,199375,1,0,0:0:0:0:
320,192,199418,1,0,0:0:0:0:
448,192,199461,1,0,0:0:0:0:
64,192,199504,1,0,0:0:0:0:
192,192,199546,1,0,0:0:0:0:
320,192,199546,1,0,0:0:0:0:
448,192,199589,1,0,0:0:0:0:
64,192,199632,1,0,0:0:0:0:
192,192,199675,1,0,0:0:0:0:
320,192,199718,1,0,0:0:0:0:
448,192,199718,1,0,0:0:0:0:
64,192,199761,1,0,0:0:0:0:
192,192,199804,1,0,0:0:0:0:
320,192,199846,1,0,0:0:0:0:
448,192,199889,1,0,0:0:0:0:
192,192,199889,1,0,0:0:0:0:
64,192,199889,1,0,0:0:0:0:
192,192,200061,1,0,0:0:0:0:
448,192,200061,1,0,0:0:0:0:
320,192,200232,1,0,0:0:0:0:
448,192,200232,1,0,0:0:0:0:
192,192,200275,1,0,0:0:0:0:
64,192,200318,1,0,0:0:0:0:
320,192,200361,1,0,0:0:0:0:
448,192,200404,1,0,0:0:0:0:
64,192,200446,1,0,0:0:0:0:
192,192,200489,1,0,0:0:0:0:
448,192,200532,1,0,0:0:0:0:
192,192,200575,1,0,0:0:0:0:
320,192,200575,128,0,200661:0:0:0:0:
64,192,200575,128,0,200661:0:0:0:0:
448,192,200746,1,0,0:0:0:0:
320,192,200918,128,0,201004:0:0:0:0:
64,192,200918,128,0,201004:0:0:0:0:
192,192,201089,1,0,0:0:0:0:
192,192,201175,1,0,0:0:0:0:
64,192,201261,128,0,201346:0:0:0:0:
320,192,201261,128,0,201346:0:0:0:0:
448,192,201261,1,0,0:0:0:0:
192,192,201432,1,0,0:0:0:0:
192,192,201518,1,0,0:0:0:0:
320,192,201604,128,0,201689:0:0:0:0:
64,192,201604,128,0,201689:0:0:0:0:
192,192,201775,128,0,201861:0:0:0:0:
448,192,201946,1,0,0:0:0:0:
320,192,201946,128,0,202032:0:0:0:0:
64,192,201946,128,0,202032:0:0:0:0:
192,192,202118,128,0,202204:0:0:0:0:
320,192,202289,1,0,0:0:0:0:
448,192,202289,1,0,0:0:0:0:
448,192,202375,1,0,0:0:0:0:
448,192,202461,1,0,0:0:0:0:
448,192,202546,1,0,0:0:0:0:
448,192,202632,1,0,0:0:0:0:
320,192,202632,1,0,0:0:0:0:
192,192,202632,1,0,0:0:0:0:
64,192,202675,1,0,0:0:0:0:
448,192,202718,1,0,0:0:0:0:
320,192,202761,1,0,0:0:0:0:
192,192,202804,1,0,0:0:0:0:
64,192,202846,1,0,0:0:0:0:
448,192,202889,1,0,0:0:0:0:
320,192,202932,1,0,0:0:0:0:
192,192,202975,1,0,0:0:0:0:
64,192,202975,1,0,0:0:0:0:
64,192,203146,1,0,0:0:0:0:
320,192,203146,1,0,0:0:0:0:
192,192,203318,1,0,0:0:0:0:
320,192,203318,1,0,0:0:0:0:
448,192,203339,1,0,0:0:0:0:
192,192,203489,1,0,0:0:0:0:
64,192,203511,1,0,0:0:0:0:
320,192,203532,1,0,0:0:0:0:
448,192,203661,1,0,0:0:0:0:
320,192,203682,1,0,0:0:0:0:
448,192,203832,1,0,0:0:0:0:
192,192,203854,1,0,0:0:0:0:
320,192,203875,1,0,0:0:0:0:
64,192,204004,1,0,0:0:0:0:
192,192,204025,1,0,0:0:0:0:
320,192,204046,1,0,0:0:0:0:
448,192,204175,1,0,0:0:0:0:
320,192,204196,1,0,0:0:0:0:
192,192,204218,1,0,0:0:0:0:
64,192,204239,1,0,0:0:0:0:
192,192,204346,1,0,0:0:0:0:
448,192,204346,1,0,0:0:0:0:
448,192,204518,1,0,0:0:0:0:
192,192,204861,128,0,205032:0:0:0:0:
64,192,205032,128,0,205204:0:0:0:0:
320,192,205204,128,0,205375:0:0:0:0:
192,192,205289,1,0,0:0:0:0:
448,192,205375,128,0,205718:0:0:0:0:
64,192,205375,1,0,0:0:0:0:
192,192,205461,1,0,0:0:0:0:
320,192,205546,1,0,0:0:0:0:
64,192,205546,1,0,0:0:0:0:
320,192,205718,1,0,0:0:0:0:
192,192,205718,1,0,0:0:0:0:
64,192,205718,1,0,0:0:0:0:
64,192,205889,1,0,0:0:0:0:
192,192,206061,1,0,0:0:0:0:
320,192,206061,128,0,206146:0:0:0:0:
448,192,206061,1,0,0:0:0:0:
64,192,206232,1,0,0:0:0:0:
192,192,206404,1,0,0:0:0:0:
320,192,206404,128,0,206489:0:0:0:0:
64,192,206575,1,0,0:0:0:0:
64,192,206661,1,0,0:0:0:0:
192,192,206746,1,0,0:0:0:0:
320,192,206746,128,0,206832:0:0:0:0:
448,192,206746,1,0,0:0:0:0:
64,192,206918,1,0,0:0:0:0:
64,192,207004,1,0,0:0:0:0:
192,192,207089,1,0,0:0:0:0:
320,192,207089,128,0,207175:0:0:0:0:
320,192,207261,128,0,207346:0:0:0:0:
64,192,207261,1,0,0:0:0:0:
192,192,207432,1,0,0:0:0:0:
320,192,207432,128,0,207518:0:0:0:0:
448,192,207432,1,0,0:0:0:0:
320,192,207604,128,0,207689:0:0:0:0:
64,192,207604,1,0,0:0:0:0:
64,192,207775,1,0,0:0:0:0:
448,192,207775,1,0,0:0:0:0:
64,192,207861,1,0,0:0:0:0:
64,192,207946,1,0,0:0:0:0:
64,192,208032,1,0,0:0:0:0:
192,192,208118,1,0,0:0:0:0:
320,192,208118,1,0,0:0:0:0:
448,192,208118,1,0,0:0:0:0:
64,192,208161,1,0,0:0:0:0:
448,192,208204,1,0,0:0:0:0:
320,192,208246,1,0,0:0:0:0:
192,192,208289,1,0,0:0:0:0:
64,192,208332,1,0,0:0:0:0:
448,192,208375,1,0,0:0:0:0:
320,192,208418,1,0,0:0:0:0:
192,192,208461,1,0,0:0:0:0:
64,192,208461,1,0,0:0:0:0:
64,192,208632,1,0,0:0:0:0:
320,192,208804,128,0,208889:0:0:0:0:
448,192,208804,1,0,0:0:0:0:
192,192,208804,1,0,0:0:0:0:
64,192,208975,1,0,0:0:0:0:
320,192,209146,1,0,0:0:0:0:
192,192,209146,128,0,209318:0:0:0:0:
448,192,209318,128,0,209489:0:0:0:0:
64,192,209318,1,0,0:0:0:0:
320,192,209489,128,0,209661:0:0:0:0:
192,192,209489,1,0,0:0:0:0:
64,192,209489,1,0,0:0:0:0:
64,192,209661,128,0,209832:0:0:0:0:
448,192,209661,1,0,0:0:0:0:
192,192,209832,1,0,0:0:0:0:
448,192,209832,1,0,0:0:0:0:
320,192,210004,1,0,0:0:0:0:
64,192,210004,1,0,0:0:0:0:
192,192,210175,1,0,0:0:0:0:
64,192,210175,1,0,0:0:0:0:
448,192,210175,1,0,0:0:0:0:
192,192,210346,1,0,0:0:0:0:
320,192,210346,128,0,210518:0:0:0:0:
64,192,210518,1,0,0:0:0:0:
448,192,210518,1,0,0:0:0:0:
192,192,210561,1,0,0:0:0:0:
320,192,210604,1,0,0:0:0:0:
448,192,210646,1,0,0:0:0:0:
192,192,210689,1,0,0:0:0:0:
64,192,210689,1,0,0:0:0:0:
320,192,210732,1,0,0:0:0:0:
448,192,210775,1,0,0:0:0:0:
64,192,210818,1,0,0:0:0:0:
192,192,210861,1,0,0:0:0:0:
320,192,210861,1,0,0:0:0:0:
448,192,210861,1,0,0:0:0:0:
64,192,210918,1,0,0:0:0:0:
448,192,210975,1,0,0:0:0:0:
320,192,211032,1,0,0:0:0:0:
64,192,211089,1,0,0:0:0:0:
192,192,211146,1,0,0:0:0:0:
64,192,211204,1,0,0:0:0:0:
448,192,211204,1,0,0:0:0:0:
448,192,211375,1,0,0:0:0:0:
64,192,211546,1,0,0:0:0:0:
192,192,211546,128,0,211632:0:0:0:0:
320,192,211546,1,0,0:0:0:0:
448,192,211718,1,0,0:0:0:0:
192,192,211889,128,0,211975:0:0:0:0:
320,192,211889,1,0,0:0:0:0:
448,192,212061,1,0,0:0:0:0:
448,192,212146,1,0,0:0:0:0:
320,192,212232,1,0,0:0:0:0:
64,192,212232,1,0,0:0:0:0:
192,192,212232,128,0,212318:0:0:0:0:
448,192,212404,1,0,0:0:0:0:
448,192,212489,1,0,0:0:0:0:
320,192,212575,1,0,0:0:0:0:
192,192,212575,128,0,212661:0:0:0:0:
448,192,212746,1,0,0:0:0:0:
192,192,212746,128,0,212832:0:0:0:0:
192,192,212918,128,0,213004:0:0:0:0:
320,192,212918,1,0,0:0:0:0:
64,192,212918,1,0,0:0:0:0:
192,192,213089,128,0,213175:0:0:0:0:
448,192,213089,1,0,0:0:0:0:
64,192,213261,1,0,0:0:0:0:
448,192,213261,1,0,0:0:0:0:
448,192,213346,1,0,0:0:0:0:
448,192,213432,1,0,0:0:0:0:
448,192,213518,1,0,0:0:0:0:
320,192,213604,1,0,0:0:0:0:
64,192,213604,1,0,0:0:0:0:
192,192,213604,1,0,0:0:0:0:
448,192,213646,1,0,0:0:0:0:
64,192,213689,1,0,0:0:0:0:
192,192,213732,1,0,0:0:0:0:
320,192,213775,1,0,0:0:0:0:
448,192,213818,1,0,0:0:0:0:
64,192,213861,1,0,0:0:0:0:
192,192,213904,1,0,0:0:0:0:
320,192,213946,1,0,0:0:0:0:
448,192,213946,1,0,0:0:0:0:
320,192,214118,1,0,0:0:0:0:
64,192,214289,1,0,0:0:0:0:
192,192,214289,128,0,214375:0:0:0:0:
320,192,214289,1,0,0:0:0:0:
448,192,214461,1,0,0:0:0:0:
320,192,214632,1,0,0:0:0:0:
64,192,214632,128,0,214804:0:0:0:0:
448,192,214804,128,0,214975:0:0:0:0:
192,192,214804,1,0,0:0:0:0:
192,192,214975,1,0,0:0:0:0:
64,192,214975,1,0,0:0:0:0:
320,192,214975,128,0,215146:0:0:0:0:
192,192,215146,128,0,215318:0:0:0:0:
448,192,215146,1,0,0:0:0:0:
448,192,215318,1,0,0:0:0:0:
64,192,215318,1,0,0:0:0:0:
64,192,215575,128,0,215832:0:0:0:0:
192,192,215832,128,0,216175:0:0:0:0:
448,192,215832,1,0,0:0:0:0:
448,192,216175,128,0,216689:0:0:0:0:
320,192,216261,1,0,0:0:0:0:
64,192,216261,1,0,0:0:0:0:
192,192,216346,1,0,0:0:0:0:
320,192,216432,1,0,0:0:0:0:
64,192,216432,1,0,0:0:0:0:
192,192,216518,1,0,0:0:0:0:
64,192,216518,1,0,0:0:0:0:
320,192,216689,1,0,0:0:0:0:
64,192,216689,128,0,216861:0:0:0:0:
192,192,216861,128,0,217032:0:0:0:0:
64,192,217032,1,0,0:0:0:0:
320,192,217032,1,0,0:0:0:0:
448,192,217032,128,0,217204:0:0:0:0:
320,192,217204,128,0,217375:0:0:0:0:
192,192,217375,1,0,0:0:0:0:
64,192,217375,1,0,0:0:0:0:
448,192,217546,128,0,217718:0:0:0:0:
320,192,217718,1,0,0:0:0:0:
192,192,217718,1,0,0:0:0:0:
64,192,217718,1,0,0:0:0:0:
192,192,217889,128,0,218061:0:0:0:0:
64,192,218061,1,0,0:0:0:0:
320,192,218061,1,0,0:0:0:0:
64,192,218232,128,0,218404:0:0:0:0:
192,192,218404,1,0,0:0:0:0:
320,192,218404,1,0,0:0:0:0:
448,192,218404,1,0,0:0:0:0:
320,192,218575,128,0,218746:0:0:0:0:
448,192,218746,1,0,0:0:0:0:
192,192,218746,1,0,0:0:0:0:
64,192,218746,128,0,219089:0:0:0:0:
192,192,219089,1,0,0:0:0:0:
320,192,219089,1,0,0:0:0:0:
448,192,219089,1,0,0:0:0:0:
64,192,219132,1,0,0:0:0:0:
448,192,219175,1,0,0:0:0:0:
320,192,219218,1,0,0:0:0:0:
192,192,219261,1,0,0:0:0:0:
64,192,219304,1,0,0:0:0:0:
448,192,219346,1,0,0:0:0:0:
320,192,219389,1,0,0:0:0:0:
64,192,219432,1,0,0:0:0:0:
192,192,219432,128,0,219604:0:0:0:0:
448,192,219604,128,0,219775:0:0:0:0:
320,192,219775,1,0,0:0:0:0:
192,192,219775,1,0,0:0:0:0:
64,192,219775,128,0,219946:0:0:0:0:
320,192,219946,128,0,220118:0:0:0:0:
192,192,220118,1,0,0:0:0:0:
448,192,220118,128,0,220461:0:0:0:0:
320,192,220461,1,0,0:0:0:0:
192,192,220461,1,0,0:0:0:0:
64,192,220461,128,0,220632:0:0:0:0:
192,192,220632,128,0,220804:0:0:0:0:
64,192,220804,1,0,0:0:0:0:
448,192,220804,1,0,0:0:0:0:
192,192,220975,128,0,221146:0:0:0:0:
64,192,221146,1,0,0:0:0:0:
320,192,221146,1,0,0:0:0:0:
448,192,221146,1,0,0:0:0:0:
320,192,221318,128,0,221489:0:0:0:0:
448,192,221318,128,0,221489:0:0:0:0:
192,192,221489,1,0,0:0:0:0:
64,192,221489,1,0,0:0:0:0:
320,192,221532,1,0,0:0:0:0:
448,192,221575,1,0,0:0:0:0:
64,192,221618,1,0,0:0:0:0:
192,192,221661,1,0,0:0:0:0:
320,192,221661,1,0,0:0:0:0:
448,192,221704,1,0,0:0:0:0:
64,192,221746,1,0,0:0:0:0:
192,192,221789,1,0,0:0:0:0:
320,192,221832,1,0,0:0:0:0:
448,192,221832,1,0,0:0:0:0:
192,192,221889,1,0,0:0:0:0:
64,192,221946,1,0,0:0:0:0:
448,192,222004,1,0,0:0:0:0:
320,192,222004,1,0,0:0:0:0:
192,192,222061,1,0,0:0:0:0:
64,192,222118,1,0,0:0:0:0:
320,192,222175,1,0,0:0:0:0:
448,192,222175,128,0,222346:0:0:0:0:
192,192,222346,128,0,222518:0:0:0:0:
320,192,222518,1,0,0:0:0:0:
448,192,222518,1,0,0:0:0:0:
64,192,222518,128,0,222689:0:0:0:0:
320,192,222689,128,0,222861:0:0:0:0:
448,192,222861,1,0,0:0:0:0:
192,192,222861,1,0,0:0:0:0:
64,192,223032,128,0,223204:0:0:0:0:
192,192,223204,1,0,0:0:0:0:
320,192,223204,1,0,0:0:0:0:
448,192,223204,1,0,0:0:0:0:
448,192,223375,128,0,223546:0:0:0:0:
320,192,223546,1,0,0:0:0:0:
64,192,223546,1,0,0:0:0:0:
192,192,223718,128,0,223889:0:0:0:0:
64,192,223889,1,0,0:0:0:0:
320,192,223889,1,0,0:0:0:0:
448,192,223889,1,0,0:0:0:0:
320,192,224061,128,0,224232:0:0:0:0:
448,192,224232,128,0,224575:0:0:0:0:
64,192,224232,1,0,0:0:0:0:
192,192,224575,1,0,0:0:0:0:
64,192,224575,1,0,0:0:0:0:
320,192,224575,1,0,0:0:0:0:
448,192,224618,1,0,0:0:0:0:
64,192,224661,1,0,0:0:0:0:
192,192,224704,1,0,0:0:0:0:
320,192,224746,1,0,0:0:0:0:
448,192,224789,1,0,0:0:0:0:
64,192,224832,1,0,0:0:0:0:
192,192,224875,1,0,0:0:0:0:
448,192,224918,1,0,0:0:0:0:
320,192,224918,128,0,225089:0:0:0:0:
192,192,225089,128,0,225261:0:0:0:0:
64,192,225261,1,0,0:0:0:0:
320,192,225261,1,0,0:0:0:0:
448,192,225261,128,0,225432:0:0:0:0:
64,192,225432,128,0,225604:0:0:0:0:
192,192,225604,1,0,0:0:0:0:
320,192,225604,128,0,225946:0:0:0:0:
448,192,225946,1,0,0:0:0:0:
192,192,225946,128,0,226118:0:0:0:0:
64,192,225946,1,0,0:0:0:0:
448,192,226118,128,0,226289:0:0:0:0:
320,192,226289,1,0,0:0:0:0:
64,192,226289,128,0,226632:0:0:0:0:
192,192,226632,1,0,0:0:0:0:
320,192,226632,1,0,0:0:0:0:
448,192,226804,1,0,0:0:0:0:
192,192,226804,1,0,0:0:0:0:
448,192,226975,1,0,0:0:0:0:
64,192,226975,1,0,0:0:0:0:
320,192,227232,1,0,0:0:0:0:
64,192,227232,1,0,0:0:0:0:
192,192,227318,1,0,0:0:0:0:
448,192,227318,1,0,0:0:0:0:
320,192,227489,1,0,0:0:0:0:
192,192,227489,1,0,0:0:0:0:
64,192,227489,1,0,0:0:0:0:
192,192,227661,1,0,0:0:0:0:
448,192,227661,1,0,0:0:0:0:
320,192,227832,1,0,0:0:0:0:
64,192,227832,1,0,0:0:0:0:
192,192,228004,1,0,0:0:0:0:
320,192,228004,1,0,0:0:0:0:
448,192,228175,1,0,0:0:0:0:
64,192,228175,1,0,0:0:0:0:
320,192,228346,1,0,0:0:0:0:
64,192,228346,1,0,0:0:0:0:
192,192,228518,1,0,0:0:0:0:
448,192,228518,1,0,0:0:0:0:
320,192,228689,1,0,0:0:0:0:
192,192,228689,1,0,0:0:0:0:
320,192,228861,1,0,0:0:0:0:
64,192,228861,1,0,0:0:0:0:
192,192,229032,1,0,0:0:0:0:
64,192,229032,1,0,0:0:0:0:
320,192,229204,1,0,0:0:0:0:
448,192,229204,1,0,0:0:0:0:
64,192,229375,1,0,0:0:0:0:
448,192,229375,1,0,0:0:0:0:
320,192,229546,1,0,0:0:0:0:
64,192,229546,1,0,0:0:0:0:
192,192,229718,1,0,0:0:0:0:
320,192,229718,1,0,0:0:0:0:
448,192,229889,1,0,0:0:0:0:
192,192,229889,1,0,0:0:0:0:
448,192,230061,1,0,0:0:0:0:
64,192,230061,1,0,0:0:0:0:
320,192,230232,1,0,0:0:0:0:
64,192,230232,1,0,0:0:0:0:
192,192,230404,1,0,0:0:0:0:
320,192,230404,1,0,0:0:0:0:
448,192,230575,1,0,0:0:0:0:
64,192,230575,1,0,0:0:0:0:
64,192,230746,1,0,0:0:0:0:
320,192,230746,1,0,0:0:0:0:
448,192,230918,1,0,0:0:0:0:
192,192,230918,1,0,0:0:0:0:
448,192,231089,1,0,0:0:0:0:
64,192,231089,1,0,0:0:0:0:
320,192,231261,1,0,0:0:0:0:
192,192,231261,1,0,0:0:0:0:
192,192,231432,1,0,0:0:0:0:
448,192,231432,1,0,0:0:0:0:
320,192,231604,1,0,0:0:0:0:
64,192,231604,1,0,0:0:0:0:
320,192,231775,1,0,0:0:0:0:
192,192,231775,1,0,0:0:0:0:
64,192,231946,1,0,0:0:0:0:
448,192,231946,1,0,0:0:0:0:
320,192,232118,1,0,0:0:0:0:
192,192,232118,1,0,0:0:0:0:
64,192,232118,1,0,0:0:0:0:
192,192,232289,1,0,0:0:0:0:
320,192,232289,1,0,0:0:0:0:
448,192,232289,1,0,0:0:0:0:
192,192,232461,1,0,0:0:0:0:
64,192,232461,1,0,0:0:0:0:
448,192,232461,1,0,0:0:0:0:
64,192,232632,1,0,0:0:0:0:
320,192,232632,1,0,0:0:0:0:
192,192,232718,1,0,0:0:0:0:
448,192,232718,1,0,0:0:0:0:
320,192,232804,1,0,0:0:0:0:
64,192,232804,1,0,0:0:0:0:
192,192,232975,1,0,0:0:0:0:
64,192,232975,1,0,0:0:0:0:
320,192,232975,1,0,0:0:0:0:
448,192,232975,1,0,0:0:0:0:
320,192,233146,1,0,0:0:0:0:
192,192,233146,1,0,0:0:0:0:
64,192,233318,1,0,0:0:0:0:
320,192,233318,1,0,0:0:0:0:
192,192,233489,1,0,0:0:0:0:
320,192,233489,1,0,0:0:0:0:
448,192,233661,1,0,0:0:0:0:
192,192,233661,1,0,0:0:0:0:
448,192,233832,1,0,0:0:0:0:
64,192,233832,1,0,0:0:0:0:
320,192,234004,1,0,0:0:0:0:
192,192,234004,1,0,0:0:0:0:
64,192,234175,1,0,0:0:0:0:
320,192,234175,1,0,0:0:0:0:
192,192,234346,1,0,0:0:0:0:
448,192,234346,1,0,0:0:0:0:
320,192,234518,1,0,0:0:0:0:
192,192,234518,1,0,0:0:0:0:
448,192,234689,1,0,0:0:0:0:
64,192,234689,1,0,0:0:0:0:
320,192,234861,1,0,0:0:0:0:
192,192,234861,1,0,0:0:0:0:
64,192,235032,1,0,0:0:0:0:
320,192,235032,1,0,0:0:0:0:
448,192,235204,1,0,0:0:0:0:
64,192,235204,1,0,0:0:0:0:
192,192,235375,1,0,0:0:0:0:
448,192,235375,1,0,0:0:0:0:
320,192,235546,1,0,0:0:0:0:
192,192,235546,1,0,0:0:0:0:
64,192,235718,1,0,0:0:0:0:
448,192,235718,1,0,0:0:0:0:
320,192,235889,1,0,0:0:0:0:
64,192,235889,1,0,0:0:0:0:
192,192,236061,1,0,0:0:0:0:
448,192,236061,1,0,0:0:0:0:
448,192,236232,1,0,0:0:0:0:
64,192,236232,1,0,0:0:0:0:
320,192,236404,1,0,0:0:0:0:
192,192,236404,1,0,0:0:0:0:
192,192,236575,1,0,0:0:0:0:
448,192,236575,1,0,0:0:0:0:
320,192,236746,1,0,0:0:0:0:
64,192,236746,1,0,0:0:0:0:
192,192,236918,1,0,0:0:0:0:
320,192,236918,1,0,0:0:0:0:
64,192,237089,1,0,0:0:0:0:
448,192,237089,1,0,0:0:0:0:
320,192,237261,1,0,0:0:0:0:
64,192,237261,1,0,0:0:0:0:
192,192,237432,1,0,0:0:0:0:
448,192,237432,1,0,0:0:0:0:
320,192,237604,1,0,0:0:0:0:
448,192,237604,1,0,0:0:0:0:
64,192,237604,1,0,0:0:0:0:
192,192,237775,1,0,0:0:0:0:
64,192,237775,1,0,0:0:0:0:
448,192,237775,1,0,0:0:0:0:
320,192,237946,1,0,0:0:0:0:
448,192,237946,1,0,0:0:0:0:
192,192,237946,1,0,0:0:0:0:
64,192,238118,1,0,0:0:0:0:
320,192,238118,1,0,0:0:0:0:
192,192,238204,1,0,0:0:0:0:
448,192,238204,1,0,0:0:0:0:
320,192,238289,1,0,0:0:0:0:
64,192,238289,1,0,0:0:0:0:
448,192,238289,1,0,0:0:0:0:
448,192,238461,1,0,0:0:0:0:
320,192,238461,1,0,0:0:0:0:
192,192,238461,1,0,0:0:0:0:
64,192,238461,1,0,0:0:0:0:
192,192,238632,1,0,0:0:0:0:
448,192,238632,1,0,0:0:0:0:
64,192,238718,1,0,0:0:0:0:
192,192,238804,1,0,0:0:0:0:
320,192,238804,1,0,0:0:0:0:
448,192,238889,1,0,0:0:0:0:
320,192,238975,1,0,0:0:0:0:
64,192,238975,1,0,0:0:0:0:
192,192,239061,1,0,0:0:0:0:
64,192,239146,1,0,0:0:0:0:
448,192,239146,1,0,0:0:0:0:
320,192,239232,1,0,0:0:0:0:
192,192,239318,1,0,0:0:0:0:
448,192,239318,1,0,0:0:0:0:
64,192,239404,1,0,0:0:0:0:
192,192,239489,1,0,0:0:0:0:
320,192,239489,1,0,0:0:0:0:
448,192,239575,1,0,0:0:0:0:
320,192,239661,1,0,0:0:0:0:
64,192,239661,1,0,0:0:0:0:
192,192,239746,1,0,0:0:0:0:
448,192,239832,1,0,0:0:0:0:
64,192,239832,1,0,0:0:0:0:
320,192,239918,1,0,0:0:0:0:
64,192,240004,1,0,0:0:0:0:
448,192,240004,1,0,0:0:0:0:
320,192,240175,1,0,0:0:0:0:
192,192,240175,1,0,0:0:0:0:
64,192,240346,1,0,0:0:0:0:
320,192,240346,1,0,0:0:0:0:
192,192,240518,1,0,0:0:0:0:
320,192,240518,1,0,0:0:0:0:
448,192,240689,1,0,0:0:0:0:
192,192,240689,1,0,0:0:0:0:
448,192,240861,1,0,0:0:0:0:
64,192,240861,1,0,0:0:0:0:
320,192,241032,1,0,0:0:0:0:
64,192,241032,1,0,0:0:0:0:
192,192,241204,1,0,0:0:0:0:
448,192,241204,1,0,0:0:0:0:
320,192,241375,1,0,0:0:0:0:
192,192,241375,1,0,0:0:0:0:
64,192,241546,1,0,0:0:0:0:
448,192,241546,1,0,0:0:0:0:
448,192,241718,1,0,0:0:0:0:
192,192,241718,1,0,0:0:0:0:
320,192,241889,1,0,0:0:0:0:
64,192,241889,1,0,0:0:0:0:
64,192,242061,1,0,0:0:0:0:
448,192,242061,1,0,0:0:0:0:
320,192,242232,1,0,0:0:0:0:
192,192,242232,1,0,0:0:0:0:
320,192,242404,1,0,0:0:0:0:
64,192,242404,1,0,0:0:0:0:
192,192,242575,1,0,0:0:0:0:
448,192,242575,1,0,0:0:0:0:
448,192,242746,1,0,0:0:0:0:
64,192,242746,1,0,0:0:0:0:
320,192,242918,1,0,0:0:0:0:
192,192,242918,1,0,0:0:0:0:
320,192,243089,1,0,0:0:0:0:
192,192,243089,1,0,0:0:0:0:
64,192,243089,1,0,0:0:0:0:
320,192,243261,1,0,0:0:0:0:
448,192,243261,1,0,0:0:0:0:
192,192,243261,1,0,0:0:0:0:
320,192,243432,1,0,0:0:0:0:
448,192,243432,1,0,0:0:0:0:
64,192,243432,1,0,0:0:0:0:
192,192,243604,1,0,0:0:0:0:
448,192,243604,1,0,0:0:0:0:
320,192,243689,1,0,0:0:0:0:
64,192,243689,1,0,0:0:0:0:
192,192,243775,1,0,0:0:0:0:
448,192,243775,1,0,0:0:0:0:
448,192,243946,1,0,0:0:0:0:
320,192,243946,1,0,0:0:0:0:
192,192,243946,1,0,0:0:0:0:
64,192,243946,1,0,0:0:0:0:
64,192,244118,1,0,0:0:0:0:
320,192,244118,1,0,0:0:0:0:
192,192,244289,1,0,0:0:0:0:
320,192,244289,1,0,0:0:0:0:
448,192,244461,1,0,0:0:0:0:
192,192,244461,1,0,0:0:0:0:
64,192,244632,1,0,0:0:0:0:
448,192,244632,1,0,0:0:0:0:
320,192,244804,1,0,0:0:0:0:
192,192,244804,1,0,0:0:0:0:
64,192,244975,1,0,0:0:0:0:
320,192,244975,1,0,0:0:0:0:
64,192,245146,1,0,0:0:0:0:
448,192,245146,1,0,0:0:0:0:
448,192,245318,1,0,0:0:0:0:
192,192,245318,1,0,0:0:0:0:
320,192,245489,1,0,0:0:0:0:
64,192,245489,1,0,0:0:0:0:
192,192,245661,1,0,0:0:0:0:
448,192,245661,1,0,0:0:0:0:
320,192,245832,1,0,0:0:0:0:
192,192,245832,1,0,0:0:0:0:
64,192,246004,1,0,0:0:0:0:
448,192,246004,1,0,0:0:0:0:
448,192,246175,1,0,0:0:0:0:
192,192,246175,1,0,0:0:0:0:
320,192,246346,1,0,0:0:0:0:
192,192,246346,1,0,0:0:0:0:
64,192,246518,1,0,0:0:0:0:
320,192,246518,1,0,0:0:0:0:
64,192,246689,1,0,0:0:0:0:
448,192,246689,1,0,0:0:0:0:
320,192,246861,1,0,0:0:0:0:
192,192,246861,1,0,0:0:0:0:
64,192,247032,1,0,0:0:0:0:
448,192,247032,1,0,0:0:0:0:
320,192,247204,1,0,0:0:0:0:
64,192,247204,1,0,0:0:0:0:
192,192,247375,1,0,0:0:0:0:
448,192,247375,1,0,0:0:0:0:
448,192,247546,1,0,0:0:0:0:
64,192,247546,1,0,0:0:0:0:
320,192,247718,1,0,0:0:0:0:
192,192,247718,1,0,0:0:0:0:
192,192,247889,1,0,0:0:0:0:
448,192,247889,1,0,0:0:0:0:
320,192,248061,1,0,0:0:0:0:
64,192,248061,1,0,0:0:0:0:
64,192,248232,1,0,0:0:0:0:
448,192,248232,1,0,0:0:0:0:
320,192,248404,1,0,0:0:0:0:
192,192,248404,1,0,0:0:0:0:
192,192,248575,1,0,0:0:0:0:
64,192,248575,1,0,0:0:0:0:
448,192,248575,1,0,0:0:0:0:
320,192,248746,1,0,0:0:0:0:
448,192,248746,1,0,0:0:0:0:
64,192,248746,1,0,0:0:0:0:
192,192,248918,1,0,0:0:0:0:
64,192,248918,1,0,0:0:0:0:
320,192,248918,1,0,0:0:0:0:
448,192,249089,1,0,0:0:0:0:
192,192,249089,1,0,0:0:0:0:
64,192,249175,1,0,0:0:0:0:
320,192,249175,1,0,0:0:0:0:
192,192,249261,1,0,0:0:0:0:
64,192,249261,1,0,0:0:0:0:
448,192,249261,1,0,0:0:0:0:
448,192,249432,1,0,0:0:0:0:
320,192,249432,1,0,0:0:0:0:
64,192,249432,1,0,0:0:0:0:
192,192,249432,1,0,0:0:0:0:
64,192,249604,1,0,0:0:0:0:
448,192,249604,128,0,249861:0:0:0:0:
192,192,249775,1,0,0:0:0:0:
320,192,249861,128,0,250118:0:0:0:0:
192,192,249946,1,0,0:0:0:0:
64,192,249946,1,0,0:0:0:0:
192,192,250118,128,0,251661:0:0:0:0:
64,192,250289,1,0,0:0:0:0:
448,192,250289,1,0,0:0:0:0:
320,192,250461,1,0,0:0:0:0:
64,192,250632,1,0,0:0:0:0:
320,192,250632,1,0,0:0:0:0:
448,192,250804,1,0,0:0:0:0:
320,192,250975,1,0,0:0:0:0:
448,192,250975,1,0,0:0:0:0:
64,192,251146,1,0,0:0:0:0:
64,192,251318,1,0,0:0:0:0:
448,192,251318,1,0,0:0:0:0:
320,192,251489,1,0,0:0:0:0:
64,192,251661,1,0,0:0:0:0:
448,192,251661,1,0,0:0:0:0:
320,192,251832,1,0,0:0:0:0:
192,192,252004,1,0,0:0:0:0:
448,192,252004,1,0,0:0:0:0:
320,192,252175,1,0,0:0:0:0:
64,192,252346,128,0,252604:0:0:0:0:
448,192,252346,1,0,0:0:0:0:
320,192,252518,1,0,0:0:0:0:
192,192,252604,128,0,252946:0:0:0:0:
320,192,252689,1,0,0:0:0:0:
448,192,252689,1,0,0:0:0:0:
448,192,252946,128,0,253204:0:0:0:0:
192,192,253032,1,0,0:0:0:0:
64,192,253032,1,0,0:0:0:0:
320,192,253204,128,0,254746:0:0:0:0:
64,192,253375,1,0,0:0:0:0:
448,192,253375,1,0,0:0:0:0:
192,192,253546,1,0,0:0:0:0:
448,192,253718,1,0,0:0:0:0:
192,192,253718,1,0,0:0:0:0:
64,192,253889,1,0,0:0:0:0:
192,192,254061,1,0,0:0:0:0:
64,192,254061,1,0,0:0:0:0:
448,192,254232,1,0,0:0:0:0:
448,192,254404,1,0,0:0:0:0:
64,192,254404,1,0,0:0:0:0:
192,192,254575,1,0,0:0:0:0:
64,192,254661,1,0,0:0:0:0:
192,192,254746,1,0,0:0:0:0:
448,192,254746,1,0,0:0:0:0:
64,192,254918,1,0,0:0:0:0:
320,192,255089,128,0,255346:0:0:0:0:
192,192,255089,1,0,0:0:0:0:
448,192,255261,1,0,0:0:0:0:
64,192,255346,128,0,255604:0:0:0:0:
320,192,255432,1,0,0:0:0:0:
448,192,255432,1,0,0:0:0:0:
192,192,255604,128,0,256032:0:0:0:0:
64,192,255775,1,0,0:0:0:0:
448,192,255775,1,0,0:0:0:0:
320,192,255946,1,0,0:0:0:0:
64,192,256032,128,0,256375:0:0:0:0:
448,192,256118,1,0,0:0:0:0:
192,192,256118,1,0,0:0:0:0:
320,192,256289,1,0,0:0:0:0:
448,192,256375,128,0,256632:0:0:0:0:
192,192,256461,1,0,0:0:0:0:
64,192,256461,1,0,0:0:0:0:
320,192,256632,128,0,256975:0:0:0:0:
64,192,256804,1,0,0:0:0:0:
448,192,256804,1,0,0:0:0:0:
192,192,256975,128,0,257489:0:0:0:0:
448,192,257146,1,0,0:0:0:0:
64,192,257146,1,0,0:0:0:0:
320,192,257318,1,0,0:0:0:0:
448,192,257489,1,0,0:0:0:0:
64,192,257489,1,0,0:0:0:0:
64,192,257661,128,0,257832:0:0:0:0:
320,192,257832,128,0,258175:0:0:0:0:
192,192,257832,1,0,0:0:0:0:
448,192,258004,1,0,0:0:0:0:
448,192,258175,1,0,0:0:0:0:
64,192,258175,1,0,0:0:0:0:
192,192,258346,128,0,258861:0:0:0:0:
64,192,258518,1,0,0:0:0:0:
320,192,258518,1,0,0:0:0:0:
448,192,258689,1,0,0:0:0:0:
320,192,258861,128,0,259032:0:0:0:0:
64,192,258861,1,0,0:0:0:0:
448,192,259032,128,0,259804:0:0:0:0:
192,192,259204,1,0,0:0:0:0:
64,192,259204,1,0,0:0:0:0:
320,192,259375,1,0,0:0:0:0:
320,192,259546,1,0,0:0:0:0:
64,192,259546,1,0,0:0:0:0:
192,192,259718,1,0,0:0:0:0:
64,192,259804,128,0,260575:0:0:0:0:
192,192,259889,1,0,0:0:0:0:
320,192,259889,1,0,0:0:0:0:
448,192,260061,1,0,0:0:0:0:
192,192,260232,1,0,0:0:0:0:
448,192,260232,1,0,0:0:0:0:
320,192,260404,1,0,0:0:0:0:
192,192,260575,1,0,0:0:0:0:
320,192,260575,1,0,0:0:0:0:
448,192,260661,1,0,0:0:0:0:
64,192,260746,1,0,0:0:0:0:
192,192,260832,1,0,0:0:0:0:
320,192,260918,1,0,0:0:0:0:
64,192,260918,1,0,0:0:0:0:
448,192,261004,1,0,0:0:0:0:
320,192,261089,1,0,0:0:0:0:
192,192,261175,1,0,0:0:0:0:
64,192,261261,1,0,0:0:0:0:
448,192,261261,1,0,0:0:0:0:
320,192,261346,1,0,0:0:0:0:
64,192,261432,1,0,0:0:0:0:
192,192,261518,1,0,0:0:0:0:
320,192,261604,1,0,0:0:0:0:
64,192,261604,1,0,0:0:0:0:
448,192,261689,1,0,0:0:0:0:
192,192,261775,1,0,0:0:0:0:
320,192,261861,1,0,0:0:0:0:
448,192,261946,1,0,0:0:0:0:
64,192,261946,1,0,0:0:0:0:
192,192,262032,1,0,0:0:0:0:
64,192,262118,1,0,0:0:0:0:
448,192,262204,1,0,0:0:0:0:
320,192,262289,1,0,0:0:0:0:
192,192,262289,1,0,0:0:0:0:
64,192,262375,1,0,0:0:0:0:
448,192,262461,1,0,0:0:0:0:
320,192,262546,1,0,0:0:0:0:
64,192,262632,1,0,0:0:0:0:
448,192,262632,1,0,0:0:0:0:
192,192,262718,1,0,0:0:0:0:
320,192,262804,1,0,0:0:0:0:
448,192,262889,1,0,0:0:0:0:
320,192,262975,1,0,0:0:0:0:
64,192,262975,1,0,0:0:0:0:
192,192,263061,1,0,0:0:0:0:
64,192,263146,1,0,0:0:0:0:
448,192,263232,1,0,0:0:0:0:
320,192,263318,1,0,0:0:0:0:
64,192,263318,1,0,0:0:0:0:
192,192,263404,1,0,0:0:0:0:
320,192,263489,1,0,0:0:0:0:
448,192,263575,1,0,0:0:0:0:
320,192,263661,1,0,0:0:0:0:
192,192,263661,1,0,0:0:0:0:
64,192,263746,1,0,0:0:0:0:
448,192,263832,1,0,0:0:0:0:
320,192,263918,1,0,0:0:0:0:
192,192,264004,1,0,0:0:0:0:
448,192,264004,1,0,0:0:0:0:
64,192,264089,1,0,0:0:0:0:
320,192,264175,1,0,0:0:0:0:
192,192,264261,1,0,0:0:0:0:
64,192,264346,1,0,0:0:0:0:
448,192,264346,1,0,0:0:0:0:
320,192,264432,1,0,0:0:0:0:
192,192,264518,1,0,0:0:0:0:
64,192,264604,1,0,0:0:0:0:
192,192,264689,1,0,0:0:0:0:
320,192,264689,1,0,0:0:0:0:
448,192,264775,1,0,0:0:0:0:
64,192,264861,1,0,0:0:0:0:
192,192,264946,1,0,0:0:0:0:
320,192,265032,1,0,0:0:0:0:
64,192,265032,1,0,0:0:0:0:
448,192,265118,1,0,0:0:0:0:
192,192,265204,1,0,0:0:0:0:
320,192,265289,1,0,0:0:0:0:
64,192,265375,1,0,0:0:0:0:
448,192,265375,1,0,0:0:0:0:
192,192,265461,1,0,0:0:0:0:
320,192,265546,1,0,0:0:0:0:
448,192,265632,1,0,0:0:0:0:
320,192,265718,1,0,0:0:0:0:
64,192,265718,1,0,0:0:0:0:
192,192,265804,1,0,0:0:0:0:
64,192,265889,1,0,0:0:0:0:
448,192,265975,1,0,0:0:0:0:
320,192,266061,1,0,0:0:0:0:
192,192,266061,1,0,0:0:0:0:
64,192,266146,1,0,0:0:0:0:
448,192,266232,1,0,0:0:0:0:
320,192,266318,1,0,0:0:0:0:
192,192,266404,1,0,0:0:0:0:
448,192,266404,1,0,0:0:0:0:
64,192,266489,1,0,0:0:0:0:
192,192,266575,1,0,0:0:0:0:
320,192,266661,1,0,0:0:0:0:
448,192,266746,1,0,0:0:0:0:
64,192,266746,1,0,0:0:0:0:
320,192,266832,1,0,0:0:0:0:
192,192,266918,1,0,0:0:0:0:
64,192,267004,1,0,0:0:0:0:
192,192,267089,1,0,0:0:0:0:
448,192,267089,1,0,0:0:0:0:
320,192,267175,1,0,0:0:0:0:
192,192,267261,1,0,0:0:0:0:
64,192,267346,1,0,0:0:0:0:
192,192,267432,1,0,0:0:0:0:
320,192,267432,1,0,0:0:0:0:
448,192,267518,1,0,0:0:0:0:
320,192,267604,1,0,0:0:0:0:
64,192,267689,1,0,0:0:0:0:
192,192,267775,1,0,0:0:0:0:
448,192,267775,1,0,0:0:0:0:
320,192,267861,1,0,0:0:0:0:
192,192,267946,1,0,0:0:0:0:
64,192,268032,1,0,0:0:0:0:
192,192,268118,1,0,0:0:0:0:
448,192,268118,1,0,0:0:0:0:
320,192,268204,1,0,0:0:0:0:
448,192,268289,1,0,0:0:0:0:
192,192,268375,1,0,0:0:0:0:
64,192,268461,1,0,0:0:0:0:
448,192,268461,1,0,0:0:0:0:
192,192,268546,1,0,0:0:0:0:
320,192,268632,1,0,0:0:0:0:
448,192,268718,1,0,0:0:0:0:
64,192,268804,1,0,0:0:0:0:
192,192,268804,1,0,0:0:0:0:
320,192,268889,1,0,0:0:0:0:
448,192,268975,1,0,0:0:0:0:
64,192,269061,1,0,0:0:0:0:
192,192,269146,1,0,0:0:0:0:
320,192,269146,1,0,0:0:0:0:
448,192,269232,1,0,0:0:0:0:
64,192,269318,1,0,0:0:0:0:
192,192,269404,1,0,0:0:0:0:
320,192,269489,1,0,0:0:0:0:
448,192,269489,1,0,0:0:0:0:
192,192,269575,1,0,0:0:0:0:
64,192,269661,1,0,0:0:0:0:
448,192,269746,1,0,0:0:0:0:
320,192,269832,1,0,0:0:0:0:
192,192,269832,1,0,0:0:0:0:
64,192,269918,1,0,0:0:0:0:
448,192,270004,1,0,0:0:0:0:
320,192,270089,1,0,0:0:0:0:
192,192,270175,1,0,0:0:0:0:
64,192,270175,1,0,0:0:0:0:
320,192,270261,1,0,0:0:0:0:
448,192,270346,1,0,0:0:0:0:
64,192,270432,1,0,0:0:0:0:
192,192,270518,1,0,0:0:0:0:
320,192,270518,1,0,0:0:0:0:
448,192,270604,1,0,0:0:0:0:
64,192,270689,1,0,0:0:0:0:
192,192,270775,1,0,0:0:0:0:
320,192,270861,1,0,0:0:0:0:
448,192,270861,1,0,0:0:0:0:
192,192,270946,1,0,0:0:0:0:
64,192,271032,1,0,0:0:0:0:
448,192,271118,1,0,0:0:0:0:
320,192,271204,1,0,0:0:0:0:
192,192,271204,1,0,0:0:0:0:
64,192,271289,1,0,0:0:0:0:
448,192,271375,1,0,0:0:0:0:
320,192,271461,1,0,0:0:0:0:
64,192,271546,1,0,0:0:0:0:
448,192,271546,1,0,0:0:0:0:
192,192,271718,1,0,0:0:0:0:
320,192,271889,1,0,0:0:0:0:
64,192,272061,1,0,0:0:0:0:
192,192,272404,1,0,0:0:0:0:
320,192,272575,1,0,0:0:0:0:
448,192,272746,1,0,0:0:0:0:
64,192,273089,1,0,0:0:0:0:
192,192,273432,1,0,0:0:0:0:
320,192,273604,1,0,0:0:0:0:
64,192,273775,1,0,0:0:0:0:
448,192,273946,1,0,0:0:0:0:
192,192,274118,1,0,0:0:0:0:
