osu file format v14

[General]
AudioFilename: audio.ogg
AudioLeadIn: 0
PreviewTime: 83980
Countdown: 0
SampleSet: Soft
StackLeniency: 0.7
Mode: 3
LetterboxInBreaks: 0
SpecialStyle: 0
WidescreenStoryboard: 1

[Editor]
DistanceSpacing: 0.5
BeatDivisor: 6
GridSize: 4
TimelineZoom: 2.150001

[Metadata]
Title:SUPER * HARAGURO * POP
TitleUnicode:SUPER☆HARAGURO☆POP
Artist:Zekk
ArtistUnicode:Zekk
Creator:Lami-
Version:Murumoo's Magical Dream
Source:CHRONO CIRCLE
Tags:FAMoss _Asha Murumoo Denyi -Ming- video game instrumental electronic super haraguro pop 腹黒
BeatmapID:3593330
BeatmapSetID:1721103

[Difficulty]
HPDrainRate:8.5
CircleSize:4
OverallDifficulty:8.5
ApproachRate:5
SliderMultiplier:1.4
SliderTickRate:1

[Events]
//Background and Video events
0,0,"FMb5OLragA0ccOz.jpg",0,0
Video,877,"bga.mp4"
//Break Periods
//Storyboard Layer 0 (Background)
//Storyboard Layer 1 (Fail)
//Storyboard Layer 2 (Pass)
//Storyboard Layer 3 (Foreground)
//Storyboard Layer 4 (Overlay)
//Storyboard Sound Samples

[TimingPoints]
1480,375,4,2,1,70,1,0
85855,-100,4,2,1,70,0,1
109480,-100,4,2,1,50,0,0

[HitObjects]
64,192,355,128,0,1386:0:0:0:0:
448,192,730,128,0,1386:0:0:0:0:
320,192,1105,128,0,1386:0:0:0:0:
64,192,1480,1,2,0:0:0:0:
192,192,1480,1,4,0:0:0:0:
320,192,1480,1,0,0:0:0:0:
448,192,1480,1,0,0:0:0:0:
320,192,1667,1,0,0:0:0:0:
64,192,1855,1,0,0:0:0:0:
192,192,1855,1,0,0:0:0:0:
448,192,1948,1,0,0:0:0:0:
320,192,2042,1,0,0:0:0:0:
64,192,2136,1,0,0:0:0:0:
192,192,2136,1,0,0:0:0:0:
320,192,2230,1,0,0:0:0:0:
448,192,2230,1,0,0:0:0:0:
64,192,2417,1,0,0:0:0:0:
448,192,2417,1,0,0:0:0:0:
192,192,2511,1,0,0:0:0:0:
320,192,2511,1,0,0:0:0:0:
64,192,2605,1,0,0:0:0:0:
448,192,2605,1,0,0:0:0:0:
64,192,2792,1,0,0:0:0:0:
320,192,2792,1,0,0:0:0:0:
192,192,2886,1,0,0:0:0:0:
320,192,2980,1,0,0:0:0:0:
448,192,2980,1,0,0:0:0:0:
64,192,3073,1,0,0:0:0:0:
192,192,3167,1,0,0:0:0:0:
320,192,3167,1,0,0:0:0:0:
448,192,3261,1,0,0:0:0:0:
64,192,3355,1,0,0:0:0:0:
192,192,3355,1,0,0:0:0:0:
448,192,3448,1,0,0:0:0:0:
64,192,3542,1,0,0:0:0:0:
320,192,3542,1,0,0:0:0:0:
192,192,3636,1,0,0:0:0:0:
320,192,3730,1,0,0:0:0:0:
448,192,3730,1,0,0:0:0:0:
64,192,3823,1,0,0:0:0:0:
192,192,3917,1,0,0:0:0:0:
320,192,3917,1,0,0:0:0:0:
448,192,4011,1,0,0:0:0:0:
64,192,4105,1,0,0:0:0:0:
320,192,4105,1,0,0:0:0:0:
192,192,4198,1,0,0:0:0:0:
320,192,4292,1,0,0:0:0:0:
448,192,4292,1,0,0:0:0:0:
64,192,4386,1,0,0:0:0:0:
192,192,4386,1,0,0:0:0:0:
320,192,4480,1,0,0:0:0:0:
448,192,4480,1,0,0:0:0:0:
192,192,4667,1,0,0:0:0:0:
320,192,4855,1,0,0:0:0:0:
448,192,4855,1,0,0:0:0:0:
64,192,4948,1,0,0:0:0:0:
192,192,5042,1,0,0:0:0:0:
320,192,5136,1,0,0:0:0:0:
448,192,5136,1,0,0:0:0:0:
64,192,5230,1,0,0:0:0:0:
192,192,5230,1,0,0:0:0:0:
64,192,5417,1,0,0:0:0:0:
448,192,5417,1,0,0:0:0:0:
192,192,5511,1,0,0:0:0:0:
320,192,5511,1,0,0:0:0:0:
64,192,5605,1,0,0:0:0:0:
448,192,5605,1,0,0:0:0:0:
192,192,5792,1,0,0:0:0:0:
448,192,5792,1,0,0:0:0:0:
320,192,5886,1,0,0:0:0:0:
64,192,5980,1,0,0:0:0:0:
192,192,5980,1,0,0:0:0:0:
448,192,6073,1,0,0:0:0:0:
192,192,6167,1,0,0:0:0:0:
320,192,6167,1,0,0:0:0:0:
64,192,6261,1,0,0:0:0:0:
320,192,6355,1,0,0:0:0:0:
448,192,6355,1,0,0:0:0:0:
64,192,6448,1,0,0:0:0:0:
192,192,6542,1,0,0:0:0:0:
448,192,6542,1,0,0:0:0:0:
320,192,6636,1,0,0:0:0:0:
64,192,6730,1,0,0:0:0:0:
192,192,6730,1,0,0:0:0:0:
448,192,6823,1,0,0:0:0:0:
192,192,6917,1,0,0:0:0:0:
320,192,6917,1,0,0:0:0:0:
64,192,7011,1,0,0:0:0:0:
320,192,7105,1,0,0:0:0:0:
448,192,7105,1,0,0:0:0:0:
192,192,7198,1,0,0:0:0:0:
64,192,7292,1,0,0:0:0:0:
448,192,7292,1,0,0:0:0:0:
320,192,7386,1,0,0:0:0:0:
64,192,7480,1,2,0:0:0:0:
192,192,7480,1,0,0:0:0:0:
448,192,7480,1,0,0:0:0:0:
192,192,7667,1,0,0:0:0:0:
320,192,7855,1,0,0:0:0:0:
448,192,7855,1,0,0:0:0:0:
64,192,7948,1,0,0:0:0:0:
192,192,8042,1,0,0:0:0:0:
320,192,8136,1,0,0:0:0:0:
448,192,8136,1,0,0:0:0:0:
64,192,8230,1,0,0:0:0:0:
192,192,8230,1,0,0:0:0:0:
64,192,8417,1,0,0:0:0:0:
448,192,8417,1,0,0:0:0:0:
192,192,8511,1,0,0:0:0:0:
320,192,8511,1,0,0:0:0:0:
64,192,8605,1,0,0:0:0:0:
448,192,8605,1,0,0:0:0:0:
192,192,8792,1,0,0:0:0:0:
448,192,8792,1,0,0:0:0:0:
320,192,8886,1,0,0:0:0:0:
64,192,8980,1,0,0:0:0:0:
192,192,8980,1,0,0:0:0:0:
448,192,9073,1,0,0:0:0:0:
192,192,9167,1,0,0:0:0:0:
320,192,9167,1,0,0:0:0:0:
64,192,9261,1,0,0:0:0:0:
320,192,9355,1,0,0:0:0:0:
448,192,9355,1,0,0:0:0:0:
64,192,9448,1,0,0:0:0:0:
192,192,9542,1,0,0:0:0:0:
448,192,9542,1,0,0:0:0:0:
320,192,9636,1,0,0:0:0:0:
64,192,9730,1,0,0:0:0:0:
192,192,9730,1,0,0:0:0:0:
448,192,9823,1,0,0:0:0:0:
192,192,9917,1,0,0:0:0:0:
320,192,9917,1,0,0:0:0:0:
64,192,10011,1,0,0:0:0:0:
192,192,10105,1,0,0:0:0:0:
448,192,10105,1,0,0:0:0:0:
320,192,10198,1,0,0:0:0:0:
64,192,10292,1,0,0:0:0:0:
192,192,10292,1,0,0:0:0:0:
320,192,10386,1,0,0:0:0:0:
448,192,10386,1,0,0:0:0:0:
64,192,10480,1,0,0:0:0:0:
192,192,10480,1,0,0:0:0:0:
320,192,10667,1,0,0:0:0:0:
64,192,10855,1,0,0:0:0:0:
192,192,10855,1,0,0:0:0:0:
448,192,10948,1,0,0:0:0:0:
320,192,11042,1,0,0:0:0:0:
64,192,11136,1,0,0:0:0:0:
192,192,11136,1,0,0:0:0:0:
320,192,11230,1,0,0:0:0:0:
448,192,11230,1,0,0:0:0:0:
64,192,11323,1,0,0:0:0:0:
192,192,11323,1,0,0:0:0:0:
448,192,11417,1,0,0:0:0:0:
192,192,11511,1,0,0:0:0:0:
320,192,11511,1,0,0:0:0:0:
64,192,11605,1,0,0:0:0:0:
448,192,11605,1,0,0:0:0:0:
192,192,11698,1,0,0:0:0:0:
64,192,11792,1,0,0:0:0:0:
448,192,11792,1,0,0:0:0:0:
320,192,11886,1,0,0:0:0:0:
64,192,11980,1,2,0:0:0:0:
192,192,11980,1,0,0:0:0:0:
320,192,12073,1,0,0:0:0:0:
192,192,12167,1,0,0:0:0:70:tom02.wav
320,192,12214,1,0,0:0:0:0:
448,192,12261,1,0,0:0:0:70:tom03.wav
64,192,12355,1,0,0:0:0:70:tom04.wav
192,192,12355,1,0,0:0:0:0:
320,192,12448,1,0,0:0:0:70:tom01.wav
448,192,12448,1,0,0:0:0:0:
64,192,12636,1,0,0:0:0:70:tom02.wav
192,192,12636,1,0,0:0:0:0:
448,192,12730,1,0,0:0:0:0:
320,192,12776,1,0,0:0:0:0:
192,192,12823,1,0,0:0:0:0:
64,192,12870,1,0,0:0:0:0:
448,192,12917,1,0,0:0:0:0:
320,192,12964,1,0,0:0:0:0:
64,192,13011,1,0,0:0:0:0:
192,192,13058,1,0,0:0:0:0:
320,192,13105,1,0,0:0:0:70:Clap Hand.wav
448,192,13151,1,0,0:0:0:0:
64,192,13198,1,0,0:0:0:0:
192,192,13245,1,0,0:0:0:0:
448,192,13292,1,0,0:0:0:0:
320,192,13339,1,0,0:0:0:0:
192,192,13386,1,0,0:0:0:0:
64,192,13433,1,0,0:0:0:0:
320,192,13480,1,2,0:0:0:0:
448,192,13480,1,4,0:0:0:0:
192,192,13667,1,0,0:0:0:0:
320,192,13761,1,0,0:0:0:0:
64,192,13855,1,0,0:0:0:70:Clap Hand.wav
192,192,13855,1,0,0:0:0:0:
448,192,13948,1,0,0:0:0:0:
64,192,14042,1,0,0:0:0:0:
320,192,14042,1,0,0:0:0:0:
192,192,14136,1,0,0:0:0:0:
448,192,14136,1,0,0:0:0:0:
64,192,14230,1,0,0:0:0:70:Clap Hand.wav
320,192,14230,1,0,0:0:0:0:
192,192,14417,1,0,0:0:0:0:
448,192,14417,1,0,0:0:0:0:
320,192,14511,1,0,0:0:0:0:
64,192,14605,1,0,0:0:0:70:Clap Hand.wav
448,192,14605,1,0,0:0:0:0:
192,192,14698,1,0,0:0:0:0:
64,192,14792,1,0,0:0:0:0:
320,192,14792,1,0,0:0:0:0:
192,192,14886,1,0,0:0:0:0:
64,192,14980,1,0,0:0:0:70:Clap Hand.wav
448,192,14980,1,0,0:0:0:0:
320,192,15073,1,0,0:0:0:0:
192,192,15167,1,0,0:0:0:0:
448,192,15167,1,0,0:0:0:0:
64,192,15355,1,0,0:0:0:70:Clap Hand.wav
192,192,15355,1,0,0:0:0:0:
320,192,15448,1,0,0:0:0:0:
64,192,15542,1,0,0:0:0:0:
448,192,15542,1,0,0:0:0:0:
192,192,15636,1,0,0:0:0:0:
320,192,15636,1,0,0:0:0:0:
64,192,15730,1,0,0:0:0:70:Clap Hand.wav
448,192,15730,1,0,0:0:0:0:
320,192,15917,1,0,0:0:0:0:
448,192,15917,1,0,0:0:0:0:
192,192,16011,1,0,0:0:0:0:
64,192,16105,1,0,0:0:0:70:Clap Hand.wav
448,192,16105,1,0,0:0:0:0:
320,192,16198,1,0,0:0:0:0:
192,192,16292,1,0,0:0:0:0:
448,192,16292,1,0,0:0:0:0:
64,192,16386,1,0,0:0:0:0:
192,192,16480,1,0,0:0:0:70:Clap Hand.wav
320,192,16480,1,0,0:0:0:0:
448,192,16573,1,0,0:0:0:0:
64,192,16667,1,0,0:0:0:0:
64,192,16855,1,0,0:0:0:70:Clap Hand.wav
448,192,16855,1,0,0:0:0:0:
320,192,16948,1,0,0:0:0:0:
192,192,17042,1,0,0:0:0:0:
448,192,17042,1,0,0:0:0:0:
64,192,17136,1,0,0:0:0:0:
320,192,17136,1,0,0:0:0:0:
192,192,17230,1,0,0:0:0:70:Clap Hand.wav
448,192,17230,1,0,0:0:0:0:
64,192,17417,1,0,0:0:0:0:
320,192,17417,1,0,0:0:0:0:
192,192,17511,1,0,0:0:0:0:
320,192,17605,1,0,0:0:0:70:Clap Hand.wav
448,192,17605,1,0,0:0:0:0:
64,192,17698,1,0,0:0:0:0:
192,192,17792,1,0,0:0:0:0:
320,192,17792,1,0,0:0:0:0:
448,192,17886,1,0,0:0:0:0:
64,192,17980,1,0,0:0:0:70:Clap Hand.wav
192,192,17980,1,0,0:0:0:0:
192,192,18167,1,0,0:0:0:0:
320,192,18167,1,0,0:0:0:0:
320,192,18355,1,0,0:0:0:70:Clap Hand.wav
448,192,18355,1,0,0:0:0:0:
192,192,18448,1,0,0:0:0:0:
64,192,18542,1,0,0:0:0:0:
448,192,18542,1,0,0:0:0:0:
192,192,18636,1,0,0:0:0:0:
320,192,18636,1,0,0:0:0:0:
64,192,18730,1,0,0:0:0:70:Clap Hand.wav
448,192,18730,1,0,0:0:0:0:
64,192,18917,1,0,0:0:0:0:
320,192,18917,1,0,0:0:0:0:
192,192,19011,1,0,0:0:0:0:
320,192,19105,1,0,0:0:0:70:Clap Hand.wav
448,192,19105,1,0,0:0:0:0:
64,192,19198,1,0,0:0:0:0:
192,192,19292,1,0,0:0:0:0:
448,192,19292,1,0,0:0:0:0:
320,192,19386,1,0,0:0:0:0:
64,192,19480,1,2,0:0:0:0:
192,192,19480,1,4,0:0:0:0:
448,192,19480,1,0,0:0:0:0:
320,192,19667,1,0,0:0:0:0:
192,192,19761,1,0,0:0:0:0:
64,192,19855,1,0,0:0:0:70:Clap Hand.wav
448,192,19855,1,0,0:0:0:0:
192,192,19948,1,0,0:0:0:0:
320,192,20042,1,0,0:0:0:0:
448,192,20042,1,0,0:0:0:0:
64,192,20136,1,0,0:0:0:0:
192,192,20136,1,0,0:0:0:0:
320,192,20230,1,0,0:0:0:70:Clap Hand.wav
448,192,20230,1,0,0:0:0:0:
64,192,20417,1,0,0:0:0:0:
320,192,20417,1,0,0:0:0:0:
192,192,20605,1,0,0:0:0:70:Clap Hand.wav
448,192,20605,1,0,0:0:0:0:
320,192,20698,1,0,0:0:0:0:
64,192,20792,1,0,0:0:0:0:
192,192,20792,1,0,0:0:0:0:
448,192,20886,1,0,0:0:0:0:
64,192,20980,1,0,0:0:0:70:Clap Hand.wav
320,192,20980,1,0,0:0:0:0:
64,192,21167,1,0,0:0:0:0:
448,192,21167,1,0,0:0:0:0:
192,192,21355,1,0,0:0:0:70:Clap Hand.wav
448,192,21355,1,0,0:0:0:0:
320,192,21448,1,0,0:0:0:0:
64,192,21542,1,0,0:0:0:0:
192,192,21542,1,0,0:0:0:0:
320,192,21636,1,0,0:0:0:0:
448,192,21636,1,0,0:0:0:0:
64,192,21730,1,0,0:0:0:70:Clap Hand.wav
192,192,21730,1,0,0:0:0:0:
192,192,21917,1,0,0:0:0:0:
320,192,21917,1,0,0:0:0:0:
64,192,22011,1,0,0:0:0:0:
320,192,22105,1,0,0:0:0:70:Clap Hand.wav
448,192,22105,1,0,0:0:0:0:
192,192,22198,1,0,0:0:0:0:
64,192,22292,1,0,0:0:0:0:
448,192,22292,1,0,0:0:0:0:
320,192,22386,1,0,0:0:0:0:
64,192,22480,1,0,0:0:0:70:Clap Hand.wav
192,192,22480,1,0,0:0:0:0:
192,192,22667,1,0,0:0:0:0:
320,192,22667,1,0,0:0:0:0:
64,192,22855,1,0,0:0:0:70:Clap Hand.wav
448,192,22855,1,0,0:0:0:0:
320,192,22948,1,0,0:0:0:0:
64,192,23042,1,0,0:0:0:0:
192,192,23042,1,0,0:0:0:0:
320,192,23136,1,0,0:0:0:0:
448,192,23136,1,0,0:0:0:0:
64,192,23230,1,0,0:0:0:70:Clap Hand.wav
192,192,23230,1,0,0:0:0:0:
448,192,23323,1,0,0:0:0:0:
192,192,23417,1,0,0:0:0:0:
320,192,23417,1,0,0:0:0:0:
64,192,23511,1,0,0:0:0:0:
320,192,23605,1,0,0:0:0:70:Clap Hand.wav
448,192,23605,1,0,0:0:0:0:
192,192,23698,1,0,0:0:0:0:
64,192,23792,1,2,0:0:0:0:
448,192,23792,1,0,0:0:0:0:
64,192,23980,1,0,0:0:0:0:
192,192,24026,1,0,0:0:0:0:
320,192,24073,1,0,0:0:0:0:
448,192,24120,1,0,0:0:0:0:
64,192,24167,1,0,0:0:0:0:
192,192,24261,1,0,0:0:0:0:
320,192,24355,1,0,0:0:0:0:
448,192,24355,1,0,0:0:0:0:
192,192,24448,1,0,0:0:0:0:
64,192,24542,1,0,0:0:0:0:
448,192,24542,1,0,0:0:0:0:
320,192,24636,1,0,0:0:0:0:
64,192,24730,1,0,0:0:0:70:VEC3 Snares 009.wav
448,192,24730,1,0,0:0:0:0:
192,192,24823,1,0,0:0:0:70:VEC3 Snares 009B.wav
320,192,24823,1,0,0:0:0:0:
64,192,24917,1,0,0:0:0:0:
448,192,24917,1,0,0:0:0:0:
192,192,25011,1,0,0:0:0:0:
64,192,25105,1,0,0:0:0:70:LR4_SnareBPDT.wav
320,192,25105,1,0,0:0:0:0:
448,192,25105,1,0,0:0:0:0:
192,192,25292,1,0,0:0:0:0:
64,192,25480,1,2,0:0:0:0:
192,192,25480,1,4,0:0:0:0:
320,192,25480,1,0,0:0:0:0:
448,192,25480,1,0,0:0:0:0:
320,192,25667,1,0,0:0:0:0:
64,192,25855,1,8,0:0:0:0:
192,192,25855,1,0,0:0:0:0:
320,192,25855,1,0,0:0:0:0:
448,192,25855,1,0,0:0:0:0:
192,192,26042,1,0,0:0:0:0:
64,192,26230,1,8,0:0:0:0:
448,192,26230,1,0,0:0:0:0:
192,192,26323,1,0,0:0:0:0:
320,192,26323,1,0,0:0:0:0:
448,192,26417,1,0,0:0:0:0:
192,192,26511,1,0,0:0:0:0:
320,192,26511,1,0,0:0:0:0:
64,192,26605,1,8,0:0:0:0:
448,192,26605,1,0,0:0:0:0:
192,192,26698,1,0,0:0:0:0:
64,192,26792,1,0,0:0:0:0:
320,192,26792,1,0,0:0:0:0:
64,192,26980,1,8,0:0:0:0:
192,192,26980,1,0,0:0:0:0:
320,192,26980,1,0,0:0:0:0:
448,192,26980,1,0,0:0:0:0:
192,192,27167,1,0,0:0:0:0:
64,192,27355,1,8,0:0:0:0:
192,192,27355,1,0,0:0:0:0:
320,192,27355,1,0,0:0:0:0:
448,192,27355,1,0,0:0:0:0:
320,192,27542,1,0,0:0:0:0:
64,192,27730,1,8,0:0:0:0:
448,192,27730,1,0,0:0:0:0:
192,192,27823,1,0,0:0:0:0:
320,192,27823,1,0,0:0:0:0:
64,192,27917,1,0,0:0:0:0:
192,192,28011,1,0,0:0:0:0:
320,192,28011,1,0,0:0:0:0:
64,192,28105,1,8,0:0:0:0:
448,192,28105,1,0,0:0:0:0:
320,192,28198,1,0,0:0:0:0:
192,192,28292,1,0,0:0:0:0:
448,192,28292,1,0,0:0:0:0:
64,192,28480,1,8,0:0:0:0:
192,192,28480,1,0,0:0:0:0:
448,192,28480,1,0,0:0:0:0:
320,192,28573,1,0,0:0:0:0:
64,192,28667,1,0,0:0:0:0:
448,192,28667,1,0,0:0:0:0:
192,192,28761,1,0,0:0:0:0:
64,192,28855,1,8,0:0:0:0:
448,192,28855,1,0,0:0:0:0:
320,192,28948,1,0,0:0:0:0:
192,192,29042,1,0,0:0:0:0:
448,192,29042,1,0,0:0:0:0:
64,192,29230,1,8,0:0:0:0:
320,192,29230,1,0,0:0:0:0:
448,192,29230,1,0,0:0:0:0:
192,192,29323,1,0,0:0:0:0:
64,192,29417,1,0,0:0:0:0:
448,192,29417,1,0,0:0:0:0:
320,192,29511,1,0,0:0:0:0:
64,192,29605,1,8,0:0:0:0:
448,192,29605,1,0,0:0:0:0:
320,192,29698,1,0,0:0:0:0:
64,192,29792,1,0,0:0:0:0:
192,192,29792,1,0,0:0:0:0:
320,192,29886,1,0,0:0:0:0:
64,192,29980,1,8,0:0:0:0:
192,192,29980,1,0,0:0:0:0:
448,192,29980,1,0,0:0:0:0:
320,192,30167,1,0,0:0:0:0:
192,192,30261,1,0,0:0:0:0:
64,192,30355,1,8,0:0:0:0:
320,192,30355,1,0,0:0:0:0:
448,192,30355,1,0,0:0:0:0:
192,192,30448,1,0,0:0:0:0:
64,192,30542,1,0,0:0:0:0:
320,192,30542,1,0,0:0:0:0:
64,192,30730,1,8,0:0:0:0:
448,192,30730,1,2,0:0:0:0:
320,192,30792,1,0,0:0:0:0:
192,192,30855,1,0,0:0:0:0:
64,192,30917,1,0,0:0:0:0:
448,192,30917,1,0,0:0:0:0:
320,192,31011,1,0,0:0:0:0:
192,192,31105,1,0,0:0:0:0:
448,192,31105,1,0,0:0:0:0:
320,192,31198,1,0,0:0:0:0:
64,192,31292,1,0,0:0:0:0:
448,192,31292,1,0,0:0:0:0:
192,192,31386,1,0,0:0:0:0:
320,192,31433,1,0,0:0:0:0:
64,192,31480,1,10,0:0:0:0:
448,192,31480,1,4,0:0:0:0:
192,192,31573,1,0,0:0:0:0:
64,192,31667,1,2,0:0:0:0:
320,192,31667,1,0,0:0:0:0:
192,192,31761,1,0,0:0:0:0:
64,192,31855,1,8,0:0:0:0:
320,192,31855,1,2,0:0:0:0:
448,192,31855,1,0,0:0:0:0:
192,192,31948,1,0,0:0:0:0:
64,192,32042,1,2,0:0:0:0:
448,192,32042,1,0,0:0:0:0:
320,192,32136,1,0,0:0:0:0:
64,192,32230,1,8,0:0:0:0:
192,192,32230,1,2,0:0:0:0:
448,192,32230,1,0,0:0:0:0:
320,192,32323,1,0,0:0:0:0:
192,192,32417,1,2,0:0:0:0:
448,192,32417,1,0,0:0:0:0:
320,192,32511,1,0,0:0:0:0:
64,192,32605,1,8,0:0:0:0:
192,192,32605,1,2,0:0:0:0:
448,192,32605,1,0,0:0:0:0:
320,192,32698,1,0,0:0:0:0:
64,192,32792,1,2,0:0:0:0:
448,192,32792,1,0,0:0:0:0:
192,192,32886,1,0,0:0:0:0:
64,192,32980,1,8,0:0:0:0:
320,192,32980,1,2,0:0:0:0:
448,192,32980,1,0,0:0:0:0:
192,192,33073,1,0,0:0:0:0:
64,192,33167,1,2,0:0:0:0:
320,192,33167,1,0,0:0:0:0:
192,192,33261,1,0,0:0:0:0:
64,192,33355,1,2,0:0:0:0:
320,192,33355,1,8,0:0:0:0:
448,192,33355,1,0,0:0:0:0:
192,192,33448,1,0,0:0:0:0:
64,192,33542,1,2,0:0:0:0:
448,192,33542,1,0,0:0:0:0:
320,192,33636,1,0,0:0:0:0:
64,192,33730,1,2,0:0:0:0:
192,192,33730,1,8,0:0:0:0:
448,192,33730,1,0,0:0:0:0:
320,192,33823,1,0,0:0:0:0:
192,192,33917,1,2,0:0:0:0:
448,192,33917,1,0,0:0:0:0:
320,192,34011,1,0,0:0:0:0:
64,192,34105,1,2,0:0:0:0:
192,192,34105,1,8,0:0:0:0:
448,192,34105,1,0,0:0:0:0:
320,192,34198,1,0,0:0:0:0:
64,192,34292,1,2,0:0:0:0:
448,192,34292,1,0,0:0:0:0:
192,192,34386,1,0,0:0:0:0:
320,192,34480,1,8,0:0:0:0:
448,192,34480,1,0,0:0:0:0:
192,192,34605,1,8,0:0:0:0:
320,192,34605,1,0,0:0:0:0:
448,192,34605,1,0,0:0:0:0:
64,192,34730,1,8,0:0:0:0:
320,192,34730,1,0,0:0:0:0:
448,192,34730,1,0,0:0:0:0:
64,192,34855,1,8,0:0:0:0:
192,192,34855,1,0,0:0:0:0:
64,192,34980,1,8,0:0:0:0:
192,192,34980,1,0,0:0:0:0:
320,192,34980,1,0,0:0:0:0:
64,192,35105,1,8,0:0:0:0:
192,192,35105,1,0,0:0:0:0:
448,192,35105,1,0,0:0:0:0:
320,192,35230,1,8,0:0:0:0:
448,192,35230,1,0,0:0:0:0:
192,192,35355,1,8,0:0:0:0:
320,192,35355,1,0,0:0:0:0:
448,192,35355,1,0,0:0:0:0:
64,192,35480,1,8,0:0:0:0:
320,192,35480,1,0,0:0:0:0:
448,192,35480,1,0,0:0:0:0:
64,192,35605,1,8,0:0:0:0:
192,192,35605,1,0,0:0:0:0:
64,192,35730,1,8,0:0:0:0:
192,192,35730,1,0,0:0:0:0:
320,192,35730,1,0,0:0:0:0:
64,192,35855,1,8,0:0:0:0:
192,192,35855,1,0,0:0:0:0:
448,192,35855,1,0,0:0:0:0:
64,192,35980,1,2,0:0:0:0:
320,192,35980,1,0,0:0:0:0:
448,192,35980,1,0,0:0:0:0:
64,192,36355,1,0,0:0:0:70:LR_Snare Drum.wav
192,192,36355,1,0,0:0:0:0:
448,192,36355,1,0,0:0:0:0:
320,192,36542,1,0,0:0:0:70:LR_Snare Drum.wav
448,192,36542,1,0,0:0:0:0:
64,192,36636,1,0,0:0:0:70:LR_Snare Drum.wav
192,192,36636,1,0,0:0:0:0:
64,192,36730,1,0,0:0:0:70:LR_Snare Drum.wav
320,192,36730,1,0,0:0:0:0:
448,192,36730,1,0,0:0:0:0:
64,192,37105,1,0,0:0:0:70:LR4_SnareBPDT.wav
192,192,37105,1,0,0:0:0:0:
320,192,37105,1,0,0:0:0:0:
448,192,37105,1,0,0:0:0:0:
64,192,37292,1,2,0:0:0:0:
192,192,37339,1,2,0:0:0:0:
320,192,37386,1,2,0:0:0:0:
448,192,37433,1,2,0:0:0:0:
64,192,37480,1,2,0:0:0:0:
192,192,37480,1,4,0:0:0:0:
320,192,37526,1,0,0:0:0:0:
448,192,37573,1,0,0:0:0:0:
192,192,37761,1,0,0:0:0:0:
64,192,37855,1,2,0:0:0:0:
448,192,37855,1,8,0:0:0:0:
320,192,37901,1,0,0:0:0:0:
192,192,37948,1,0,0:0:0:0:
64,192,37995,1,0,0:0:0:0:
448,192,38042,1,0,0:0:0:0:
320,192,38089,1,0,0:0:0:0:
192,192,38136,1,0,0:0:0:0:
64,192,38183,1,0,0:0:0:0:
320,192,38230,1,2,0:0:0:0:
448,192,38230,1,0,0:0:0:0:
192,192,38276,1,0,0:0:0:0:
64,192,38323,1,0,0:0:0:0:
448,192,38417,1,0,0:0:0:0:
320,192,38511,1,0,0:0:0:0:
192,192,38558,1,0,0:0:0:0:
64,192,38605,1,2,0:0:0:0:
448,192,38605,1,8,0:0:0:0:
320,192,38651,1,0,0:0:0:0:
192,192,38698,1,0,0:0:0:0:
64,192,38792,1,0,0:0:0:0:
448,192,38792,1,0,0:0:0:0:
320,192,38839,1,0,0:0:0:0:
192,192,38886,1,0,0:0:0:0:
320,192,38980,1,2,0:0:0:0:
448,192,38980,1,0,0:0:0:0:
192,192,39026,1,0,0:0:0:0:
64,192,39073,1,0,0:0:0:0:
320,192,39261,1,0,0:0:0:0:
64,192,39355,1,2,0:0:0:0:
448,192,39355,1,8,0:0:0:0:
192,192,39401,1,0,0:0:0:0:
320,192,39448,1,0,0:0:0:0:
448,192,39495,1,0,0:0:0:0:
64,192,39542,1,0,0:0:0:0:
192,192,39589,1,0,0:0:0:0:
320,192,39636,1,0,0:0:0:0:
448,192,39683,1,0,0:0:0:0:
64,192,39730,1,2,0:0:0:0:
192,192,39730,1,0,0:0:0:0:
320,192,39776,1,0,0:0:0:0:
448,192,39823,1,0,0:0:0:0:
64,192,39917,1,0,0:0:0:0:
192,192,40011,1,0,0:0:0:0:
320,192,40058,1,0,0:0:0:0:
64,192,40105,1,2,0:0:0:0:
448,192,40105,1,8,0:0:0:0:
192,192,40151,1,0,0:0:0:0:
320,192,40198,1,0,0:0:0:0:
64,192,40292,1,0,0:0:0:0:
448,192,40292,1,0,0:0:0:0:
192,192,40339,1,0,0:0:0:0:
320,192,40386,1,0,0:0:0:0:
64,192,40480,1,2,0:0:0:0:
192,192,40480,1,4,0:0:0:0:
320,192,40526,1,0,0:0:0:0:
448,192,40573,1,0,0:0:0:0:
192,192,40761,1,0,0:0:0:0:
64,192,40855,1,8,0:0:0:0:
448,192,40855,1,2,0:0:0:0:
320,192,40901,1,0,0:0:0:0:
192,192,40948,1,0,0:0:0:0:
64,192,40995,1,0,0:0:0:0:
448,192,41042,1,0,0:0:0:0:
320,192,41089,1,0,0:0:0:0:
192,192,41136,1,0,0:0:0:0:
64,192,41183,1,0,0:0:0:0:
320,192,41230,1,2,0:0:0:0:
448,192,41230,1,0,0:0:0:0:
192,192,41276,1,0,0:0:0:0:
64,192,41323,1,0,0:0:0:0:
448,192,41417,1,0,0:0:0:0:
320,192,41511,1,0,0:0:0:0:
192,192,41558,1,0,0:0:0:0:
64,192,41605,1,8,0:0:0:0:
448,192,41605,1,2,0:0:0:0:
320,192,41651,1,0,0:0:0:0:
192,192,41698,1,0,0:0:0:0:
64,192,41792,1,0,0:0:0:0:
448,192,41792,1,0,0:0:0:0:
320,192,41839,1,0,0:0:0:0:
192,192,41886,1,0,0:0:0:0:
320,192,41980,1,2,0:0:0:0:
448,192,41980,1,4,0:0:0:0:
192,192,42073,1,0,0:0:0:0:
320,192,42167,1,0,0:0:0:0:
192,192,42636,1,0,0:0:0:70:LR_Snare Drum.wav
320,192,42683,1,0,0:0:0:70:LR_Snare Drum.wav
64,192,42730,1,2,0:0:0:0:
448,192,42730,1,0,0:0:0:0:
64,192,42855,1,0,0:0:0:70:LR_Snare Drum.wav
192,192,42855,1,0,0:0:0:0:
320,192,42980,1,0,0:0:0:70:LR_Snare Drum.wav
448,192,42980,1,0,0:0:0:0:
64,192,43105,1,0,0:0:0:70:LR_Snare Drum.wav
448,192,43105,1,0,0:0:0:0:
192,192,43292,1,0,0:0:0:70:LR_Snare Drum.wav
320,192,43292,1,0,0:0:0:0:
320,192,43480,1,4,0:0:0:0:
448,192,43480,1,2,0:0:0:0:
192,192,43526,1,0,0:0:0:0:
64,192,43573,1,0,0:0:0:0:
448,192,43667,1,0,0:0:0:0:
192,192,43761,1,0,0:0:0:0:
320,192,43808,1,0,0:0:0:0:
64,192,43855,1,8,0:0:0:0:
448,192,43855,1,2,0:0:0:0:
320,192,43948,1,0,0:0:0:0:
64,192,44042,1,0,0:0:0:0:
192,192,44042,1,0,0:0:0:0:
320,192,44136,1,0,0:0:0:0:
64,192,44230,1,2,0:0:0:0:
448,192,44230,1,0,0:0:0:0:
192,192,44323,1,0,0:0:0:0:
320,192,44323,1,0,0:0:0:0:
64,192,44417,1,0,0:0:0:0:
448,192,44417,1,0,0:0:0:0:
192,192,44511,1,2,0:0:0:0:
320,192,44511,1,0,0:0:0:0:
64,192,44605,1,8,0:0:0:0:
448,192,44605,1,0,0:0:0:0:
192,192,44651,1,0,0:0:0:0:
320,192,44698,1,0,0:0:0:0:
448,192,44745,1,0,0:0:0:0:
64,192,44792,1,2,0:0:0:0:
192,192,44792,1,0,0:0:0:0:
320,192,44839,1,0,0:0:0:0:
448,192,44886,1,0,0:0:0:0:
64,192,44980,1,2,0:0:0:0:
192,192,44980,1,0,0:0:0:0:
320,192,45026,1,0,0:0:0:0:
448,192,45073,1,0,0:0:0:0:
64,192,45167,1,0,0:0:0:0:
320,192,45261,1,0,0:0:0:0:
192,192,45308,1,0,0:0:0:0:
64,192,45355,1,8,0:0:0:0:
448,192,45355,1,2,0:0:0:0:
320,192,45448,1,0,0:0:0:0:
64,192,45542,1,0,0:0:0:0:
192,192,45542,1,0,0:0:0:0:
320,192,45636,1,0,0:0:0:0:
64,192,45730,1,2,0:0:0:0:
448,192,45730,1,0,0:0:0:0:
192,192,45823,1,0,0:0:0:0:
320,192,45823,1,0,0:0:0:0:
64,192,45917,1,0,0:0:0:0:
448,192,45917,1,0,0:0:0:0:
192,192,46011,1,2,0:0:0:0:
320,192,46011,1,0,0:0:0:0:
64,192,46105,1,8,0:0:0:0:
448,192,46105,1,0,0:0:0:0:
320,192,46151,1,0,0:0:0:0:
192,192,46198,1,0,0:0:0:0:
64,192,46245,1,0,0:0:0:0:
320,192,46292,1,2,0:0:0:0:
448,192,46292,1,0,0:0:0:0:
192,192,46339,1,0,0:0:0:0:
64,192,46386,1,0,0:0:0:0:
320,192,46480,1,4,0:0:0:0:
448,192,46480,1,2,0:0:0:0:
192,192,46526,1,0,0:0:0:0:
64,192,46573,1,0,0:0:0:0:
448,192,46667,1,0,0:0:0:0:
320,192,46761,1,0,0:0:0:0:
192,192,46808,1,0,0:0:0:0:
64,192,46855,1,2,0:0:0:0:
448,192,46855,1,8,0:0:0:0:
320,192,46948,1,0,0:0:0:0:
64,192,47042,1,0,0:0:0:0:
192,192,47042,1,0,0:0:0:0:
320,192,47136,1,0,0:0:0:0:
64,192,47230,1,2,0:0:0:0:
448,192,47230,1,0,0:0:0:0:
192,192,47323,1,0,0:0:0:0:
320,192,47323,1,0,0:0:0:0:
64,192,47417,1,0,0:0:0:0:
448,192,47417,1,0,0:0:0:0:
192,192,47511,1,2,0:0:0:0:
320,192,47511,1,0,0:0:0:0:
64,192,47605,1,8,0:0:0:0:
448,192,47605,1,0,0:0:0:0:
192,192,47651,1,0,0:0:0:0:
320,192,47698,1,0,0:0:0:0:
448,192,47745,1,0,0:0:0:0:
64,192,47792,1,2,0:0:0:0:
192,192,47792,1,0,0:0:0:0:
320,192,47886,1,0,0:0:0:0:
64,192,47980,1,2,0:0:0:0:
448,192,47980,1,8,0:0:0:0:
192,192,48026,1,0,0:0:0:0:
320,192,48073,1,0,0:0:0:0:
192,192,48167,1,0,0:0:0:0:
64,192,48355,1,2,0:0:0:0:
448,192,48355,1,8,0:0:0:0:
320,192,48401,1,0,0:0:0:0:
192,192,48448,1,0,0:0:0:0:
320,192,48542,1,0,0:0:0:0:
64,192,48730,1,2,0:0:0:0:
448,192,48730,1,8,0:0:0:0:
192,192,48776,1,0,0:0:0:0:
320,192,48823,1,0,0:0:0:70:VEC3 Snares 009.wav
64,192,48917,1,0,0:0:0:70:VEC3 Snares 009.wav
192,192,48917,1,0,0:0:0:0:
320,192,49011,1,0,0:0:0:70:VEC3 Snares 009.wav
64,192,49105,1,0,0:0:0:70:VEC3 Snares 009B.wav
448,192,49105,1,0,0:0:0:0:
192,192,49198,1,0,0:0:0:70:VEC3 Snares 009B.wav
320,192,49292,1,0,0:0:0:70:VEC3 Snares 009B.wav
448,192,49292,1,0,0:0:0:0:
192,192,49386,1,0,0:0:0:70:VEC3 Snares 009B.wav
64,192,49480,1,2,0:0:0:0:
320,192,49480,1,4,0:0:0:0:
448,192,49480,1,0,0:0:0:0:
192,192,49667,1,0,0:0:0:0:
320,192,49667,1,0,0:0:0:0:
320,192,49901,1,0,0:0:0:0:
192,192,49948,1,0,0:0:0:0:
64,192,49995,1,0,0:0:0:0:
448,192,50042,1,0,0:0:0:0:
320,192,50089,1,0,0:0:0:0:
64,192,50230,1,0,0:0:0:100:LR3_Snare DRL.wav
448,192,50230,1,0,0:0:0:0:
320,192,50276,1,0,0:0:0:0:
192,192,50323,1,0,0:0:0:0:
64,192,50370,1,0,0:0:0:0:
448,192,50417,1,0,0:0:0:0:
320,192,50464,1,0,0:0:0:0:
192,192,50511,1,0,0:0:0:0:
64,192,50651,1,0,0:0:0:0:
192,192,50698,1,0,0:0:0:0:
320,192,50745,1,0,0:0:0:0:
64,192,50792,1,2,0:0:0:0:
448,192,50792,1,0,0:0:0:0:
192,192,50839,1,0,0:0:0:0:
320,192,50886,1,0,0:0:0:0:
192,192,51026,1,0,0:0:0:0:
320,192,51073,1,0,0:0:0:0:
448,192,51120,1,0,0:0:0:0:
64,192,51167,1,0,0:0:0:0:
192,192,51214,1,0,0:0:0:0:
64,192,51355,1,2,0:0:0:0:
448,192,51355,1,0,0:0:0:0:
320,192,51401,1,0,0:0:0:0:
192,192,51448,1,0,0:0:0:0:
64,192,51495,1,0,0:0:0:0:
448,192,51542,1,0,0:0:0:0:
320,192,51589,1,0,0:0:0:0:
192,192,51636,1,0,0:0:0:0:
64,192,51730,1,0,0:0:0:100:LR3_Snare DRL.wav
448,192,51730,1,0,0:0:0:0:
320,192,51776,1,0,0:0:0:0:
192,192,51823,1,0,0:0:0:0:
64,192,51870,1,0,0:0:0:0:
448,192,51917,1,0,0:0:0:0:
320,192,51964,1,0,0:0:0:0:
192,192,52011,1,0,0:0:0:0:
64,192,52105,1,0,0:0:0:0:
192,192,52151,1,0,0:0:0:0:
320,192,52198,1,0,0:0:0:0:
448,192,52292,1,0,0:0:0:0:
320,192,52339,1,0,0:0:0:0:
192,192,52386,1,0,0:0:0:0:
320,192,52480,1,2,0:0:0:0:
448,192,52480,1,4,0:0:0:0:
192,192,52526,1,0,0:0:0:0:
64,192,52573,1,0,0:0:0:0:
448,192,52667,1,0,0:0:0:0:
320,192,52714,1,0,0:0:0:0:
192,192,52761,1,0,0:0:0:0:
320,192,52901,1,0,0:0:0:0:
192,192,52948,1,0,0:0:0:0:
64,192,52995,1,0,0:0:0:0:
448,192,53042,1,0,0:0:0:0:
320,192,53089,1,0,0:0:0:0:
64,192,53230,1,0,0:0:0:100:LR3_Snare DRL.wav
448,192,53230,1,0,0:0:0:0:
192,192,53276,1,0,0:0:0:0:
320,192,53323,1,0,0:0:0:0:
448,192,53370,1,0,0:0:0:0:
64,192,53417,1,0,0:0:0:0:
192,192,53464,1,0,0:0:0:0:
320,192,53511,1,0,0:0:0:0:
64,192,53605,1,0,0:0:0:0:
192,192,53651,1,0,0:0:0:0:
320,192,53698,1,0,0:0:0:0:
64,192,53792,1,2,0:0:0:0:
192,192,53792,1,0,0:0:0:0:
320,192,53839,1,0,0:0:0:0:
448,192,53886,1,0,0:0:0:0:
64,192,53933,1,0,0:0:0:0:
192,192,53980,1,0,0:0:0:0:
320,192,54026,1,0,0:0:0:0:
448,192,54073,1,0,0:0:0:0:
64,192,54140,1,0,0:0:0:0:
192,192,54140,1,0,0:0:0:0:
192,192,54247,1,0,0:0:0:0:
64,192,54355,1,2,0:0:0:0:
448,192,54355,1,0,0:0:0:0:
320,192,54401,1,0,0:0:0:0:
192,192,54448,1,0,0:0:0:0:
320,192,54542,1,0,0:0:0:0:
448,192,54542,1,0,0:0:0:0:
192,192,54589,1,0,0:0:0:0:
64,192,54636,1,0,0:0:0:0:
192,192,54730,1,0,0:0:0:100:LR3_Snare DRL.wav
320,192,54730,1,0,0:0:0:0:
448,192,54730,1,0,0:0:0:0:
64,192,54855,1,0,0:0:0:0:
320,192,54855,1,0,0:0:0:0:
64,192,54980,1,0,0:0:0:0:
192,192,54980,1,0,0:0:0:0:
448,192,55105,1,0,0:0:0:0:
320,192,55167,1,0,0:0:0:0:
192,192,55230,1,0,0:0:0:0:
320,192,55355,1,0,0:0:0:0:
64,192,55480,1,2,0:0:0:0:
192,192,55480,1,4,0:0:0:0:
320,192,55480,1,0,0:0:0:0:
448,192,55480,1,0,0:0:0:0:
192,192,55667,1,0,0:0:0:0:
320,192,55667,1,0,0:0:0:0:
192,192,55901,1,0,0:0:0:0:
320,192,55948,1,0,0:0:0:0:
448,192,55995,1,0,0:0:0:0:
64,192,56042,1,0,0:0:0:0:
192,192,56089,1,0,0:0:0:0:
64,192,56230,1,0,0:0:0:100:LR3_Snare DRL.wav
448,192,56230,1,0,0:0:0:0:
192,192,56276,1,0,0:0:0:0:
320,192,56323,1,0,0:0:0:0:
448,192,56370,1,0,0:0:0:0:
64,192,56417,1,0,0:0:0:0:
192,192,56464,1,0,0:0:0:0:
320,192,56511,1,0,0:0:0:0:
448,192,56651,1,0,0:0:0:0:
320,192,56698,1,0,0:0:0:0:
192,192,56745,1,0,0:0:0:0:
64,192,56792,1,2,0:0:0:0:
448,192,56792,1,0,0:0:0:0:
320,192,56839,1,0,0:0:0:0:
192,192,56886,1,0,0:0:0:0:
320,192,57026,1,0,0:0:0:0:
192,192,57073,1,0,0:0:0:0:
64,192,57120,1,0,0:0:0:0:
448,192,57167,1,0,0:0:0:0:
320,192,57214,1,0,0:0:0:0:
64,192,57355,1,2,0:0:0:0:
448,192,57355,1,0,0:0:0:0:
320,192,57401,1,0,0:0:0:0:
192,192,57448,1,0,0:0:0:0:
64,192,57495,1,0,0:0:0:0:
448,192,57542,1,0,0:0:0:0:
320,192,57589,1,0,0:0:0:0:
192,192,57636,1,0,0:0:0:0:
64,192,57730,1,0,0:0:0:100:LR3_Snare DRL.wav
448,192,57730,1,0,0:0:0:0:
192,192,57776,1,0,0:0:0:0:
320,192,57823,1,0,0:0:0:0:
448,192,57870,1,0,0:0:0:0:
64,192,57917,1,0,0:0:0:0:
192,192,57964,1,0,0:0:0:0:
320,192,58011,1,0,0:0:0:0:
448,192,58105,1,0,0:0:0:0:
320,192,58151,1,0,0:0:0:0:
192,192,58198,1,0,0:0:0:0:
64,192,58292,1,0,0:0:0:0:
192,192,58339,1,0,0:0:0:0:
320,192,58386,1,0,0:0:0:0:
64,192,58480,1,2,0:0:0:0:
192,192,58480,1,0,0:0:0:0:
320,192,58526,1,0,0:0:0:0:
448,192,58573,1,0,0:0:0:0:
192,192,58667,1,0,0:0:0:0:
320,192,58714,1,0,0:0:0:0:
448,192,58761,1,0,0:0:0:0:
320,192,58901,1,0,0:0:0:0:
192,192,58948,1,0,0:0:0:0:
64,192,58995,1,0,0:0:0:0:
448,192,59042,1,0,0:0:0:0:
320,192,59089,1,0,0:0:0:0:
64,192,59230,1,4,0:0:0:0:
448,192,59230,1,0,0:0:0:100:LR3_Snare DRL.wav
192,192,59276,1,0,0:0:0:0:
320,192,59323,1,0,0:0:0:0:
448,192,59370,1,0,0:0:0:0:
64,192,59417,1,2,0:0:0:0:
192,192,59464,1,0,0:0:0:0:
448,192,59511,1,0,0:0:0:0:
320,192,59558,1,0,0:0:0:0:
64,192,59605,1,0,0:0:0:0:
192,192,59651,1,0,0:0:0:0:
448,192,59698,1,0,0:0:0:0:
320,192,59745,1,0,0:0:0:0:
192,192,59792,1,0,0:0:0:0:
64,192,59839,1,0,0:0:0:0:
448,192,59886,1,0,0:0:0:0:
320,192,59933,1,0,0:0:0:0:
64,192,59980,1,2,0:0:0:0:
192,192,59980,1,0,0:0:0:0:
320,192,60073,1,0,0:0:0:0:
192,192,60167,1,0,0:0:0:0:
320,192,60261,1,0,0:0:0:0:
192,192,60308,1,0,0:0:0:0:
64,192,60730,1,2,0:0:0:0:
320,192,60730,1,0,0:0:0:0:
448,192,60730,1,0,0:0:0:0:
192,192,60823,1,0,0:0:0:0:
320,192,60917,1,0,0:0:0:0:
192,192,61011,1,0,0:0:0:0:
320,192,61058,1,0,0:0:0:0:
64,192,61105,128,0,61355:0:0:0:0:
192,192,61167,128,0,61417:0:0:0:0:
320,192,61230,128,0,61480:0:0:0:0:
448,192,61292,128,0,61480:0:0:0:0:
64,192,61480,128,2,62792:0:0:0:0:
192,192,61480,1,4,0:0:0:0:
320,192,61667,1,0,0:0:0:0:
192,192,61855,1,0,0:0:0:70:Clap Hand.wav
320,192,61855,1,0,0:0:0:0:
448,192,61948,1,0,0:0:0:0:
192,192,62042,1,0,0:0:0:0:
320,192,62136,1,0,0:0:0:0:
192,192,62230,1,0,0:0:0:70:Clap Hand.wav
448,192,62230,1,0,0:0:0:0:
320,192,62417,1,0,0:0:0:0:
448,192,62417,1,0,0:0:0:0:
192,192,62605,1,0,0:0:0:70:Clap Hand.wav
320,192,62605,1,0,0:0:0:0:
192,192,62792,128,0,64105:0:0:0:0:
448,192,62792,1,0,0:0:0:0:
64,192,62980,1,0,0:0:0:70:Clap Hand.wav
320,192,62980,1,0,0:0:0:0:
64,192,63167,1,0,0:0:0:0:
448,192,63167,1,0,0:0:0:0:
320,192,63355,1,0,0:0:0:70:Clap Hand.wav
448,192,63355,1,0,0:0:0:0:
64,192,63542,1,0,0:0:0:0:
320,192,63636,1,0,0:0:0:0:
64,192,63730,1,0,0:0:0:70:Clap Hand.wav
448,192,63730,1,0,0:0:0:0:
320,192,63917,1,0,0:0:0:0:
448,192,63917,1,0,0:0:0:0:
64,192,64105,1,0,0:0:0:70:Clap Hand.wav
320,192,64105,128,0,64480:0:0:0:0:
64,192,64480,1,0,0:0:0:70:Clap Hand.wav
448,192,64480,128,0,65042:0:0:0:0:
192,192,64667,1,0,0:0:0:0:
320,192,64667,1,0,0:0:0:0:
64,192,64855,1,0,0:0:0:70:Clap Hand.wav
192,192,64855,1,0,0:0:0:0:
320,192,65042,128,0,65605:0:0:0:0:
192,192,65136,1,0,0:0:0:0:
64,192,65230,1,0,0:0:0:70:Clap Hand.wav
448,192,65230,1,0,0:0:0:0:
192,192,65417,1,0,0:0:0:0:
448,192,65417,1,0,0:0:0:0:
64,192,65605,1,0,0:0:0:70:Clap Hand.wav
192,192,65605,128,0,65980:0:0:0:0:
320,192,65792,1,0,0:0:0:0:
448,192,65792,1,0,0:0:0:0:
64,192,65980,128,0,67386:0:0:0:70:Clap Hand.wav
320,192,65980,1,0,0:0:0:0:
192,192,66167,1,0,0:0:0:70:LR_Snare Drum.wav
448,192,66167,1,0,0:0:0:0:
320,192,66261,1,0,0:0:0:70:LR_Snare Drum.wav
448,192,66355,1,0,0:0:0:70:LR_Snare Drum.wav
192,192,66448,1,0,0:0:0:70:LR_Snare Drum.wav
320,192,66542,1,0,0:0:0:70:LR_Snare Drum.wav
448,192,66542,1,0,0:0:0:0:
192,192,66636,1,0,0:0:0:70:LR_Snare Drum.wav
320,192,66730,1,0,0:0:0:70:tom01.wav
448,192,66730,128,0,67386:0:0:0:0:
192,192,66823,1,0,0:0:0:0:
320,192,66917,1,0,0:0:0:0:
192,192,67105,1,0,0:0:0:0:
320,192,67105,128,0,67386:0:0:0:0:
192,192,67292,128,0,67386:0:0:0:0:
64,192,67480,1,2,0:0:0:0:
192,192,67480,1,4,0:0:0:0:
320,192,67480,1,0,0:0:0:0:
448,192,67480,1,0,0:0:0:0:
320,192,67667,1,0,0:0:0:0:
192,192,67761,1,0,0:0:0:0:
64,192,67855,1,0,0:0:0:70:Clap Hand.wav
320,192,67855,1,0,0:0:0:0:
448,192,67855,1,0,0:0:0:0:
64,192,68042,1,0,0:0:0:0:
192,192,68042,1,0,0:0:0:0:
320,192,68136,1,0,0:0:0:0:
64,192,68230,1,0,0:0:0:70:Clap Hand.wav
192,192,68230,1,0,0:0:0:0:
448,192,68230,1,0,0:0:0:0:
320,192,68323,1,0,0:0:0:0:
192,192,68417,1,0,0:0:0:0:
448,192,68417,1,0,0:0:0:0:
64,192,68605,1,0,0:0:0:70:Clap Hand.wav
320,192,68605,1,0,0:0:0:0:
448,192,68605,1,0,0:0:0:0:
192,192,68698,1,0,0:0:0:0:
64,192,68792,1,0,0:0:0:0:
448,192,68792,1,0,0:0:0:0:
320,192,68886,1,0,0:0:0:0:
64,192,68980,1,0,0:0:0:70:Clap Hand.wav
192,192,68980,1,0,0:0:0:0:
320,192,69167,1,0,0:0:0:0:
448,192,69167,1,0,0:0:0:0:
192,192,69261,1,0,0:0:0:0:
64,192,69355,1,0,0:0:0:70:Clap Hand.wav
320,192,69355,1,0,0:0:0:0:
448,192,69355,1,0,0:0:0:0:
192,192,69448,1,0,0:0:0:0:
64,192,69542,1,0,0:0:0:0:
448,192,69542,1,0,0:0:0:0:
320,192,69636,1,0,0:0:0:0:
64,192,69730,1,0,0:0:0:70:Clap Hand.wav
192,192,69730,1,0,0:0:0:0:
448,192,69730,1,0,0:0:0:0:
320,192,69823,1,0,0:0:0:0:
192,192,69917,1,0,0:0:0:0:
64,192,70105,1,0,0:0:0:70:Clap Hand.wav
320,192,70105,1,0,0:0:0:0:
448,192,70105,1,0,0:0:0:0:
192,192,70198,1,0,0:0:0:0:
320,192,70292,1,0,0:0:0:0:
448,192,70292,1,0,0:0:0:0:
192,192,70386,1,0,0:0:0:0:
64,192,70480,1,0,0:0:0:70:Clap Hand.wav
320,192,70480,1,0,0:0:0:0:
448,192,70480,1,0,0:0:0:0:
64,192,70667,1,0,0:0:0:0:
192,192,70667,1,0,0:0:0:0:
320,192,70761,1,0,0:0:0:0:
64,192,70855,1,0,0:0:0:70:Clap Hand.wav
192,192,70855,1,0,0:0:0:0:
448,192,70855,1,0,0:0:0:0:
320,192,71042,1,0,0:0:0:0:
448,192,71042,1,0,0:0:0:0:
192,192,71136,1,0,0:0:0:0:
64,192,71230,1,0,0:0:0:70:Clap Hand.wav
448,192,71230,1,0,0:0:0:0:
320,192,71323,1,0,0:0:0:0:
192,192,71417,1,0,0:0:0:0:
448,192,71417,1,0,0:0:0:0:
64,192,71605,1,0,0:0:0:70:Clap Hand.wav
320,192,71605,1,0,0:0:0:0:
448,192,71605,1,0,0:0:0:0:
192,192,71698,1,0,0:0:0:0:
64,192,71792,1,0,0:0:0:0:
320,192,71792,1,0,0:0:0:0:
192,192,71886,1,0,0:0:0:0:
64,192,71980,1,2,0:0:0:0:
320,192,71980,1,0,0:0:0:0:
448,192,71980,1,0,0:0:0:0:
192,192,72167,1,0,0:0:0:0:
320,192,72261,1,0,0:0:0:0:
64,192,72355,1,0,0:0:0:0:
448,192,72355,1,0,0:0:0:0:
192,192,72448,1,0,0:0:0:0:
320,192,72542,1,0,0:0:0:0:
448,192,72636,1,0,0:0:0:0:
64,192,72730,1,0,0:0:0:0:
192,192,72776,1,0,0:0:0:0:
320,192,72823,1,0,0:0:0:0:
448,192,72870,1,0,0:0:0:0:
64,192,72980,1,0,0:0:0:0:
192,192,72980,1,0,0:0:0:0:
192,192,73105,1,2,0:0:0:0:
448,192,73105,1,0,0:0:0:0:
64,192,73230,1,2,0:0:0:0:
320,192,73230,1,0,0:0:0:0:
320,192,73355,1,2,0:0:0:0:
448,192,73355,1,0,0:0:0:0:
64,192,73480,128,2,74042:0:0:0:0:
192,192,73480,1,4,0:0:0:0:
320,192,73480,1,0,0:0:0:0:
448,192,73480,1,0,0:0:0:0:
192,192,73667,1,0,0:0:0:0:
192,192,73855,128,8,74042:0:0:0:0:
320,192,73855,1,2,0:0:0:0:
448,192,73855,1,0,0:0:0:0:
320,192,74042,1,0,0:0:0:0:
64,192,74230,1,2,0:0:0:0:
192,192,74230,1,0,0:0:0:0:
448,192,74230,128,0,74417:0:0:0:0:
320,192,74323,128,0,74417:0:0:0:0:
192,192,74417,1,0,0:0:0:0:
64,192,74605,128,2,74792:0:0:0:0:
192,192,74605,1,8,0:0:0:0:
448,192,74605,1,0,0:0:0:0:
192,192,74792,128,0,74980:0:0:0:0:
320,192,74792,1,0,0:0:0:0:
64,192,74980,1,2,0:0:0:0:
320,192,74980,128,0,75167:0:0:0:0:
448,192,74980,1,0,0:0:0:0:
64,192,75167,1,0,0:0:0:0:
192,192,75167,128,0,75355:0:0:0:0:
64,192,75355,1,8,0:0:0:0:
320,192,75355,1,2,0:0:0:0:
448,192,75355,128,0,75542:0:0:0:0:
192,192,75542,1,0,0:0:0:0:
320,192,75542,128,0,75730:0:0:0:0:
64,192,75730,128,2,76105:0:0:0:0:
192,192,75730,1,0,0:0:0:0:
448,192,75730,1,0,0:0:0:0:
320,192,75823,1,0,0:0:0:0:
192,192,75917,1,0,0:0:0:0:
192,192,76105,1,2,0:0:0:0:
320,192,76105,1,8,0:0:0:0:
448,192,76105,128,0,76480:0:0:0:0:
64,192,76292,1,0,0:0:0:0:
320,192,76292,128,0,76480:0:0:0:0:
64,192,76480,128,2,76855:0:0:0:0:
192,192,76480,1,0,0:0:0:0:
320,192,76667,1,0,0:0:0:0:
192,192,76855,1,2,0:0:0:0:
320,192,76855,1,8,0:0:0:0:
448,192,76855,128,0,77042:0:0:0:0:
64,192,77042,1,0,0:0:0:0:
320,192,77042,128,0,77230:0:0:0:0:
64,192,77230,1,2,0:0:0:0:
192,192,77230,128,0,77417:0:0:0:0:
448,192,77230,1,0,0:0:0:0:
320,192,77417,128,0,77605:0:0:0:0:
448,192,77417,1,0,0:0:0:0:
64,192,77605,128,8,77792:0:0:0:0:
192,192,77605,1,2,0:0:0:0:
448,192,77605,1,0,0:0:0:0:
192,192,77792,128,0,77980:0:0:0:0:
320,192,77792,1,0,0:0:0:0:
64,192,77980,1,2,0:0:0:0:
320,192,77980,1,0,0:0:0:0:
448,192,77980,128,0,78167:0:0:0:0:
192,192,78073,1,0,0:0:0:0:
320,192,78167,128,0,78355:0:0:0:0:
192,192,78261,1,0,0:0:0:0:
64,192,78355,128,2,78542:0:0:0:0:
448,192,78355,1,8,0:0:0:0:
320,192,78448,1,0,0:0:0:0:
192,192,78542,128,0,78730:0:0:0:0:
448,192,78636,1,0,0:0:0:0:
64,192,78730,1,2,0:0:0:0:
320,192,78730,1,0,0:0:0:0:
448,192,78792,1,0,0:0:0:0:
192,192,78855,1,0,0:0:0:0:
320,192,78917,1,0,0:0:0:0:
64,192,78980,1,0,0:0:0:0:
192,192,79042,1,0,0:0:0:0:
448,192,79105,1,0,0:0:0:0:
320,192,79167,1,0,0:0:0:0:
192,192,79230,1,0,0:0:0:0:
64,192,79292,1,0,0:0:0:0:
448,192,79292,1,0,0:0:0:0:
192,192,79386,1,0,0:0:0:0:
320,192,79433,1,0,0:0:0:0:
64,192,79480,1,6,0:0:0:0:
448,192,79480,1,8,0:0:0:0:
320,192,79573,1,0,0:0:0:0:
64,192,79667,1,2,0:0:0:0:
448,192,79667,1,0,0:0:0:0:
192,192,79761,1,0,0:0:0:0:
64,192,79855,1,2,0:0:0:0:
320,192,79855,1,8,0:0:0:0:
448,192,79855,1,0,0:0:0:0:
192,192,79948,1,0,0:0:0:0:
320,192,80042,1,2,0:0:0:0:
448,192,80042,1,0,0:0:0:0:
64,192,80136,1,0,0:0:0:0:
192,192,80230,1,2,0:0:0:0:
320,192,80230,1,8,0:0:0:0:
448,192,80230,1,0,0:0:0:0:
64,192,80323,1,0,0:0:0:0:
192,192,80417,1,2,0:0:0:0:
320,192,80417,1,0,0:0:0:0:
448,192,80511,1,0,0:0:0:0:
64,192,80605,1,2,0:0:0:0:
192,192,80605,1,8,0:0:0:0:
320,192,80605,1,0,0:0:0:0:
448,192,80698,1,0,0:0:0:0:
64,192,80792,1,2,0:0:0:0:
192,192,80792,1,0,0:0:0:0:
320,192,80886,1,0,0:0:0:0:
64,192,80980,1,2,0:0:0:0:
192,192,80980,1,8,0:0:0:0:
448,192,80980,1,0,0:0:0:0:
320,192,81073,1,0,0:0:0:0:
64,192,81167,1,2,0:0:0:0:
192,192,81167,1,0,0:0:0:0:
448,192,81261,1,0,0:0:0:0:
64,192,81355,1,2,0:0:0:0:
192,192,81355,1,8,0:0:0:0:
320,192,81355,1,0,0:0:0:0:
448,192,81448,1,0,0:0:0:0:
192,192,81542,1,2,0:0:0:0:
320,192,81542,1,0,0:0:0:0:
64,192,81636,1,0,0:0:0:0:
192,192,81730,1,8,0:0:0:0:
320,192,81730,1,2,0:0:0:0:
448,192,81730,1,0,0:0:0:0:
64,192,81823,1,0,0:0:0:0:
320,192,81917,1,2,0:0:0:0:
448,192,81917,1,0,0:0:0:0:
192,192,82011,1,0,0:0:0:0:
64,192,82105,1,8,0:0:0:0:
320,192,82105,1,2,0:0:0:0:
448,192,82105,1,0,0:0:0:0:
192,192,82198,1,0,0:0:0:0:
64,192,82292,1,2,0:0:0:0:
320,192,82292,1,0,0:0:0:0:
448,192,82386,1,0,0:0:0:0:
64,192,82480,1,6,0:0:0:0:
192,192,82480,1,8,0:0:0:0:
64,192,82573,1,8,0:0:0:0:
192,192,82573,1,2,0:0:0:0:
320,192,82667,1,2,0:0:0:0:
448,192,82667,1,8,0:0:0:0:
320,192,82761,1,8,0:0:0:0:
448,192,82761,1,2,0:0:0:0:
64,192,82855,1,8,0:0:0:0:
192,192,82855,1,2,0:0:0:0:
64,192,82948,1,8,0:0:0:0:
192,192,82948,1,2,0:0:0:0:
320,192,83042,1,2,0:0:0:0:
448,192,83042,1,8,0:0:0:0:
320,192,83136,1,8,0:0:0:0:
448,192,83136,1,2,0:0:0:0:
64,192,83230,1,8,0:0:0:0:
192,192,83230,1,0,0:0:0:0:
64,192,83323,1,8,0:0:0:0:
320,192,83323,1,0,0:0:0:0:
320,192,83417,1,8,0:0:0:0:
448,192,83417,1,0,0:0:0:0:
64,192,83511,1,8,0:0:0:0:
192,192,83511,1,0,0:0:0:0:
320,192,83605,1,8,0:0:0:0:
448,192,83605,1,0,0:0:0:0:
192,192,83698,1,8,0:0:0:0:
448,192,83698,1,0,0:0:0:0:
64,192,83792,1,8,0:0:0:0:
192,192,83792,1,0,0:0:0:0:
320,192,83886,1,8,0:0:0:0:
448,192,83886,1,0,0:0:0:0:
64,192,83980,128,2,84073:0:0:0:0:
192,192,83980,128,0,84073:0:0:0:0:
448,192,83980,128,0,84073:0:0:0:0:
64,192,84355,128,0,84542:0:0:0:70:LR_Snare Drum.wav
192,192,84355,128,0,84542:0:0:0:0:
320,192,84542,1,0,0:0:0:70:LR_Snare Drum.wav
448,192,84542,1,0,0:0:0:0:
64,192,84636,1,0,0:0:0:70:LR_Snare Drum.wav
192,192,84636,1,0,0:0:0:0:
64,192,84730,128,0,84823:0:0:0:70:LR_Snare Drum.wav
320,192,84730,128,0,84823:0:0:0:0:
448,192,84730,128,0,84823:0:0:0:0:
64,192,85105,128,0,85198:0:0:0:70:LR4_SnareBPDT.wav
192,192,85105,128,0,85292:0:0:0:0:
448,192,85105,128,0,85386:0:0:0:0:
320,192,85198,128,0,85386:0:0:0:0:
64,192,85292,128,0,85386:0:0:0:0:
192,192,85386,128,0,85480:0:0:0:0:
64,192,85480,128,2,85761:0:0:0:0:
320,192,85480,128,0,85761:0:0:0:0:
448,192,85480,128,0,85761:0:0:0:0:
64,192,85855,128,8,86136:0:0:0:0:
192,192,85855,128,4,86136:0:0:0:0:
320,192,85855,128,2,86136:0:0:0:0:
448,192,85855,128,0,86136:0:0:0:0:
64,192,86230,128,2,86417:0:0:0:0:
320,192,86230,1,0,0:0:0:0:
448,192,86230,1,0,0:0:0:0:
192,192,86323,128,0,86417:0:0:0:0:
448,192,86417,1,0,0:0:0:0:
320,192,86511,1,0,0:0:0:0:
64,192,86605,1,2,0:0:0:0:
192,192,86605,1,8,0:0:0:0:
448,192,86605,128,0,86980:0:0:0:0:
192,192,86698,1,0,0:0:0:0:
64,192,86792,1,0,0:0:0:0:
320,192,86792,128,0,86980:0:0:0:0:
64,192,86980,128,2,87167:0:0:0:0:
192,192,86980,1,0,0:0:0:0:
448,192,87073,1,0,0:0:0:0:
192,192,87167,128,0,87355:0:0:0:0:
320,192,87167,1,0,0:0:0:0:
64,192,87355,1,8,0:0:0:0:
320,192,87355,128,2,87542:0:0:0:0:
448,192,87355,1,0,0:0:0:0:
192,192,87448,1,0,0:0:0:0:
64,192,87542,1,0,0:0:0:0:
448,192,87542,128,0,87730:0:0:0:0:
64,192,87730,128,2,88011:0:0:0:0:
192,192,87730,1,0,0:0:0:0:
320,192,87730,1,0,0:0:0:0:
320,192,87917,1,0,0:0:0:0:
192,192,88011,1,0,0:0:0:0:
448,192,88011,1,0,0:0:0:0:
64,192,88105,1,2,0:0:0:0:
320,192,88105,128,8,88386:0:0:0:0:
192,192,88198,1,0,0:0:0:0:
64,192,88292,1,0,0:0:0:0:
448,192,88292,128,0,88386:0:0:0:0:
64,192,88480,128,2,88855:0:0:0:0:
192,192,88480,1,0,0:0:0:0:
320,192,88480,1,0,0:0:0:0:
448,192,88480,1,0,0:0:0:0:
192,192,88667,1,0,0:0:0:0:
192,192,88855,128,2,89136:0:0:0:0:
320,192,88855,1,8,0:0:0:0:
448,192,88855,1,0,0:0:0:0:
64,192,89042,128,0,89136:0:0:0:0:
64,192,89230,1,2,0:0:0:0:
192,192,89230,1,0,0:0:0:0:
320,192,89230,128,0,89417:0:0:0:0:
448,192,89230,128,0,89417:0:0:0:0:
64,192,89417,1,0,0:0:0:0:
192,192,89417,1,0,0:0:0:0:
320,192,89464,1,0,0:0:0:0:
192,192,89511,1,0,0:0:0:0:
64,192,89605,1,8,0:0:0:0:
320,192,89605,1,2,0:0:0:0:
448,192,89605,128,0,89792:0:0:0:0:
192,192,89698,1,0,0:0:0:0:
320,192,89792,128,0,89980:0:0:0:0:
64,192,89980,128,2,90355:0:0:0:0:
192,192,89980,128,0,90167:0:0:0:0:
448,192,89980,128,0,90167:0:0:0:0:
320,192,90167,1,0,0:0:0:0:
192,192,90355,128,8,90730:0:0:0:0:
320,192,90355,128,2,90542:0:0:0:0:
448,192,90355,128,0,90542:0:0:0:0:
64,192,90542,1,0,0:0:0:0:
64,192,90730,128,2,90917:0:0:0:0:
320,192,90730,128,0,90917:0:0:0:0:
448,192,90730,128,0,91105:0:0:0:0:
192,192,90917,1,0,0:0:0:0:
64,192,91105,128,2,91761:0:0:0:0:
192,192,91105,128,0,91292:0:0:0:0:
320,192,91105,128,0,91292:0:0:0:0:
448,192,91292,1,0,0:0:0:0:
192,192,91480,128,2,91761:0:0:0:0:
320,192,91480,128,4,91761:0:0:0:0:
448,192,91480,128,0,91761:0:0:0:0:
64,192,91855,1,8,0:0:0:0:
192,192,91855,1,2,0:0:0:0:
448,192,91855,128,0,92136:0:0:0:0:
320,192,91948,1,0,0:0:0:0:
64,192,92042,1,0,0:0:0:0:
192,192,92136,1,0,0:0:0:0:
64,192,92230,1,2,0:0:0:0:
320,192,92230,1,0,0:0:0:0:
448,192,92230,128,0,92511:0:0:0:0:
192,192,92323,1,0,0:0:0:0:
320,192,92417,1,0,0:0:0:0:
64,192,92511,1,0,0:0:0:0:
192,192,92605,1,2,0:0:0:0:
448,192,92605,128,8,92886:0:0:0:0:
64,192,92698,1,0,0:0:0:0:
192,192,92792,1,0,0:0:0:0:
320,192,92792,128,0,92886:0:0:0:0:
64,192,92980,128,2,93355:0:0:0:0:
192,192,92980,1,0,0:0:0:0:
320,192,92980,1,0,0:0:0:0:
448,192,92980,1,0,0:0:0:0:
192,192,93167,1,0,0:0:0:0:
320,192,93261,1,0,0:0:0:0:
192,192,93355,128,8,93636:0:0:0:0:
448,192,93355,1,2,0:0:0:0:
320,192,93448,1,0,0:0:0:0:
64,192,93542,128,0,93636:0:0:0:0:
448,192,93542,1,0,0:0:0:0:
64,192,93730,1,2,0:0:0:0:
192,192,93730,1,0,0:0:0:0:
320,192,93730,1,0,0:0:0:0:
448,192,93730,128,0,94105:0:0:0:0:
192,192,93917,1,0,0:0:0:0:
64,192,94011,1,0,0:0:0:0:
192,192,94105,1,2,0:0:0:0:
320,192,94105,128,8,94386:0:0:0:0:
64,192,94292,1,0,0:0:0:0:
448,192,94292,128,0,94386:0:0:0:0:
64,192,94480,128,2,94667:0:0:0:0:
192,192,94480,128,0,94855:0:0:0:0:
320,192,94480,1,0,0:0:0:0:
448,192,94480,1,0,0:0:0:0:
320,192,94667,1,0,0:0:0:0:
64,192,94855,128,2,95042:0:0:0:0:
320,192,94855,128,8,95042:0:0:0:0:
448,192,94855,128,0,95042:0:0:0:0:
192,192,95042,1,0,0:0:0:0:
64,192,95230,128,2,95417:0:0:0:0:
192,192,95230,128,0,95417:0:0:0:0:
448,192,95230,128,0,95417:0:0:0:0:
320,192,95417,1,0,0:0:0:0:
192,192,95464,1,0,0:0:0:0:
320,192,95511,1,0,0:0:0:0:
64,192,95605,128,8,95886:0:0:0:0:
192,192,95605,1,2,0:0:0:0:
448,192,95605,1,0,0:0:0:0:
320,192,95698,1,0,0:0:0:0:
192,192,95792,128,0,95886:0:0:0:0:
64,192,95980,1,2,0:0:0:0:
192,192,95980,1,0,0:0:0:0:
320,192,95980,128,0,96261:0:0:0:0:
448,192,95980,128,0,96261:0:0:0:0:
192,192,96261,1,0,0:0:0:0:
64,192,96355,1,2,0:0:0:0:
320,192,96355,128,0,96636:0:0:0:0:
448,192,96355,1,0,0:0:0:0:
192,192,96448,1,0,0:0:0:0:
64,192,96542,1,0,0:0:0:0:
448,192,96542,128,0,96636:0:0:0:0:
64,192,96730,128,2,97386:0:0:0:0:
192,192,96730,1,0,0:0:0:0:
320,192,96730,1,0,0:0:0:0:
448,192,96730,1,0,0:0:0:0:
192,192,96917,1,0,0:0:0:70:VEC3 Snares 009.wav
448,192,96917,1,0,0:0:0:0:
192,192,97011,1,0,0:0:0:0:
320,192,97011,1,0,0:0:0:0:
320,192,97198,1,0,0:0:0:0:
448,192,97198,1,0,0:0:0:0:
192,192,97292,128,0,97386:0:0:0:70:VEC3 Snares 009B.wav
448,192,97292,1,0,0:0:0:0:
64,192,97480,128,4,97667:0:0:0:0:
192,192,97480,128,2,97667:0:0:0:0:
448,192,97480,128,0,97761:0:0:0:0:
320,192,97667,1,0,0:0:0:0:
192,192,97761,1,0,0:0:0:0:
64,192,97855,128,8,98136:0:0:0:0:
448,192,97855,1,2,0:0:0:0:
320,192,97948,1,0,0:0:0:0:
192,192,98042,128,0,98136:0:0:0:0:
448,192,98042,1,0,0:0:0:0:
320,192,98136,1,0,0:0:0:0:
64,192,98230,1,2,0:0:0:0:
192,192,98230,1,0,0:0:0:0:
448,192,98230,128,0,98417:0:0:0:0:
320,192,98323,128,0,98417:0:0:0:0:
64,192,98417,1,0,0:0:0:0:
192,192,98511,1,0,0:0:0:0:
64,192,98605,128,2,98980:0:0:0:0:
320,192,98605,1,8,0:0:0:0:
448,192,98605,1,0,0:0:0:0:
320,192,98698,1,0,0:0:0:0:
192,192,98792,128,0,98980:0:0:0:0:
448,192,98792,1,0,0:0:0:0:
320,192,98980,1,2,0:0:0:0:
448,192,98980,128,0,99167:0:0:0:0:
64,192,99073,1,0,0:0:0:0:
192,192,99167,1,0,0:0:0:0:
320,192,99167,128,0,99355:0:0:0:0:
64,192,99355,1,8,0:0:0:0:
192,192,99355,128,2,99542:0:0:0:0:
448,192,99355,1,0,0:0:0:0:
320,192,99448,1,0,0:0:0:0:
64,192,99542,128,0,99730:0:0:0:0:
448,192,99542,1,0,0:0:0:0:
192,192,99730,1,2,0:0:0:0:
320,192,99730,1,0,0:0:0:0:
448,192,99730,128,0,100011:0:0:0:0:
192,192,99917,1,0,0:0:0:0:
64,192,100011,1,0,0:0:0:0:
320,192,100011,1,0,0:0:0:0:
192,192,100105,128,2,100386:0:0:0:0:
448,192,100105,1,8,0:0:0:0:
320,192,100198,1,0,0:0:0:0:
64,192,100292,128,0,100386:0:0:0:0:
448,192,100292,1,0,0:0:0:0:
64,192,100480,1,2,0:0:0:0:
192,192,100480,1,0,0:0:0:0:
320,192,100480,1,0,0:0:0:0:
448,192,100480,128,0,100855:0:0:0:0:
192,192,100667,1,0,0:0:0:0:
64,192,100855,1,2,0:0:0:0:
192,192,100855,1,8,0:0:0:0:
320,192,100855,128,0,101136:0:0:0:0:
64,192,101042,1,0,0:0:0:0:
448,192,101042,128,0,101136:0:0:0:0:
64,192,101230,128,2,101417:0:0:0:0:
192,192,101230,128,0,101417:0:0:0:0:
320,192,101230,1,0,0:0:0:0:
448,192,101230,1,0,0:0:0:0:
320,192,101417,1,0,0:0:0:0:
448,192,101417,1,0,0:0:0:0:
192,192,101464,1,0,0:0:0:0:
320,192,101511,1,0,0:0:0:0:
64,192,101605,128,8,101792:0:0:0:0:
192,192,101605,1,2,0:0:0:0:
448,192,101605,1,0,0:0:0:0:
320,192,101698,1,0,0:0:0:0:
192,192,101792,128,0,101980:0:0:0:0:
64,192,101980,128,2,102167:0:0:0:0:
320,192,101980,128,0,102167:0:0:0:0:
448,192,101980,128,0,102355:0:0:0:0:
192,192,102167,1,0,0:0:0:0:
64,192,102355,128,8,102542:0:0:0:0:
192,192,102355,128,2,102542:0:0:0:0:
320,192,102355,128,0,102730:0:0:0:0:
448,192,102542,1,0,0:0:0:0:
64,192,102730,128,2,103105:0:0:0:0:
192,192,102730,128,0,102917:0:0:0:0:
448,192,102730,128,0,102917:0:0:0:0:
320,192,102917,1,0,0:0:0:0:
192,192,103105,128,2,103292:0:0:0:0:
320,192,103105,128,0,103292:0:0:0:0:
448,192,103105,128,0,103761:0:0:0:0:
64,192,103292,1,0,0:0:0:0:
64,192,103480,128,2,103761:0:0:0:0:
192,192,103480,128,4,103761:0:0:0:0:
320,192,103480,128,0,103761:0:0:0:0:
64,192,103855,128,8,104136:0:0:0:0:
320,192,103855,1,2,0:0:0:0:
448,192,103855,1,0,0:0:0:0:
192,192,103948,1,0,0:0:0:0:
448,192,104042,1,0,0:0:0:0:
320,192,104136,1,0,0:0:0:0:
64,192,104230,128,2,104511:0:0:0:0:
192,192,104230,1,0,0:0:0:0:
448,192,104230,1,0,0:0:0:0:
320,192,104323,1,0,0:0:0:0:
192,192,104417,1,0,0:0:0:0:
448,192,104511,1,0,0:0:0:0:
64,192,104605,128,2,104886:0:0:0:0:
320,192,104605,1,8,0:0:0:0:
448,192,104698,1,0,0:0:0:0:
192,192,104792,128,0,104886:0:0:0:0:
320,192,104792,1,0,0:0:0:0:
64,192,104980,1,2,0:0:0:0:
192,192,104980,1,0,0:0:0:0:
320,192,104980,1,0,0:0:0:0:
448,192,104980,128,0,105355:0:0:0:0:
320,192,105167,1,0,0:0:0:0:
192,192,105261,1,0,0:0:0:0:
64,192,105355,1,8,0:0:0:0:
320,192,105355,128,2,105636:0:0:0:0:
192,192,105448,1,0,0:0:0:0:
64,192,105542,1,0,0:0:0:0:
448,192,105542,128,0,105636:0:0:0:0:
64,192,105730,128,2,106105:0:0:0:0:
192,192,105730,1,0,0:0:0:0:
320,192,105730,1,0,0:0:0:0:
448,192,105730,1,0,0:0:0:0:
320,192,105917,1,0,0:0:0:0:
448,192,106011,1,0,0:0:0:0:
192,192,106105,128,2,106386:0:0:0:0:
320,192,106105,1,8,0:0:0:0:
64,192,106292,128,0,106386:0:0:0:0:
448,192,106292,1,0,0:0:0:0:
64,192,106480,1,2,0:0:0:0:
320,192,106480,1,0,0:0:0:0:
448,192,106480,128,0,106761:0:0:0:0:
192,192,106573,1,0,0:0:0:0:
320,192,106667,1,0,0:0:0:0:
192,192,106761,1,0,0:0:0:0:
64,192,106855,1,2,0:0:0:0:
320,192,106855,128,8,107136:0:0:0:0:
448,192,106855,1,0,0:0:0:0:
192,192,106948,1,0,0:0:0:0:
448,192,107042,1,0,0:0:0:0:
64,192,107136,1,0,0:0:0:0:
192,192,107230,128,2,107511:0:0:0:0:
320,192,107230,1,0,0:0:0:0:
448,192,107230,1,0,0:0:0:0:
64,192,107323,1,0,0:0:0:0:
320,192,107417,1,0,0:0:0:0:
448,192,107511,1,0,0:0:0:0:
64,192,107605,128,8,107886:0:0:0:0:
192,192,107605,1,2,0:0:0:0:
320,192,107605,1,0,0:0:0:0:
448,192,107698,1,0,0:0:0:0:
192,192,107792,1,0,0:0:0:0:
448,192,107886,1,0,0:0:0:0:
64,192,107980,128,2,108542:0:0:0:0:
192,192,107980,1,0,0:0:0:0:
320,192,107980,1,0,0:0:0:0:
192,192,108167,128,0,108542:0:0:0:0:
448,192,108261,1,2,0:0:0:0:
320,192,108355,128,0,108730:0:0:0:0:
448,192,108542,128,0,108730:0:0:0:70:VEC3 Snares 009.wav
64,192,108636,1,0,0:0:0:0:
192,192,108730,1,0,0:0:0:70:VEC3 Snares 009B.wav
64,192,108776,1,0,0:0:0:0:
320,192,108823,1,0,0:0:0:0:
448,192,108870,1,0,0:0:0:0:
192,192,108917,1,0,0:0:0:0:
64,192,108964,1,0,0:0:0:0:
448,192,109011,1,0,0:0:0:0:
320,192,109058,1,0,0:0:0:0:
192,192,109105,1,0,0:0:0:70:LR4_SnareBPDT.wav
64,192,109151,1,0,0:0:0:0:
448,192,109198,1,0,0:0:0:0:
320,192,109245,1,0,0:0:0:0:
64,192,109292,1,0,0:0:0:0:
192,192,109339,1,0,0:0:0:0:
320,192,109386,1,0,0:0:0:0:
64,192,109433,1,0,0:0:0:0:
192,192,109480,1,2,0:0:0:0:
448,192,109480,128,4,109573:0:0:0:0:
320,192,109573,1,0,0:0:0:0:
64,192,109667,1,0,0:0:0:0:
192,192,109761,1,0,0:0:0:0:
320,192,109855,1,0,0:0:0:0:
448,192,109855,128,0,109948:0:0:0:0:
64,192,109948,1,0,0:0:0:0:
448,192,110042,1,0,0:0:0:0:
320,192,110136,1,0,0:0:0:0:
64,192,110230,1,0,0:0:0:0:
448,192,110230,128,0,110323:0:0:0:0:
192,192,110323,1,0,0:0:0:0:
448,192,110417,1,0,0:0:0:0:
64,192,110511,1,0,0:0:0:0:
320,192,110511,128,0,110605:0:0:0:0:
448,192,110605,1,0,0:0:0:0:
64,192,110698,128,0,110792:0:0:0:0:
192,192,110698,1,0,0:0:0:0:
320,192,110792,1,0,0:0:0:0:
448,192,110792,128,0,110886:0:0:0:0:
192,192,110886,1,0,0:0:0:0:
64,192,110980,128,0,111073:0:0:0:0:
320,192,110980,1,0,0:0:0:0:
192,192,111073,1,0,0:0:0:0:
64,192,111167,1,0,0:0:0:0:
320,192,111261,1,0,0:0:0:0:
192,192,111355,1,0,0:0:0:0:
448,192,111355,128,0,111448:0:0:0:0:
64,192,111448,1,0,0:0:0:0:
320,192,111542,1,0,0:0:0:0:
448,192,111636,1,0,0:0:0:0:
64,192,111730,1,0,0:0:0:0:
320,192,111730,128,0,111823:0:0:0:0:
192,192,111823,1,0,0:0:0:0:
320,192,111917,1,0,0:0:0:0:
192,192,112011,128,0,112105:0:0:0:0:
448,192,112011,1,0,0:0:0:0:
64,192,112105,1,0,0:0:0:0:
320,192,112198,1,0,0:0:0:0:
448,192,112198,128,0,112292:0:0:0:0:
64,192,112292,128,0,112386:0:0:0:0:
192,192,112292,1,0,0:0:0:0:
320,192,112386,1,0,0:0:0:0:
64,192,112480,1,0,0:0:0:0:
448,192,112480,128,0,112573:0:0:0:0:
320,192,112573,1,0,0:0:0:0:
192,192,112667,1,0,0:0:0:0:
64,192,112761,1,0,0:0:0:0:
192,192,112855,1,0,0:0:0:0:
448,192,112855,128,0,112948:0:0:0:0:
320,192,112948,1,0,0:0:0:0:
64,192,113042,1,0,0:0:0:0:
448,192,113136,1,0,0:0:0:0:
192,192,113230,128,0,113323:0:0:0:0:
320,192,113230,1,0,0:0:0:0:
448,192,113323,1,0,0:0:0:0:
192,192,113417,1,0,0:0:0:0:
64,192,113511,1,0,0:0:0:0:
320,192,113511,128,0,113605:0:0:0:0:
448,192,113605,1,0,0:0:0:0:
64,192,113698,128,0,113792:0:0:0:0:
320,192,113698,1,0,0:0:0:0:
192,192,113792,128,0,113886:0:0:0:0:
448,192,113792,1,0,0:0:0:0:
320,192,113886,1,0,0:0:0:0:
64,192,113980,128,0,114073:0:0:0:0:
192,192,113980,1,0,0:0:0:0:
448,192,114073,1,0,0:0:0:0:
320,192,114167,1,0,0:0:0:0:
64,192,114261,1,0,0:0:0:0:
192,192,114355,1,0,0:0:0:0:
448,192,114355,128,0,114448:0:0:0:0:
64,192,114448,1,0,0:0:0:0:
320,192,114542,1,0,0:0:0:0:
192,192,114636,1,0,0:0:0:0:
320,192,114730,128,0,114823:0:0:0:0:
448,192,114730,1,0,0:0:0:0:
64,192,114823,1,0,0:0:0:0:
320,192,114917,1,0,0:0:0:0:
192,192,115011,128,0,115105:0:0:0:0:
448,192,115011,1,0,0:0:0:0:
64,192,115105,1,0,0:0:0:0:
192,192,115198,1,0,0:0:0:0:
320,192,115292,128,0,115386:0:0:0:0:
448,192,115292,1,0,0:0:0:0:
64,192,115386,1,0,0:0:0:0:
192,192,115480,1,0,0:0:0:0:
448,192,115480,128,0,115573:0:0:0:0:
320,192,115573,1,0,0:0:0:0:
64,192,115667,1,0,0:0:0:0:
448,192,115761,1,0,0:0:0:0:
64,192,115855,1,0,0:0:0:0:
192,192,115855,128,0,115948:0:0:0:0:
320,192,115948,1,0,0:0:0:0:
192,192,116042,1,0,0:0:0:0:
448,192,116136,1,0,0:0:0:0:
64,192,116230,128,0,116323:0:0:0:0:
320,192,116230,1,0,0:0:0:0:
192,192,116323,1,0,0:0:0:0:
64,192,116417,1,0,0:0:0:0:
192,192,116511,128,0,116605:0:0:0:0:
448,192,116511,1,0,0:0:0:0:
64,192,116605,1,0,0:0:0:0:
320,192,116698,1,0,0:0:0:0:
448,192,116698,128,0,116792:0:0:0:0:
64,192,116792,128,0,116886:0:0:0:0:
192,192,116792,1,0,0:0:0:0:
320,192,116886,1,0,0:0:0:0:
64,192,116980,1,0,0:0:0:0:
448,192,116980,128,0,117073:0:0:0:0:
192,192,117073,1,0,0:0:0:0:
64,192,117167,1,0,0:0:0:0:
192,192,117261,1,0,0:0:0:0:
320,192,117261,128,0,117355:0:0:0:0:
448,192,117355,1,0,0:0:0:0:
64,192,117448,128,0,117542:0:0:0:0:
320,192,117448,1,0,0:0:0:0:
192,192,117542,1,0,0:0:0:0:
448,192,117542,128,0,117636:0:0:0:0:
320,192,117636,1,0,0:0:0:0:
64,192,117730,128,0,117823:0:0:0:0:
448,192,117730,1,0,0:0:0:0:
192,192,117823,1,0,0:0:0:0:
64,192,117917,1,0,0:0:0:0:
320,192,118011,1,0,0:0:0:0:
448,192,118011,128,0,118105:0:0:0:0:
192,192,118105,1,0,0:0:0:0:
448,192,118198,1,0,0:0:0:0:
64,192,118292,1,0,0:0:0:0:
320,192,118292,128,0,118386:0:0:0:0:
448,192,118386,1,0,0:0:0:0:
64,192,118480,1,0,0:0:0:0:
192,192,118480,128,0,118573:0:0:0:0:
320,192,118573,1,0,0:0:0:0:
448,192,118667,1,0,0:0:0:0:
64,192,118761,1,0,0:0:0:0:
192,192,118855,1,0,0:0:0:0:
448,192,118855,128,0,118948:0:0:0:0:
320,192,118948,1,0,0:0:0:0:
64,192,119042,1,0,0:0:0:0:
192,192,119136,1,0,0:0:0:0:
320,192,119230,128,0,119323:0:0:0:0:
448,192,119230,1,0,0:0:0:0:
64,192,119323,1,0,0:0:0:0:
320,192,119417,1,0,0:0:0:0:
192,192,119511,128,0,119605:0:0:0:0:
448,192,119511,1,0,0:0:0:0:
64,192,119605,1,0,0:0:0:0:
192,192,119698,1,0,0:0:0:0:
320,192,119698,128,0,119792:0:0:0:0:
64,192,119792,128,0,119886:0:0:0:0:
448,192,119792,1,0,0:0:0:0:
320,192,119886,1,0,0:0:0:0:
192,192,119980,128,0,120073:0:0:0:0:
448,192,119980,1,0,0:0:0:0:
320,192,120073,1,0,0:0:0:0:
192,192,120167,1,0,0:0:0:0:
64,192,120261,1,0,0:0:0:0:
320,192,120261,128,0,120355:0:0:0:0:
448,192,120355,1,0,0:0:0:0:
64,192,120448,128,0,120542:0:0:0:0:
192,192,120448,1,0,0:0:0:0:
320,192,120542,1,0,0:0:0:0:
448,192,120542,128,0,120636:0:0:0:0:
192,192,120636,1,0,0:0:0:0:
64,192,120730,128,0,120823:0:0:0:0:
320,192,120730,1,0,0:0:0:0:
448,192,120823,1,0,0:0:0:0:
64,192,120917,1,0,0:0:0:0:
192,192,121011,128,0,121105:0:0:0:0:
448,192,121011,1,0,0:0:0:0:
320,192,121105,1,0,0:0:0:0:
192,192,121198,1,0,0:0:0:0:
64,192,121292,1,0,0:0:0:0:
448,192,121292,128,0,121386:0:0:0:0:
320,192,121386,1,0,0:0:0:0:
192,192,121480,1,0,0:0:0:0:
