osu file format v14

[General]
AudioFilename: audio.ogg
AudioLeadIn: 0
PreviewTime: 83980
Countdown: 0
SampleSet: Soft
StackLeniency: 0.7
Mode: 3
LetterboxInBreaks: 0
SpecialStyle: 0
WidescreenStoryboard: 0

[Editor]
DistanceSpacing: 0.5
BeatDivisor: 3
GridSize: 4
TimelineZoom: 1.950001

[Metadata]
Title:SUPER * HARAGURO * POP
TitleUnicode:SUPER☆HARAGURO☆POP
Artist:Zekk
ArtistUnicode:Zekk
Creator:Lami-
Version:Expert
Source:CHRONO CIRCLE
Tags:FAMoss _Asha Murumoo Denyi -Ming- video game instrumental electronic super haraguro pop 腹黒
BeatmapID:3517331
BeatmapSetID:1721103

[Difficulty]
HPDrainRate:8
CircleSize:4
OverallDifficulty:8
ApproachRate:5
SliderMultiplier:1.4
SliderTickRate:1

[Events]
//Background and Video events
0,0,"FMb5OLragA0ccOz.jpg",0,0
Video,877,"bga.mp4"
//Break Periods
//Storyboard Layer 0 (Background)
//Storyboard Layer 1 (Fail)
//Storyboard Layer 2 (Pass)
//Storyboard Layer 3 (Foreground)
//Storyboard Layer 4 (Overlay)
//Storyboard Sound Samples

[TimingPoints]
1480,375,4,2,1,70,1,0
85855,-100,4,2,1,70,0,1
109480,-100,4,2,1,50,0,0

[HitObjects]
448,192,355,128,0,1480:0:0:0:0:
64,192,1480,128,2,1667:0:0:0:0:
192,192,1480,1,4,0:0:0:0:
320,192,1480,1,0,0:0:0:0:
448,192,1667,1,0,0:0:0:0:
192,192,1855,1,0,0:0:0:0:
320,192,1855,128,0,2042:0:0:0:0:
448,192,2042,1,0,0:0:0:0:
64,192,2136,1,0,0:0:0:0:
192,192,2230,128,0,2417:0:0:0:0:
64,192,2417,1,0,0:0:0:0:
192,192,2511,128,0,2698:0:0:0:0:
320,192,2605,1,0,0:0:0:0:
64,192,2792,128,0,2980:0:0:0:0:
448,192,2792,1,0,0:0:0:0:
320,192,2980,128,0,3167:0:0:0:0:
448,192,2980,1,0,0:0:0:0:
192,192,3167,128,0,3355:0:0:0:0:
64,192,3355,128,0,3542:0:0:0:0:
448,192,3355,1,0,0:0:0:0:
320,192,3542,128,0,3730:0:0:0:0:
448,192,3636,1,0,0:0:0:0:
192,192,3730,128,0,3917:0:0:0:0:
64,192,3917,1,0,0:0:0:0:
448,192,3917,128,0,4105:0:0:0:0:
192,192,4105,1,0,0:0:0:0:
320,192,4105,128,0,4292:0:0:0:0:
64,192,4292,128,0,4386:0:0:0:0:
448,192,4292,1,0,0:0:0:0:
192,192,4386,128,0,4480:0:0:0:0:
320,192,4480,1,0,0:0:0:0:
448,192,4480,128,0,4667:0:0:0:0:
64,192,4667,1,0,0:0:0:0:
192,192,4855,1,0,0:0:0:0:
320,192,4855,128,0,5042:0:0:0:0:
448,192,5042,1,0,0:0:0:0:
192,192,5136,1,0,0:0:0:0:
64,192,5230,128,0,5417:0:0:0:0:
448,192,5417,1,0,0:0:0:0:
64,192,5511,128,0,5698:0:0:0:0:
320,192,5605,1,0,0:0:0:0:
192,192,5792,128,0,5980:0:0:0:0:
448,192,5792,1,0,0:0:0:0:
64,192,5980,1,0,0:0:0:0:
448,192,5980,128,0,6167:0:0:0:0:
320,192,6167,128,0,6355:0:0:0:0:
64,192,6355,128,0,6542:0:0:0:0:
192,192,6355,1,0,0:0:0:0:
320,192,6542,128,0,6730:0:0:0:0:
448,192,6636,1,0,0:0:0:0:
192,192,6730,128,0,6917:0:0:0:0:
64,192,6917,1,0,0:0:0:0:
320,192,6917,128,0,7105:0:0:0:0:
192,192,7105,1,0,0:0:0:0:
448,192,7105,128,0,7292:0:0:0:0:
64,192,7292,128,0,7480:0:0:0:0:
320,192,7292,1,0,0:0:0:0:
192,192,7480,128,2,7667:0:0:0:0:
320,192,7480,128,0,7667:0:0:0:0:
448,192,7480,1,0,0:0:0:0:
64,192,7667,1,0,0:0:0:0:
64,192,7855,128,0,8042:0:0:0:0:
192,192,7855,128,0,8042:0:0:0:0:
448,192,8042,1,0,0:0:0:0:
320,192,8136,1,0,0:0:0:0:
192,192,8230,128,0,8417:0:0:0:0:
448,192,8230,128,0,8417:0:0:0:0:
64,192,8417,1,0,0:0:0:0:
192,192,8511,128,0,8698:0:0:0:0:
448,192,8511,128,0,8698:0:0:0:0:
320,192,8605,1,0,0:0:0:0:
64,192,8792,128,0,8980:0:0:0:0:
448,192,8792,128,0,8980:0:0:0:0:
192,192,8980,128,0,9167:0:0:0:0:
320,192,8980,128,0,9167:0:0:0:0:
448,192,9167,128,0,9355:0:0:0:0:
64,192,9355,128,0,9542:0:0:0:0:
192,192,9355,128,0,9542:0:0:0:0:
320,192,9542,128,0,9730:0:0:0:0:
192,192,9636,1,0,0:0:0:0:
64,192,9730,128,0,9917:0:0:0:0:
448,192,9730,128,0,9917:0:0:0:0:
192,192,9917,128,0,10105:0:0:0:0:
320,192,9917,1,0,0:0:0:0:
320,192,10105,128,0,10292:0:0:0:0:
448,192,10105,128,0,10292:0:0:0:0:
64,192,10292,1,0,0:0:0:0:
192,192,10292,128,0,10386:0:0:0:0:
320,192,10386,128,0,10480:0:0:0:0:
64,192,10480,1,0,0:0:0:0:
192,192,10480,128,0,10667:0:0:0:0:
448,192,10480,128,0,10667:0:0:0:0:
320,192,10667,1,0,0:0:0:0:
192,192,10855,128,0,11042:0:0:0:0:
448,192,10855,128,0,11042:0:0:0:0:
320,192,11042,1,0,0:0:0:0:
64,192,11136,1,0,0:0:0:0:
320,192,11230,128,0,11323:0:0:0:0:
192,192,11323,128,0,11417:0:0:0:0:
448,192,11417,1,0,0:0:0:0:
64,192,11511,128,0,11605:0:0:0:0:
192,192,11511,128,0,11605:0:0:0:0:
320,192,11605,1,0,0:0:0:0:
320,192,11792,128,0,11980:0:0:0:0:
448,192,11792,128,0,11980:0:0:0:0:
64,192,11980,128,2,12730:0:0:0:0:
192,192,11980,1,0,0:0:0:0:
320,192,12167,1,0,0:0:0:70:tom02.wav
192,192,12261,1,0,0:0:0:70:tom03.wav
448,192,12355,1,0,0:0:0:70:tom04.wav
320,192,12448,1,0,0:0:0:70:tom01.wav
192,192,12636,1,0,0:0:0:70:tom02.wav
320,192,12730,1,0,0:0:0:0:
448,192,12730,128,0,13480:0:0:0:0:
64,192,12823,1,0,0:0:0:0:
192,192,12917,1,0,0:0:0:0:
320,192,13011,1,0,0:0:0:0:
64,192,13105,1,0,0:0:0:70:Clap Hand.wav
192,192,13198,1,0,0:0:0:0:
320,192,13292,1,0,0:0:0:0:
192,192,13386,1,0,0:0:0:0:
64,192,13480,128,2,13667:0:0:0:0:
320,192,13480,1,4,0:0:0:0:
320,192,13667,128,0,13855:0:0:0:0:
192,192,13855,128,0,14042:0:0:0:70:Clap Hand.wav
448,192,13855,1,0,0:0:0:0:
320,192,14042,1,0,0:0:0:0:
64,192,14136,1,0,0:0:0:0:
192,192,14230,1,0,0:0:0:70:Clap Hand.wav
448,192,14230,128,0,14417:0:0:0:0:
64,192,14417,128,0,14605:0:0:0:0:
320,192,14605,128,0,14792:0:0:0:70:Clap Hand.wav
448,192,14605,1,0,0:0:0:0:
192,192,14792,128,0,14980:0:0:0:0:
64,192,14886,1,0,0:0:0:0:
320,192,14980,1,0,0:0:0:70:Clap Hand.wav
448,192,14980,128,0,15167:0:0:0:0:
64,192,15167,128,0,15355:0:0:0:0:
192,192,15355,1,0,0:0:0:70:Clap Hand.wav
448,192,15355,128,0,15542:0:0:0:0:
320,192,15542,128,0,15730:0:0:0:0:
64,192,15636,1,0,0:0:0:0:
192,192,15730,128,0,15917:0:0:0:70:Clap Hand.wav
448,192,15730,1,0,0:0:0:0:
64,192,15917,128,0,16105:0:0:0:0:
320,192,16105,1,0,0:0:0:70:Clap Hand.wav
448,192,16105,128,0,16292:0:0:0:0:
192,192,16292,128,0,16480:0:0:0:0:
64,192,16480,1,0,0:0:0:70:Clap Hand.wav
320,192,16480,128,0,16667:0:0:0:0:
448,192,16667,1,0,0:0:0:0:
64,192,16855,1,0,0:0:0:70:Clap Hand.wav
448,192,16855,128,0,17042:0:0:0:0:
192,192,17042,128,0,17230:0:0:0:0:
320,192,17136,1,0,0:0:0:0:
64,192,17230,128,0,17417:0:0:0:70:Clap Hand.wav
448,192,17230,1,0,0:0:0:0:
320,192,17417,128,0,17605:0:0:0:0:
64,192,17605,1,0,0:0:0:70:Clap Hand.wav
192,192,17605,128,0,17792:0:0:0:0:
448,192,17792,128,0,17980:0:0:0:0:
320,192,17886,1,0,0:0:0:0:
64,192,17980,128,0,18167:0:0:0:70:Clap Hand.wav
192,192,17980,1,0,0:0:0:0:
320,192,18167,128,0,18355:0:0:0:0:
64,192,18355,128,0,18542:0:0:0:70:Clap Hand.wav
448,192,18355,1,0,0:0:0:0:
320,192,18542,128,0,18730:0:0:0:0:
192,192,18636,1,0,0:0:0:0:
64,192,18730,1,0,0:0:0:70:Clap Hand.wav
448,192,18730,128,0,18917:0:0:0:0:
64,192,18917,128,0,19105:0:0:0:0:
320,192,19105,1,0,0:0:0:70:Clap Hand.wav
448,192,19105,128,0,19292:0:0:0:0:
64,192,19292,1,0,0:0:0:0:
192,192,19292,128,0,19480:0:0:0:0:
64,192,19480,128,2,19667:0:0:0:0:
320,192,19480,1,4,0:0:0:0:
448,192,19480,1,0,0:0:0:0:
448,192,19667,128,0,19855:0:0:0:0:
192,192,19855,1,0,0:0:0:70:Clap Hand.wav
320,192,19855,128,0,20042:0:0:0:0:
64,192,20042,1,0,0:0:0:0:
448,192,20136,1,0,0:0:0:0:
192,192,20230,128,0,20417:0:0:0:70:Clap Hand.wav
320,192,20230,1,0,0:0:0:0:
448,192,20417,128,0,20605:0:0:0:0:
64,192,20605,128,0,20792:0:0:0:70:Clap Hand.wav
192,192,20605,1,0,0:0:0:0:
320,192,20792,128,0,20980:0:0:0:0:
448,192,20886,1,0,0:0:0:0:
64,192,20980,1,0,0:0:0:70:Clap Hand.wav
192,192,20980,128,0,21167:0:0:0:0:
64,192,21167,128,0,21355:0:0:0:0:
320,192,21355,128,0,21542:0:0:0:70:Clap Hand.wav
448,192,21355,1,0,0:0:0:0:
192,192,21542,128,0,21730:0:0:0:0:
64,192,21636,1,0,0:0:0:0:
320,192,21730,1,0,0:0:0:70:Clap Hand.wav
448,192,21730,128,0,21917:0:0:0:0:
64,192,21917,128,0,22105:0:0:0:0:
192,192,22105,128,0,22292:0:0:0:70:Clap Hand.wav
448,192,22105,1,0,0:0:0:0:
320,192,22292,128,0,22480:0:0:0:0:
64,192,22386,1,0,0:0:0:0:
192,192,22480,1,0,0:0:0:70:Clap Hand.wav
448,192,22480,128,0,22667:0:0:0:0:
320,192,22667,1,0,0:0:0:0:
192,192,22855,1,0,0:0:0:70:Clap Hand.wav
448,192,22855,128,0,23042:0:0:0:0:
64,192,23042,1,0,0:0:0:0:
192,192,23136,1,0,0:0:0:0:
320,192,23230,128,0,23417:0:0:0:70:Clap Hand.wav
448,192,23230,1,0,0:0:0:0:
64,192,23417,1,0,0:0:0:0:
192,192,23417,128,0,23605:0:0:0:0:
64,192,23605,128,0,23792:0:0:0:70:Clap Hand.wav
448,192,23605,1,0,0:0:0:0:
320,192,23792,128,2,23980:0:0:0:0:
448,192,23792,128,0,23980:0:0:0:0:
64,192,23980,1,0,0:0:0:0:
192,192,24026,1,0,0:0:0:0:
320,192,24073,1,0,0:0:0:0:
448,192,24120,1,0,0:0:0:0:
64,192,24167,1,0,0:0:0:0:
320,192,24261,1,0,0:0:0:0:
64,192,24355,1,0,0:0:0:0:
192,192,24355,1,0,0:0:0:0:
192,192,24448,1,0,0:0:0:0:
320,192,24542,1,0,0:0:0:0:
320,192,24636,1,0,0:0:0:0:
64,192,24730,128,0,25105:0:0:0:70:VEC3 Snares 009.wav
448,192,24730,1,0,0:0:0:0:
448,192,24823,1,0,0:0:0:70:VEC3 Snares 009B.wav
192,192,24917,128,0,25105:0:0:0:0:
320,192,25105,128,0,25480:0:0:0:70:LR4_SnareBPDT.wav
448,192,25105,128,0,25480:0:0:0:0:
64,192,25480,1,2,0:0:0:0:
192,192,25480,1,4,0:0:0:0:
320,192,25667,1,0,0:0:0:0:
64,192,25855,1,8,0:0:0:0:
192,192,25855,1,0,0:0:0:0:
320,192,26042,1,0,0:0:0:0:
64,192,26230,1,8,0:0:0:0:
448,192,26230,1,0,0:0:0:0:
320,192,26323,1,0,0:0:0:0:
192,192,26511,1,0,0:0:0:0:
320,192,26605,1,8,0:0:0:0:
448,192,26605,1,0,0:0:0:0:
64,192,26792,1,0,0:0:0:0:
192,192,26980,1,8,0:0:0:0:
448,192,26980,1,0,0:0:0:0:
320,192,27167,1,0,0:0:0:0:
64,192,27355,1,8,0:0:0:0:
192,192,27355,1,0,0:0:0:0:
320,192,27542,1,0,0:0:0:0:
64,192,27730,1,8,0:0:0:0:
448,192,27730,1,0,0:0:0:0:
320,192,27823,1,0,0:0:0:0:
192,192,28011,1,0,0:0:0:0:
64,192,28105,1,8,0:0:0:0:
448,192,28105,1,0,0:0:0:0:
320,192,28292,1,0,0:0:0:0:
192,192,28480,1,8,0:0:0:0:
448,192,28480,1,0,0:0:0:0:
320,192,28667,1,0,0:0:0:0:
64,192,28855,1,8,0:0:0:0:
448,192,28855,1,0,0:0:0:0:
192,192,29042,1,0,0:0:0:0:
64,192,29230,1,8,0:0:0:0:
320,192,29230,1,0,0:0:0:0:
448,192,29417,1,0,0:0:0:0:
64,192,29605,1,8,0:0:0:0:
320,192,29605,1,0,0:0:0:0:
192,192,29792,1,0,0:0:0:0:
320,192,29980,1,8,0:0:0:0:
448,192,29980,1,0,0:0:0:0:
64,192,30167,1,0,0:0:0:0:
192,192,30355,1,8,0:0:0:0:
448,192,30355,1,0,0:0:0:0:
64,192,30542,1,0,0:0:0:0:
192,192,30730,1,8,0:0:0:0:
448,192,30730,1,2,0:0:0:0:
320,192,30823,1,0,0:0:0:0:
192,192,30917,1,0,0:0:0:0:
64,192,31011,1,0,0:0:0:0:
320,192,31105,1,0,0:0:0:0:
192,192,31198,1,0,0:0:0:0:
448,192,31292,1,0,0:0:0:0:
320,192,31386,1,0,0:0:0:0:
64,192,31480,1,10,0:0:0:0:
192,192,31480,1,4,0:0:0:0:
448,192,31573,1,0,0:0:0:0:
64,192,31667,1,2,0:0:0:0:
192,192,31667,1,0,0:0:0:0:
320,192,31761,1,0,0:0:0:0:
64,192,31855,1,8,0:0:0:0:
448,192,31855,1,2,0:0:0:0:
192,192,31948,1,0,0:0:0:0:
320,192,32042,1,2,0:0:0:0:
448,192,32042,1,0,0:0:0:0:
192,192,32136,1,0,0:0:0:0:
64,192,32230,1,8,0:0:0:0:
320,192,32230,1,2,0:0:0:0:
448,192,32323,1,0,0:0:0:0:
64,192,32417,1,2,0:0:0:0:
192,192,32417,1,0,0:0:0:0:
320,192,32511,1,0,0:0:0:0:
64,192,32605,1,8,0:0:0:0:
448,192,32605,1,2,0:0:0:0:
192,192,32698,1,0,0:0:0:0:
320,192,32792,1,2,0:0:0:0:
448,192,32792,1,0,0:0:0:0:
192,192,32886,1,0,0:0:0:0:
64,192,32980,1,8,0:0:0:0:
448,192,32980,1,2,0:0:0:0:
320,192,33073,1,0,0:0:0:0:
64,192,33167,1,2,0:0:0:0:
192,192,33167,1,0,0:0:0:0:
448,192,33261,1,0,0:0:0:0:
64,192,33355,1,2,0:0:0:0:
320,192,33355,1,8,0:0:0:0:
192,192,33448,1,0,0:0:0:0:
320,192,33542,1,2,0:0:0:0:
448,192,33542,1,0,0:0:0:0:
192,192,33636,1,0,0:0:0:0:
64,192,33730,1,2,0:0:0:0:
448,192,33730,1,8,0:0:0:0:
320,192,33823,1,0,0:0:0:0:
192,192,33917,1,2,0:0:0:0:
448,192,33917,1,0,0:0:0:0:
64,192,34011,1,0,0:0:0:0:
320,192,34105,1,2,0:0:0:0:
192,192,34105,1,8,0:0:0:0:
448,192,34198,1,0,0:0:0:0:
64,192,34292,1,2,0:0:0:0:
320,192,34292,1,0,0:0:0:0:
192,192,34386,1,0,0:0:0:0:
64,192,34480,1,8,0:0:0:0:
320,192,34480,1,0,0:0:0:0:
448,192,34480,1,0,0:0:0:0:
192,192,34605,1,8,0:0:0:0:
448,192,34605,1,0,0:0:0:0:
320,192,34730,1,8,0:0:0:0:
448,192,34730,1,0,0:0:0:0:
64,192,34855,1,8,0:0:0:0:
192,192,34855,1,0,0:0:0:0:
64,192,34980,1,8,0:0:0:0:
320,192,34980,1,0,0:0:0:0:
64,192,35105,1,8,0:0:0:0:
448,192,35105,1,0,0:0:0:0:
192,192,35230,1,8,0:0:0:0:
320,192,35230,1,0,0:0:0:0:
64,192,35355,1,8,0:0:0:0:
320,192,35355,1,0,0:0:0:0:
448,192,35480,1,8,0:0:0:0:
320,192,35480,1,0,0:0:0:0:
192,192,35605,1,8,0:0:0:0:
64,192,35605,1,0,0:0:0:0:
192,192,35730,1,8,0:0:0:0:
448,192,35730,1,0,0:0:0:0:
320,192,35855,1,8,0:0:0:0:
192,192,35855,1,0,0:0:0:0:
64,192,35980,128,2,36073:0:0:0:0:
448,192,35980,128,0,36073:0:0:0:0:
64,192,36355,128,0,36542:0:0:0:70:LR_Snare Drum.wav
320,192,36355,128,0,36542:0:0:0:0:
448,192,36542,1,0,0:0:0:70:LR_Snare Drum.wav
192,192,36636,1,0,0:0:0:70:LR_Snare Drum.wav
64,192,36730,128,0,36823:0:0:0:70:LR_Snare Drum.wav
320,192,36730,128,0,36823:0:0:0:0:
448,192,36730,128,0,36823:0:0:0:0:
64,192,37105,1,0,0:0:0:70:LR4_SnareBPDT.wav
320,192,37105,1,0,0:0:0:0:
448,192,37105,1,0,0:0:0:0:
192,192,37292,1,2,0:0:0:0:
64,192,37339,1,2,0:0:0:0:
320,192,37386,1,2,0:0:0:0:
448,192,37433,1,2,0:0:0:0:
64,192,37480,128,2,37573:0:0:0:0:
192,192,37480,128,4,37573:0:0:0:0:
448,192,37761,128,0,37855:0:0:0:0:
64,192,37855,128,2,37948:0:0:0:0:
320,192,37855,128,8,37948:0:0:0:0:
64,192,38042,128,0,38230:0:0:0:0:
192,192,38042,128,0,38230:0:0:0:0:
320,192,38230,128,2,38323:0:0:0:0:
448,192,38230,128,0,38323:0:0:0:0:
64,192,38417,1,0,0:0:0:0:
192,192,38511,128,0,38605:0:0:0:0:
64,192,38605,128,2,38698:0:0:0:0:
448,192,38605,128,8,38698:0:0:0:0:
64,192,38792,128,0,38886:0:0:0:0:
448,192,38792,128,0,38886:0:0:0:0:
192,192,38980,128,2,39073:0:0:0:0:
320,192,38980,128,0,39073:0:0:0:0:
448,192,39167,1,0,0:0:0:0:
64,192,39261,128,0,39355:0:0:0:0:
320,192,39355,128,2,39448:0:0:0:0:
448,192,39355,128,8,39448:0:0:0:0:
192,192,39542,128,0,39730:0:0:0:0:
448,192,39542,128,0,39730:0:0:0:0:
64,192,39730,128,2,39823:0:0:0:0:
320,192,39730,128,0,39823:0:0:0:0:
192,192,39917,1,0,0:0:0:0:
448,192,40011,128,0,40105:0:0:0:0:
64,192,40105,128,2,40198:0:0:0:0:
320,192,40105,128,8,40198:0:0:0:0:
64,192,40292,128,0,40386:0:0:0:0:
320,192,40292,128,0,40386:0:0:0:0:
192,192,40480,128,2,40573:0:0:0:0:
448,192,40480,128,4,40573:0:0:0:0:
320,192,40667,1,0,0:0:0:0:
192,192,40761,128,0,40855:0:0:0:0:
64,192,40855,128,8,40948:0:0:0:0:
448,192,40855,128,2,40948:0:0:0:0:
320,192,41042,128,0,41230:0:0:0:0:
448,192,41042,128,0,41230:0:0:0:0:
64,192,41230,128,2,41323:0:0:0:0:
192,192,41230,128,0,41323:0:0:0:0:
448,192,41417,1,0,0:0:0:0:
320,192,41511,128,0,41605:0:0:0:0:
64,192,41605,128,8,41698:0:0:0:0:
192,192,41605,128,2,41698:0:0:0:0:
64,192,41792,128,0,41886:0:0:0:0:
192,192,41792,128,0,41886:0:0:0:0:
320,192,41980,1,2,0:0:0:0:
448,192,41980,128,4,42167:0:0:0:0:
64,192,42167,1,0,0:0:0:0:
320,192,42636,1,0,0:0:0:70:LR_Snare Drum.wav
192,192,42683,1,0,0:0:0:70:LR_Snare Drum.wav
64,192,42730,1,2,0:0:0:0:
448,192,42730,1,0,0:0:0:0:
320,192,42855,1,0,0:0:0:70:LR_Snare Drum.wav
320,192,42980,1,0,0:0:0:70:LR_Snare Drum.wav
64,192,43105,1,0,0:0:0:70:LR_Snare Drum.wav
192,192,43105,1,0,0:0:0:0:
192,192,43292,1,0,0:0:0:70:LR_Snare Drum.wav
64,192,43480,128,4,43573:0:0:0:0:
320,192,43480,1,2,0:0:0:0:
448,192,43480,128,0,43573:0:0:0:0:
192,192,43667,128,0,43761:0:0:0:0:
320,192,43761,128,0,43855:0:0:0:0:
64,192,43855,128,8,43948:0:0:0:0:
448,192,43855,128,2,43948:0:0:0:0:
192,192,44042,128,0,44136:0:0:0:0:
320,192,44042,128,0,44136:0:0:0:0:
448,192,44136,128,0,44230:0:0:0:0:
64,192,44230,128,2,44323:0:0:0:0:
320,192,44323,128,0,44417:0:0:0:0:
64,192,44417,128,0,44511:0:0:0:0:
192,192,44417,128,0,44511:0:0:0:0:
448,192,44511,128,2,44605:0:0:0:0:
64,192,44605,1,8,0:0:0:0:
192,192,44651,1,0,0:0:0:0:
320,192,44698,1,0,0:0:0:0:
448,192,44745,1,0,0:0:0:0:
192,192,44792,128,2,44886:0:0:0:0:
320,192,44980,128,2,45073:0:0:0:0:
448,192,44980,128,0,45073:0:0:0:0:
64,192,45167,128,0,45261:0:0:0:0:
448,192,45261,128,0,45355:0:0:0:0:
192,192,45355,128,8,45448:0:0:0:0:
320,192,45355,128,2,45448:0:0:0:0:
64,192,45542,128,0,45636:0:0:0:0:
448,192,45542,128,0,45636:0:0:0:0:
192,192,45636,128,0,45730:0:0:0:0:
448,192,45730,128,2,45823:0:0:0:0:
64,192,45823,128,0,45917:0:0:0:0:
320,192,45917,128,0,46011:0:0:0:0:
448,192,45917,128,0,46011:0:0:0:0:
192,192,46011,128,2,46105:0:0:0:0:
64,192,46105,128,8,46198:0:0:0:0:
448,192,46105,128,0,46480:0:0:0:0:
64,192,46292,128,2,46480:0:0:0:0:
192,192,46480,128,4,46573:0:0:0:0:
320,192,46480,128,2,46573:0:0:0:0:
64,192,46667,128,0,46761:0:0:0:0:
320,192,46761,128,0,46855:0:0:0:0:
192,192,46855,128,2,46948:0:0:0:0:
448,192,46855,128,8,46948:0:0:0:0:
64,192,47042,128,0,47136:0:0:0:0:
320,192,47042,128,0,47136:0:0:0:0:
448,192,47136,128,0,47230:0:0:0:0:
192,192,47230,128,2,47323:0:0:0:0:
320,192,47323,128,0,47417:0:0:0:0:
64,192,47417,128,0,47511:0:0:0:0:
448,192,47417,128,0,47511:0:0:0:0:
192,192,47511,128,2,47605:0:0:0:0:
448,192,47605,1,8,0:0:0:0:
320,192,47651,1,0,0:0:0:0:
64,192,47698,1,0,0:0:0:0:
192,192,47745,1,0,0:0:0:0:
448,192,47792,128,2,47886:0:0:0:0:
64,192,47980,128,2,48073:0:0:0:0:
320,192,47980,128,8,48073:0:0:0:0:
192,192,48073,128,0,48167:0:0:0:0:
448,192,48167,1,0,0:0:0:0:
192,192,48355,128,2,48448:0:0:0:0:
448,192,48355,128,8,48448:0:0:0:0:
320,192,48448,128,0,48542:0:0:0:0:
64,192,48542,1,0,0:0:0:0:
64,192,48730,128,2,48823:0:0:0:0:
448,192,48730,128,8,48823:0:0:0:0:
192,192,48823,128,0,48917:0:0:0:70:VEC3 Snares 009.wav
320,192,48917,1,0,0:0:0:70:VEC3 Snares 009.wav
192,192,49011,1,0,0:0:0:70:VEC3 Snares 009.wav
64,192,49105,1,0,0:0:0:70:VEC3 Snares 009B.wav
320,192,49105,128,0,49198:0:0:0:0:
448,192,49105,128,0,49480:0:0:0:0:
192,192,49198,128,0,49292:0:0:0:70:VEC3 Snares 009B.wav
320,192,49292,1,0,0:0:0:70:VEC3 Snares 009B.wav
192,192,49386,1,0,0:0:0:70:VEC3 Snares 009B.wav
64,192,49480,128,2,49573:0:0:0:0:
320,192,49480,128,4,49573:0:0:0:0:
64,192,49667,128,0,49761:0:0:0:0:
192,192,49667,128,0,49761:0:0:0:0:
320,192,49855,128,0,50042:0:0:0:0:
448,192,49855,128,0,50136:0:0:0:0:
64,192,50230,128,0,50511:0:0:0:100:LR3_Snare DRL.wav
192,192,50230,128,0,50417:0:0:0:0:
320,192,50230,128,0,50323:0:0:0:0:
448,192,50230,1,0,0:0:0:0:
448,192,50605,128,0,50698:0:0:0:0:
192,192,50792,1,2,0:0:0:0:
320,192,50792,128,0,50886:0:0:0:0:
64,192,50980,128,0,51073:0:0:0:0:
192,192,50980,128,0,51167:0:0:0:0:
448,192,50980,128,0,51261:0:0:0:0:
64,192,51355,128,2,51448:0:0:0:0:
192,192,51355,1,0,0:0:0:0:
320,192,51542,128,0,51636:0:0:0:0:
64,192,51730,128,0,51823:0:0:0:100:LR3_Snare DRL.wav
320,192,51730,1,0,0:0:0:0:
448,192,51730,128,0,51823:0:0:0:0:
64,192,51917,128,0,52011:0:0:0:0:
192,192,51917,128,0,52011:0:0:0:0:
192,192,52105,128,0,52198:0:0:0:0:
320,192,52105,128,0,52198:0:0:0:0:
320,192,52292,128,0,52386:0:0:0:0:
448,192,52292,128,0,52386:0:0:0:0:
64,192,52480,128,2,52573:0:0:0:0:
192,192,52480,128,4,52573:0:0:0:0:
448,192,52480,128,0,52573:0:0:0:0:
64,192,52667,128,0,52761:0:0:0:0:
320,192,52667,128,0,52761:0:0:0:0:
192,192,52855,128,0,53042:0:0:0:0:
448,192,52855,128,0,53136:0:0:0:0:
64,192,53230,128,0,53511:0:0:0:100:LR3_Snare DRL.wav
192,192,53230,128,0,53417:0:0:0:0:
320,192,53230,128,0,53323:0:0:0:0:
448,192,53230,1,0,0:0:0:0:
448,192,53605,128,0,53698:0:0:0:0:
64,192,53792,128,2,54073:0:0:0:0:
448,192,53792,1,0,0:0:0:0:
192,192,53886,128,0,54073:0:0:0:0:
320,192,53980,128,0,54073:0:0:0:0:
448,192,54140,128,0,54194:0:0:0:0:
448,192,54247,128,0,54301:0:0:0:0:
64,192,54355,128,2,54448:0:0:0:0:
320,192,54355,128,0,54448:0:0:0:0:
192,192,54542,128,0,54636:0:0:0:0:
448,192,54542,128,0,54636:0:0:0:0:
64,192,54730,1,0,0:0:0:100:LR3_Snare DRL.wav
192,192,54730,1,0,0:0:0:0:
320,192,54730,1,0,0:0:0:0:
192,192,54855,1,0,0:0:0:0:
448,192,54855,1,0,0:0:0:0:
320,192,54980,1,0,0:0:0:0:
448,192,54980,1,0,0:0:0:0:
64,192,55105,128,0,55480:0:0:0:0:
448,192,55230,1,0,0:0:0:0:
192,192,55355,128,0,55480:0:0:0:0:
320,192,55480,128,2,55573:0:0:0:0:
448,192,55480,128,4,55573:0:0:0:0:
192,192,55667,128,0,55761:0:0:0:0:
448,192,55667,128,0,55761:0:0:0:0:
64,192,55855,128,0,56136:0:0:0:0:
320,192,55855,128,0,56042:0:0:0:0:
64,192,56230,1,0,0:0:0:100:LR3_Snare DRL.wav
192,192,56230,128,0,56323:0:0:0:0:
320,192,56230,128,0,56417:0:0:0:0:
448,192,56230,128,0,56511:0:0:0:0:
64,192,56605,128,0,56698:0:0:0:0:
64,192,56792,1,2,0:0:0:0:
320,192,56792,128,0,56886:0:0:0:0:
64,192,56980,128,0,57261:0:0:0:0:
192,192,56980,128,0,57167:0:0:0:0:
448,192,56980,128,0,57073:0:0:0:0:
320,192,57355,1,2,0:0:0:0:
448,192,57355,128,0,57448:0:0:0:0:
320,192,57542,128,0,57636:0:0:0:0:
64,192,57730,128,0,57823:0:0:0:100:LR3_Snare DRL.wav
192,192,57730,1,0,0:0:0:0:
448,192,57730,128,0,57823:0:0:0:0:
320,192,57917,128,0,58011:0:0:0:0:
448,192,57917,128,0,58011:0:0:0:0:
192,192,58105,128,0,58198:0:0:0:0:
320,192,58105,128,0,58198:0:0:0:0:
64,192,58292,128,0,58386:0:0:0:0:
192,192,58292,128,0,58386:0:0:0:0:
64,192,58480,128,2,58573:0:0:0:0:
320,192,58480,128,0,58573:0:0:0:0:
192,192,58667,128,0,58761:0:0:0:0:
448,192,58667,128,0,58761:0:0:0:0:
64,192,58855,128,0,59042:0:0:0:0:
320,192,58855,128,0,59136:0:0:0:0:
64,192,59230,128,4,59511:0:0:0:0:
192,192,59230,128,0,59417:0:0:0:100:LR3_Snare DRL.wav
320,192,59230,128,0,59323:0:0:0:0:
448,192,59230,128,0,59323:0:0:0:0:
320,192,59417,128,2,59698:0:0:0:0:
448,192,59417,128,0,59605:0:0:0:0:
192,192,59511,128,0,59792:0:0:0:0:
64,192,59605,128,0,59886:0:0:0:0:
448,192,59698,128,0,59980:0:0:0:0:
320,192,59792,128,0,59980:0:0:0:0:
192,192,59886,128,0,59980:0:0:0:0:
64,192,59980,128,2,60073:0:0:0:0:
320,192,60073,128,0,60167:0:0:0:0:
448,192,60073,128,0,60167:0:0:0:0:
64,192,60167,128,0,60261:0:0:0:0:
192,192,60261,128,0,60355:0:0:0:0:
320,192,60261,128,0,60355:0:0:0:0:
320,192,60730,1,2,0:0:0:0:
448,192,60730,128,0,60823:0:0:0:0:
64,192,60823,128,0,60917:0:0:0:0:
192,192,60823,128,0,60917:0:0:0:0:
448,192,60917,128,0,61011:0:0:0:0:
192,192,61011,128,0,61105:0:0:0:0:
320,192,61011,128,0,61105:0:0:0:0:
64,192,61105,128,0,61480:0:0:0:0:
448,192,61198,1,0,0:0:0:0:
192,192,61292,1,0,0:0:0:0:
320,192,61386,1,0,0:0:0:0:
192,192,61480,1,2,0:0:0:0:
448,192,61480,1,4,0:0:0:0:
320,192,61667,1,0,0:0:0:0:
64,192,61855,1,0,0:0:0:70:Clap Hand.wav
448,192,61855,1,0,0:0:0:0:
320,192,62042,1,0,0:0:0:0:
192,192,62136,1,0,0:0:0:0:
64,192,62230,1,0,0:0:0:70:Clap Hand.wav
320,192,62230,1,0,0:0:0:0:
192,192,62417,1,0,0:0:0:0:
448,192,62417,128,0,62605:0:0:0:0:
64,192,62605,1,0,0:0:0:70:Clap Hand.wav
320,192,62605,128,0,62792:0:0:0:0:
192,192,62792,128,0,62980:0:0:0:0:
448,192,62792,1,0,0:0:0:0:
64,192,62980,1,0,0:0:0:70:Clap Hand.wav
448,192,62980,128,0,63167:0:0:0:0:
64,192,63167,128,0,63355:0:0:0:0:
320,192,63167,1,0,0:0:0:0:
192,192,63355,1,0,0:0:0:70:Clap Hand.wav
320,192,63542,1,0,0:0:0:0:
192,192,63636,1,0,0:0:0:0:
64,192,63730,1,0,0:0:0:70:Clap Hand.wav
448,192,63730,1,0,0:0:0:0:
64,192,63917,1,0,0:0:0:0:
320,192,63917,1,0,0:0:0:0:
192,192,64105,1,0,0:0:0:70:Clap Hand.wav
448,192,64105,1,0,0:0:0:0:
64,192,64480,1,0,0:0:0:70:Clap Hand.wav
448,192,64480,1,0,0:0:0:0:
192,192,64667,1,0,0:0:0:0:
448,192,64667,1,0,0:0:0:0:
64,192,64855,1,0,0:0:0:70:Clap Hand.wav
320,192,64855,1,0,0:0:0:0:
448,192,65042,1,0,0:0:0:0:
320,192,65136,1,0,0:0:0:0:
64,192,65230,128,0,65417:0:0:0:70:Clap Hand.wav
192,192,65230,1,0,0:0:0:0:
320,192,65417,128,0,65605:0:0:0:0:
448,192,65417,1,0,0:0:0:0:
64,192,65605,1,0,0:0:0:70:Clap Hand.wav
192,192,65605,128,0,65792:0:0:0:0:
64,192,65792,128,0,65980:0:0:0:0:
448,192,65792,1,0,0:0:0:0:
320,192,65980,1,0,0:0:0:70:Clap Hand.wav
64,192,66167,1,0,0:0:0:70:LR_Snare Drum.wav
192,192,66167,1,0,0:0:0:0:
320,192,66261,1,0,0:0:0:70:LR_Snare Drum.wav
448,192,66261,1,0,0:0:0:0:
64,192,66355,128,0,66542:0:0:0:70:LR_Snare Drum.wav
192,192,66355,1,0,0:0:0:0:
448,192,66448,1,0,0:0:0:70:LR_Snare Drum.wav
192,192,66542,1,0,0:0:0:70:LR_Snare Drum.wav
320,192,66542,128,0,66730:0:0:0:0:
64,192,66636,1,0,0:0:0:70:LR_Snare Drum.wav
192,192,66730,1,0,0:0:0:70:tom01.wav
448,192,66730,128,0,67105:0:0:0:0:
320,192,66823,1,0,0:0:0:0:
64,192,66917,1,0,0:0:0:0:
64,192,67105,128,0,67480:0:0:0:0:
320,192,67105,1,0,0:0:0:0:
192,192,67292,128,0,67480:0:0:0:0:
320,192,67480,1,2,0:0:0:0:
448,192,67480,1,4,0:0:0:0:
64,192,67667,1,0,0:0:0:0:
320,192,67667,1,0,0:0:0:0:
192,192,67761,1,0,0:0:0:0:
320,192,67855,1,0,0:0:0:70:Clap Hand.wav
448,192,67855,1,0,0:0:0:0:
64,192,68042,1,0,0:0:0:0:
448,192,68042,1,0,0:0:0:0:
320,192,68136,1,0,0:0:0:0:
64,192,68230,1,0,0:0:0:70:Clap Hand.wav
448,192,68230,1,0,0:0:0:0:
192,192,68323,1,0,0:0:0:0:
320,192,68417,1,0,0:0:0:0:
448,192,68417,1,0,0:0:0:0:
64,192,68605,1,0,0:0:0:70:Clap Hand.wav
320,192,68605,1,0,0:0:0:0:
192,192,68698,1,0,0:0:0:0:
320,192,68792,128,0,68980:0:0:0:0:
448,192,68792,1,0,0:0:0:0:
64,192,68886,1,0,0:0:0:0:
192,192,68980,128,0,69167:0:0:0:70:Clap Hand.wav
448,192,68980,1,0,0:0:0:0:
64,192,69167,128,0,69355:0:0:0:0:
448,192,69167,1,0,0:0:0:0:
320,192,69261,1,0,0:0:0:0:
192,192,69355,1,0,0:0:0:70:Clap Hand.wav
448,192,69355,128,0,69542:0:0:0:0:
192,192,69542,1,0,0:0:0:0:
320,192,69542,128,0,69730:0:0:0:0:
64,192,69636,1,0,0:0:0:0:
192,192,69730,128,0,69917:0:0:0:70:Clap Hand.wav
448,192,69730,1,0,0:0:0:0:
320,192,69823,1,0,0:0:0:0:
64,192,69917,128,0,70105:0:0:0:0:
448,192,69917,1,0,0:0:0:0:
320,192,70105,1,0,0:0:0:70:Clap Hand.wav
448,192,70105,128,0,70292:0:0:0:0:
64,192,70292,1,0,0:0:0:0:
192,192,70292,128,0,70480:0:0:0:0:
320,192,70386,1,0,0:0:0:0:
64,192,70480,1,0,0:0:0:70:Clap Hand.wav
448,192,70480,1,0,0:0:0:0:
64,192,70667,1,0,0:0:0:0:
320,192,70667,1,0,0:0:0:0:
192,192,70761,1,0,0:0:0:0:
64,192,70855,1,0,0:0:0:70:Clap Hand.wav
448,192,70855,1,0,0:0:0:0:
192,192,71042,1,0,0:0:0:0:
320,192,71042,1,0,0:0:0:0:
448,192,71136,1,0,0:0:0:0:
64,192,71230,1,0,0:0:0:70:Clap Hand.wav
320,192,71230,1,0,0:0:0:0:
192,192,71323,1,0,0:0:0:0:
64,192,71417,128,0,71605:0:0:0:0:
448,192,71417,1,0,0:0:0:0:
192,192,71605,1,0,0:0:0:70:Clap Hand.wav
448,192,71605,128,0,71792:0:0:0:0:
64,192,71792,1,0,0:0:0:0:
320,192,71792,128,0,71980:0:0:0:0:
192,192,71886,1,0,0:0:0:0:
64,192,71980,1,2,0:0:0:0:
448,192,71980,128,0,72730:0:0:0:0:
64,192,72730,1,0,0:0:0:0:
192,192,72776,1,0,0:0:0:0:
320,192,72823,1,0,0:0:0:0:
448,192,72870,1,0,0:0:0:0:
192,192,72980,1,0,0:0:0:0:
64,192,73105,1,2,0:0:0:0:
448,192,73105,1,0,0:0:0:0:
64,192,73230,1,2,0:0:0:0:
320,192,73230,1,0,0:0:0:0:
192,192,73355,1,2,0:0:0:0:
448,192,73355,1,0,0:0:0:0:
64,192,73480,1,2,0:0:0:0:
448,192,73480,1,4,0:0:0:0:
192,192,73667,1,0,0:0:0:0:
320,192,73761,1,0,0:0:0:0:
192,192,73855,1,8,0:0:0:0:
448,192,73855,1,2,0:0:0:0:
64,192,73948,1,0,0:0:0:0:
320,192,74042,1,0,0:0:0:0:
192,192,74136,1,0,0:0:0:0:
64,192,74230,1,2,0:0:0:0:
320,192,74230,1,0,0:0:0:0:
192,192,74323,1,0,0:0:0:0:
448,192,74417,1,0,0:0:0:0:
320,192,74605,1,2,0:0:0:0:
448,192,74605,1,8,0:0:0:0:
192,192,74698,1,0,0:0:0:0:
64,192,74792,1,0,0:0:0:0:
448,192,74886,1,0,0:0:0:0:
192,192,74980,1,2,0:0:0:0:
320,192,74980,1,0,0:0:0:0:
64,192,75073,1,0,0:0:0:0:
448,192,75167,1,0,0:0:0:0:
320,192,75261,1,0,0:0:0:0:
64,192,75355,1,8,0:0:0:0:
192,192,75355,1,2,0:0:0:0:
448,192,75448,1,0,0:0:0:0:
64,192,75542,1,0,0:0:0:0:
320,192,75636,1,0,0:0:0:0:
192,192,75730,1,2,0:0:0:0:
448,192,75730,1,0,0:0:0:0:
320,192,75823,1,0,0:0:0:0:
64,192,75917,1,0,0:0:0:0:
320,192,76105,1,2,0:0:0:0:
448,192,76105,1,8,0:0:0:0:
192,192,76198,1,0,0:0:0:0:
320,192,76292,1,0,0:0:0:0:
64,192,76386,1,0,0:0:0:0:
192,192,76480,1,2,0:0:0:0:
448,192,76480,1,0,0:0:0:0:
64,192,76573,1,0,0:0:0:0:
320,192,76667,1,0,0:0:0:0:
448,192,76761,1,0,0:0:0:0:
64,192,76855,1,2,0:0:0:0:
192,192,76855,1,8,0:0:0:0:
448,192,76948,1,0,0:0:0:0:
320,192,77042,1,0,0:0:0:0:
64,192,77136,1,0,0:0:0:0:
192,192,77230,1,2,0:0:0:0:
448,192,77230,1,0,0:0:0:0:
320,192,77323,1,0,0:0:0:0:
64,192,77417,1,0,0:0:0:0:
192,192,77605,1,8,0:0:0:0:
320,192,77605,1,2,0:0:0:0:
448,192,77698,1,0,0:0:0:0:
64,192,77792,1,0,0:0:0:0:
192,192,77886,1,0,0:0:0:0:
320,192,77980,1,2,0:0:0:0:
448,192,77980,1,0,0:0:0:0:
64,192,78073,1,0,0:0:0:0:
192,192,78167,1,0,0:0:0:0:
448,192,78261,1,0,0:0:0:0:
64,192,78355,1,2,0:0:0:0:
320,192,78355,1,8,0:0:0:0:
448,192,78448,1,0,0:0:0:0:
192,192,78542,1,0,0:0:0:0:
448,192,78636,1,0,0:0:0:0:
64,192,78730,1,2,0:0:0:0:
192,192,78730,1,0,0:0:0:0:
320,192,78792,1,0,0:0:0:0:
448,192,78855,1,0,0:0:0:0:
192,192,78917,1,0,0:0:0:0:
320,192,78980,1,0,0:0:0:0:
64,192,79042,1,0,0:0:0:0:
192,192,79105,1,0,0:0:0:0:
320,192,79167,1,0,0:0:0:0:
448,192,79230,1,0,0:0:0:0:
64,192,79292,1,0,0:0:0:0:
192,192,79292,1,0,0:0:0:0:
320,192,79386,1,0,0:0:0:0:
448,192,79386,1,0,0:0:0:0:
64,192,79480,1,6,0:0:0:0:
192,192,79480,1,8,0:0:0:0:
448,192,79573,1,0,0:0:0:0:
64,192,79667,1,2,0:0:0:0:
320,192,79667,1,0,0:0:0:0:
192,192,79761,1,0,0:0:0:0:
64,192,79855,1,2,0:0:0:0:
448,192,79855,1,8,0:0:0:0:
320,192,79948,1,0,0:0:0:0:
192,192,80042,1,2,0:0:0:0:
448,192,80042,1,0,0:0:0:0:
320,192,80136,1,0,0:0:0:0:
64,192,80230,1,2,0:0:0:0:
448,192,80230,1,8,0:0:0:0:
192,192,80323,1,0,0:0:0:0:
320,192,80417,1,2,0:0:0:0:
448,192,80417,1,0,0:0:0:0:
192,192,80511,1,0,0:0:0:0:
64,192,80605,1,2,0:0:0:0:
320,192,80605,1,8,0:0:0:0:
448,192,80698,1,0,0:0:0:0:
64,192,80792,1,2,0:0:0:0:
320,192,80792,1,0,0:0:0:0:
192,192,80886,1,0,0:0:0:0:
320,192,80980,1,2,0:0:0:0:
448,192,80980,1,8,0:0:0:0:
192,192,81073,1,0,0:0:0:0:
64,192,81167,1,2,0:0:0:0:
448,192,81167,1,0,0:0:0:0:
320,192,81261,1,0,0:0:0:0:
64,192,81355,1,2,0:0:0:0:
192,192,81355,1,8,0:0:0:0:
320,192,81448,1,0,0:0:0:0:
192,192,81542,1,2,0:0:0:0:
448,192,81542,1,0,0:0:0:0:
64,192,81636,1,0,0:0:0:0:
192,192,81730,1,8,0:0:0:0:
448,192,81730,1,2,0:0:0:0:
320,192,81823,1,0,0:0:0:0:
64,192,81917,1,2,0:0:0:0:
192,192,81917,1,0,0:0:0:0:
320,192,82011,1,0,0:0:0:0:
64,192,82105,1,8,0:0:0:0:
448,192,82105,1,2,0:0:0:0:
192,192,82198,1,0,0:0:0:0:
320,192,82292,1,2,0:0:0:0:
448,192,82292,1,0,0:0:0:0:
192,192,82386,1,0,0:0:0:0:
64,192,82480,1,6,0:0:0:0:
448,192,82480,1,8,0:0:0:0:
320,192,82573,1,10,0:0:0:0:
64,192,82667,1,2,0:0:0:0:
192,192,82667,1,8,0:0:0:0:
320,192,82761,1,10,0:0:0:0:
64,192,82855,1,8,0:0:0:0:
448,192,82855,1,2,0:0:0:0:
320,192,82948,1,10,0:0:0:0:
64,192,83042,1,2,0:0:0:0:
192,192,83042,1,8,0:0:0:0:
320,192,83136,1,10,0:0:0:0:
64,192,83230,1,8,0:0:0:0:
448,192,83230,1,0,0:0:0:0:
192,192,83323,1,8,0:0:0:0:
320,192,83417,1,8,0:0:0:0:
448,192,83417,1,0,0:0:0:0:
192,192,83511,1,8,0:0:0:0:
64,192,83605,1,8,0:0:0:0:
448,192,83605,1,0,0:0:0:0:
192,192,83698,1,8,0:0:0:0:
320,192,83792,1,8,0:0:0:0:
448,192,83792,1,0,0:0:0:0:
192,192,83886,1,8,0:0:0:0:
64,192,83980,1,2,0:0:0:0:
320,192,83980,128,0,84073:0:0:0:0:
448,192,83980,128,0,84073:0:0:0:0:
64,192,84355,128,0,84542:0:0:0:70:LR_Snare Drum.wav
448,192,84355,128,0,84542:0:0:0:0:
320,192,84542,1,0,0:0:0:70:LR_Snare Drum.wav
448,192,84636,1,0,0:0:0:70:LR_Snare Drum.wav
64,192,84730,128,0,84823:0:0:0:70:LR_Snare Drum.wav
192,192,84730,128,0,84823:0:0:0:0:
320,192,84730,128,0,84823:0:0:0:0:
64,192,85105,128,0,85292:0:0:0:70:LR4_SnareBPDT.wav
192,192,85105,128,0,85198:0:0:0:0:
448,192,85105,128,0,85292:0:0:0:0:
320,192,85198,128,0,85386:0:0:0:0:
192,192,85292,128,0,85480:0:0:0:0:
64,192,85386,128,0,85480:0:0:0:0:
320,192,85480,128,2,85855:0:0:0:0:
448,192,85480,128,0,85855:0:0:0:0:
64,192,85855,128,12,86042:0:0:0:0:
192,192,85855,128,2,86042:0:0:0:0:
448,192,86042,1,0,0:0:0:0:
64,192,86230,128,2,86417:0:0:0:0:
320,192,86230,128,0,86417:0:0:0:0:
448,192,86417,1,0,0:0:0:0:
192,192,86511,1,0,0:0:0:0:
64,192,86605,128,2,86792:0:0:0:0:
448,192,86605,128,8,86792:0:0:0:0:
192,192,86698,1,0,0:0:0:0:
320,192,86792,128,0,86980:0:0:0:0:
192,192,86980,1,2,0:0:0:0:
448,192,86980,128,0,87167:0:0:0:0:
64,192,87167,128,0,87355:0:0:0:0:
192,192,87355,1,8,0:0:0:0:
320,192,87355,128,2,87542:0:0:0:0:
448,192,87355,1,0,0:0:0:0:
192,192,87542,128,0,87730:0:0:0:0:
64,192,87730,1,2,0:0:0:0:
448,192,87730,128,0,87917:0:0:0:0:
192,192,87917,1,0,0:0:0:0:
320,192,88011,1,0,0:0:0:0:
64,192,88105,1,2,0:0:0:0:
192,192,88105,128,8,88292:0:0:0:0:
448,192,88198,1,0,0:0:0:0:
64,192,88292,128,0,88480:0:0:0:0:
320,192,88292,1,0,0:0:0:0:
192,192,88480,1,2,0:0:0:0:
448,192,88480,128,0,88667:0:0:0:0:
64,192,88667,1,0,0:0:0:0:
192,192,88855,128,2,89042:0:0:0:0:
320,192,88855,1,8,0:0:0:0:
448,192,88855,1,0,0:0:0:0:
320,192,89042,128,0,89230:0:0:0:0:
64,192,89230,128,2,89417:0:0:0:0:
448,192,89230,1,0,0:0:0:0:
192,192,89417,128,0,89511:0:0:0:0:
320,192,89511,128,0,89605:0:0:0:0:
64,192,89605,1,8,0:0:0:0:
448,192,89605,128,2,89792:0:0:0:0:
192,192,89698,1,0,0:0:0:0:
64,192,89792,1,0,0:0:0:0:
320,192,89792,128,0,89980:0:0:0:0:
64,192,89980,128,2,90167:0:0:0:0:
192,192,89980,128,0,90167:0:0:0:0:
320,192,90167,1,0,0:0:0:0:
192,192,90355,128,8,90542:0:0:0:0:
320,192,90355,128,2,90542:0:0:0:0:
448,192,90355,1,0,0:0:0:0:
64,192,90542,1,0,0:0:0:0:
192,192,90730,1,2,0:0:0:0:
320,192,90730,128,0,90917:0:0:0:0:
448,192,90730,128,0,90917:0:0:0:0:
64,192,90917,1,0,0:0:0:0:
192,192,91011,1,0,0:0:0:0:
64,192,91105,128,2,91480:0:0:0:0:
448,192,91105,1,0,0:0:0:0:
192,192,91292,128,0,91480:0:0:0:0:
320,192,91480,128,2,91667:0:0:0:0:
448,192,91480,128,4,91667:0:0:0:0:
64,192,91667,1,0,0:0:0:0:
192,192,91855,128,8,92042:0:0:0:0:
320,192,91855,1,2,0:0:0:0:
448,192,91855,128,0,92042:0:0:0:0:
64,192,92042,1,0,0:0:0:0:
64,192,92230,128,2,92417:0:0:0:0:
448,192,92230,128,0,92417:0:0:0:0:
192,192,92417,1,0,0:0:0:0:
64,192,92511,1,0,0:0:0:0:
192,192,92605,128,2,92792:0:0:0:0:
448,192,92605,1,8,0:0:0:0:
320,192,92698,1,0,0:0:0:0:
64,192,92792,1,0,0:0:0:0:
448,192,92792,128,0,92980:0:0:0:0:
64,192,92980,128,2,93167:0:0:0:0:
192,192,92980,1,0,0:0:0:0:
448,192,93167,1,0,0:0:0:0:
192,192,93261,1,0,0:0:0:0:
64,192,93355,1,8,0:0:0:0:
320,192,93355,128,2,93542:0:0:0:0:
448,192,93448,1,0,0:0:0:0:
64,192,93542,1,0,0:0:0:0:
192,192,93542,128,0,93730:0:0:0:0:
320,192,93730,1,2,0:0:0:0:
448,192,93730,128,0,93917:0:0:0:0:
192,192,93917,1,0,0:0:0:0:
64,192,94011,1,0,0:0:0:0:
320,192,94105,128,2,94292:0:0:0:0:
448,192,94105,1,8,0:0:0:0:
64,192,94292,1,0,0:0:0:0:
192,192,94292,128,0,94480:0:0:0:0:
64,192,94480,128,2,94667:0:0:0:0:
448,192,94480,128,0,94667:0:0:0:0:
320,192,94667,1,0,0:0:0:0:
64,192,94855,1,2,0:0:0:0:
192,192,94855,128,8,95042:0:0:0:0:
448,192,94855,128,0,95042:0:0:0:0:
320,192,95042,1,0,0:0:0:0:
64,192,95136,1,0,0:0:0:0:
320,192,95230,128,2,95417:0:0:0:0:
448,192,95230,128,0,95417:0:0:0:0:
192,192,95417,128,0,95511:0:0:0:0:
448,192,95511,128,0,95605:0:0:0:0:
64,192,95605,128,8,95792:0:0:0:0:
320,192,95605,1,2,0:0:0:0:
192,192,95698,1,0,0:0:0:0:
320,192,95792,128,0,95980:0:0:0:0:
448,192,95792,1,0,0:0:0:0:
64,192,95980,1,2,0:0:0:0:
448,192,95980,128,0,96355:0:0:0:0:
192,192,96167,1,0,0:0:0:0:
64,192,96355,1,2,0:0:0:0:
320,192,96355,128,0,96542:0:0:0:0:
64,192,96542,128,0,96730:0:0:0:0:
192,192,96730,1,2,0:0:0:0:
320,192,96730,1,0,0:0:0:0:
448,192,96730,128,0,97480:0:0:0:0:
64,192,96917,1,0,0:0:0:70:VEC3 Snares 009.wav
320,192,96917,1,0,0:0:0:0:
192,192,97011,1,0,0:0:0:0:
64,192,97198,1,0,0:0:0:0:
192,192,97198,1,0,0:0:0:0:
320,192,97292,128,0,97480:0:0:0:70:VEC3 Snares 009B.wav
64,192,97480,128,4,97667:0:0:0:0:
192,192,97480,128,2,97667:0:0:0:0:
448,192,97667,1,0,0:0:0:0:
192,192,97761,1,0,0:0:0:0:
64,192,97855,128,8,98042:0:0:0:0:
320,192,97855,128,2,98042:0:0:0:0:
448,192,98042,1,0,0:0:0:0:
192,192,98136,1,0,0:0:0:0:
64,192,98230,128,2,98417:0:0:0:0:
448,192,98230,128,0,98417:0:0:0:0:
192,192,98323,1,0,0:0:0:0:
320,192,98417,1,0,0:0:0:0:
64,192,98511,1,0,0:0:0:0:
192,192,98605,128,2,98792:0:0:0:0:
320,192,98605,1,8,0:0:0:0:
448,192,98698,1,0,0:0:0:0:
64,192,98792,1,0,0:0:0:0:
320,192,98792,128,0,98980:0:0:0:0:
64,192,98980,1,2,0:0:0:0:
448,192,98980,128,0,99167:0:0:0:0:
64,192,99167,128,0,99355:0:0:0:0:
192,192,99355,1,8,0:0:0:0:
320,192,99355,128,2,99542:0:0:0:0:
448,192,99355,1,0,0:0:0:0:
192,192,99542,128,0,99730:0:0:0:0:
64,192,99730,1,2,0:0:0:0:
448,192,99730,128,0,99917:0:0:0:0:
192,192,99823,1,0,0:0:0:0:
320,192,99917,1,0,0:0:0:0:
64,192,100011,1,0,0:0:0:0:
320,192,100105,128,2,100292:0:0:0:0:
448,192,100105,1,8,0:0:0:0:
64,192,100198,1,0,0:0:0:0:
192,192,100292,128,0,100480:0:0:0:0:
64,192,100480,128,2,100667:0:0:0:0:
448,192,100480,1,0,0:0:0:0:
320,192,100667,1,0,0:0:0:0:
192,192,100761,1,0,0:0:0:0:
64,192,100855,1,2,0:0:0:0:
320,192,100855,128,8,101042:0:0:0:0:
448,192,100855,1,0,0:0:0:0:
192,192,101042,128,0,101230:0:0:0:0:
64,192,101136,1,0,0:0:0:0:
320,192,101230,1,2,0:0:0:0:
448,192,101230,128,0,101417:0:0:0:0:
192,192,101323,1,0,0:0:0:0:
320,192,101417,128,0,101605:0:0:0:0:
64,192,101511,1,0,0:0:0:0:
448,192,101605,1,8,0:0:0:0:
192,192,101605,128,2,101792:0:0:0:0:
320,192,101698,1,0,0:0:0:0:
64,192,101792,128,0,101980:0:0:0:0:
448,192,101792,1,0,0:0:0:0:
320,192,101980,128,2,102167:0:0:0:0:
448,192,101980,128,0,102167:0:0:0:0:
192,192,102167,1,0,0:0:0:0:
64,192,102261,1,0,0:0:0:0:
192,192,102355,128,8,102542:0:0:0:0:
320,192,102355,128,2,102542:0:0:0:0:
64,192,102542,1,0,0:0:0:0:
448,192,102636,1,0,0:0:0:0:
64,192,102730,128,2,102917:0:0:0:0:
192,192,102730,128,0,102917:0:0:0:0:
320,192,102917,1,0,0:0:0:0:
192,192,103011,1,0,0:0:0:0:
64,192,103105,1,2,0:0:0:0:
448,192,103105,128,0,103480:0:0:0:0:
320,192,103292,128,0,103480:0:0:0:0:
64,192,103480,128,2,103667:0:0:0:0:
192,192,103480,128,4,103667:0:0:0:0:
320,192,103667,1,0,0:0:0:0:
448,192,103761,1,0,0:0:0:0:
64,192,103855,128,8,104042:0:0:0:0:
320,192,103855,128,2,104042:0:0:0:0:
448,192,104042,1,0,0:0:0:0:
192,192,104136,1,0,0:0:0:0:
64,192,104230,128,2,104417:0:0:0:0:
448,192,104230,128,0,104417:0:0:0:0:
320,192,104323,1,0,0:0:0:0:
192,192,104417,1,0,0:0:0:0:
320,192,104511,1,0,0:0:0:0:
192,192,104605,128,2,104792:0:0:0:0:
448,192,104605,1,8,0:0:0:0:
64,192,104698,1,0,0:0:0:0:
320,192,104792,128,0,104980:0:0:0:0:
448,192,104792,1,0,0:0:0:0:
64,192,104980,1,2,0:0:0:0:
448,192,104980,128,0,105167:0:0:0:0:
320,192,105073,1,0,0:0:0:0:
192,192,105167,1,0,0:0:0:0:
64,192,105261,1,0,0:0:0:0:
192,192,105355,1,8,0:0:0:0:
320,192,105355,128,2,105542:0:0:0:0:
448,192,105448,1,0,0:0:0:0:
64,192,105542,1,0,0:0:0:0:
192,192,105542,128,0,105730:0:0:0:0:
64,192,105730,128,2,105917:0:0:0:0:
448,192,105730,1,0,0:0:0:0:
192,192,105823,1,0,0:0:0:0:
320,192,105917,1,0,0:0:0:0:
448,192,106011,1,0,0:0:0:0:
192,192,106105,128,2,106292:0:0:0:0:
320,192,106105,1,8,0:0:0:0:
64,192,106292,1,0,0:0:0:0:
320,192,106292,128,0,106480:0:0:0:0:
192,192,106480,1,2,0:0:0:0:
448,192,106480,128,0,106667:0:0:0:0:
64,192,106573,1,0,0:0:0:0:
320,192,106667,1,0,0:0:0:0:
192,192,106761,1,0,0:0:0:0:
64,192,106855,1,2,0:0:0:0:
320,192,106855,128,8,107042:0:0:0:0:
448,192,106948,1,0,0:0:0:0:
192,192,107042,1,0,0:0:0:0:
64,192,107136,1,0,0:0:0:0:
192,192,107230,128,2,107417:0:0:0:0:
320,192,107230,1,0,0:0:0:0:
448,192,107323,1,0,0:0:0:0:
64,192,107417,1,0,0:0:0:0:
320,192,107511,1,0,0:0:0:0:
64,192,107605,128,8,107792:0:0:0:0:
192,192,107605,1,2,0:0:0:0:
448,192,107698,1,0,0:0:0:0:
320,192,107792,1,0,0:0:0:0:
192,192,107886,1,0,0:0:0:0:
64,192,107980,1,2,0:0:0:0:
448,192,107980,1,0,0:0:0:0:
320,192,108167,1,0,0:0:0:0:
64,192,108261,1,2,0:0:0:0:
448,192,108261,1,0,0:0:0:0:
192,192,108355,1,0,0:0:0:0:
448,192,108448,1,0,0:0:0:0:
64,192,108542,1,0,0:0:0:70:VEC3 Snares 009.wav
320,192,108542,1,0,0:0:0:0:
192,192,108636,1,0,0:0:0:0:
448,192,108730,1,0,0:0:0:70:VEC3 Snares 009B.wav
320,192,108792,1,0,0:0:0:0:
192,192,108855,1,0,0:0:0:0:
64,192,108917,1,0,0:0:0:0:
448,192,108980,1,0,0:0:0:0:
320,192,109042,1,0,0:0:0:0:
64,192,109105,1,0,0:0:0:70:LR4_SnareBPDT.wav
192,192,109167,1,0,0:0:0:0:
320,192,109230,1,0,0:0:0:0:
448,192,109292,1,0,0:0:0:0:
64,192,109355,1,0,0:0:0:0:
192,192,109417,1,0,0:0:0:0:
320,192,109480,128,2,109573:0:0:0:0:
448,192,109480,128,4,109573:0:0:0:0:
192,192,109667,1,0,0:0:0:0:
64,192,109855,128,0,109948:0:0:0:0:
448,192,109855,128,0,109948:0:0:0:0:
192,192,110042,1,0,0:0:0:0:
320,192,110230,128,0,110323:0:0:0:0:
448,192,110230,128,0,110323:0:0:0:0:
64,192,110417,1,0,0:0:0:0:
192,192,110511,128,0,110605:0:0:0:0:
320,192,110511,128,0,110605:0:0:0:0:
320,192,110698,128,0,110792:0:0:0:0:
448,192,110698,128,0,110792:0:0:0:0:
64,192,110792,128,0,110886:0:0:0:0:
192,192,110792,128,0,110886:0:0:0:0:
64,192,110980,128,0,111073:0:0:0:0:
448,192,110980,128,0,111073:0:0:0:0:
320,192,111167,1,0,0:0:0:0:
192,192,111355,128,0,111448:0:0:0:0:
448,192,111355,128,0,111448:0:0:0:0:
64,192,111542,1,0,0:0:0:0:
192,192,111730,128,0,111823:0:0:0:0:
320,192,111730,128,0,111823:0:0:0:0:
448,192,111917,1,0,0:0:0:0:
64,192,112011,128,0,112105:0:0:0:0:
320,192,112011,128,0,112105:0:0:0:0:
192,192,112198,128,0,112292:0:0:0:0:
320,192,112198,128,0,112292:0:0:0:0:
64,192,112292,128,0,112386:0:0:0:0:
448,192,112292,128,0,112386:0:0:0:0:
64,192,112480,128,0,112573:0:0:0:0:
192,192,112480,128,0,112573:0:0:0:0:
320,192,112667,1,0,0:0:0:0:
64,192,112855,128,0,112948:0:0:0:0:
448,192,112855,128,0,112948:0:0:0:0:
320,192,113042,1,0,0:0:0:0:
64,192,113230,128,0,113323:0:0:0:0:
192,192,113230,128,0,113323:0:0:0:0:
320,192,113417,1,0,0:0:0:0:
192,192,113511,128,0,113605:0:0:0:0:
448,192,113511,128,0,113605:0:0:0:0:
192,192,113698,128,0,113792:0:0:0:0:
320,192,113698,128,0,113792:0:0:0:0:
64,192,113792,128,0,113886:0:0:0:0:
448,192,113792,128,0,113886:0:0:0:0:
64,192,113980,128,0,114073:0:0:0:0:
320,192,113980,128,0,114073:0:0:0:0:
192,192,114167,1,0,0:0:0:0:
320,192,114355,128,0,114448:0:0:0:0:
448,192,114355,128,0,114448:0:0:0:0:
64,192,114542,1,0,0:0:0:0:
192,192,114730,128,0,114823:0:0:0:0:
320,192,114730,128,0,114823:0:0:0:0:
64,192,114917,128,0,115386:0:0:0:0:
320,192,115011,128,0,115105:0:0:0:0:
448,192,115011,128,0,115105:0:0:0:0:
192,192,115105,128,0,115386:0:0:0:0:
320,192,115292,128,0,115480:0:0:0:0:
448,192,115292,128,0,115480:0:0:0:0:
64,192,115480,128,0,115573:0:0:0:0:
192,192,115480,128,0,115573:0:0:0:0:
320,192,115667,1,0,0:0:0:0:
192,192,115855,128,0,115948:0:0:0:0:
448,192,115855,128,0,115948:0:0:0:0:
64,192,116042,1,0,0:0:0:0:
192,192,116230,128,0,116323:0:0:0:0:
320,192,116230,128,0,116323:0:0:0:0:
448,192,116417,1,0,0:0:0:0:
64,192,116511,128,0,116605:0:0:0:0:
320,192,116511,128,0,116605:0:0:0:0:
320,192,116698,128,0,116792:0:0:0:0:
448,192,116698,128,0,116792:0:0:0:0:
64,192,116792,128,0,116886:0:0:0:0:
192,192,116792,128,0,116886:0:0:0:0:
320,192,116980,128,0,117073:0:0:0:0:
448,192,116980,128,0,117073:0:0:0:0:
192,192,117167,1,0,0:0:0:0:
64,192,117261,128,0,117355:0:0:0:0:
320,192,117261,128,0,117355:0:0:0:0:
192,192,117448,128,0,117542:0:0:0:0:
448,192,117448,128,0,117542:0:0:0:0:
64,192,117542,128,0,117636:0:0:0:0:
320,192,117542,128,0,117636:0:0:0:0:
192,192,117730,128,0,117823:0:0:0:0:
320,192,117730,128,0,117823:0:0:0:0:
64,192,117917,1,0,0:0:0:0:
320,192,118011,128,0,118105:0:0:0:0:
448,192,118011,128,0,118105:0:0:0:0:
192,192,118105,1,0,0:0:0:0:
192,192,118292,128,0,118386:0:0:0:0:
448,192,118292,128,0,118386:0:0:0:0:
64,192,118480,128,0,118573:0:0:0:0:
320,192,118480,128,0,118573:0:0:0:0:
192,192,118667,1,0,0:0:0:0:
64,192,118855,128,0,118948:0:0:0:0:
448,192,118855,128,0,118948:0:0:0:0:
320,192,119042,1,0,0:0:0:0:
192,192,119230,128,0,119323:0:0:0:0:
448,192,119230,128,0,119323:0:0:0:0:
64,192,119417,1,0,0:0:0:0:
192,192,119511,128,0,119605:0:0:0:0:
320,192,119511,128,0,119605:0:0:0:0:
320,192,119698,128,0,119792:0:0:0:0:
448,192,119698,128,0,119792:0:0:0:0:
64,192,119792,128,0,119886:0:0:0:0:
192,192,119792,128,0,119886:0:0:0:0:
320,192,119980,128,0,120073:0:0:0:0:
448,192,119980,128,0,120073:0:0:0:0:
64,192,120167,1,0,0:0:0:0:
192,192,120261,128,0,120355:0:0:0:0:
320,192,120261,128,0,120355:0:0:0:0:
448,192,120355,1,0,0:0:0:0:
64,192,120448,128,0,120542:0:0:0:0:
320,192,120448,128,0,120542:0:0:0:0:
192,192,120542,128,0,120636:0:0:0:0:
448,192,120542,128,0,120636:0:0:0:0:
64,192,120730,128,0,120823:0:0:0:0:
192,192,120730,128,0,120823:0:0:0:0:
448,192,120917,128,0,121480:0:0:0:0:
64,192,121011,128,0,121105:0:0:0:0:
192,192,121011,128,0,121105:0:0:0:0:
320,192,121105,128,0,121480:0:0:0:0:
64,192,121292,128,0,121480:0:0:0:0:
192,192,121292,128,0,121480:0:0:0:0:
