osu file format v14

[General]
AudioFilename: audio.ogg
AudioLeadIn: 0
PreviewTime: 83980
Countdown: 0
SampleSet: None
StackLeniency: 0.7
Mode: 3
LetterboxInBreaks: 0
SpecialStyle: 0
WidescreenStoryboard: 1

[Editor]
Bookmarks: 13480,25480,37480,49480,61480,67480,73480,79480,85855,109480
DistanceSpacing: 0.5
BeatDivisor: 4
GridSize: 4
TimelineZoom: 1.550001

[Metadata]
Title:SUPER * HARAGURO * POP
TitleUnicode:SUPER☆HARAGURO☆POP
Artist:Zekk
ArtistUnicode:Zekk
Creator:Lami-
Version:DenYi's Normal
Source:CHRONO CIRCLE
Tags:FAMoss _Asha Murumoo Denyi -Ming- video game instrumental electronic super haraguro pop 腹黒
BeatmapID:3593702
BeatmapSetID:1721103

[Difficulty]
HPDrainRate:7
CircleSize:4
OverallDifficulty:7
ApproachRate:5
SliderMultiplier:1.4
SliderTickRate:1

[Events]
//Background and Video events
0,0,"FMb5OLragA0ccOz.jpg",0,0
Video,877,"bga.mp4"
//Break Periods
//Storyboard Layer 0 (Background)
//Storyboard Layer 1 (Fail)
//Storyboard Layer 2 (Pass)
//Storyboard Layer 3 (Foreground)
//Storyboard Layer 4 (Overlay)
//Storyboard Sound Samples

[TimingPoints]
1480,375.0,4,2,1,70,1,0
85855,-100.0,4,2,1,70,0,1
109480,-100.0,4,2,1,50,0,0

[HitObjects]
64,192,355,128,0,1480:0:0:0:0:
192,192,730,128,0,1480:0:0:0:0:
320,192,1480,1,2,0:0:0:0:
448,192,1480,1,4,0:0:0:0:
192,192,1855,1,0,0:0:0:0:
320,192,2230,1,0,0:0:0:0:
320,192,2511,1,0,0:0:0:0:
64,192,2792,1,0,0:0:0:0:
448,192,2980,1,0,0:0:0:0:
192,192,3167,1,0,0:0:0:0:
448,192,3355,1,0,0:0:0:0:
320,192,3542,1,0,0:0:0:0:
64,192,3730,1,0,0:0:0:0:
320,192,3917,1,0,0:0:0:0:
64,192,4105,1,0,0:0:0:0:
192,192,4292,1,0,0:0:0:0:
320,192,4480,1,0,0:0:0:0:
448,192,4480,1,0,0:0:0:0:
64,192,4855,1,0,0:0:0:0:
192,192,5230,1,0,0:0:0:0:
192,192,5511,1,0,0:0:0:0:
448,192,5792,1,0,0:0:0:0:
64,192,5980,1,0,0:0:0:0:
320,192,6167,1,0,0:0:0:0:
64,192,6355,1,0,0:0:0:0:
192,192,6542,1,0,0:0:0:0:
448,192,6730,1,0,0:0:0:0:
192,192,6917,1,0,0:0:0:0:
448,192,7105,1,0,0:0:0:0:
320,192,7292,1,0,0:0:0:0:
64,192,7480,1,2,0:0:0:0:
192,192,7480,1,0,0:0:0:0:
448,192,7855,1,0,0:0:0:0:
320,192,8230,1,0,0:0:0:0:
320,192,8511,1,0,0:0:0:0:
64,192,8792,1,0,0:0:0:0:
448,192,8980,1,0,0:0:0:0:
192,192,9167,1,0,0:0:0:0:
448,192,9355,1,0,0:0:0:0:
320,192,9542,1,0,0:0:0:0:
64,192,9730,1,0,0:0:0:0:
320,192,9917,1,0,0:0:0:0:
64,192,10105,1,0,0:0:0:0:
192,192,10292,1,0,0:0:0:0:
320,192,10480,1,0,0:0:0:0:
448,192,10480,1,0,0:0:0:0:
64,192,10855,1,0,0:0:0:0:
448,192,11230,1,0,0:0:0:0:
320,192,11511,1,0,0:0:0:0:
192,192,11792,1,0,0:0:0:0:
64,192,11980,128,2,12730:0:0:0:0:
448,192,11980,1,0,0:0:0:0:
320,192,12167,1,0,0:0:0:70:tom02.wav
192,192,12355,1,0,0:0:0:70:tom04.wav
448,192,12542,1,0,0:0:0:0:
320,192,12730,128,0,13105:0:0:0:0:
64,192,13105,1,0,0:0:0:70:Clap Hand.wav
192,192,13105,128,0,13480:0:0:0:0:
64,192,13480,1,2,0:0:0:0:
448,192,13480,1,4,0:0:0:0:
192,192,13667,1,0,0:0:0:0:
320,192,13855,1,0,0:0:0:70:Clap Hand.wav
64,192,14042,1,0,0:0:0:0:
192,192,14230,1,0,0:0:0:70:Clap Hand.wav
448,192,14417,1,0,0:0:0:0:
64,192,14605,1,0,0:0:0:70:Clap Hand.wav
320,192,14792,1,0,0:0:0:0:
192,192,14980,1,0,0:0:0:70:Clap Hand.wav
448,192,15167,1,0,0:0:0:0:
192,192,15355,1,0,0:0:0:70:Clap Hand.wav
448,192,15542,1,0,0:0:0:0:
64,192,15730,128,0,16105:0:0:0:70:Clap Hand.wav
320,192,15730,1,0,0:0:0:0:
448,192,16105,1,0,0:0:0:70:Clap Hand.wav
320,192,16292,1,0,0:0:0:0:
64,192,16480,1,0,0:0:0:70:Clap Hand.wav
448,192,16480,1,0,0:0:0:0:
192,192,16667,1,0,0:0:0:0:
448,192,16855,1,0,0:0:0:70:Clap Hand.wav
64,192,17042,1,0,0:0:0:0:
320,192,17230,1,0,0:0:0:70:Clap Hand.wav
448,192,17417,1,0,0:0:0:0:
192,192,17605,1,0,0:0:0:70:Clap Hand.wav
64,192,17792,1,0,0:0:0:0:
448,192,17980,1,0,0:0:0:70:Clap Hand.wav
320,192,18167,1,0,0:0:0:0:
64,192,18355,1,0,0:0:0:70:Clap Hand.wav
448,192,18542,1,0,0:0:0:0:
192,192,18730,1,0,0:0:0:70:Clap Hand.wav
320,192,18917,1,0,0:0:0:0:
448,192,19105,1,0,0:0:0:70:Clap Hand.wav
192,192,19292,1,0,0:0:0:0:
64,192,19480,1,2,0:0:0:0:
448,192,19480,1,4,0:0:0:0:
320,192,19667,1,0,0:0:0:0:
448,192,19855,1,0,0:0:0:70:Clap Hand.wav
192,192,20042,1,0,0:0:0:0:
320,192,20230,1,0,0:0:0:70:Clap Hand.wav
64,192,20417,1,0,0:0:0:0:
448,192,20605,1,0,0:0:0:70:Clap Hand.wav
192,192,20792,1,0,0:0:0:0:
320,192,20980,1,0,0:0:0:70:Clap Hand.wav
64,192,21167,1,0,0:0:0:0:
320,192,21355,1,0,0:0:0:70:Clap Hand.wav
64,192,21542,1,0,0:0:0:0:
192,192,21730,1,0,0:0:0:70:Clap Hand.wav
448,192,21730,128,0,22105:0:0:0:0:
320,192,22105,1,0,0:0:0:70:Clap Hand.wav
192,192,22292,1,0,0:0:0:0:
64,192,22480,1,0,0:0:0:70:Clap Hand.wav
448,192,22480,1,0,0:0:0:0:
320,192,22667,1,0,0:0:0:0:
192,192,22855,1,0,0:0:0:70:Clap Hand.wav
320,192,23042,1,0,0:0:0:0:
64,192,23230,1,0,0:0:0:70:Clap Hand.wav
448,192,23417,1,0,0:0:0:0:
320,192,23605,1,0,0:0:0:70:Clap Hand.wav
192,192,23792,128,2,24730:0:0:0:0:
320,192,24355,128,0,24730:0:0:0:0:
448,192,24730,1,0,0:0:0:70:VEC3 Snares 009.wav
320,192,24917,1,0,0:0:0:0:
64,192,25105,1,0,0:0:0:70:LR4_SnareBPDT.wav
192,192,25105,1,0,0:0:0:0:
320,192,25480,128,2,25855:0:0:0:0:
448,192,25480,1,4,0:0:0:0:
64,192,25855,128,8,26230:0:0:0:0:
448,192,25855,1,0,0:0:0:0:
192,192,26230,1,8,0:0:0:0:
448,192,26230,1,0,0:0:0:0:
320,192,26417,1,0,0:0:0:0:
64,192,26605,1,8,0:0:0:0:
192,192,26605,1,0,0:0:0:0:
448,192,26792,128,0,26980:0:0:0:0:
64,192,26980,1,8,0:0:0:0:
320,192,26980,1,0,0:0:0:0:
192,192,27167,1,0,0:0:0:0:
320,192,27355,1,8,0:0:0:0:
448,192,27355,1,0,0:0:0:0:
64,192,27542,1,0,0:0:0:0:
192,192,27730,1,8,0:0:0:0:
320,192,27730,1,0,0:0:0:0:
448,192,27917,1,0,0:0:0:0:
64,192,28105,1,8,0:0:0:0:
192,192,28105,1,0,0:0:0:0:
320,192,28292,128,0,28480:0:0:0:0:
64,192,28480,1,8,0:0:0:0:
448,192,28480,1,0,0:0:0:0:
192,192,28667,1,0,0:0:0:0:
320,192,28855,1,8,0:0:0:0:
448,192,28855,1,0,0:0:0:0:
192,192,29042,1,0,0:0:0:0:
64,192,29230,1,8,0:0:0:0:
448,192,29230,1,0,0:0:0:0:
320,192,29417,1,0,0:0:0:0:
64,192,29605,1,8,0:0:0:0:
192,192,29605,1,0,0:0:0:0:
448,192,29792,128,0,29980:0:0:0:0:
192,192,29980,1,8,0:0:0:0:
320,192,29980,1,0,0:0:0:0:
64,192,30167,1,0,0:0:0:0:
320,192,30355,1,8,0:0:0:0:
448,192,30355,1,0,0:0:0:0:
192,192,30542,1,0,0:0:0:0:
64,192,30730,1,8,0:0:0:0:
448,192,30730,128,2,31105:0:0:0:0:
64,192,31105,128,0,31480:0:0:0:0:
320,192,31480,1,10,0:0:0:0:
448,192,31480,1,4,0:0:0:0:
192,192,31667,1,2,0:0:0:0:
64,192,31855,1,8,0:0:0:0:
448,192,31855,1,2,0:0:0:0:
448,192,32042,1,2,0:0:0:0:
64,192,32230,1,8,0:0:0:0:
192,192,32230,1,2,0:0:0:0:
320,192,32417,1,2,0:0:0:0:
64,192,32605,1,8,0:0:0:0:
448,192,32605,1,2,0:0:0:0:
64,192,32792,1,2,0:0:0:0:
320,192,32980,1,8,0:0:0:0:
448,192,32980,1,2,0:0:0:0:
192,192,33167,1,2,0:0:0:0:
64,192,33355,1,2,0:0:0:0:
448,192,33355,1,8,0:0:0:0:
448,192,33542,1,2,0:0:0:0:
64,192,33730,1,2,0:0:0:0:
192,192,33730,1,8,0:0:0:0:
320,192,33917,1,2,0:0:0:0:
64,192,34105,1,2,0:0:0:0:
448,192,34105,1,8,0:0:0:0:
64,192,34292,1,2,0:0:0:0:
320,192,34480,1,8,0:0:0:0:
320,192,34667,1,0,0:0:0:0:
448,192,34855,1,8,0:0:0:0:
448,192,35042,1,0,0:0:0:0:
64,192,35230,1,8,0:0:0:0:
64,192,35417,1,0,0:0:0:0:
192,192,35605,1,8,0:0:0:0:
192,192,35792,1,0,0:0:0:0:
320,192,35980,1,2,0:0:0:0:
448,192,35980,1,0,0:0:0:0:
64,192,36355,1,0,0:0:0:70:LR_Snare Drum.wav
448,192,36355,1,0,0:0:0:0:
320,192,36542,1,0,0:0:0:70:LR_Snare Drum.wav
64,192,36730,1,0,0:0:0:70:LR_Snare Drum.wav
192,192,36730,1,0,0:0:0:0:
64,192,37105,1,0,0:0:0:70:LR4_SnareBPDT.wav
448,192,37105,1,0,0:0:0:0:
320,192,37292,1,2,0:0:0:0:
192,192,37386,1,2,0:0:0:0:
64,192,37480,128,2,37855:0:0:0:0:
448,192,37480,1,4,0:0:0:0:
192,192,37855,1,2,0:0:0:0:
320,192,37855,128,8,38230:0:0:0:0:
192,192,38042,128,0,38230:0:0:0:0:
64,192,38230,1,2,0:0:0:0:
448,192,38230,128,0,38605:0:0:0:0:
64,192,38605,128,2,38792:0:0:0:0:
320,192,38605,1,8,0:0:0:0:
192,192,38792,128,0,38980:0:0:0:0:
64,192,38980,1,2,0:0:0:0:
448,192,38980,128,0,39355:0:0:0:0:
192,192,39355,128,2,39730:0:0:0:0:
320,192,39355,1,8,0:0:0:0:
320,192,39542,128,0,39730:0:0:0:0:
64,192,39730,128,2,40105:0:0:0:0:
448,192,39730,1,0,0:0:0:0:
192,192,40105,1,2,0:0:0:0:
448,192,40105,128,8,40292:0:0:0:0:
320,192,40292,1,0,0:0:0:0:
64,192,40480,128,2,40855:0:0:0:0:
448,192,40480,1,4,0:0:0:0:
192,192,40855,1,8,0:0:0:0:
320,192,40855,128,2,41230:0:0:0:0:
192,192,41042,128,0,41230:0:0:0:0:
64,192,41230,1,2,0:0:0:0:
448,192,41230,128,0,41605:0:0:0:0:
64,192,41605,128,8,41792:0:0:0:0:
320,192,41605,1,2,0:0:0:0:
192,192,41792,128,0,41980:0:0:0:0:
64,192,41980,1,2,0:0:0:0:
448,192,41980,1,4,0:0:0:0:
64,192,42730,1,2,0:0:0:0:
64,192,42917,1,0,0:0:0:0:
320,192,43105,1,0,0:0:0:70:LR_Snare Drum.wav
448,192,43105,1,0,0:0:0:0:
192,192,43292,1,0,0:0:0:70:LR_Snare Drum.wav
64,192,43480,1,4,0:0:0:0:
448,192,43480,128,2,43855:0:0:0:0:
64,192,43855,1,8,0:0:0:0:
320,192,43855,1,2,0:0:0:0:
192,192,44042,1,0,0:0:0:0:
320,192,44230,1,2,0:0:0:0:
448,192,44230,1,0,0:0:0:0:
320,192,44511,1,2,0:0:0:0:
448,192,44511,1,0,0:0:0:0:
320,192,44792,1,2,0:0:0:0:
448,192,44792,1,0,0:0:0:0:
64,192,44980,128,2,45355:0:0:0:0:
192,192,44980,1,0,0:0:0:0:
192,192,45355,1,8,0:0:0:0:
448,192,45355,1,2,0:0:0:0:
320,192,45542,1,0,0:0:0:0:
64,192,45730,1,2,0:0:0:0:
192,192,45730,1,0,0:0:0:0:
64,192,46011,1,2,0:0:0:0:
192,192,46011,1,0,0:0:0:0:
64,192,46292,1,2,0:0:0:0:
192,192,46292,1,0,0:0:0:0:
320,192,46480,1,4,0:0:0:0:
448,192,46480,128,2,46855:0:0:0:0:
64,192,46855,1,2,0:0:0:0:
320,192,46855,1,8,0:0:0:0:
192,192,47042,1,0,0:0:0:0:
320,192,47230,1,2,0:0:0:0:
448,192,47230,1,0,0:0:0:0:
320,192,47511,1,2,0:0:0:0:
448,192,47511,1,0,0:0:0:0:
320,192,47792,1,2,0:0:0:0:
448,192,47792,1,0,0:0:0:0:
64,192,47980,1,2,0:0:0:0:
192,192,47980,128,8,48167:0:0:0:0:
448,192,48167,1,0,0:0:0:0:
64,192,48355,1,2,0:0:0:0:
320,192,48355,128,8,48542:0:0:0:0:
192,192,48542,1,0,0:0:0:0:
64,192,48730,1,2,0:0:0:0:
448,192,48730,128,8,48917:0:0:0:0:
320,192,48917,1,0,0:0:0:70:VEC3 Snares 009.wav
64,192,49105,128,0,49292:0:0:0:70:VEC3 Snares 009B.wav
192,192,49105,1,0,0:0:0:0:
448,192,49292,1,0,0:0:0:70:VEC3 Snares 009B.wav
64,192,49480,1,2,0:0:0:0:
320,192,49480,128,4,49667:0:0:0:0:
192,192,49667,128,0,49855:0:0:0:0:
64,192,49855,128,0,50230:0:0:0:0:
448,192,49855,128,0,50042:0:0:0:0:
320,192,50230,128,0,50605:0:0:0:100:LR3_Snare DRL.wav
448,192,50230,128,0,50605:0:0:0:0:
192,192,50605,1,0,0:0:0:0:
320,192,50792,1,2,0:0:0:0:
64,192,50980,128,0,51355:0:0:0:0:
192,192,50980,128,0,51355:0:0:0:0:
320,192,51355,1,2,0:0:0:0:
192,192,51542,1,0,0:0:0:0:
64,192,51730,1,0,0:0:0:100:LR3_Snare DRL.wav
448,192,51730,1,0,0:0:0:0:
64,192,51917,128,0,52105:0:0:0:0:
448,192,52105,1,0,0:0:0:0:
448,192,52292,128,0,52480:0:0:0:0:
64,192,52480,1,2,0:0:0:0:
192,192,52480,128,4,52667:0:0:0:0:
320,192,52667,128,0,52855:0:0:0:0:
64,192,52855,128,0,53042:0:0:0:0:
448,192,52855,128,0,53230:0:0:0:0:
64,192,53230,128,0,53605:0:0:0:100:LR3_Snare DRL.wav
192,192,53230,128,0,53605:0:0:0:0:
320,192,53605,1,0,0:0:0:0:
64,192,53792,1,2,0:0:0:0:
448,192,53792,128,0,54105:0:0:0:0:
192,192,54105,1,0,0:0:0:0:
320,192,54230,1,0,0:0:0:0:
64,192,54355,1,2,0:0:0:0:
448,192,54355,1,0,0:0:0:0:
64,192,54542,128,0,54730:0:0:0:0:
320,192,54730,128,0,55105:0:0:0:100:LR3_Snare DRL.wav
192,192,55105,1,0,0:0:0:0:
448,192,55105,128,0,55480:0:0:0:0:
64,192,55480,1,2,0:0:0:0:
192,192,55480,128,4,55667:0:0:0:0:
320,192,55667,128,0,55855:0:0:0:0:
64,192,55855,128,0,56042:0:0:0:0:
448,192,55855,128,0,56230:0:0:0:0:
64,192,56230,128,0,56605:0:0:0:100:LR3_Snare DRL.wav
192,192,56230,128,0,56605:0:0:0:0:
320,192,56605,1,0,0:0:0:0:
192,192,56792,1,2,0:0:0:0:
320,192,56980,128,0,57355:0:0:0:0:
448,192,56980,128,0,57355:0:0:0:0:
192,192,57355,1,2,0:0:0:0:
320,192,57542,1,0,0:0:0:0:
64,192,57730,1,0,0:0:0:100:LR3_Snare DRL.wav
448,192,57730,1,0,0:0:0:0:
64,192,57917,128,0,58105:0:0:0:0:
448,192,58105,1,0,0:0:0:0:
448,192,58292,128,0,58480:0:0:0:0:
192,192,58480,128,2,58667:0:0:0:0:
320,192,58667,128,0,58855:0:0:0:0:
64,192,58855,128,0,59042:0:0:0:0:
448,192,58855,128,0,59230:0:0:0:0:
64,192,59230,1,4,0:0:0:0:
192,192,59230,1,0,0:0:0:100:LR3_Snare DRL.wav
64,192,59417,128,2,59980:0:0:0:0:
192,192,59417,128,0,59980:0:0:0:0:
320,192,59980,1,2,0:0:0:0:
448,192,59980,128,0,60261:0:0:0:0:
192,192,60261,1,0,0:0:0:0:
64,192,60730,128,2,61011:0:0:0:0:
192,192,60730,1,0,0:0:0:0:
320,192,61011,1,0,0:0:0:0:
64,192,61480,1,2,0:0:0:0:
448,192,61480,128,4,62980:0:0:0:0:
192,192,61855,1,0,0:0:0:70:Clap Hand.wav
64,192,62230,1,0,0:0:0:70:Clap Hand.wav
320,192,62417,1,0,0:0:0:0:
192,192,62792,1,0,0:0:0:0:
64,192,62980,1,0,0:0:0:70:Clap Hand.wav
320,192,62980,128,0,64105:0:0:0:0:
448,192,63167,1,0,0:0:0:0:
192,192,63730,1,0,0:0:0:70:Clap Hand.wav
192,192,64105,128,0,64480:0:0:0:70:Clap Hand.wav
64,192,64480,128,0,65042:0:0:0:70:Clap Hand.wav
448,192,64667,1,0,0:0:0:0:
320,192,64855,1,0,0:0:0:70:Clap Hand.wav
192,192,65042,128,0,65605:0:0:0:0:
64,192,65417,1,0,0:0:0:0:
320,192,65605,128,0,65980:0:0:0:70:Clap Hand.wav
192,192,65792,1,0,0:0:0:0:
448,192,65980,128,0,66730:0:0:0:70:Clap Hand.wav
64,192,66167,1,0,0:0:0:70:LR_Snare Drum.wav
320,192,66542,1,0,0:0:0:70:LR_Snare Drum.wav
64,192,66730,128,0,67480:0:0:0:70:tom01.wav
192,192,67105,128,0,67480:0:0:0:0:
320,192,67480,1,2,0:0:0:0:
448,192,67480,128,4,68980:0:0:0:0:
192,192,67855,1,0,0:0:0:70:Clap Hand.wav
64,192,68230,1,0,0:0:0:70:Clap Hand.wav
320,192,68417,1,0,0:0:0:0:
192,192,68792,1,0,0:0:0:0:
64,192,68980,128,0,69730:0:0:0:70:Clap Hand.wav
320,192,69167,1,0,0:0:0:0:
448,192,69355,1,0,0:0:0:70:Clap Hand.wav
192,192,69730,128,0,70480:0:0:0:70:Clap Hand.wav
448,192,70105,1,0,0:0:0:70:Clap Hand.wav
320,192,70480,128,0,71042:0:0:0:70:Clap Hand.wav
64,192,70667,1,0,0:0:0:0:
192,192,70855,1,0,0:0:0:70:Clap Hand.wav
448,192,71042,128,0,71605:0:0:0:0:
192,192,71417,1,0,0:0:0:0:
64,192,71605,128,0,71980:0:0:0:70:Clap Hand.wav
448,192,71792,1,0,0:0:0:0:
192,192,71980,128,2,72730:0:0:0:0:
320,192,71980,1,0,0:0:0:0:
320,192,72730,128,0,73105:0:0:0:0:
64,192,73105,1,2,0:0:0:0:
192,192,73230,1,2,0:0:0:0:
320,192,73355,1,2,0:0:0:0:
64,192,73480,1,2,0:0:0:0:
448,192,73480,128,4,73855:0:0:0:0:
64,192,73855,128,8,74042:0:0:0:0:
192,192,73855,1,2,0:0:0:0:
64,192,74230,128,2,74605:0:0:0:0:
320,192,74230,1,0,0:0:0:0:
192,192,74605,1,2,0:0:0:0:
448,192,74605,128,8,74792:0:0:0:0:
192,192,74792,128,0,74980:0:0:0:0:
320,192,74980,128,2,75167:0:0:0:0:
448,192,74980,1,0,0:0:0:0:
64,192,75167,128,0,75355:0:0:0:0:
320,192,75355,1,8,0:0:0:0:
448,192,75355,128,2,75542:0:0:0:0:
192,192,75542,128,0,75730:0:0:0:0:
64,192,75730,1,2,0:0:0:0:
320,192,75730,128,0,76105:0:0:0:0:
64,192,76105,128,2,76292:0:0:0:0:
192,192,76105,1,8,0:0:0:0:
448,192,76292,128,0,76480:0:0:0:0:
192,192,76480,128,2,76855:0:0:0:0:
320,192,76480,1,0,0:0:0:0:
320,192,76855,128,2,77042:0:0:0:0:
448,192,76855,1,8,0:0:0:0:
64,192,77042,128,0,77230:0:0:0:0:
192,192,77230,1,2,0:0:0:0:
448,192,77230,128,0,77417:0:0:0:0:
320,192,77417,128,0,77605:0:0:0:0:
192,192,77605,128,8,77792:0:0:0:0:
448,192,77605,1,2,0:0:0:0:
64,192,77792,128,0,77980:0:0:0:0:
448,192,77980,128,2,78355:0:0:0:0:
320,192,78167,128,0,78355:0:0:0:0:
64,192,78355,128,10,78730:0:0:0:0:
192,192,78542,128,0,78730:0:0:0:0:
320,192,78730,1,2,0:0:0:0:
448,192,78730,128,0,79480:0:0:0:0:
64,192,78917,1,0,0:0:0:0:
192,192,79105,1,0,0:0:0:0:
320,192,79292,1,0,0:0:0:0:
64,192,79480,1,6,0:0:0:0:
192,192,79480,1,8,0:0:0:0:
320,192,79667,1,2,0:0:0:0:
64,192,79855,1,2,0:0:0:0:
448,192,79855,1,8,0:0:0:0:
192,192,80042,1,2,0:0:0:0:
320,192,80230,1,2,0:0:0:0:
448,192,80230,1,8,0:0:0:0:
192,192,80417,1,2,0:0:0:0:
64,192,80605,1,2,0:0:0:0:
448,192,80605,1,8,0:0:0:0:
320,192,80792,1,2,0:0:0:0:
64,192,80980,1,2,0:0:0:0:
192,192,80980,1,8,0:0:0:0:
320,192,81167,1,2,0:0:0:0:
64,192,81355,1,2,0:0:0:0:
448,192,81355,1,8,0:0:0:0:
192,192,81542,1,2,0:0:0:0:
320,192,81730,1,8,0:0:0:0:
448,192,81730,1,2,0:0:0:0:
192,192,81917,1,2,0:0:0:0:
64,192,82105,1,8,0:0:0:0:
448,192,82105,1,2,0:0:0:0:
320,192,82292,1,2,0:0:0:0:
192,192,82480,1,14,0:0:0:0:
192,192,82667,1,10,0:0:0:0:
320,192,82761,1,10,0:0:0:0:
448,192,82855,1,10,0:0:0:0:
448,192,83042,1,10,0:0:0:0:
192,192,83136,1,10,0:0:0:0:
64,192,83230,1,8,0:0:0:0:
64,192,83417,1,8,0:0:0:0:
448,192,83511,1,8,0:0:0:0:
320,192,83605,1,8,0:0:0:0:
320,192,83792,1,8,0:0:0:0:
192,192,83886,1,8,0:0:0:0:
64,192,83980,128,2,84167:0:0:0:0:
448,192,83980,128,0,84167:0:0:0:0:
320,192,84355,1,0,0:0:0:70:LR_Snare Drum.wav
192,192,84542,1,0,0:0:0:70:LR_Snare Drum.wav
320,192,84730,128,0,84917:0:0:0:70:LR_Snare Drum.wav
448,192,84730,128,0,84917:0:0:0:0:
64,192,85105,1,0,0:0:0:70:LR4_SnareBPDT.wav
448,192,85198,1,0,0:0:0:0:
192,192,85292,1,0,0:0:0:0:
320,192,85386,1,0,0:0:0:0:
64,192,85480,128,2,85855:0:0:0:0:
448,192,85480,1,0,0:0:0:0:
320,192,85855,1,12,0:0:0:0:
448,192,85855,128,2,86042:0:0:0:0:
192,192,86230,1,2,0:0:0:0:
448,192,86230,128,0,86605:0:0:0:0:
64,192,86605,1,2,0:0:0:0:
192,192,86605,128,8,86792:0:0:0:0:
320,192,86792,128,0,86980:0:0:0:0:
64,192,86980,128,2,87167:0:0:0:0:
448,192,86980,1,0,0:0:0:0:
448,192,87167,128,0,87355:0:0:0:0:
64,192,87355,1,8,0:0:0:0:
320,192,87355,128,2,87542:0:0:0:0:
192,192,87542,128,0,87730:0:0:0:0:
64,192,87730,128,2,88105:0:0:0:0:
448,192,87730,1,0,0:0:0:0:
320,192,88105,1,2,0:0:0:0:
448,192,88105,128,8,88292:0:0:0:0:
192,192,88292,128,0,88480:0:0:0:0:
64,192,88480,1,2,0:0:0:0:
320,192,88480,128,0,88855:0:0:0:0:
64,192,88855,128,2,89042:0:0:0:0:
192,192,88855,1,8,0:0:0:0:
448,192,89042,128,0,89230:0:0:0:0:
192,192,89230,128,2,89417:0:0:0:0:
320,192,89230,1,0,0:0:0:0:
64,192,89417,1,0,0:0:0:0:
320,192,89511,1,0,0:0:0:0:
192,192,89605,1,8,0:0:0:0:
448,192,89605,128,2,89792:0:0:0:0:
64,192,89792,128,0,89980:0:0:0:0:
320,192,89980,128,2,90167:0:0:0:0:
448,192,89980,1,0,0:0:0:0:
192,192,90167,1,0,0:0:0:0:
64,192,90355,1,8,0:0:0:0:
448,192,90355,128,2,90542:0:0:0:0:
320,192,90542,1,0,0:0:0:0:
64,192,90730,128,2,90917:0:0:0:0:
192,192,90730,1,0,0:0:0:0:
448,192,90917,1,0,0:0:0:0:
192,192,91105,128,2,91292:0:0:0:0:
320,192,91105,1,0,0:0:0:0:
64,192,91292,1,0,0:0:0:0:
320,192,91480,1,2,0:0:0:0:
448,192,91480,128,4,91855:0:0:0:0:
64,192,91855,1,8,0:0:0:0:
192,192,91855,128,2,92042:0:0:0:0:
192,192,92230,128,2,92605:0:0:0:0:
448,192,92230,1,0,0:0:0:0:
64,192,92605,128,2,92792:0:0:0:0:
320,192,92605,1,8,0:0:0:0:
448,192,92792,128,0,92980:0:0:0:0:
64,192,92980,1,2,0:0:0:0:
320,192,92980,128,0,93355:0:0:0:0:
192,192,93355,1,8,0:0:0:0:
448,192,93355,128,2,93542:0:0:0:0:
64,192,93542,128,0,93730:0:0:0:0:
192,192,93730,128,2,94105:0:0:0:0:
320,192,93730,1,0,0:0:0:0:
64,192,94105,1,2,0:0:0:0:
448,192,94105,128,8,94292:0:0:0:0:
320,192,94292,128,0,94480:0:0:0:0:
64,192,94480,128,2,94855:0:0:0:0:
448,192,94480,1,0,0:0:0:0:
320,192,94855,1,2,0:0:0:0:
448,192,94855,128,8,95230:0:0:0:0:
192,192,95230,1,2,0:0:0:0:
320,192,95230,128,0,95417:0:0:0:0:
64,192,95417,1,0,0:0:0:0:
192,192,95511,1,0,0:0:0:0:
320,192,95605,1,8,0:0:0:0:
448,192,95605,128,2,95792:0:0:0:0:
64,192,95792,128,0,95980:0:0:0:0:
192,192,95980,1,2,0:0:0:0:
320,192,95980,128,0,96355:0:0:0:0:
64,192,96355,128,2,96542:0:0:0:0:
448,192,96355,1,0,0:0:0:0:
192,192,96542,128,0,96730:0:0:0:0:
64,192,96730,1,2,0:0:0:0:
448,192,96730,128,0,97480:0:0:0:0:
320,192,96917,1,0,0:0:0:70:VEC3 Snares 009.wav
192,192,97105,1,0,0:0:0:0:
64,192,97292,1,0,0:0:0:70:VEC3 Snares 009B.wav
192,192,97480,128,4,97855:0:0:0:0:
320,192,97480,1,2,0:0:0:0:
320,192,97855,128,8,98042:0:0:0:0:
448,192,97855,1,2,0:0:0:0:
64,192,98230,1,2,0:0:0:0:
320,192,98230,128,0,98605:0:0:0:0:
64,192,98605,128,2,98792:0:0:0:0:
448,192,98605,1,8,0:0:0:0:
448,192,98792,128,0,98980:0:0:0:0:
64,192,98980,1,2,0:0:0:0:
192,192,98980,128,0,99167:0:0:0:0:
320,192,99167,128,0,99355:0:0:0:0:
64,192,99355,128,8,99542:0:0:0:0:
448,192,99355,1,2,0:0:0:0:
192,192,99542,128,0,99730:0:0:0:0:
64,192,99730,1,2,0:0:0:0:
448,192,99730,128,0,100105:0:0:0:0:
64,192,100105,128,2,100292:0:0:0:0:
192,192,100105,1,8,0:0:0:0:
320,192,100292,128,0,100480:0:0:0:0:
192,192,100480,128,2,100855:0:0:0:0:
448,192,100480,1,0,0:0:0:0:
64,192,100855,1,2,0:0:0:0:
448,192,100855,128,8,101042:0:0:0:0:
320,192,101042,128,0,101230:0:0:0:0:
64,192,101230,128,2,101417:0:0:0:0:
448,192,101230,1,0,0:0:0:0:
192,192,101417,128,0,101605:0:0:0:0:
64,192,101605,1,8,0:0:0:0:
320,192,101605,128,2,101792:0:0:0:0:
448,192,101792,128,0,101980:0:0:0:0:
64,192,101980,128,2,102167:0:0:0:0:
320,192,101980,1,0,0:0:0:0:
192,192,102167,1,0,0:0:0:0:
64,192,102355,1,8,0:0:0:0:
448,192,102355,128,2,102542:0:0:0:0:
320,192,102542,1,0,0:0:0:0:
192,192,102730,128,2,102917:0:0:0:0:
448,192,102730,1,0,0:0:0:0:
64,192,102917,1,0,0:0:0:0:
192,192,103105,1,2,0:0:0:0:
320,192,103105,128,0,103292:0:0:0:0:
448,192,103292,1,0,0:0:0:0:
64,192,103480,128,2,103855:0:0:0:0:
192,192,103480,1,4,0:0:0:0:
192,192,103855,128,8,104042:0:0:0:0:
320,192,103855,1,2,0:0:0:0:
192,192,104230,128,2,104605:0:0:0:0:
448,192,104230,1,0,0:0:0:0:
64,192,104605,128,2,104792:0:0:0:0:
320,192,104605,1,8,0:0:0:0:
448,192,104792,128,0,104980:0:0:0:0:
64,192,104980,1,2,0:0:0:0:
320,192,104980,128,0,105355:0:0:0:0:
192,192,105355,1,8,0:0:0:0:
448,192,105355,128,2,105542:0:0:0:0:
64,192,105542,128,0,105730:0:0:0:0:
192,192,105730,128,2,106105:0:0:0:0:
320,192,105730,1,0,0:0:0:0:
64,192,106105,1,2,0:0:0:0:
320,192,106105,128,8,106292:0:0:0:0:
448,192,106292,128,0,106480:0:0:0:0:
64,192,106480,128,2,107980:0:0:0:0:
320,192,106480,1,0,0:0:0:0:
320,192,106855,1,10,0:0:0:0:
320,192,107230,1,2,0:0:0:0:
320,192,107605,1,10,0:0:0:0:
192,192,107980,1,2,0:0:0:0:
448,192,107980,128,0,108167:0:0:0:0:
320,192,108167,128,0,108355:0:0:0:0:
192,192,108355,128,0,108542:0:0:0:0:
64,192,108542,128,0,108730:0:0:0:70:VEC3 Snares 009.wav
448,192,108730,1,0,0:0:0:70:VEC3 Snares 009B.wav
320,192,108823,1,0,0:0:0:0:
192,192,108917,1,0,0:0:0:0:
64,192,109105,1,0,0:0:0:70:LR4_SnareBPDT.wav
192,192,109198,1,0,0:0:0:0:
320,192,109292,1,0,0:0:0:0:
64,192,109480,1,2,0:0:0:0:
448,192,109480,1,4,0:0:0:0:
192,192,109855,1,0,0:0:0:0:
448,192,110230,1,0,0:0:0:0:
320,192,110511,128,0,110792:0:0:0:0:
64,192,110792,1,0,0:0:0:0:
192,192,110980,1,0,0:0:0:0:
448,192,111355,1,0,0:0:0:0:
64,192,111730,1,0,0:0:0:0:
192,192,112011,128,0,112292:0:0:0:0:
320,192,112292,1,0,0:0:0:0:
448,192,112480,1,0,0:0:0:0:
64,192,112855,1,0,0:0:0:0:
192,192,113230,1,0,0:0:0:0:
448,192,113511,128,0,113792:0:0:0:0:
320,192,113792,1,0,0:0:0:0:
64,192,113980,1,0,0:0:0:0:
448,192,114355,1,0,0:0:0:0:
192,192,114730,1,0,0:0:0:0:
320,192,115011,1,0,0:0:0:0:
448,192,115292,1,0,0:0:0:0:
64,192,115480,1,0,0:0:0:0:
320,192,115855,1,0,0:0:0:0:
192,192,116230,1,0,0:0:0:0:
64,192,116511,128,0,116792:0:0:0:0:
448,192,116792,1,0,0:0:0:0:
320,192,116980,1,0,0:0:0:0:
192,192,117261,128,0,117542:0:0:0:0:
448,192,117542,1,0,0:0:0:0:
64,192,117730,1,0,0:0:0:0:
192,192,118011,1,0,0:0:0:0:
320,192,118292,1,0,0:0:0:0:
64,192,118480,1,0,0:0:0:0:
448,192,118855,1,0,0:0:0:0:
192,192,119230,1,0,0:0:0:0:
320,192,119511,128,0,119792:0:0:0:0:
64,192,119792,1,0,0:0:0:0:
448,192,119980,1,0,0:0:0:0:
192,192,120261,128,0,120542:0:0:0:0:
320,192,120542,1,0,0:0:0:0:
64,192,120730,1,0,0:0:0:0:
64,192,121011,1,0,0:0:0:0:
64,192,121292,1,0,0:0:0:0:
