osu file format v14

[General]
AudioFilename: audio.mp3
AudioLeadIn: 0
PreviewTime: 79787
Countdown: 0
SampleSet: Soft
StackLeniency: 0.7
Mode: 2
LetterboxInBreaks: 0
WidescreenStoryboard: 1

[Editor]
Bookmarks: 24672,46615,52101,68558,123415,134387,145358,150844,156329,178272,200215,222158
DistanceSpacing: 1
BeatDivisor: 8
GridSize: 4
TimelineZoom: 1.7

[Metadata]
Title:SUMMER
TitleUnicode:SUMMER
Artist:Zekk
ArtistUnicode:Zekk
Creator:Spectator
Version:Salad
Source:osu!
Tags:electronic instrumental jemzuu ajamez -momox momox featured artist fa mappers' guild mg future bass hardcore megarex fugene trinity force
BeatmapID:2894569
BeatmapSetID:1393068

[Difficulty]
HPDrainRate:3
CircleSize:2.5
OverallDifficulty:7
ApproachRate:7
SliderMultiplier:1.6
SliderTickRate:1

[Events]
//Background and Video events
0,0,"summer.jpg",0,0
//Break Periods
2,47017,51403
2,123817,128203
2,145760,147403
//Storyboard Layer 0 (Background)
//Storyboard Layer 1 (Fail)
//Storyboard Layer 2 (Pass)
//Storyboard Layer 3 (Foreground)
//Storyboard Layer 4 (Overlay)
//Storyboard Sound Samples

[TimingPoints]
189,342.857142857143,4,2,1,65,1,0
2589,-100,4,2,5,65,0,0
2674,-100,4,2,1,65,0,0
5331,-100,4,2,1,65,0,0
5417,-100,4,2,1,65,0,0
8417,-100,4,2,5,65,0,0
8589,-100,4,2,1,65,0,0
8760,-100,4,2,1,65,0,0
8931,-100,4,2,1,65,0,0
13560,-100,4,2,5,65,0,0
13646,-100,4,2,1,65,0,0
13903,-100,4,2,1,75,0,0
22131,-100,4,2,1,75,0,0
22817,-100,4,2,1,75,0,0
23503,-100,4,2,5,75,0,0
23589,-100,4,2,1,75,0,0
23846,-100,4,2,1,60,0,0
24189,-100,4,2,1,75,0,0
24531,-100,4,2,1,75,0,0
24874,-100,4,2,5,80,0,0
24960,-100,4,2,1,80,0,0
25217,-100,4,2,1,80,0,0
33103,-100,4,2,1,85,0,0
35846,-100,4,2,5,90,0,0
36017,-100,4,2,1,90,0,0
46131,-100,4,2,30,75,0,0
52303,-100,4,2,1,80,0,0
56417,-100,4,2,1,80,0,0
57789,-100,4,2,1,85,0,0
62417,-100,4,2,1,85,0,0
62589,-100,4,2,5,85,0,0
62931,-100,4,2,1,85,0,0
63274,-100,4,2,1,85,0,0
64646,-100,4,2,5,85,0,0
64731,-100,4,2,1,85,0,0
66017,-100,4,2,5,85,0,0
66103,-100,4,2,1,85,0,0
67389,-100,4,2,5,85,0,0
67474,-100,4,2,1,85,0,0
68417,-100,4,3,20,85,0,0
68760,-100,4,2,4,90,0,0
74246,-100,4,2,5,90,0,0
74331,-100,4,2,4,90,0,0
78360,-100,4,2,5,90,0,0
78446,-100,4,2,4,90,0,0
78703,-100,4,2,1,90,0,0
79046,-100,4,2,1,60,0,0
79389,-100,4,2,1,80,0,0
80074,-100,4,2,2,90,0,1
80246,-100,4,2,2,90,0,0
80931,-100,4,2,2,90,0,0
81446,-100,4,2,2,90,0,0
82731,-100,4,2,2,90,0,0
82989,-100,4,2,2,90,0,0
83246,-100,4,2,2,90,0,0
83674,-100,4,2,2,90,0,0
84189,-100,4,2,2,90,0,0
84703,-100,4,2,2,90,0,0
85046,-100,4,2,2,90,0,0
85217,-100,4,2,2,90,0,0
85389,-100,4,2,2,90,0,0
85560,-100,4,2,2,90,0,0
85731,-100,4,2,2,90,0,0
87103,-100,4,2,2,90,0,0
87360,-100,4,2,2,90,0,0
87960,-100,4,2,2,90,0,0
88217,-100,4,2,2,90,0,0
88474,-100,4,2,2,90,0,0
88989,-100,4,2,2,90,0,0
89760,-100,4,2,2,90,0,0
91903,-100,4,2,2,90,0,0
92417,-100,4,2,2,90,0,0
92674,-100,4,2,2,90,0,0
92931,-100,4,2,2,90,0,0
93103,-100,4,2,2,90,0,0
93446,-100,4,2,2,90,0,0
93703,-100,4,2,2,90,0,0
93960,-100,4,2,2,90,0,0
94131,-100,4,2,2,90,0,0
94389,-100,4,2,2,90,0,0
94646,-100,4,2,2,90,0,0
94989,-100,4,2,2,90,0,0
101331,-100,4,2,2,90,0,0
101674,-100,4,2,2,90,0,1
101846,-100,4,2,2,90,0,0
105617,-100,4,2,2,90,0,0
106303,-100,4,2,2,90,0,0
108360,-100,4,2,2,90,0,0
108874,-100,4,2,2,90,0,0
109903,-100,4,2,2,90,0,0
110931,-100,4,2,2,90,0,0
112989,-100,4,2,2,90,0,0
113331,-100,4,2,2,90,0,0
120874,-100,4,2,2,90,0,0
122246,-100,4,2,2,70,0,0
123617,-100,4,2,30,70,0,0
126360,-100,4,2,1,45,0,0
127389,-100,4,2,1,55,0,0
128589,-100,4,2,1,65,0,0
129103,-100,4,2,1,65,0,0
131846,-100,4,2,1,65,0,0
133217,-100,4,2,5,65,0,0
133303,-100,4,2,1,65,0,0
134246,-100,4,3,20,65,0,0
134589,-100,4,2,4,65,0,0
139389,-100,4,2,5,65,0,0
139474,-100,4,2,4,65,0,0
140074,-100,4,2,5,65,0,0
140160,-100,4,2,1,65,0,0
141446,-100,4,2,5,65,0,0
141531,-100,4,2,1,65,0,0
142817,-100,4,2,5,65,0,0
142903,-100,4,2,1,65,0,0
144189,-100,4,2,5,65,0,0
144274,-100,4,2,1,65,0,0
145217,-100,4,3,20,75,0,0
145303,-100,4,2,1,65,0,0
145560,-100,4,2,30,65,0,0
148303,-100,4,2,1,45,0,0
148989,-100,4,2,1,50,0,0
149674,-100,4,2,1,55,0,0
150189,-100,4,2,1,60,0,0
151046,-100,4,2,4,65,0,0
153789,-100,4,2,4,70,0,0
155160,-100,4,2,1,55,0,0
156189,-100,4,2,1,70,0,0
156360,-100,4,2,1,55,0,0
156531,-100,4,2,3,95,0,1
156703,-100,4,2,3,95,0,0
165360,-100,4,2,3,95,0,0
165617,-100,4,2,3,95,0,0
166131,-100,4,2,3,95,0,0
166389,-100,4,2,3,95,0,0
170246,-100,4,2,3,95,0,0
170417,-100,4,2,3,95,0,0
176417,-100,4,2,3,95,0,0
177446,-100,4,2,3,95,0,0
177789,-100,4,2,3,95,0,0
178474,-100,4,2,3,95,0,0
178817,-100,4,2,5,95,0,1
178989,-100,4,2,3,95,0,0
189446,-100,4,2,5,95,0,0
189617,-100,4,2,3,95,0,0
197331,-100,4,2,3,95,0,0
197674,-100,4,2,3,95,0,0
198531,-100,4,2,1,85,0,0
199046,-100,4,2,2,85,0,0
200417,-100,4,2,1,80,0,0
202817,-100,4,2,1,80,0,0
202903,-100,4,2,1,80,0,0
211046,-100,4,2,5,80,0,0
211131,-100,4,2,1,80,0,0
220989,-100,4,2,5,80,0,0
221331,-100,4,2,1,55,0,0
221760,-100,4,2,1,75,0,0
222189,-100,4,2,1,65,0,0

[Colours]
Combo1 : 114,134,203
Combo2 : 199,240,102
Combo3 : 104,199,230
Combo4 : 117,186,112

[HitObjects]
196,124,1560,6,0,L|52:111,2,120
280,160,2246,2,0,L|282:263,1,80
116,244,2589,1,4,0:0:0:0:
282,341,2931,6,0,P|326:315|260:244,1,160,0|0,3:0|3:0,0:0:0:0:
124,211,3617,2,0,L|297:188,1,160,0|0,3:0|3:0,0:0:0:0:
118,247,4131,6,0,P|74:221|140:150,1,160,2|0,0:0|0:0,0:0:0:0:
198,132,4646,1,0,3:0:0:0:
276,120,4817,1,0,0:0:0:0:
195,132,4989,2,0,L|29:115,1,160,0|0,3:0|3:0,0:0:0:0:
294,264,5674,6,0,L|461:246,1,160,0|0,3:0|3:0,0:0:0:0:
373,232,6189,1,0,0:0:0:0:
294,216,6360,1,0,3:0:0:0:
142,233,6703,2,0,L|56:254,2,80,0|0|0,3:0|0:0|3:0,0:0:0:0:
307,275,7217,5,2,0:0:0:0:
307,275,7389,1,2,3:2:0:0:
148,148,7731,1,2,3:2:0:0:
148,148,7903,1,2,0:0:0:0:
311,275,8246,1,2,0:0:0:0:
148,281,8417,6,0,P|94:264|39:173,1,160,4|8,3:2|3:0,0:0:0:0:
119,167,8931,1,0,0:0:0:0:
198,154,9103,1,0,0:0:0:0:
351,134,9446,1,8,3:0:0:0:
272,118,9617,1,2,0:0:0:0:
112,94,9789,6,0,L|113:271,1,160,2|8,3:2|3:0,0:0:0:0:
191,236,10303,1,0,0:0:0:0:
269,219,10474,1,0,3:0:0:0:
191,236,10646,2,0,L|23:207,1,160
196,246,11160,6,0,L|366:200,1,160,2|8,3:2|3:0,0:0:0:0:
271,191,11674,1,0,0:0:0:0:
192,175,11846,1,0,3:0:0:0:
357,199,12189,2,0,L|360:292,1,80,8|0,3:0|0:0,0:0:0:0:
195,280,12531,6,0,P|140:269|87:183,1,160,2|2,3:2|0:0,0:0:0:0:
167,177,13046,1,0,0:0:0:0:
325,167,13217,1,2,0:0:0:0:
404,159,13389,1,2,0:0:0:0:
404,159,13560,1,4,0:0:0:0:
325,167,13731,1,2,0:0:0:0:
156,156,13903,6,0,L|153:322,1,160,0|8,3:0|3:0,0:0:0:0:
232,304,14417,1,0,0:0:0:0:
311,291,14589,2,0,P|301:225|205:183,1,160,0|8,3:0|3:0,0:0:0:0:
144,180,15103,1,2,0:2:0:0:
296,222,15446,6,0,L|384:216,2,80,0|8|0,0:0|3:0|0:0,0:0:0:0:
135,218,15960,2,0,P|84:194|149:138,1,160,0|8,3:0|3:0,0:0:0:0:
211,148,16474,1,0,0:0:0:0:
372,210,16646,6,0,P|422:199|485:100,1,160,0|8,3:0|3:0,0:0:0:0:
403,107,17160,1,0,0:0:0:0:
324,95,17331,2,0,L|494:118,1,160,0|8,3:0|3:0,0:0:0:0:
402,123,17846,1,0,0:0:0:0:
322,129,18017,1,0,3:0:0:0:
157,330,18189,5,2,0:0:0:0:
157,330,18361,1,2,3:2:0:0:
320,203,18703,1,2,3:2:0:0:
320,203,18875,1,2,0:0:0:0:
157,330,19218,1,2,0:0:0:0:
320,203,19389,6,0,L|320:370,1,160,0|8,3:0|3:0,0:0:0:0:
241,344,19903,1,0,0:0:0:0:
163,324,20074,2,0,P|181:271|277:232,1,160,0|8,3:0|3:0,0:0:0:0:
192,214,20589,1,2,0:2:0:0:
32,269,20760,6,0,L|27:105,1,160,2|8,3:2|3:0,0:0:0:0:
107,101,21274,1,0,0:0:0:0:
186,94,21446,1,0,3:0:0:0:
107,101,21617,2,0,P|39:117|4:223,1,160
164,312,22131,5,2,3:2:0:0:
236,277,22303,1,0,0:0:0:0:
262,201,22474,1,0,0:0:0:0:
233,126,22646,1,0,0:0:0:0:
152,100,22817,1,0,0:0:0:0:
71,105,22989,1,0,0:0:0:0:
152,100,23160,1,0,0:0:0:0:
440,71,23503,1,4,3:2:0:0:
440,71,24531,5,8,3:2:0:0:
151,249,24874,6,0,P|91:237|39:129,1,160,4|8,3:2|0:0,0:0:0:0:
117,146,25389,1,0,0:0:0:0:
195,129,25560,2,0,L|31:114,1,160,0|8,3:0|0:0,0:0:0:0:
323,264,26246,5,0,3:0:0:0:
408,277,26417,1,0,0:0:0:0:
444,263,26502,1,0,0:0:0:0:
483,253,26588,1,8,0:0:0:0:
408,178,26759,1,0,0:0:0:0:
323,142,26931,1,0,3:0:0:0:
402,129,27103,1,0,0:0:0:0:
480,116,27274,1,8,0:0:0:0:
402,129,27446,1,0,0:0:0:0:
236,222,27617,6,0,P|178:211|128:118,1,160,0|8,3:0|0:0,0:0:0:0:
206,113,28131,1,0,0:0:0:0:
285,99,28303,2,0,L|108:82,1,160,0|8,3:0|0:0,0:0:0:0:
205,77,28817,1,0,0:0:0:0:
284,66,28989,1,0,0:0:0:0:
365,48,29160,6,0,L|367:232,1,160
206,179,29674,1,0,3:0:0:0:
128,198,29846,1,0,2:0:0:0:
206,179,30017,1,0,0:0:0:0:
284,161,30189,1,0,0:0:0:0:
123,292,30360,6,0,P|65:284|21:182,1,160,0|8,3:0|0:0,0:0:0:0:
95,180,30874,1,0,0:0:0:0:
173,162,31046,2,0,L|-4:133,1,160,0|8,3:0|0:0,0:0:0:0:
304,254,31731,6,0,L|461:279,1,160,0|8,3:0|0:0,0:0:0:0:
382,290,32246,1,0,0:0:0:0:
304,309,32417,2,0,L|480:277,1,160,0|8,3:0|0:0,0:0:0:0:
164,187,33103,6,0,P|123:159|179:75,1,160,0|8,3:0|0:0,0:0:0:0:
242,66,33617,1,0,0:0:0:0:
322,57,33789,2,0,L|159:74,1,160,0|8,3:0|0:0,0:0:0:0:
242,66,34303,1,0,0:0:0:0:
323,56,34474,6,0,L|327:245,1,160,0|8,3:0|0:0,0:0:0:0:
245,220,34989,1,0,0:0:0:0:
398,298,35160,1,0,3:0:0:0:
477,292,35331,1,0,0:0:0:0:
477,292,35503,1,2,0:0:0:0:
398,298,35674,1,2,0:0:0:0:
236,284,35846,6,0,L|68:304,1,160,4|8,3:2|0:0,0:0:0:0:
156,290,36360,1,0,0:0:0:0:
236,284,36531,2,0,L|404:304,1,160,0|8,3:0|0:0,0:0:0:0:
316,290,37045,1,0,0:0:0:0:
154,169,37217,6,0,L|322:189,1,160,0|8,3:0|0:0,0:0:0:0:
234,175,37731,1,0,0:0:0:0:
154,169,37903,2,0,L|322:189,1,160,0|8,3:0|0:0,0:0:0:0:
312,187,38417,1,0,0:0:0:0:
148,170,38589,6,0,P|104:139|161:64,1,160,0|8,3:0|0:0,0:0:0:0:
228,50,39103,1,0,0:0:0:0:
308,44,39274,2,0,L|140:64,1,160,0|8,3:0|0:0,0:0:0:0:
228,50,39788,1,0,0:0:0:0:
389,231,39960,6,0,P|383:186|261:133,1,160,0|8,3:0|0:0,0:0:0:0:
213,128,40474,1,0,0:0:0:0:
133,130,40646,1,0,3:0:0:0:
172,134,40731,1,0,0:0:0:0:
211,138,40817,1,0,0:0:0:0:
290,147,40989,1,0,0:0:0:0:
210,141,41160,1,0,0:0:0:0:
41,321,41331,6,0,L|33:148,1,160,0|8,3:0|0:0,0:0:0:0:
114,154,41846,1,0,0:0:0:0:
193,143,42017,2,0,L|15:132,1,160,0|8,3:0|0:0,0:0:0:0:
113,128,42531,1,0,0:0:0:0:
279,192,42703,6,0,P|265:137|168:87,1,160,0|8,3:0|0:0,0:0:0:0:
100,81,43217,1,0,0:0:0:0:
180,87,43389,2,0,L|375:68,1,160,0|8,3:0|0:0,0:0:0:0:
259,63,43903,1,0,0:0:0:0:
99,195,44074,6,0,P|56:166|113:87,1,160,0|2,3:0|0:0,0:0:0:0:
178,100,44589,1,0,0:0:0:0:
217,106,44674,1,0,0:0:0:0:
256,113,44760,1,2,0:0:0:0:
179,137,44931,1,2,0:0:0:0:
102,161,45103,1,2,0:0:0:0:
179,137,45274,1,2,0:0:0:0:
342,95,45446,5,0,0:0:0:0:
341,284,45789,2,0,P|326:226|213:192,1,160,0|0,0:0|3:0,0:0:0:0:
187,182,46246,1,0,3:0:0:0:
187,182,46360,1,0,3:0:0:0:
240,186,46474,1,0,3:0:0:0:
324,160,46646,1,0,3:0:0:0:
484,110,46817,1,4,0:0:0:0:
356,243,52303,6,0,P|406:208|338:146,1,160
278,131,52817,2,0,L|448:110,1,160
357,101,53331,1,0,0:0:0:0:
223,124,53674,6,0,P|168:167|221:211,1,160,0|2,0:0|0:0,0:0:0:0:
305,115,54189,2,0,L|117:93,1,160,0|2,0:0|0:0,0:0:0:0:
226,87,54703,1,0,0:0:0:0:
379,49,55046,6,0,L|383:212,1,160
302,215,55560,1,0,0:0:0:0:
222,222,55731,2,0,L|398:208,1,160
302,215,56246,1,0,0:0:0:0:
140,220,56417,6,0,P|91:184|161:128,1,160,4|0,0:0|0:0,0:0:0:0:
221,109,56931,1,0,0:0:0:0:
300,95,57103,1,0,3:0:0:0:
221,108,57274,1,8,3:2:0:0:
142,122,57446,1,0,3:0:0:0:
430,277,57789,6,0,L|439:108,1,160,4|0,0:0|0:0,0:0:0:0:
358,118,58303,2,0,P|292:138|245:221,1,160,0|0,3:0|0:0,0:0:0:0:
326,213,58817,1,0,3:0:0:0:
44,311,59160,6,0,L|35:142,1,160,0|0,3:0|0:0,0:0:0:0:
116,145,59674,1,0,3:0:0:0:
277,215,59846,1,0,0:0:0:0:
356,226,60017,1,0,0:0:0:0:
277,215,60189,1,0,3:2:0:0:
197,207,60360,1,0,0:0:0:0:
356,226,60531,6,0,L|360:61,1,160,0|0,3:0|0:0,0:0:0:0:
279,59,61046,2,0,L|99:82,1,160,0|0,3:0|0:0,0:0:0:0:
199,67,61560,1,0,3:0:0:0:
278,56,61731,1,0,0:0:0:0:
117,183,61903,5,8,2:3:0:0:
39,195,62074,1,2,0:0:0:0:
39,195,62246,1,8,2:3:0:0:
117,183,62417,1,2,0:0:0:0:
279,149,62589,1,4,0:0:0:0:
422,233,63274,6,0,P|412:182|293:131,1,160,8|8,3:0|3:0,0:0:0:0:
245,116,63789,1,0,0:0:0:0:
165,110,63960,2,0,L|320:82,2,120,8|0|0,3:0|3:0|3:0,0:0:0:0:
85,265,64646,6,0,P|101:315|211:352,1,160,4|8,0:2|0:3,0:0:0:0:
272,341,65160,1,0,0:0:0:0:
350,327,65331,1,8,0:3:0:0:
272,341,65503,1,0,0:0:0:0:
194,358,65674,1,8,0:3:0:0:
193,317,65760,1,0,0:0:0:0:
192,276,65846,1,0,0:0:0:0:
353,279,66017,5,4,0:2:0:0:
424,248,66188,1,0,0:0:0:0:
454,176,66359,1,8,0:3:0:0:
424,104,66531,1,0,0:0:0:0:
352,74,66702,1,8,0:3:0:0:
223,104,66960,1,0,3:0:0:0:
223,104,67217,1,0,3:0:0:0:
386,132,67389,5,4,3:2:0:0:
276,279,68074,2,0,L|271:191,1,80
353,195,68417,1,0,0:0:0:0:
66,313,68760,6,0,P|20:282|90:213,1,160,12|2,0:0|0:0,0:0:0:0:
150,309,69274,2,0,P|196:278|126:209,1,160,8|2,0:0|0:0,0:0:0:0:
66,202,69789,1,8,0:0:0:0:
66,202,69960,1,2,0:0:0:0:
226,202,70131,6,0,L|232:368,1,160,8|2,0:0|0:0,0:0:0:0:
151,354,70646,1,8,0:0:0:0:
72,342,70817,2,0,L|241:363,1,160,8|8,0:0|0:0,0:0:0:0:
308,342,71331,1,10,0:0:0:0:
146,294,71503,6,0,P|104:273|164:195,1,160,8|2,0:0|0:0,0:0:0:0:
227,295,72017,2,0,P|269:274|209:196,1,160,8|2,0:0|0:0,0:0:0:0:
143,350,72531,1,8,0:0:0:0:
143,350,72703,1,2,0:0:0:0:
302,286,72874,5,8,0:0:0:0:
379,265,73046,1,2,0:0:0:0:
379,265,73217,1,8,0:0:0:0:
302,286,73389,1,0,0:0:0:0:
141,248,73560,1,10,0:0:0:0:
141,248,73903,1,10,0:0:0:0:
459,249,74246,6,0,L|462:73,1,160,4|2,2:2|0:0,0:0:0:0:
381,87,74760,2,0,L|189:81,1,160,8|2,0:0|0:0,0:0:0:0:
301,82,75274,1,8,0:0:0:0:
381,82,75446,1,2,0:0:0:0:
301,82,75617,1,8,0:0:0:0:
139,222,75789,6,0,P|87:194|155:143,1,160,0|8,0:0|0:0,0:0:0:0:
219,131,76303,2,0,L|44:115,1,160,8|8,0:0|0:0,0:0:0:0:
59,116,76817,1,8,0:0:0:0:
221,211,76989,5,8,0:0:0:0:
298,192,77160,1,8,0:0:0:0:
298,192,77331,1,8,0:0:0:0:
221,211,77503,1,8,0:0:0:0:
61,216,77674,1,8,0:0:0:0:
72,136,77846,1,8,0:0:0:0:
128,79,78017,1,8,0:0:0:0:
206,61,78189,1,8,0:0:0:0:
373,63,78360,5,4,0:0:0:0:
258,192,79046,2,0,L|264:275,1,80,0|0,3:0|3:0,0:0:0:0:
348,277,79389,1,4,3:2:0:0:
63,349,79731,6,0,L|55:237,1,80,0|0,3:0|0:0,0:0:0:0:
133,244,80074,2,0,L|301:235,1,160,4|8,3:2|3:0,0:0:0:0:
296,115,80674,1,0,3:0:0:0:
68,281,80931,6,0,P|79:224|193:196,1,160,0|8,3:0|3:0,0:0:0:0:
245,172,81446,1,0,3:0:0:0:
324,161,81617,2,0,L|143:142,1,160,0|0,0:0|3:0,0:0:0:0:
84,141,82131,1,8,3:0:0:0:
166,143,82303,1,0,0:0:0:0:
327,191,82474,6,0,L|462:175,2,120,0|0|0,3:2|3:0|3:0,0:0:0:0:
240,196,83160,1,8,3:0:0:0:
357,218,83417,1,0,3:0:0:0:
130,311,83674,6,0,P|85:282|143:211,1,160,0|0,3:0|0:0,0:0:0:0:
212,198,84189,1,0,0:0:0:0:
291,187,84360,1,0,0:0:0:0:
131,157,84531,1,8,3:0:0:0:
51,143,84703,1,0,3:0:0:0:
51,143,84874,1,0,3:3:0:0:
131,157,85046,1,0,0:0:0:0:
296,214,85217,6,0,L|479:189,1,160,0|4,3:0|3:2,0:0:0:0:
375,181,85731,1,0,0:0:0:0:
295,168,85903,1,8,3:0:0:0:
412,142,86160,1,0,3:0:0:0:
186,195,86417,6,0,P|194:150|304:96,1,160,0|8,3:0|3:0,0:0:0:0:
363,108,86931,1,0,3:0:0:0:
283,94,87103,2,0,L|101:87,1,160,0|0,0:0|3:0,0:0:0:0:
203,90,87617,1,8,3:0:0:0:
283,92,87789,1,0,0:0:0:0:
203,90,87960,6,0,L|57:86,2,120,0|0|0,3:0|3:0|3:0,0:0:0:0:
283,94,88646,1,8,3:0:0:0:
362,99,88817,1,0,0:0:0:0:
200,204,88989,6,0,L|54:200,1,120,0|0,3:0|3:0,0:0:0:0:
192,320,89503,2,0,L|311:323,1,120,0|0,3:0|3:0,0:0:0:0:
84,262,90017,2,0,P|30:215|83:168,1,160,8|2,3:0|0:0,0:0:0:0:
164,160,90531,1,2,0:0:0:0:
326,161,90703,6,0,P|380:114|327:67,1,160,0|4,3:0|3:2,0:0:0:0:
246,59,91217,1,0,0:0:0:0:
165,53,91389,2,0,L|316:66,1,120,8|0,3:0|3:0,0:0:0:0:
57,290,91903,6,0,L|47:121,1,160,0|8,3:0|3:0,0:0:0:0:
127,139,92417,1,0,3:0:0:0:
355,192,92674,2,0,P|345:133|265:101,1,120,0|0,3:0|3:0,0:0:0:0:
217,94,93103,1,8,3:0:0:0:
137,89,93274,1,0,0:0:0:0:
298,250,93446,6,0,L|445:236,2,120,4|0|0,3:2|3:0|3:0,0:0:0:0:
212,297,94131,2,0,L|359:283,1,120,8|0,3:0|3:0,0:0:0:0:
103,245,94646,6,0,P|63:216|114:129,1,160,0|8,3:0|3:0,0:0:0:0:
180,116,95160,1,0,3:0:0:0:
258,102,95331,1,0,3:0:0:0:
180,116,95503,2,0,L|8:101,1,160,0|0,0:0|2:1,0:0:0:0:
100,106,96017,1,0,0:0:0:0:
263,202,96189,6,0,P|336:186|372:100,1,160,4|0,3:2|0:0,0:0:0:0:
209,68,96874,1,8,3:0:0:0:
376,117,97217,2,0,L|474:103,1,80,0|0,0:0|3:0,0:0:0:0:
376,117,97560,6,0,L|192:93,1,160,0|0,3:0|0:0,0:0:0:0:
296,108,98074,1,0,0:0:0:0:
376,116,98246,1,8,3:0:0:0:
248,192,98503,1,8,3:0:0:0:
381,282,98931,6,0,L|521:259,2,120,0|0|0,3:0|3:0|3:0,0:0:0:0:
216,254,99617,1,8,3:0:0:0:
139,228,99789,1,0,3:0:0:0:
216,254,99960,5,0,3:0:0:0:
330,219,100217,1,0,3:0:0:0:
216,254,100474,1,0,3:0:0:0:
100,285,100731,1,0,3:0:0:0:
330,179,100989,5,8,3:0:0:0:
330,179,101160,1,0,0:0:0:0:
251,264,101331,1,0,0:0:0:0:
210,266,101417,1,0,0:0:0:0:
169,268,101503,1,0,0:0:0:0:
327,343,101674,6,0,P|373:339|441:229,1,160,4|0,3:2|0:0,0:0:0:0:
361,242,102189,1,0,0:0:0:0:
281,230,102360,2,0,L|431:204,1,120,8|0,3:0|0:0,0:0:0:0:
156,282,102874,6,0,L|153:141,1,120,0|0,3:0|0:0,0:0:0:0:
274,210,103389,2,0,L|168:201,1,80,0|0,3:0|0:0,0:0:0:0:
33,217,103731,2,0,P|44:172|150:120,1,160,8|0,3:0|0:0,0:0:0:0:
215,135,104246,1,0,0:0:0:0:
293,147,104417,6,0,L|174:165,2,120,0|0|0,3:0|3:0|3:0,0:0:0:0:
373,180,105103,2,0,L|491:198,1,120,8|0,3:0|0:0,0:0:0:0:
262,337,105617,6,0,L|254:202,1,120,0|0,3:0|0:0,0:0:0:0:
372,195,106131,1,0,3:0:0:0:
292,188,106302,1,0,0:0:0:0:
212,183,106474,2,0,P|220:131|324:85,1,160,8|0,3:0|0:0,0:0:0:0:
390,94,106989,1,0,0:0:0:0:
228,200,107160,6,0,P|180:168|244:104,1,160,4|0,3:2|0:0,0:0:0:0:
390,94,107846,2,0,L|242:75,1,120,0|0,3:0|0:0,0:0:0:0:
45,248,108360,6,0,L|39:117,1,120,0|0,3:0|0:0,0:0:0:0:
165,78,108874,2,0,L|67:69,1,80,0|0,3:0|0:0,0:0:0:0:
245,236,109217,2,0,L|423:212,1,160,8|0,3:0|0:0,0:0:0:0:
324,226,109731,1,0,0:0:0:0:
244,240,109903,6,0,L|392:256,2,120,0|0|0,3:0|0:0|3:0,0:0:0:0:
165,257,110589,1,8,3:3:0:0:
165,257,110760,1,0,0:0:0:0:
326,164,110931,6,0,L|332:299,1,120,0|0,3:0|0:0,0:0:0:0:
197,304,111446,2,0,L|341:310,1,120,0|0,3:0|0:0,0:0:0:0:
438,311,111960,1,2,0:0:0:0:
428,231,112131,1,2,0:0:0:0:
379,166,112303,1,2,0:0:0:0:
302,143,112474,1,2,0:0:0:0:
140,220,112646,6,0,L|129:35,1,160,4|0,3:2|0:0,0:0:0:0:
209,75,113160,1,0,0:0:0:0:
287,88,113331,2,0,L|137:65,1,120,8|0,3:0|0:0,0:0:0:0:
398,123,113846,6,0,L|406:258,1,120,0|0,3:0|0:0,0:0:0:0:
285,242,114360,2,0,L|392:257,1,80,0|0,3:0|0:0,0:0:0:0:
203,164,114703,1,8,3:0:0:0:
125,183,114874,1,0,0:0:0:0:
203,164,115046,1,0,0:0:0:0:
281,149,115217,1,0,0:0:0:0:
438,104,115389,6,0,L|443:244,1,120,0|0,3:0|3:0,0:0:0:0:
322,234,115903,1,0,3:0:0:0:
163,214,116074,2,0,L|161:348,1,120,8|2,3:0|2:0,0:0:0:0:
282,229,116589,6,0,P|336:205|262:170,1,160,0|0,3:2|0:0,0:0:0:0:
202,150,117103,1,0,3:0:0:0:
281,155,117274,1,0,0:0:0:0:
361,157,117446,2,0,L|365:323,1,160,8|0,3:0|0:0,0:0:0:0:
284,321,117960,1,0,0:0:0:0:
124,324,118131,6,0,L|121:147,1,160,0|0,3:0|3:0,0:0:0:0:
200,148,118646,1,0,0:0:0:0:
278,133,118817,1,0,3:0:0:0:
393,165,119074,1,0,3:0:0:0:
278,133,119331,1,0,3:0:0:0:
118,324,119503,6,0,L|115:147,1,160,0|0,3:0|3:0,0:0:0:0:
194,148,120018,1,0,0:0:0:0:
272,133,120189,1,0,3:0:0:0:
52,96,120446,1,0,3:0:0:0:
52,96,120703,1,0,3:0:0:0:
209,104,120874,6,0,P|280:110|318:193,1,160,0|0,3:0|3:0,0:0:0:0:
226,150,121389,1,0,0:0:0:0:
132,126,121560,1,0,3:0:0:0:
48,161,121817,1,0,3:0:0:0:
132,126,122074,1,0,3:0:0:0:
290,107,122246,5,0,3:0:0:0:
363,137,122417,1,0,0:0:0:0:
363,137,122589,1,2,0:0:0:0:
290,107,122760,1,0,0:0:0:0:
209,138,122931,2,0,L|370:98,1,160,2|2,0:0|2:3,0:0:0:0:
290,107,123446,1,0,0:0:0:0:
136,68,123617,1,4,0:2:0:0:
227,248,129103,6,0,P|217:188|111:140,1,160,2|0,0:0|0:0,0:0:0:0:
296,159,129789,1,0,0:0:0:0:
375,145,129960,1,0,0:0:0:0:
454,131,130131,1,0,0:0:0:0:
296,159,130474,6,0,P|249:202|312:268,1,160,2|0,0:0|0:0,0:0:0:0:
375,285,130989,1,0,0:0:0:0:
453,299,131160,2,0,L|284:265,1,160,2|2,0:0|0:0,0:0:0:0:
138,296,131846,5,2,0:0:0:0:
139,216,132017,1,0,0:0:0:0:
174,143,132189,1,2,0:0:0:0:
246,109,132360,1,2,0:0:0:0:
325,101,132531,1,2,0:0:0:0:
165,91,132874,1,2,0:0:0:0:
437,174,133217,6,0,L|443:283,1,80,4|0,2:0|2:0,0:0:0:0:
361,253,133560,2,0,L|181:265,1,160,0|0,2:0|3:0,0:0:0:0:
279,277,134074,1,0,3:0:0:0:
439,305,134246,1,0,3:0:0:0:
320,331,134589,6,0,L|128:343,1,160,4|8,0:0|0:0,0:0:0:0:
238,324,135103,1,0,0:0:0:0:
316,312,135274,2,0,P|305:261|209:209,1,160,8|8,0:0|0:0,0:0:0:0:
137,200,135789,1,0,0:0:0:0:
216,208,135960,6,0,L|392:194,1,160,8|8,0:0|0:0,0:0:0:0:
216,175,136646,1,8,0:0:0:0:
294,189,136817,1,0,0:0:0:0:
372,203,136989,1,8,0:0:0:0:
294,189,137160,1,0,0:0:0:0:
134,231,137331,6,0,P|92:209|151:133,1,160,8|8,0:0|0:0,0:0:0:0:
215,122,137846,1,0,0:0:0:0:
294,118,138017,2,0,L|123:98,1,160,8|8,0:0|0:0,0:0:0:0:
214,107,138531,1,0,0:0:0:0:
376,141,138703,5,0,0:0:0:0:
454,153,138874,1,2,0:0:0:0:
454,153,139046,1,8,0:0:0:0:
376,141,139217,1,2,0:0:0:0:
214,107,139389,1,4,0:2:0:0:
83,282,140074,6,0,P|94:229|205:198,1,160,4|8,0:2|0:3,0:0:0:0:
338,250,140760,1,0,0:0:0:0:
327,170,140931,1,0,0:0:0:0:
275,108,141103,1,8,0:3:0:0:
199,81,141274,1,2,0:0:0:0:
121,77,141446,6,0,L|282:71,1,160,4|8,0:2|0:3,0:0:0:0:
361,71,141960,1,2,0:0:0:0:
281,73,142131,2,0,P|235:81|180:175,1,160,8|8,0:3|0:3,0:0:0:0:
260,175,142646,1,0,3:0:0:0:
418,258,142817,5,4,2:2:0:0:
402,179,142988,1,2,0:0:0:0:
364,109,143159,1,8,0:3:0:0:
306,55,143331,1,2,0:0:0:0:
234,20,143502,1,8,0:3:0:0:
155,9,143674,1,2,0:0:0:0:
155,9,143931,1,2,0:0:0:0:
363,60,144189,5,4,3:2:0:0:
472,168,144874,2,0,L|480:264,1,80,8|8,3:0|3:0,0:0:0:0:
398,257,145217,1,0,0:0:0:0:
110,273,145560,1,4,0:0:0:0:
256,192,148303,12,0,150703,0:0:0:0:
281,300,151046,6,0,P|229:287|172:186,1,160,4|8,0:0|0:2,0:0:0:0:
252,200,151560,2,0,P|298:168|239:96,1,160
171,94,152074,1,8,0:2:0:0:
171,94,152246,1,0,0:0:0:0:
331,212,152417,6,0,P|392:199|428:93,1,160,8|8,0:0|0:0,0:0:0:0:
353,106,152931,1,0,0:0:0:0:
273,95,153103,2,0,L|451:120,1,160,8|8,0:0|0:0,0:0:0:0:
352,104,153617,1,0,0:0:0:0:
190,122,153789,5,8,0:0:0:0:
112,142,153960,1,8,0:0:0:0:
190,122,154131,1,8,0:0:0:0:
271,107,154303,1,8,0:0:0:0:
343,140,154474,1,8,0:0:0:0:
372,214,154646,1,8,0:0:0:0:
342,288,154817,1,8,0:0:0:0:
270,323,154989,1,8,0:0:0:0:
111,324,155160,5,8,3:0:0:0:
191,160,155846,2,0,L|192:253,1,80,0|0,3:0|3:0,0:0:0:0:
111,238,156189,1,4,3:2:0:0:
396,316,156531,6,0,P|445:288|380:228,1,160,4|0,3:2|3:0,0:0:0:0:
314,214,157046,1,2,0:0:0:0:
234,205,157217,2,0,L|414:186,1,160,0|0,3:0|3:0,0:0:0:0:
392,107,157731,1,2,0:0:0:0:
228,108,157903,6,0,P|171:116|123:222,1,160,0|0,3:0|0:0,0:0:0:0:
199,209,158417,1,2,0:0:0:0:
278,218,158589,2,0,L|99:243,1,160,0|0,0:0|3:0,0:0:0:0:
199,247,159103,1,0,0:0:0:0:
359,280,159274,6,0,P|351:237|241:180,1,160,0|0,3:0|0:0,0:0:0:0:
178,171,159789,1,2,0:0:0:0:
98,164,159960,2,0,L|275:147,1,160,0|0,3:0|3:0,0:0:0:0:
257,148,160474,1,2,0:0:0:0:
98,162,160646,6,0,L|97:331,1,160,0|0,3:0|3:0,0:0:0:0:
177,320,161160,1,2,0:0:0:0:
256,320,161331,2,0,L|78:322,1,160,0|0,0:0|3:0,0:0:0:0:
177,320,161846,1,0,0:0:0:0:
337,317,162017,6,0,P|393:309|438:209,1,160,0|0,3:0|3:0,0:0:0:0:
366,192,162531,1,2,0:0:0:0:
329,121,162703,1,0,3:0:0:0:
364,50,162874,1,2,0:0:0:0:
443,35,163046,1,0,3:0:0:0:
364,50,163217,1,2,0:0:0:0:
188,209,163389,6,0,L|184:37,1,160,0|0,3:0|0:0,0:0:0:0:
264,49,163903,1,2,0:0:0:0:
343,45,164074,2,0,P|315:110|231:144,1,160,0|0,3:0|3:0,0:0:0:0:
156,148,164589,1,2,0:0:0:0:
236,145,164760,6,0,L|411:164,1,160,0|0,3:0|3:0,0:0:0:0:
315,156,165274,1,2,0:0:0:0:
153,252,165446,2,0,P|106:231|173:170,1,160,0|0,0:0|3:0,0:0:0:0:
232,152,165960,1,2,0:0:0:0:
396,126,166131,6,0,L|209:109,1,160,0|0,3:0|3:0,0:0:0:0:
158,130,166646,1,2,0:0:0:0:
235,113,166817,1,0,3:0:0:0:
313,96,166989,1,0,0:0:0:0:
235,113,167160,1,2,2:0:0:0:
235,113,167331,1,2,0:0:0:0:
398,248,167503,6,0,P|386:189|283:141,1,160,4|0,3:2|0:0,0:0:0:0:
225,127,168017,1,2,0:0:0:0:
145,120,168189,2,0,L|327:144,1,160,0|0,3:0|3:0,0:0:0:0:
383,152,168703,1,2,0:0:0:0:
220,189,168874,6,0,P|150:223|127:297,1,160,0|0,3:0|0:0,0:0:0:0:
206,314,169389,1,2,0:0:0:0:
284,330,169560,2,0,L|102:293,1,160,0|0,0:0|3:0,0:0:0:0:
125,217,170074,1,2,0:0:0:0:
291,237,170246,6,0,P|337:211|272:143,1,160,0|0,3:0|3:0,0:0:0:0:
210,138,170760,1,2,0:0:0:0:
134,169,170931,1,0,3:0:0:0:
60,204,171103,1,2,0:0:0:0:
134,169,171274,1,0,3:0:0:0:
295,199,171446,1,2,0:0:0:0:
382,200,171617,6,0,L|378:359,1,160,0|0,3:0|3:0,0:0:0:0:
293,357,172131,1,2,0:0:0:0:
210,353,172303,1,0,3:0:0:0:
289,358,172474,1,2,0:0:0:0:
368,364,172646,1,0,0:0:0:0:
289,358,172817,1,0,0:0:0:0:
127,340,172989,6,0,P|136:283|232:240,1,160,0|0,3:0|0:0,0:0:0:0:
299,222,173503,1,2,0:0:0:0:
377,210,173674,2,0,L|382:47,1,160,0|0,3:0|3:0,0:0:0:0:
301,52,174189,1,2,0:0:0:0:
142,151,174360,6,0,P|98:141|36:46,1,160,0|0,3:0|0:0,0:0:0:0:
116,50,174874,1,2,0:0:0:0:
196,50,175046,2,0,L|16:52,1,160,0|0,3:0|3:0,0:0:0:0:
116,50,175560,1,2,0:0:0:0:
195,48,175731,1,0,3:0:0:0:
358,105,175903,6,0,L|362:289,1,160
286,237,176417,1,0,0:0:0:0:
255,162,176589,1,0,0:0:0:0:
292,91,176760,1,0,0:0:0:0:
370,74,176931,1,0,0:0:0:0:
211,73,177103,5,0,0:0:0:0:
89,140,177446,2,0,P|101:193|222:235,1,160,0|0,2:0|3:0,0:0:0:0:
239,255,177903,1,0,3:0:0:0:
290,268,178017,1,0,3:0:0:0:
341,281,178131,1,0,3:0:0:0:
262,296,178303,1,0,3:0:0:0:
100,332,178474,1,0,3:0:0:0:
213,231,178817,6,0,P|276:214|316:113,1,160,4|0,3:2|3:0,0:0:0:0:
238,121,179331,1,0,0:0:0:0:
158,108,179503,1,0,3:0:0:0:
238,121,179674,1,0,0:0:0:0:
316,135,179846,6,0,L|317:308,1,160,0|0,3:0|3:0,0:0:0:0:
237,285,180360,1,0,0:0:0:0:
158,270,180531,2,0,P|116:246|187:178,1,160,0|0,3:0|3:0,0:0:0:0:
242,161,181046,1,0,0:0:0:0:
323,154,181217,6,0,L|453:137,2,120,0|0|0,3:0|0:0|0:0,0:0:0:0:
161,91,181903,1,0,3:0:0:0:
82,106,182074,1,0,0:0:0:0:
161,91,182246,1,0,3:0:0:0:
239,78,182417,1,0,0:0:0:0:
399,147,182589,6,0,P|392:194|294:253,1,160,0|0,3:0|3:0,0:0:0:0:
224,251,183103,1,0,0:0:0:0:
303,255,183274,2,0,L|494:272,1,160,0|0,3:0|0:0,0:0:0:0:
462,269,183789,1,0,0:0:0:0:
301,267,183960,6,0,P|261:238|324:158,1,160,0|0,3:0|3:0,0:0:0:0:
384,146,184474,1,0,0:0:0:0:
305,161,184646,2,0,L|137:136,1,160,0|0,0:0|3:0,0:0:0:0:
309,177,185160,6,0,L|319:346,1,160
250,315,185674,1,0,3:0:0:0:
214,243,185846,1,0,0:0:0:0:
250,315,186017,1,0,3:0:0:0:
322,338,186189,1,0,0:0:0:0:
238,330,186360,1,0,3:0:0:0:
158,320,186531,1,0,0:0:0:0:
319,233,186703,6,0,L|470:248,2,120,0|0|0,3:0|0:0|0:0,0:0:0:0:
239,246,187389,1,0,3:0:0:0:
160,260,187560,1,0,0:0:0:0:
239,249,187731,1,0,3:0:0:0:
318,238,187903,1,0,0:0:0:0:
157,173,188074,5,0,3:0:0:0:
86,206,188246,1,0,0:0:0:0:
59,281,188417,1,0,3:0:0:0:
86,206,188589,1,0,0:0:0:0:
157,173,188760,1,0,3:0:0:0:
238,164,188931,1,2,0:0:0:0:
157,173,189103,1,2,2:0:0:0:
445,311,189446,6,0,L|450:140,1,160,4|0,3:2|3:0,0:0:0:0:
370,140,189960,1,0,0:0:0:0:
290,132,190131,2,0,L|289:230,1,80,0|0,3:0|0:0,0:0:0:0:
371,215,190474,1,0,3:0:0:0:
451,217,190646,1,0,0:0:0:0:
291,278,190817,6,0,P|248:243|301:165,1,160,0|0,3:0|3:0,0:0:0:0:
366,135,191331,1,0,0:0:0:0:
445,117,191503,2,0,L|259:104,1,160,0|0,3:0|3:0,0:0:0:0:
205,105,192017,1,0,0:0:0:0:
366,239,192189,6,0,L|488:244,2,120,0|0|0,3:0|0:0|0:0,0:0:0:0:
287,288,192874,2,0,L|443:292,1,120,0|0,3:0|0:0,0:0:0:0:
202,340,193389,6,0,P|138:321|97:226,1,160
174,223,193903,1,0,3:0:0:0:
251,204,194074,1,0,0:0:0:0:
172,187,194246,1,0,3:0:0:0:
93,171,194417,1,0,0:0:0:0:
172,158,194589,1,0,3:0:0:0:
211,151,194674,1,0,0:0:0:0:
250,144,194760,1,0,0:0:0:0:
411,137,194931,6,0,L|417:315,1,160,0|0,3:2|0:0,0:0:0:0:
335,292,195446,1,0,0:0:0:0:
255,285,195617,2,0,L|431:263,1,160,0|0,3:0|3:0,0:0:0:0:
335,248,196131,1,0,0:0:0:0:
248,238,196303,6,0,P|202:208|263:139,1,160,0|0,3:0|0:0,0:0:0:0:
329,132,196817,1,0,0:0:0:0:
165,78,196989,1,0,3:0:0:0:
92,96,197160,1,0,0:0:0:0:
92,96,197331,1,0,3:0:0:0:
165,78,197503,1,0,0:0:0:0:
324,115,197674,5,0,3:0:0:0:
392,152,197845,1,0,0:0:0:0:
419,226,198016,1,0,2:0:0:0:
391,299,198188,1,0,0:0:0:0:
323,336,198359,1,0,2:0:0:0:
156,332,198531,1,2,0:0:0:0:
156,332,198789,1,2,0:0:0:0:
375,137,199046,5,0,2:0:0:0:
379,216,199217,1,0,2:0:0:0:
298,219,199389,1,0,0:0:0:0:
218,221,199560,1,0,0:0:0:0:
297,220,199731,1,0,0:0:0:0:
337,219,199817,1,0,0:0:0:0:
377,218,199903,1,0,0:0:0:0:
456,216,200074,1,4,3:0:0:0:
377,218,200246,1,4,3:0:0:0:
218,221,200417,6,0,P|150:205|101:108,1,160,4|8,0:0|2:3,0:0:0:0:
181,118,200931,1,0,0:0:0:0:
259,103,201103,2,0,L|96:131,1,160,0|8,2:0|0:3,0:0:0:0:
263,278,201617,6,0,P|331:262|380:165,1,160,2|0,0:0|0:0,0:0:0:0:
299,177,202131,1,8,0:3:0:0:
219,165,202303,1,0,0:0:0:0:
299,177,202474,2,0,L|473:162,1,160,0|8,2:3|0:3,0:0:0:0:
378,171,202989,1,0,0:0:0:0:
218,189,203160,6,0,P|172:222|245:288,1,160,0|8,2:0|0:3,0:0:0:0:
297,276,203674,1,0,0:0:0:0:
218,292,203846,2,0,L|53:271,1,160,0|8,0:0|0:3,0:0:0:0:
138,281,204360,1,0,0:0:0:0:
217,291,204531,1,0,0:0:0:0:
381,383,204703,5,2,0:0:0:0:
381,383,204875,1,2,0:2:0:0:
218,256,205217,1,2,0:0:0:0:
218,256,205389,1,2,0:0:0:0:
381,383,205732,1,2,0:0:0:0:
218,256,205903,6,0,P|143:237|105:146,1,160,0|8,3:0|0:3,0:0:0:0:
184,157,206417,1,0,0:0:0:0:
263,147,206589,2,0,L|95:128,1,160,0|8,0:0|0:3,0:0:0:0:
263,147,207103,6,0,P|302:183|255:272,1,160,2|0,0:2|0:0,0:0:0:0:
184,279,207617,1,8,0:3:0:0:
104,290,207789,1,0,0:0:0:0:
184,279,207960,2,0,L|353:301,1,160,0|8,0:0|0:3,0:0:0:0:
263,312,208474,1,0,0:0:0:0:
184,329,208646,6,0,P|194:270|303:230,1,160,0|8,0:0|0:3,0:0:0:0:
355,213,209160,1,0,0:0:0:0:
434,201,209331,2,0,L|436:41,1,160,0|8,0:0|0:3,0:0:0:0:
355,32,209846,1,0,0:0:0:0:
275,24,210017,1,0,3:0:0:0:
74,119,210703,5,2,0:0:0:0:
74,119,210789,1,0,0:0:0:0:
74,119,210874,1,2,0:0:0:0:
151,138,211046,1,4,0:0:0:0:
228,157,211217,1,0,0:0:0:0:
387,211,211389,6,0,P|430:186|355:117,1,160,0|8,3:0|0:3,0:0:0:0:
226,179,212074,2,0,L|399:155,1,160,0|8,0:0|0:3,0:0:0:0:
226,270,212589,6,0,P|158:253|111:177,1,160,2|0,0:0|0:0,0:0:0:0:
190,164,213103,1,8,0:3:0:0:
268,147,213274,1,0,0:0:0:0:
190,164,213446,2,0,L|27:140,1,160,0|8,0:0|0:3,0:0:0:0:
186,322,214131,6,0,P|242:311|290:211,1,160,0|8,0:0|0:3,0:0:0:0:
212,212,214646,1,0,0:0:0:0:
132,201,214817,2,0,P|141:144|242:103,1,160,0|8,0:0|0:3,0:0:0:0:
372,165,215503,1,0,0:0:0:0:
222,174,215674,5,2,0:0:0:0:
222,174,215846,1,2,0:0:0:0:
372,165,216189,1,2,0:0:0:0:
372,165,216360,1,2,0:0:0:0:
238,171,216703,1,2,0:0:0:0:
82,157,216874,6,0,P|93:109|204:64,1,160,0|8,3:0|0:3,0:0:0:0:
342,89,217560,2,0,L|163:58,1,160,0|8,0:0|0:3,0:0:0:0:
342,89,218074,6,0,P|386:111|326:181,1,160,2|0,0:0|0:0,0:0:0:0:
259,190,218589,1,8,0:3:0:0:
179,196,218760,1,0,0:0:0:0:
259,190,218931,2,0,L|439:212,1,160,0|8,0:0|0:3,0:0:0:0:
337,199,219446,1,0,0:0:0:0:
176,304,219617,5,2,2:3:0:0:
104,272,219789,1,0,0:0:0:0:
68,201,219960,1,8,0:3:0:0:
105,130,220131,1,0,0:0:0:0:
178,110,220303,1,0,2:0:0:0:
217,101,220389,1,0,0:0:0:0:
255,93,220474,1,0,0:0:0:0:
333,78,220646,1,0,0:0:0:0:
255,93,220817,1,0,0:0:0:0:
94,54,220989,5,4,3:2:0:0:
190,281,221331,2,0,P|238:253|175:188,1,160,0|0,3:0|3:0,0:0:0:0:
136,181,221789,1,0,3:0:0:0:
136,181,221903,1,0,3:0:0:0:
190,184,222017,1,0,3:0:0:0:
268,188,222189,1,0,3:0:0:0:
421,197,222360,1,0,3:0:0:0:
