osu file format v14

[General]
AudioFilename: audio.mp3
AudioLeadIn: 0
PreviewTime: 79787
Countdown: 0
SampleSet: Soft
StackLeniency: 0.7
Mode: 2
LetterboxInBreaks: 0
WidescreenStoryboard: 1

[Editor]
Bookmarks: 24672,46615,52101,68558,123415,134387,145358,150844,156329,178272,200215,222158
DistanceSpacing: 1
BeatDivisor: 8
GridSize: 4
TimelineZoom: 1.7

[Metadata]
Title:SUMMER
TitleUnicode:SUMMER
Artist:Zekk
ArtistUnicode:Zekk
Creator:Spectator
Version:Rain
Source:osu!
Tags:electronic instrumental jemzuu ajamez -momox momox featured artist fa mappers' guild mg future bass hardcore megarex fugene trinity force
BeatmapID:2878917
BeatmapSetID:1393068

[Difficulty]
HPDrainRate:5
CircleSize:3.8
OverallDifficulty:9
ApproachRate:9
SliderMultiplier:2.08
SliderTickRate:2

[Events]
//Background and Video events
0,0,"summer.jpg",0,0
//Break Periods
2,47017,51703
2,123817,127989
2,145760,147703
//Storyboard Layer 0 (Background)
//Storyboard Layer 1 (Fail)
//Storyboard Layer 2 (Pass)
//Storyboard Layer 3 (Foreground)
//Storyboard Layer 4 (Overlay)
//Storyboard Sound Samples

[TimingPoints]
189,342.857142857143,4,2,1,65,1,0
2589,-100,4,2,5,65,0,0
2674,-100,4,2,1,65,0,0
5331,-86.9565217391304,4,2,1,65,0,0
5417,-100,4,2,1,65,0,0
8417,-100,4,2,5,65,0,0
8589,-100,4,2,1,65,0,0
8760,-86.9565217391304,4,2,1,65,0,0
8931,-100,4,2,1,65,0,0
13560,-100,4,2,5,65,0,0
13646,-100,4,2,1,65,0,0
13903,-100,4,2,1,75,0,0
22131,-100,4,2,1,75,0,0
22817,-100,4,2,1,75,0,0
23503,-100,4,2,5,75,0,0
23589,-100,4,2,1,75,0,0
23846,-100,4,2,1,60,0,0
24189,-100,4,2,1,75,0,0
24531,-100,4,2,1,75,0,0
24874,-100,4,2,5,80,0,0
24960,-100,4,2,1,80,0,0
25217,-100,4,2,1,80,0,0
33103,-100,4,2,1,85,0,0
35846,-100,4,2,5,90,0,0
36017,-100,4,2,1,90,0,0
46131,-100,4,2,30,75,0,0
52303,-100,4,2,1,80,0,0
56417,-100,4,2,1,80,0,0
57789,-100,4,2,1,85,0,0
61924,-100,4,2,1,75,0,0
62243,-100,4,2,1,85,0,0
62417,-100,4,2,1,75,0,0
62589,-100,4,2,5,75,0,0
62931,-100,4,2,1,75,0,0
63274,-100,4,2,1,85,0,0
64646,-100,4,2,5,85,0,0
64731,-100,4,2,1,85,0,0
66017,-100,4,2,5,85,0,0
66103,-100,4,2,1,85,0,0
67389,-100,4,2,5,85,0,0
67474,-100,4,2,1,85,0,0
68417,-100,4,3,20,85,0,0
68760,-100,4,2,4,90,0,0
74246,-100,4,2,5,90,0,0
74331,-100,4,2,4,90,0,0
78360,-100,4,2,5,90,0,0
78446,-100,4,2,4,90,0,0
78703,-100,4,2,1,90,0,0
79046,-100,4,2,1,60,0,0
79389,-100,4,2,1,80,0,0
80074,-100,4,2,2,90,0,1
80246,-100,4,2,2,90,0,0
80931,-100,4,2,2,90,0,0
81446,-100,4,2,2,90,0,0
82731,-100,4,2,2,90,0,0
82989,-41.6666666666667,4,2,2,90,0,0
83246,-100,4,2,2,90,0,0
83674,-100,4,2,2,90,0,0
84189,-100,4,2,2,90,0,0
84703,-100,4,2,2,90,0,0
85046,-100,4,2,2,90,0,0
85217,-100,4,2,2,90,0,0
85389,-100,4,2,2,90,0,0
85560,-100,4,2,2,90,0,0
85731,-100,4,2,2,90,0,0
87103,-100,4,2,2,90,0,0
87360,-100,4,2,2,90,0,0
87960,-100,4,2,2,90,0,0
88217,-100,4,2,2,90,0,0
88474,-100,4,2,2,90,0,0
88989,-100,4,2,2,90,0,0
89760,-100,4,2,2,90,0,0
91903,-100,4,2,2,90,0,0
92417,-100,4,2,2,90,0,0
92674,-100,4,2,2,90,0,0
92931,-100,4,2,2,90,0,0
93103,-100,4,2,2,90,0,0
93446,-43.4782608695652,4,2,2,90,0,0
93703,-100,4,2,2,90,0,0
93960,-100,4,2,2,90,0,0
94131,-100,4,2,2,90,0,0
94389,-100,4,2,2,90,0,0
94646,-100,4,2,2,90,0,0
94989,-100,4,2,2,90,0,0
101331,-100,4,2,2,90,0,0
101674,-100,4,2,2,90,0,1
101846,-100,4,2,2,90,0,0
105617,-100,4,2,2,90,0,0
106303,-100,4,2,2,90,0,0
108360,-100,4,2,2,90,0,0
108874,-100,4,2,2,90,0,0
109903,-100,4,2,2,90,0,0
110931,-100,4,2,2,90,0,0
112989,-100,4,2,2,90,0,0
113331,-100,4,2,2,90,0,0
120874,-100,4,2,2,90,0,0
122246,-100,4,2,2,70,0,0
123617,-100,4,2,30,70,0,0
126360,-100,4,2,1,45,0,0
127389,-100,4,2,1,55,0,0
128589,-100,4,2,1,65,0,0
129103,-100,4,2,1,65,0,0
131846,-100,4,2,1,65,0,0
133217,-100,4,2,5,65,0,0
133303,-100,4,2,1,65,0,0
134246,-100,4,3,20,65,0,0
134589,-100,4,2,4,65,0,0
139389,-100,4,2,5,65,0,0
139474,-100,4,2,4,65,0,0
140074,-100,4,2,5,65,0,0
140160,-100,4,2,1,65,0,0
141446,-100,4,2,5,65,0,0
141531,-100,4,2,1,65,0,0
142817,-100,4,2,5,65,0,0
142903,-100,4,2,1,65,0,0
144189,-100,4,2,5,65,0,0
144274,-100,4,2,1,65,0,0
145217,-100,4,3,20,75,0,0
145303,-100,4,2,1,65,0,0
145560,-100,4,2,30,65,0,0
148303,-100,4,2,1,45,0,0
148989,-100,4,2,1,50,0,0
149674,-100,4,2,1,55,0,0
150189,-100,4,2,1,60,0,0
151046,-100,4,2,4,65,0,0
153789,-100,4,2,4,70,0,0
155160,-100,4,2,1,55,0,0
156189,-83.3333333333333,4,2,1,70,0,0
156360,-100,4,2,1,55,0,0
156531,-100,4,2,3,95,0,1
156703,-100,4,2,3,95,0,0
165360,-43.4782608695652,4,2,3,95,0,0
165617,-100,4,2,3,95,0,0
166131,-41.6666666666667,4,2,3,95,0,0
166389,-100,4,2,3,95,0,0
170246,-100,4,2,3,95,0,0
170417,-100,4,2,3,95,0,0
176417,-100,4,2,3,95,0,0
177446,-100,4,2,3,95,0,0
177789,-100,4,2,3,95,0,0
178474,-100,4,2,3,95,0,0
178817,-100,4,2,5,95,0,1
178989,-100,4,2,3,95,0,0
189446,-95.2380952380952,4,2,5,95,0,0
189617,-95.2380952380952,4,2,3,95,0,0
197331,-83.3333333333333,4,2,3,95,0,0
197674,-100,4,2,3,95,0,0
198531,-100,4,2,1,85,0,0
199046,-100,4,2,2,85,0,0
200417,-100,4,2,1,80,0,0
202817,-90.9090909090909,4,2,1,80,0,0
202903,-100,4,2,1,80,0,0
211046,-100,4,2,5,80,0,0
211131,-100,4,2,1,80,0,0
220989,-100,4,2,5,80,0,0
221331,-100,4,2,1,55,0,0
221760,-100,4,2,1,75,0,0
222189,-100,4,2,1,65,0,0

[Colours]
Combo1 : 114,134,203
Combo2 : 199,240,102
Combo3 : 104,199,230
Combo4 : 117,186,112

[HitObjects]
76,205,1560,5,0,0:0:0:0:
191,163,1731,2,0,L|195:233,1,52
70,211,1989,2,0,L|74:281,1,52
195,215,2246,2,0,L|280:220,1,52
373,179,2503,1,0,0:0:0:0:
199,301,2589,1,4,0:0:0:0:
53,186,2931,6,0,L|167:203,1,104,0|0,3:0|0:0,0:0:0:0:
294,284,3274,2,0,L|180:301,1,104,0|0,3:0|0:0,0:0:0:0:
53,320,3617,2,0,L|48:205,1,104,0|0,3:0|0:0,0:0:0:0:
157,205,3960,1,0,3:0:0:0:
319,188,4131,6,0,P|302:128|163:68,1,208,2|0,0:0|0:0,0:0:0:0:
317,120,4646,2,0,L|438:110,1,104,0|0,3:0|0:0,0:0:0:0:
287,258,4989,1,0,3:0:0:0:
219,218,5074,1,2,0:0:0:0:
202,198,5117,1,0,0:0:0:0:
194,170,5160,1,0,0:0:0:0:
203,142,5203,1,0,0:0:0:0:
223,126,5246,1,0,0:0:0:0:
306,153,5331,2,0,L|432:142,1,119.600002281189,0|0,3:0|0:0,0:0:0:0:
290,352,5674,6,0,L|281:228,1,104,0|0,3:0|0:0,0:0:0:0:
138,250,6017,2,0,L|129:126,1,104,0|0,3:0|0:0,0:0:0:0:
274,61,6360,1,0,3:0:0:0:
357,101,6531,1,0,0:0:0:0:
390,190,6703,1,0,3:0:0:0:
351,272,6874,1,0,0:0:0:0:
256,314,7046,1,0,3:0:0:0:
408,343,7217,5,2,0:0:0:0:
262,313,7389,2,0,P|208:270|281:164,1,208,2|2,3:2|3:2,0:0:0:0:
405,231,7903,1,2,0:0:0:0:
405,231,8074,1,0,0:0:0:0:
405,231,8246,1,2,0:0:0:0:
128,296,8417,6,0,P|137:232|273:173,1,208,4|8,3:2|3:0,0:0:0:0:
405,317,8931,1,0,0:0:0:0:
391,261,9017,1,0,0:0:0:0:
365,209,9103,1,0,0:0:0:0:
319,173,9189,1,0,0:0:0:0:
263,160,9274,1,0,0:0:0:0:
120,129,9446,2,0,L|249:118,1,104,8|2,3:0|0:0,0:0:0:0:
370,64,9789,6,0,L|374:209,1,104,2|0,3:2|0:0,0:0:0:0:
224,254,10131,2,0,L|352:241,1,104,8|0,3:0|0:0,0:0:0:0:
177,335,10474,1,0,3:0:0:0:
116,287,10560,1,2,0:0:0:0:
118,258,10603,1,0,0:0:0:0:
128,231,10646,1,0,0:0:0:0:
152,215,10689,1,0,0:0:0:0:
179,210,10731,1,0,0:0:0:0:
257,232,10817,2,0,L|374:219,1,104,8|0,3:0|0:0,0:0:0:0:
208,218,11160,6,0,L|199:91,1,104,2|0,3:2|0:0,0:0:0:0:
62,102,11503,1,8,3:0:0:0:
202,117,11674,1,0,0:0:0:0:
200,175,11760,1,0,0:0:0:0:
183,229,11846,1,0,3:0:0:0:
139,266,11931,1,0,0:0:0:0:
80,276,12017,1,0,0:0:0:0:
224,323,12189,2,0,L|101:314,1,104,8|0,3:0|0:0,0:0:0:0:
245,342,12531,5,2,3:2:0:0:
386,320,12703,1,0,0:0:0:0:
434,305,12788,1,0,0:0:0:0:
463,262,12874,1,2,0:0:0:0:
458,212,12960,1,0,0:0:0:0:
422,176,13045,1,0,0:0:0:0:
371,171,13131,1,0,0:0:0:0:
212,189,13217,2,0,L|138:180,1,52,2|0,0:0|0:0,0:0:0:0:
341,85,13389,2,0,L|415:76,1,52,2|0,0:0|0:0,0:0:0:0:
213,188,13560,2,0,L|211:267,1,52,4|0,0:0|0:0,0:0:0:0:
300,188,13731,2,0,L|302:267,1,52,2|0,0:0|0:0,0:0:0:0:
122,347,13903,6,0,L|117:222,1,104,0|0,3:0|0:0,0:0:0:0:
272,294,14246,2,0,L|394:287,1,104,8|0,3:0|0:0,0:0:0:0:
228,199,14589,2,0,L|106:192,2,104,0|0|8,3:0|0:0|3:0,0:0:0:0:
386,181,15103,6,0,P|374:120|218:56,1,208,2|0,0:2|0:0,0:0:0:0:
115,162,15617,2,0,L|218:167,1,104,8|0,3:0|0:0,0:0:0:0:
366,246,15960,1,0,3:0:0:0:
428,216,16046,1,2,0:0:0:0:
420,188,16089,1,0,0:0:0:0:
405,164,16131,1,0,0:0:0:0:
382,146,16174,1,0,0:0:0:0:
354,137,16217,1,0,0:0:0:0:
272,181,16303,2,0,L|168:190,1,104,8|0,3:0|0:0,0:0:0:0:
311,125,16646,6,0,L|318:260,1,104,0|0,3:0|0:0,0:0:0:0:
169,211,16989,1,8,3:0:0:0:
315,228,17160,1,0,0:0:0:0:
364,199,17246,1,0,0:0:0:0:
381,141,17331,1,0,3:0:0:0:
362,86,17417,1,0,0:0:0:0:
309,63,17503,1,0,0:0:0:0:
171,125,17674,2,0,L|296:109,1,104,8|0,3:0|0:0,0:0:0:0:
435,78,18017,5,0,3:0:0:0:
281,193,18189,2,0,L|177:206,2,104,2|2|0,0:0|3:2|0:0,0:0:0:0:
356,254,18703,1,2,3:2:0:0:
199,255,18874,2,0,P|158:232|132:158,2,104,2|0|2,0:0|0:0|0:0,0:0:0:0:
432,320,19389,6,0,P|422:264|289:194,1,208,0|8,3:0|3:0,0:0:0:0:
159,274,19903,1,0,0:0:0:0:
111,241,19989,1,0,0:0:0:0:
92,187,20074,1,0,3:0:0:0:
110,132,20160,1,0,0:0:0:0:
161,106,20246,1,0,0:0:0:0:
274,99,20417,1,8,3:0:0:0:
122,58,20589,1,2,0:2:0:0:
274,99,20760,6,0,L|280:227,1,104,2|0,3:2|0:0,0:0:0:0:
142,288,21103,2,0,L|262:299,1,104,8|0,3:0|0:0,0:0:0:0:
101,361,21446,1,0,3:0:0:0:
41,315,21531,1,2,0:0:0:0:
45,286,21574,1,0,0:0:0:0:
59,261,21617,1,0,0:0:0:0:
83,246,21660,1,0,0:0:0:0:
111,239,21703,1,0,0:0:0:0:
194,215,21789,2,0,L|84:201,1,104,8|0,3:0|0:0,0:0:0:0:
333,329,22131,5,2,3:2:0:0:
423,276,22303,1,0,0:0:0:0:
409,220,22389,1,0,0:0:0:0:
370,178,22474,1,0,0:0:0:0:
315,159,22560,1,0,0:0:0:0:
155,205,22646,2,0,L|149:115,1,52
323,353,22817,1,0,0:0:0:0:
371,335,22902,1,0,0:0:0:0:
404,295,22988,1,0,0:0:0:0:
413,244,23074,1,0,0:0:0:0:
395,196,23159,1,0,0:0:0:0:
356,163,23245,1,0,0:0:0:0:
306,153,23331,1,0,0:0:0:0:
22,158,23503,1,4,3:2:0:0:
190,253,23846,6,0,L|185:287,4,34.6666666666667,0|0|0|0|0,3:0|3:0|3:0|3:0|3:0,0:0:0:0:
380,258,24189,1,0,3:0:0:0:
452,214,24303,1,0,3:0:0:0:
380,258,24417,1,0,3:0:0:0:
191,156,24531,1,8,3:2:0:0:
76,116,24703,1,0,0:0:0:0:
341,307,24874,6,0,P|330:254|217:207,1,156,4|0,3:2|0:0,0:0:0:0:
182,175,25217,2,0,L|325:163,1,104,8|0,0:0|0:0,0:0:0:0:
425,221,25560,1,0,3:0:0:0:
285,166,25731,1,0,0:0:0:0:
285,166,25817,1,0,0:0:0:0:
285,166,25903,1,8,0:0:0:0:
425,124,26074,1,0,0:0:0:0:
143,110,26246,5,0,3:0:0:0:
275,71,26417,1,0,0:0:0:0:
218,78,26503,1,0,0:0:0:0:
161,85,26589,1,8,0:0:0:0:
217,78,26675,1,0,0:0:0:0:
273,71,26760,1,0,0:0:0:0:
421,150,26931,1,0,3:0:0:0:
364,142,27017,1,0,0:0:0:0:
307,134,27103,1,0,0:0:0:0:
66,197,27274,2,0,L|4:189,2,52,8|0|0,0:0|0:0|0:0,0:0:0:0:
307,303,27617,6,0,P|296:253|168:203,1,156,0|0,3:0|0:0,0:0:0:0:
145,176,27960,2,0,L|267:168,1,104,8|0,0:0|0:0,0:0:0:0:
388,137,28303,2,0,L|391:250,1,104,0|0,3:0|0:0,0:0:0:0:
247,252,28646,1,8,0:0:0:0:
391,242,28817,1,0,0:0:0:0:
247,252,28989,5,0,0:0:0:0:
108,255,29160,1,0,0:0:0:0:
111,197,29246,1,0,0:0:0:0:
135,145,29331,1,8,0:0:0:0:
185,117,29417,1,0,0:0:0:0:
242,112,29503,1,0,0:0:0:0:
382,158,29674,2,0,L|388:230,1,52,0|0,3:0|0:0,0:0:0:0:
235,346,29846,1,0,2:0:0:0:
184,337,29931,1,0,2:0:0:0:
152,297,30017,1,0,0:0:0:0:
152,246,30103,1,0,0:0:0:0:
186,208,30188,1,0,0:0:0:0:
236,200,30274,1,0,0:0:0:0:
402,285,30360,6,0,P|450:256|377:206,1,156,0|0,3:0|0:0,0:0:0:0:
330,151,30703,2,0,L|453:133,1,104,8|0,0:0|0:0,0:0:0:0:
188,312,31046,2,0,L|183:195,1,104,0|0,3:0|0:0,0:0:0:0:
331,161,31389,2,0,L|228:176,1,104,8|0,0:0|0:0,0:0:0:0:
84,130,31731,5,0,3:0:0:0:
228,175,31903,2,0,L|331:190,2,104,0|8|0,0:0|0:0|0:0,0:0:0:0:
88,237,32417,1,0,3:0:0:0:
144,229,32503,1,0,0:0:0:0:
200,221,32589,1,0,0:0:0:0:
437,135,32760,1,8,0:0:0:0:
492,148,32846,1,0,0:0:0:0:
437,135,32931,1,0,0:0:0:0:
200,221,33103,6,0,P|217:161|318:131,1,156,0|0,3:0|0:0,0:0:0:0:
367,126,33446,1,8,0:0:0:0:
239,186,33617,2,0,L|238:104,1,52
402,197,33789,2,0,P|462:164|388:73,1,208,0|8,3:0|0:0,0:0:0:0:
268,73,34303,1,0,0:0:0:0:
128,160,34474,6,0,L|249:147,1,104,0|0,3:0|0:0,0:0:0:0:
371,188,34817,1,8,0:0:0:0:
232,149,34989,1,0,0:0:0:0:
381,192,35160,2,0,L|502:179,1,104,0|0,3:0|0:0,0:0:0:0:
194,50,35503,1,2,0:0:0:0:
333,89,35675,1,2,0:0:0:0:
85,125,35846,6,0,L|76:273,1,104,4|0,3:2|0:0,0:0:0:0:
235,204,36189,2,0,L|108:196,1,104,8|0,0:0|0:0,0:0:0:0:
421,126,36531,2,0,L|429:257,1,104,0|0,3:0|0:0,0:0:0:0:
290,209,36874,1,8,0:0:0:0:
428,230,37046,1,0,0:0:0:0:
103,215,37217,6,0,L|95:346,1,104,0|0,3:0|0:0,0:0:0:0:
244,299,37560,1,8,0:0:0:0:
97,319,37732,1,0,0:0:0:0:
369,183,37903,2,0,L|490:205,1,104,0|0,3:0|0:0,0:0:0:0:
329,88,38246,1,8,0:0:0:0:
385,79,38331,1,0,0:0:0:0:
441,71,38417,1,0,0:0:0:0:
145,307,38589,6,0,P|89:291|55:182,1,156,0|0,3:0|0:0,0:0:0:0:
112,187,38931,1,8,0:0:0:0:
257,223,39103,2,0,L|321:232,1,52
106,351,39274,2,0,L|103:217,1,104,0|0,3:0|0:0,0:0:0:0:
257,211,39617,1,8,0:0:0:0:
104,249,39789,1,0,0:0:0:0:
443,222,39960,6,0,L|446:88,1,104,0|0,3:0|0:0,0:0:0:0:
298,82,40303,1,8,0:0:0:0:
445,120,40475,1,0,0:0:0:0:
298,82,40646,1,0,3:0:0:0:
353,70,40731,1,0,0:0:0:0:
409,58,40817,1,0,0:0:0:0:
168,104,40989,2,0,L|107:97,1,52
116,98,41160,2,0,L|168:104,1,52
342,202,41331,6,0,L|465:192,1,104,0|0,3:0|0:0,0:0:0:0:
199,332,41674,1,8,0:0:0:0:
344,316,41846,1,0,0:0:0:0:
92,290,42017,2,0,L|86:154,1,104,0|0,3:0|0:0,0:0:0:0:
237,183,42360,1,8,0:0:0:0:
386,175,42531,1,0,0:0:0:0:
100,219,42703,6,0,L|94:83,1,104,0|0,3:0|0:0,0:0:0:0:
237,111,43046,1,8,0:0:0:0:
95,115,43217,1,0,0:0:0:0:
345,231,43389,2,0,L|466:223,1,104,0|0,3:0|0:0,0:0:0:0:
307,129,43731,1,8,0:0:0:0:
364,121,43817,1,0,0:0:0:0:
422,114,43903,1,0,0:0:0:0:
159,326,44074,6,0,L|155:177,1,104,0|0,3:0|0:0,0:0:0:0:
218,210,44331,1,0,0:0:0:0:
267,181,44417,1,2,0:0:0:0:
286,126,44503,1,0,0:0:0:0:
267,71,44589,1,0,0:0:0:0:
217,43,44674,1,0,0:0:0:0:
156,39,44760,1,2,0:0:0:0:
292,81,44931,1,2,0:0:0:0:
156,39,45103,1,2,0:0:0:0:
292,81,45274,1,2,0:0:0:0:
33,324,45446,6,0,L|29:188,1,104
90,216,45703,1,0,0:0:0:0:
270,287,45789,1,0,0:0:0:0:
300,272,45846,1,0,0:0:0:0:
316,241,45903,1,0,0:0:0:0:
305,208,45960,1,0,0:0:0:0:
269,193,46017,1,0,0:0:0:0:
91,120,46131,1,0,3:0:0:0:
20,111,46246,1,0,3:0:0:0:
91,120,46360,1,0,3:0:0:0:
275,104,46474,1,0,3:0:0:0:
378,81,46646,1,0,3:0:0:0:
119,224,46817,1,4,0:0:0:0:
150,112,52303,6,0,L|75:116,1,52
242,167,52560,2,0,L|317:171,1,52
150,217,52817,2,0,L|143:315,1,52
278,289,53074,2,0,L|285:387,1,52
135,357,53331,1,0,0:0:0:0:
72,339,53417,2,0,P|43:304|88:198,1,156
195,222,53846,5,2,0:0:0:0:
72,207,54017,1,2,0:0:0:0:
328,125,54360,1,2,0:0:0:0:
333,218,54531,1,2,0:0:0:0:
72,206,54874,1,2,0:0:0:0:
308,112,55046,6,0,L|383:116,1,52
216,167,55303,2,0,L|141:171,1,52
308,217,55560,2,0,L|315:315,1,52
180,289,55817,2,0,L|173:387,1,52
323,357,56074,1,0,0:0:0:0:
386,339,56160,2,0,P|415:304|370:198,1,156,0|4,0:0|0:0,0:0:0:0:
124,155,56589,5,0,0:0:0:0:
241,129,56760,1,0,0:0:0:0:
124,155,56931,1,0,0:0:0:0:
399,107,57103,1,0,3:0:0:0:
404,207,57274,1,8,3:2:0:0:
124,155,57446,1,0,3:0:0:0:
349,302,57789,6,0,P|408:282|401:171,1,156,4|0,0:0|0:0,0:0:0:0:
365,180,58131,1,0,0:0:0:0:
307,162,58217,1,0,0:0:0:0:
365,180,58303,1,0,3:0:0:0:
225,282,58474,1,0,0:0:0:0:
173,250,58560,1,0,0:0:0:0:
151,193,58646,1,0,0:0:0:0:
170,136,58731,1,0,0:0:0:0:
225,111,58817,1,0,3:0:0:0:
346,109,58989,1,0,0:0:0:0:
197,240,59160,6,0,L|190:113,1,104,0|0,3:0|0:0,0:0:0:0:
343,121,59503,1,0,0:0:0:0:
283,109,59589,1,0,0:0:0:0:
224,98,59674,1,0,3:0:0:0:
81,170,59846,2,0,L|74:50,1,104
221,297,60189,2,0,L|228:177,1,104,0|0,3:2|0:0,0:0:0:0:
82,181,60531,6,0,L|202:166,1,104,0|0,3:0|0:0,0:0:0:0:
331,112,60874,2,0,L|211:97,1,104,0|0,0:0|3:0,0:0:0:0:
86,181,61217,1,0,0:0:0:0:
92,120,61303,1,0,0:0:0:0:
123,68,61389,1,0,0:0:0:0:
173,36,61474,1,0,0:0:0:0:
232,28,61560,1,0,3:0:0:0:
111,26,61731,1,0,0:0:0:0:
353,77,61903,6,0,L|467:92,1,104,8|2,2:3|0:0,0:0:0:0:
211,146,62246,2,0,L|97:161,1,104,8|2,2:3|0:0,0:0:0:0:
356,200,62589,1,4,0:0:0:0:
191,246,62931,1,0,0:0:0:0:
114,223,63046,1,0,0:0:0:0:
191,246,63160,1,0,0:0:0:0:
371,319,63274,6,0,P|432:301|446:203,1,156,8|0,3:0|0:0,0:0:0:0:
389,189,63617,2,0,L|262:170,1,104,8|0,3:0|0:0,0:0:0:0:
146,200,63960,1,8,3:0:0:0:
146,200,64046,1,0,0:0:0:0:
146,200,64131,1,0,0:0:0:0:
304,248,64303,2,0,L|420:268,1,104,8|0,2:3|3:0,0:0:0:0:
159,353,64646,6,0,P|108:325|175:273,1,156,4|0,0:2|0:0,0:0:0:0:
225,232,64989,2,0,L|105:211,1,104,8|0,0:3|0:0,0:0:0:0:
277,171,65331,2,0,L|282:300,1,104,8|0,0:3|0:0,0:0:0:0:
116,239,65674,2,0,L|20:249,1,52,8|0,0:3|0:0,0:0:0:0:
64,244,65846,2,0,L|160:254,1,52
273,279,66017,5,4,0:2:0:0:
322,250,66103,1,0,0:0:0:0:
341,195,66189,1,0,0:0:0:0:
322,140,66275,1,0,0:0:0:0:
272,112,66360,1,8,0:3:0:0:
145,80,66531,1,0,0:0:0:0:
18,50,66703,1,8,0:3:0:0:
254,354,66874,2,0,L|401:341,1,104
357,344,67131,2,0,L|210:331,1,104
90,346,67389,1,4,3:2:0:0:
249,329,68074,6,0,L|241:214,1,104
99,223,68417,1,0,0:0:0:0:
316,340,68760,6,0,L|436:318,1,104,12|0,0:0|0:0,0:0:0:0:
360,303,69017,1,0,0:0:0:0:
302,285,69103,1,2,0:0:0:0:
166,259,69274,2,0,L|46:237,1,104,8|0,0:0|0:0,0:0:0:0:
122,222,69531,1,0,0:0:0:0:
180,204,69617,1,2,0:0:0:0:
323,118,69789,2,0,L|327:241,1,104,8|2,0:0|0:0,0:0:0:0:
266,229,70046,1,0,0:0:0:0:
122,231,70131,6,0,L|118:354,1,104,8|0,0:0|0:0,0:0:0:0:
179,342,70388,1,0,0:0:0:0:
239,346,70474,1,2,0:0:0:0:
359,356,70646,1,8,0:0:0:0:
125,221,70817,2,0,L|117:104,1,104,8|2,0:0|0:0,0:0:0:0:
395,188,71160,2,0,L|273:174,1,104,8|10,0:0|0:0,0:0:0:0:
33,228,71503,6,0,L|29:351,1,104,8|0,0:0|0:0,0:0:0:0:
90,339,71760,1,0,0:0:0:0:
150,343,71846,1,2,0:0:0:0:
298,162,72017,2,0,L|302:285,1,104,8|0,0:0|0:0,0:0:0:0:
241,273,72274,1,0,0:0:0:0:
181,277,72360,1,2,0:0:0:0:
43,230,72531,2,0,L|174:224,2,104,8|2|8,0:0|0:0|0:0,0:0:0:0:
294,185,73046,5,2,0:0:0:0:
158,203,73217,2,0,L|151:92,1,104,8|0,0:0|0:0,0:0:0:0:
403,170,73560,1,10,0:0:0:0:
274,147,73731,1,0,0:0:0:0:
29,226,73903,1,10,0:0:0:0:
158,203,74074,1,0,0:0:0:0:
391,275,74246,6,0,L|518:259,1,104,4|0,2:2|0:0,0:0:0:0:
435,247,74503,1,0,0:0:0:0:
376,232,74589,1,2,0:0:0:0:
230,166,74760,2,0,L|357:150,1,104,8|0,0:0|0:0,0:0:0:0:
274,138,75017,1,0,0:0:0:0:
215,123,75103,1,2,0:0:0:0:
67,102,75274,2,0,L|197:91,1,104,8|2,0:0|0:0,0:0:0:0:
409,128,75617,6,0,L|411:253,1,104,8|0,0:0|0:0,0:0:0:0:
350,232,75874,1,0,0:0:0:0:
289,232,75960,1,10,0:0:0:0:
422,280,76131,1,8,0:0:0:0:
175,152,76303,1,8,0:0:0:0:
309,133,76474,1,0,0:0:0:0:
175,152,76646,1,8,0:0:0:0:
309,133,76817,1,8,0:0:0:0:
70,86,76989,6,0,L|-5:81,1,52,8|8,0:0|0:0,0:0:0:0:
18,82,77160,2,0,L|70:86,1,52,8|8,0:0|0:0,0:0:0:0:
220,222,77331,2,0,L|295:217,1,52,8|8,0:0|0:0,0:0:0:0:
271,218,77503,2,0,L|219:221,1,52,8|8,0:0|0:0,0:0:0:0:
375,290,77674,2,0,L|450:285,1,52,8|8,0:0|0:0,0:0:0:0:
426,286,77845,2,0,L|374:289,1,52,8|8,0:0|0:0,0:0:0:0:
228,360,78017,2,0,L|225:296,1,52,8|8,0:0|0:0,0:0:0:0:
380,199,78189,2,0,L|450:199,1,52,8|8,0:0|0:0,0:0:0:0:
262,202,78360,6,0,P|210:173|283:131,1,156,4|0,0:0|0:0,0:0:0:0:
320,126,78703,1,0,0:0:0:0:
259,118,78789,1,0,0:0:0:0:
199,110,78874,1,0,0:0:0:0:
258,119,78960,1,0,0:0:0:0:
421,146,79046,2,0,L|428:266,1,104,0|0,3:0|3:0,0:0:0:0:
137,253,79389,1,4,3:2:0:0:
302,331,79731,6,0,P|338:301|282:211,1,156,0|0,3:0|0:0,0:0:0:0:
118,183,80074,2,0,L|111:316,1,104,4|0,3:2|0:0,0:0:0:0:
351,294,80417,2,0,L|481:277,1,104,8|0,3:0|0:0,0:0:0:0:
396,262,80674,1,0,3:0:0:0:
338,243,80760,1,0,0:0:0:0:
108,228,80931,6,0,P|119:164|251:112,1,208,0|8,3:0|3:0,0:0:0:0:
394,179,81446,2,0,L|508:164,1,104,0|0,3:0|0:0,0:0:0:0:
427,138,81703,2,0,L|313:123,1,104,0|0,3:0|0:0,0:0:0:0:
167,206,81960,2,0,L|165:119,1,52,0|0,3:0|2:0,0:0:0:0:
323,124,82131,2,0,L|437:109,1,104,8|0,3:0|0:0,0:0:0:0:
104,340,82474,6,0,L|100:228,1,104,0|0,3:2|0:0,0:0:0:0:
175,240,82731,2,0,L|302:233,1,104,0|0,3:0|0:0,0:0:0:0:
353,228,82989,2,0,L|77:241,1,249.599992382813,0|8,3:0|3:0,0:0:0:0:
42,226,83246,1,0,0:0:0:0:
102,239,83331,1,0,0:0:0:0:
256,301,83417,1,0,3:0:0:0:
414,307,83674,6,0,P|403:247|245:178,1,208,0|0,3:0|0:0,0:0:0:0:
134,235,84189,1,0,0:0:0:0:
131,142,84360,1,0,0:0:0:0:
361,241,84531,1,8,3:0:0:0:
493,235,84703,1,0,3:0:0:0:
216,152,84874,1,0,3:3:0:0:
342,146,85046,1,0,0:0:0:0:
89,312,85217,6,0,P|35:283|105:249,1,156,0|0,3:0|0:0,0:0:0:0:
253,260,85560,2,0,L|261:126,1,104,4|0,3:2|0:0,0:0:0:0:
111,138,85903,2,0,L|223:124,1,104,8|0,3:0|0:0,0:0:0:0:
277,60,86160,2,0,L|165:46,1,104,0|0,3:0|0:0,0:0:0:0:
343,307,86417,6,0,P|406:276|327:195,1,208,0|8,3:0|3:0,0:0:0:0:
201,233,86931,2,0,L|197:107,1,104,0|0,3:0|0:0,0:0:0:0:
352,153,87189,2,0,L|475:144,1,104,0|0,3:0|0:0,0:0:0:0:
398,135,87446,1,0,3:0:0:0:
341,125,87531,1,0,0:0:0:0:
178,92,87617,2,0,L|47:104,1,104,8|0,3:0|0:0,0:0:0:0:
320,330,87960,6,0,L|326:201,1,104,0|0,3:0|0:0,0:0:0:0:
252,222,88217,2,0,L|246:93,1,104,0|0,3:0|0:0,0:0:0:0:
305,114,88474,1,0,3:0:0:0:
363,110,88560,1,0,0:0:0:0:
186,173,88646,1,8,3:0:0:0:
183,68,88817,1,0,0:0:0:0:
483,201,88989,6,0,L|485:325,1,104,0|0,3:0|0:0,0:0:0:0:
309,286,89246,2,0,L|206:289,1,104,0|0,3:0|0:0,0:0:0:0:
277,240,89503,2,0,L|380:243,1,104,0|0,3:0|0:0,0:0:0:0:
309,286,89760,2,0,L|206:289,1,104,0|0,3:0|0:0,0:0:0:0:
390,185,90017,2,0,L|392:309,1,104,8|0,3:0|0:0,0:0:0:0:
152,184,90360,1,2,0:0:0:0:
15,168,90531,1,2,0:0:0:0:
258,305,90703,6,0,P|319:282|347:191,1,156,0|0,3:0|0:0,0:0:0:0:
197,163,91046,2,0,L|114:163,2,52,4|0|0,3:2|0:0|0:0,0:0:0:0:
347,106,91389,2,0,L|211:99,1,104,8|0,3:0|0:0,0:0:0:0:
168,90,91646,2,0,L|304:83,1,104,0|0,3:0|0:0,0:0:0:0:
451,229,91903,6,0,P|441:174|288:107,1,208,0|8,3:0|3:0,0:0:0:0:
169,191,92417,2,0,L|166:64,1,104,0|0,3:0|0:0,0:0:0:0:
336,219,92674,2,0,L|451:213,1,104,0|0,3:0|0:0,0:0:0:0:
381,208,92931,1,0,3:0:0:0:
322,203,93017,1,0,0:0:0:0:
151,325,93103,1,8,3:0:0:0:
32,287,93274,1,0,0:0:0:0:
151,175,93446,6,0,L|409:197,1,239.200004562378,4|0,3:2|0:0,0:0:0:0:
314,205,93703,2,0,L|165:219,1,104,0|0,3:0|0:0,0:0:0:0:
279,243,93960,1,0,3:0:0:0:
419,352,94131,2,0,L|424:229,1,104,8|0,3:0|0:0,0:0:0:0:
266,244,94389,2,0,L|261:121,1,104,0|0,3:0|0:0,0:0:0:0:
422,254,94646,6,0,P|482:228|405:146,1,208,0|8,3:0|3:0,0:0:0:0:
289,194,95160,1,0,3:0:0:0:
418,140,95331,1,0,3:0:0:0:
136,294,95503,2,0,L|132:149,1,104
417,237,95846,1,0,2:1:0:0:
288,183,96017,1,0,0:0:0:0:
41,254,96189,6,0,P|53:197|184:138,1,208,4|0,3:2|0:0,0:0:0:0:
49,101,96703,1,0,0:0:0:0:
346,218,96874,2,0,P|334:161|203:102,1,208,8|0,3:0|0:0,0:0:0:0:
338,65,97388,1,0,3:0:0:0:
207,100,97560,6,0,L|201:211,1,104,0|0,3:0|0:0,0:0:0:0:
457,277,97903,2,0,L|321:265,1,104
88,347,98246,2,0,L|206:336,1,104,8|0,3:0|0:0,0:0:0:0:
355,358,98503,2,0,L|357:206,1,104,8|0,3:0|0:0,0:0:0:0:
291,251,98760,1,0,0:0:0:0:
58,192,98931,6,0,L|171:182,1,104,0|0,3:0|0:0,0:0:0:0:
322,113,99189,2,0,L|322:251,1,104,0|0,3:0|0:0,0:0:0:0:
263,221,99446,1,0,3:0:0:0:
205,225,99531,1,0,0:0:0:0:
53,291,99617,2,0,L|49:152,1,104,8|0,3:0|3:0,0:0:0:0:
206,317,99960,6,0,L|281:312,2,52,0|0|0,3:0|0:0|0:0,0:0:0:0:
133,262,100217,2,0,L|58:257,2,52,0|0|0,3:0|0:0|0:0,0:0:0:0:
209,240,100474,1,0,3:0:0:0:
256,222,100559,1,0,0:0:0:0:
285,179,100645,1,0,0:0:0:0:
285,128,100731,1,0,3:0:0:0:
255,87,100816,1,0,0:0:0:0:
207,70,100902,1,0,0:0:0:0:
46,194,100989,5,8,3:0:0:0:
44,290,101160,1,0,0:0:0:0:
319,108,101331,2,0,L|389:108,1,52
371,108,101503,2,0,L|298:108,1,52
119,238,101674,6,0,P|133:181|250:154,1,156,4|0,3:2|0:0,0:0:0:0:
292,127,102017,2,0,L|146:114,1,104
440,306,102360,2,0,L|443:181,1,104,8|0,3:0|0:0,0:0:0:0:
281,213,102617,2,0,L|278:88,1,104
443,125,102874,6,0,L|310:110,1,104,0|0,3:0|0:0,0:0:0:0:
269,125,103131,1,0,0:0:0:0:
211,137,103217,1,0,0:0:0:0:
269,125,103303,1,0,0:0:0:0:
419,210,103389,2,0,L|422:338,1,104,0|0,3:0|0:0,0:0:0:0:
180,347,103731,1,8,3:0:0:0:
117,336,103817,2,0,P|77:308|145:231,1,156
258,264,104246,1,0,0:0:0:0:
120,228,104417,6,0,L|233:222,1,104,0|0,3:0|0:0,0:0:0:0:
390,184,104674,2,0,L|392:328,1,104,0|0,3:0|0:0,0:0:0:0:
228,313,104931,1,0,3:0:0:0:
109,284,105103,2,0,L|108:226,1,52,8|0,3:0|0:0,0:0:0:0:
279,195,105274,2,0,L|362:195,1,52
266,133,105446,2,0,L|183:133,1,52
391,224,105617,6,0,P|450:206|406:129,1,156,0|0,3:0|0:0,0:0:0:0:
367,117,105960,1,0,0:0:0:0:
238,254,106131,2,0,L|374:242,1,104,0|0,3:0|0:0,0:0:0:0:
93,247,106474,1,8,3:0:0:0:
33,233,106560,2,0,L|28:101,1,104
206,167,106817,1,0,0:0:0:0:
261,149,106903,1,0,0:0:0:0:
261,149,106989,1,0,0:0:0:0:
206,167,107074,1,0,0:0:0:0:
33,359,107160,6,0,P|45:294|150:251,1,156,4|0,3:2|0:0,0:0:0:0:
184,235,107503,1,0,0:0:0:0:
126,225,107589,1,0,0:0:0:0:
69,215,107674,1,0,0:0:0:0:
212,345,107846,2,0,L|217:207,1,104,0|0,3:0|0:0,0:0:0:0:
142,242,108103,2,0,L|137:104,1,104
304,211,108360,6,0,L|450:198,1,104,0|0,3:0|0:0,0:0:0:0:
335,196,108617,2,0,L|189:183,1,104
394,111,108874,2,0,L|400:246,1,104,0|0,3:0|0:0,0:0:0:0:
249,320,109217,2,0,L|148:308,1,52,8|0,3:0|0:0,0:0:0:0:
197,313,109389,2,0,L|249:320,1,52
400,252,109560,2,0,L|407:331,1,52
243,224,109731,1,0,0:0:0:0:
188,217,109817,1,0,0:0:0:0:
348,171,109903,6,0,L|497:155,1,104,0|0,3:0|0:0,0:0:0:0:
288,133,110160,2,0,L|149:118,1,104
251,91,110417,1,0,3:0:0:0:
396,58,110589,1,8,3:3:0:0:
399,144,110760,1,0,0:0:0:0:
150,351,110931,6,0,L|148:219,1,104,0|0,3:0|0:0,0:0:0:0:
223,256,111189,2,0,L|225:124,1,104
50,281,111446,2,0,L|48:149,1,104,0|0,3:0|0:0,0:0:0:0:
106,177,111703,1,0,0:0:0:0:
164,177,111789,1,0,0:0:0:0:
413,104,111960,1,2,0:0:0:0:
288,94,112131,1,2,0:0:0:0:
413,104,112303,1,2,0:0:0:0:
288,94,112474,1,2,0:0:0:0:
47,244,112646,6,0,P|64:189|182:157,1,156,4|0,3:2|0:0,0:0:0:0:
319,195,112989,2,0,L|214:171,1,104
279,164,113246,1,0,0:0:0:0:
428,118,113331,2,0,L|433:238,1,104,8|0,3:0|0:0,0:0:0:0:
355,252,113589,2,0,L|250:228,1,104
431,239,113846,6,0,L|436:359,1,104,0|0,3:0|0:0,0:0:0:0:
374,329,114103,1,0,0:0:0:0:
313,314,114189,1,0,0:0:0:0:
374,329,114274,1,0,0:0:0:0:
222,330,114360,2,0,L|85:349,1,104,0|0,3:0|0:0,0:0:0:0:
272,257,114703,1,8,3:0:0:0:
337,226,114789,1,0,0:0:0:0:
336,200,114831,1,0,0:0:0:0:
321,174,114874,1,0,0:0:0:0:
298,154,114917,1,0,0:0:0:0:
263,149,114960,1,0,0:0:0:0:
101,205,115046,2,0,L|98:89,1,104
346,331,115389,6,0,L|463:330,1,104,0|0,3:0|0:0,0:0:0:0:
277,270,115646,2,0,L|275:155,1,104,0|0,3:0|0:0,0:0:0:0:
343,163,115903,1,0,3:0:0:0:
107,327,116074,2,0,L|105:212,1,104,8|0,3:0|0:0,0:0:0:0:
177,189,116331,2,0,L|41:176,1,104,2|0,2:0|0:0,0:0:0:0:
260,286,116589,6,0,P|300:247|247:165,1,156,0|0,3:2|0:0,0:0:0:0:
186,157,116931,1,0,0:0:0:0:
435,210,117103,2,0,L|441:103,1,104,0|0,3:0|0:0,0:0:0:0:
296,83,117446,1,8,3:0:0:0:
356,67,117531,1,0,0:0:0:0:
417,52,117617,1,0,0:0:0:0:
163,276,117789,2,0,L|160:124,1,104
224,168,118046,1,0,0:0:0:0:
402,237,118131,6,0,P|396:183|291:127,1,156,0|0,3:0|0:0,0:0:0:0:
256,114,118474,1,0,3:0:0:0:
318,110,118560,1,0,0:0:0:0:
380,107,118646,1,0,0:0:0:0:
253,216,118817,2,0,L|135:207,1,104,0|0,3:0|0:0,0:0:0:0:
323,211,119074,2,0,L|329:343,1,104,0|0,3:0|0:0,0:0:0:0:
259,317,119331,1,0,3:0:0:0:
18,222,119503,6,0,P|22:169|128:121,1,156,0|0,3:0|0:0,0:0:0:0:
165,122,119846,1,0,3:0:0:0:
103,117,119931,1,0,0:0:0:0:
40,112,120017,1,0,0:0:0:0:
293,234,120189,2,0,L|429:221,1,104,0|0,3:0|0:0,0:0:0:0:
244,324,120446,2,0,L|108:311,1,104,0|0,3:0|0:0,0:0:0:0:
292,234,120703,1,0,3:0:0:0:
294,171,120789,1,0,0:0:0:0:
140,212,120874,6,0,P|88:186|71:112,1,104,0|0,3:0|0:0,0:0:0:0:
130,132,121131,1,0,0:0:0:0:
191,118,121217,1,0,3:0:0:0:
337,99,121389,1,0,0:0:0:0:
192,230,121560,2,0,L|71:215,1,104,0|0,3:0|0:0,0:0:0:0:
245,347,121817,2,0,L|390:332,1,104,0|0,3:0|0:0,0:0:0:0:
286,324,122074,1,0,3:0:0:0:
30,327,122246,6,0,L|18:200,1,104,0|0,3:0|0:0,0:0:0:0:
145,221,122589,1,2,0:0:0:0:
201,208,122674,1,0,0:0:0:0:
145,221,122760,1,0,0:0:0:0:
276,220,122931,1,2,0:0:0:0:
330,200,123017,1,0,0:0:0:0:
351,141,123103,1,0,0:0:0:0:
324,84,123189,1,0,2:3:0:0:
268,72,123274,1,2,2:3:0:0:
143,60,123446,1,0,0:0:0:0:
455,199,123617,1,4,0:2:0:0:
235,137,128589,6,0,L|344:112,2,104,2|2|2,0:0|0:0|0:0,0:0:0:0:
104,114,129103,6,0,L|100:252,1,104,2|0,0:0|0:0,0:0:0:0:
223,242,129446,1,0,0:0:0:0:
357,229,129617,1,0,0:0:0:0:
348,170,129703,1,0,0:0:0:0:
319,120,129789,1,0,0:0:0:0:
270,94,129874,1,0,0:0:0:0:
211,85,129960,1,0,0:0:0:0:
340,69,130131,1,0,0:0:0:0:
142,163,130474,6,0,L|136:294,1,104,2|0,0:0|0:0,0:0:0:0:
271,279,130817,1,0,0:0:0:0:
136,267,130989,1,0,0:0:0:0:
87,237,131074,1,0,0:0:0:0:
70,181,131160,1,2,0:0:0:0:
88,126,131246,1,0,0:0:0:0:
142,109,131331,1,0,0:0:0:0:
268,115,131503,1,2,0:0:0:0:
406,247,131846,6,0,L|272:227,1,104,2|0,0:0|0:0,0:0:0:0:
168,277,132189,1,2,0:0:0:0:
305,232,132360,1,2,0:0:0:0:
298,174,132446,1,0,0:0:0:0:
275,121,132531,1,2,0:0:0:0:
225,91,132617,1,0,0:0:0:0:
168,79,132703,1,0,0:0:0:0:
34,103,132874,1,2,0:0:0:0:
168,79,133046,1,2,0:0:0:0:
416,136,133217,6,0,L|427:199,7,52,4|0|0|0|0|0|0|0,2:0|2:0|2:0|2:0|2:0|2:0|2:0|2:0,0:0:0:0:
239,255,133903,1,0,3:0:0:0:
123,291,134074,1,0,3:0:0:0:
427,321,134246,1,0,3:0:0:0:
231,338,134589,6,0,P|242:279|366:249,1,156,4|0,0:0|0:0,0:0:0:0:
377,238,134931,1,8,0:0:0:0:
319,236,135017,1,0,0:0:0:0:
261,234,135103,1,0,0:0:0:0:
124,243,135274,1,8,0:0:0:0:
73,208,135360,1,0,0:0:0:0:
57,152,135446,1,0,0:0:0:0:
80,100,135531,1,0,0:0:0:0:
133,78,135617,1,8,0:0:0:0:
247,82,135789,1,0,0:0:0:0:
119,117,135960,6,0,L|111:230,1,104,8|0,0:0|0:0,0:0:0:0:
254,206,136303,2,0,L|129:216,1,104,8|0,0:0|0:0,0:0:0:0:
297,280,136646,2,0,L|438:291,1,104,8|0,0:0|0:0,0:0:0:0:
297,280,136989,2,0,L|438:291,1,104,8|0,0:0|0:0,0:0:0:0:
257,348,137331,6,0,L|249:241,1,104,8|0,0:0|0:0,0:0:0:0:
116,293,137674,2,0,L|108:186,1,104,8|0,0:0|0:0,0:0:0:0:
253,239,138017,1,8,0:0:0:0:
303,211,138103,1,0,0:0:0:0:
327,158,138189,1,0,0:0:0:0:
304,105,138274,1,0,0:0:0:0:
249,86,138360,1,8,0:0:0:0:
120,82,138531,1,0,0:0:0:0:
369,257,138703,6,0,L|234:243,1,104,0|2,0:0|0:0,0:0:0:0:
27,163,139046,2,0,L|162:149,1,104,8|2,0:0|0:0,0:0:0:0:
385,186,139389,1,4,0:2:0:0:
232,267,139731,1,0,0:0:0:0:
158,244,139846,1,0,0:0:0:0:
232,267,139960,1,0,0:0:0:0:
409,306,140074,6,0,P|396:247|295:178,1,156,4|0,0:2|0:0,0:0:0:0:
257,184,140417,2,0,L|403:176,1,104,8|0,0:3|0:0,0:0:0:0:
218,133,140760,1,0,0:0:0:0:
218,133,140846,1,0,0:0:0:0:
218,133,140931,1,0,0:0:0:0:
359,112,141103,1,8,0:3:0:0:
359,112,141274,1,2,0:0:0:0:
91,218,141446,6,0,L|16:210,2,52,4|0|2,0:2|0:0|0:0,0:0:0:0:
229,183,141789,2,0,L|234:314,1,104,8|2,0:3|0:0,0:0:0:0:
91,284,142131,2,0,L|218:303,1,104,8|2,0:3|0:0,0:0:0:0:
336,256,142474,2,0,L|405:247,1,52,8|0,0:3|0:0,0:0:0:0:
225,163,142646,2,0,L|156:154,1,52,0|0,3:0|3:0,0:0:0:0:
334,345,142817,5,4,2:2:0:0:
379,323,142903,1,0,0:0:0:0:
398,275,142988,1,2,0:0:0:0:
378,229,143074,1,0,0:0:0:0:
331,208,143159,1,8,0:3:0:0:
196,176,143331,1,2,0:0:0:0:
332,129,143503,2,0,L|333:210,1,52,8|0,0:3|0:0,0:0:0:0:
182,283,143674,2,0,L|41:272,1,104,2|0,0:0|0:0,0:0:0:0:
78,274,143931,2,0,L|181:265,1,104,2|0,0:0|0:0,0:0:0:0:
363,270,144189,1,4,3:2:0:0:
201,277,144874,6,0,L|209:162,1,104,8|8,3:0|3:0,0:0:0:0:
351,171,145217,1,0,0:0:0:0:
48,111,145560,1,4,0:0:0:0:
256,192,148303,12,0,150703,0:0:0:0:
391,275,151046,6,0,L|518:259,1,104,4|0,0:0|0:0,0:0:0:0:
435,247,151303,1,0,0:0:0:0:
376,232,151389,1,8,0:2:0:0:
230,166,151560,2,0,L|357:150,1,104,0|8,0:0|0:0,0:0:0:0:
274,138,151817,1,0,0:0:0:0:
215,123,151903,1,0,0:0:0:0:
67,102,152074,2,0,L|197:91,1,104,8|0,0:2|0:0,0:0:0:0:
409,128,152417,6,0,L|411:253,1,104,8|0,0:0|0:0,0:0:0:0:
350,232,152674,1,0,0:0:0:0:
289,232,152760,1,8,0:0:0:0:
422,280,152931,1,0,0:0:0:0:
175,152,153103,1,8,0:0:0:0:
309,133,153274,1,0,0:0:0:0:
175,152,153446,1,8,0:0:0:0:
309,133,153617,1,0,0:0:0:0:
70,86,153789,6,0,L|-5:81,1,52,8|8,0:0|0:0,0:0:0:0:
18,82,153960,2,0,L|70:86,1,52,8|8,0:0|0:0,0:0:0:0:
220,222,154131,2,0,L|295:217,1,52,8|8,0:0|0:0,0:0:0:0:
271,218,154303,2,0,L|219:221,1,52,8|8,0:0|0:0,0:0:0:0:
70,363,154474,2,0,L|68:280,1,52,8|8,0:0|0:0,0:0:0:0:
218,179,154646,2,0,L|216:96,1,52,8|8,0:0|0:0,0:0:0:0:
71,228,154817,2,0,L|17:228,1,52,8|8,0:0|0:0,0:0:0:0:
211,44,154989,2,0,L|265:44,1,52,8|8,0:0|0:0,0:0:0:0:
70,277,155160,5,8,3:0:0:0:
176,231,155331,2,0,L|183:319,1,52,0|0,3:0|3:0,0:0:0:0:
302,182,155589,2,0,L|309:270,1,52,0|0,3:0|3:0,0:0:0:0:
163,191,155846,2,0,L|101:180,2,52,0|0|0,3:0|3:0|3:0,0:0:0:0:
413,275,156189,2,0,L|426:145,1,124.799996191406,4|0,3:2|0:0,0:0:0:0:
188,310,156531,6,0,L|54:319,1,104,4|2,3:2|0:0,0:0:0:0:
241,239,156789,2,0,P|285:216|297:147,1,104
245,153,157046,1,2,0:0:0:0:
189,139,157131,1,0,0:0:0:0:
28,234,157217,2,0,L|19:118,1,104,0|2,3:0|0:0,0:0:0:0:
149,104,157560,1,0,3:0:0:0:
19,130,157731,1,2,0:0:0:0:
270,317,157903,6,0,L|404:326,1,104,0|2,3:0|0:0,0:0:0:0:
217,246,158161,2,0,P|173:223|161:154,1,104
213,160,158418,1,2,0:0:0:0:
381,177,158503,2,0,L|499:174,1,104
428,166,158760,1,2,0:0:0:0:
370,158,158846,1,0,0:0:0:0:
222,61,158931,1,0,3:0:0:0:
166,68,159017,1,0,0:0:0:0:
166,68,159103,1,0,0:0:0:0:
222,61,159189,1,0,0:0:0:0:
368,330,159274,6,0,L|502:339,1,104,0|2,3:0|0:0,0:0:0:0:
299,256,159532,2,0,P|255:233|243:164,1,104
297,170,159789,1,2,0:0:0:0:
352,159,159874,1,0,0:0:0:0:
206,112,159960,2,0,L|87:99,1,104,0|2,3:0|0:0,0:0:0:0:
249,297,160303,2,0,L|368:284,1,104,0|2,3:0|0:0,0:0:0:0:
100,351,160646,6,0,L|94:208,1,104,0|2,3:0|0:0,0:0:0:0:
246,229,160903,2,0,L|374:219,1,104
292,214,161160,1,2,0:0:0:0:
234,208,161246,1,0,0:0:0:0:
52,239,161331,2,0,L|47:160,1,52
234,133,161503,1,0,0:0:0:0:
290,124,161589,1,0,0:0:0:0:
234,133,161674,1,0,3:0:0:0:
177,144,161760,1,0,0:0:0:0:
234,133,161846,1,0,0:0:0:0:
290,124,161931,1,0,0:0:0:0:
132,304,162017,6,0,L|126:172,1,104,0|2,3:0|0:0,0:0:0:0:
298,219,162274,2,0,P|346:202|360:110,1,104
314,145,162531,1,2,0:0:0:0:
257,133,162617,1,0,0:0:0:0:
103,125,162703,2,0,L|236:113,1,104,0|2,3:0|0:0,0:0:0:0:
351,75,163046,2,0,L|218:63,1,104,0|2,3:0|0:0,0:0:0:0:
485,159,163389,6,0,L|492:300,1,104,0|2,3:0|0:0,0:0:0:0:
323,278,163646,2,0,L|193:295,1,104
276,299,163903,1,2,0:0:0:0:
332,307,163989,1,0,0:0:0:0:
166,219,164074,2,0,L|91:229,1,52,0|0,3:0|0:0,0:0:0:0:
274,248,164246,1,2,0:0:0:0:
323,237,164331,1,0,0:0:0:0:
355,197,164417,1,0,3:0:0:0:
354,146,164503,1,0,0:0:0:0:
320,108,164588,1,2,0:0:0:0:
270,101,164674,1,0,0:0:0:0:
104,227,164760,6,0,L|93:107,1,104,0|2,3:0|0:0,0:0:0:0:
270,202,165017,2,0,L|402:189,1,104
311,180,165274,1,2,0:0:0:0:
248,167,165360,2,0,L|506:147,1,239.200004562378
412,130,165617,2,0,L|293:118,2,104,2|0|2,0:0|3:0|0:0,0:0:0:0:
304,262,166131,6,0,L|24:239,1,249.599992382813,0|2,3:0|0:0,0:0:0:0:
126,209,166389,2,0,L|254:200,1,104
172,199,166646,1,2,0:0:0:0:
115,194,166731,1,0,0:0:0:0:
278,302,166817,2,0,P|340:278|338:211,1,104,0|0,3:0|0:0,0:0:0:0:
287,238,167074,1,0,0:0:0:0:
225,228,167160,1,2,2:0:0:0:
372,193,167331,1,2,0:0:0:0:
60,327,167503,6,0,L|56:186,1,104,4|2,3:2|0:0,0:0:0:0:
232,167,167760,2,0,L|366:160,1,104
274,150,168017,1,2,0:0:0:0:
212,139,168103,1,0,0:0:0:0:
48,178,168189,2,0,L|45:61,1,104,0|2,3:0|0:0,0:0:0:0:
280,64,168531,1,0,3:0:0:0:
151,35,168703,1,2,0:0:0:0:
394,241,168874,6,0,P|443:227|460:141,1,104,0|2,3:0|0:0,0:0:0:0:
307,186,169131,2,0,L|187:168,1,104
272,158,169389,1,2,0:0:0:0:
444,98,169474,2,0,L|444:252,1,104
387,210,169731,1,2,0:0:0:0:
330,219,169817,1,0,0:0:0:0:
184,299,169903,2,0,L|185:209,1,52,0|0,3:0|0:0,0:0:0:0:
332,293,170074,1,2,0:0:0:0:
390,285,170160,1,0,0:0:0:0:
237,179,170246,6,0,L|95:161,1,104,0|2,3:0|0:0,0:0:0:0:
190,155,170503,1,0,0:0:0:0:
350,111,170589,1,0,3:0:0:0:
407,102,170674,1,0,0:0:0:0:
349,111,170760,1,2,0:0:0:0:
290,121,170846,1,0,0:0:0:0:
119,273,170931,2,0,L|114:166,1,104,0|2,3:0|0:0,0:0:0:0:
346,213,171274,1,0,3:0:0:0:
469,236,171446,1,2,0:0:0:0:
211,274,171617,6,0,L|83:292,1,104,0|2,3:0|0:0,0:0:0:0:
253,355,171960,2,0,L|322:360,1,52,0|0,3:0|0:0,0:0:0:0:
304,358,172131,2,0,L|252:354,1,52,2|0,0:0|0:0,0:0:0:0:
90,351,172303,2,0,L|82:249,1,52,0|0,3:0|0:0,0:0:0:0:
253,267,172474,1,2,0:0:0:0:
303,258,172559,1,0,0:0:0:0:
335,219,172645,1,0,0:0:0:0:
335,168,172731,1,0,0:0:0:0:
302,129,172816,1,0,0:0:0:0:
252,120,172902,1,0,0:0:0:0:
81,227,172989,6,0,L|75:106,1,104,0|2,3:0|0:0,0:0:0:0:
250,210,173246,2,0,P|300:190|310:113,1,104
261,136,173503,1,2,0:0:0:0:
204,126,173589,1,0,0:0:0:0:
56,264,173674,2,0,L|50:143,1,104,0|2,3:0|0:0,0:0:0:0:
198,130,174017,1,0,3:0:0:0:
51,160,174189,1,2,0:0:0:0:
287,237,174360,6,0,L|392:252,1,104,0|2,3:0|0:0,0:0:0:0:
224,147,174617,2,0,L|119:162,1,104
182,172,174874,1,2,0:0:0:0:
242,187,174960,1,0,0:0:0:0:
414,145,175046,2,0,L|417:235,1,52,0|0,3:0|0:0,0:0:0:0:
226,279,175217,2,0,L|105:296,1,104,2|0,0:0|3:0,0:0:0:0:
184,306,175474,1,0,0:0:0:0:
365,261,175560,2,0,L|446:251,1,52,2|0,0:0|0:0,0:0:0:0:
255,93,175731,6,0,L|119:78,1,104,0|0,3:0|0:0,0:0:0:0:
255,93,176074,2,0,L|119:78,1,104,0|0,3:0|0:0,0:0:0:0:
296,324,176417,1,0,0:0:0:0:
345,310,176502,1,0,0:0:0:0:
384,276,176588,1,0,0:0:0:0:
406,229,176674,1,0,0:0:0:0:
404,178,176759,1,0,0:0:0:0:
381,132,176845,1,0,0:0:0:0:
341,100,176931,1,0,0:0:0:0:
290,89,177017,1,0,0:0:0:0:
140,172,177103,5,0,0:0:0:0:
115,164,177145,1,0,0:0:0:0:
97,145,177188,1,0,0:0:0:0:
91,121,177231,1,0,0:0:0:0:
97,96,177274,1,0,0:0:0:0:
114,77,177317,1,0,0:0:0:0:
139,69,177360,1,0,0:0:0:0:
317,171,177446,2,0,L|327:232,4,34.6666666666667,0|0|0|0|0,2:0|2:0|2:0|2:0|2:0,0:0:0:0:
134,258,177789,5,0,3:0:0:0:
57,276,177903,1,0,3:0:0:0:
134,258,178017,1,0,3:0:0:0:
318,268,178131,1,0,3:0:0:0:
439,303,178303,1,0,3:0:0:0:
133,351,178474,1,0,3:0:0:0:
353,214,178817,6,0,L|477:207,1,104,4|0,3:2|0:0,0:0:0:0:
396,192,179074,1,0,0:0:0:0:
251,139,179160,2,0,L|127:132,1,104,0|0,3:0|0:0,0:0:0:0:
296,215,179503,2,0,L|300:354,1,104,0|0,3:0|0:0,0:0:0:0:
233,321,179760,1,0,0:0:0:0:
82,305,179846,5,0,3:0:0:0:
34,289,179931,1,0,0:0:0:0:
13,243,180017,1,0,0:0:0:0:
33,197,180103,1,0,0:0:0:0:
81,181,180188,1,0,3:0:0:0:
207,219,180360,1,0,0:0:0:0:
372,119,180531,1,0,3:0:0:0:
424,128,180617,1,0,0:0:0:0:
372,119,180703,1,0,0:0:0:0:
129,107,180874,1,0,3:0:0:0:
71,132,180960,1,0,0:0:0:0:
71,132,181046,1,0,0:0:0:0:
129,107,181131,1,0,0:0:0:0:
313,274,181217,6,0,P|370:256|396:130,1,156,0|0,3:0|0:0,0:0:0:0:
340,144,181560,2,0,L|222:124,1,104,0|0,3:0|0:0,0:0:0:0:
371,231,181903,2,0,L|441:222,1,52,0|0,3:0|0:0,0:0:0:0:
422,224,182074,2,0,L|371:231,1,52
204,318,182246,2,0,L|200:230,1,52,0|0,3:0|0:0,0:0:0:0:
379,317,182417,2,0,L|498:302,1,104,0|0,0:0|3:0,0:0:0:0:
200,194,182760,5,0,0:0:0:0:
139,178,182846,1,0,0:0:0:0:
78,166,182931,1,0,3:0:0:0:
223,124,183103,1,0,0:0:0:0:
78,166,183274,2,0,L|77:92,1,52,0|0,3:0|0:0,0:0:0:0:
265,298,183446,1,0,0:0:0:0:
314,286,183531,1,0,0:0:0:0:
345,246,183617,1,0,0:0:0:0:
343,195,183703,1,0,0:0:0:0:
308,157,183788,1,0,0:0:0:0:
258,151,183874,1,0,0:0:0:0:
103,275,183960,5,0,3:0:0:0:
42,257,184046,2,0,L|37:131,1,104
201,201,184303,2,0,L|350:184,1,104,0|0,3:0|0:0,0:0:0:0:
160,354,184560,2,0,P|103:334|102:258,1,104
150,283,184817,1,0,0:0:0:0:
211,269,184903,1,0,0:0:0:0:
366,220,184989,2,0,L|368:295,1,52,0|0,3:0|0:0,0:0:0:0:
197,184,185160,2,0,L|87:173,1,104,0|0,0:0|3:0,0:0:0:0:
262,94,185417,6,0,L|372:83,1,104
196,338,185674,2,0,L|192:193,1,104,0|0,3:0|0:0,0:0:0:0:
431,177,186017,1,0,3:0:0:0:
485,163,186103,1,0,0:0:0:0:
485,163,186189,1,0,0:0:0:0:
431,177,186274,1,0,0:0:0:0:
272,156,186360,1,0,3:0:0:0:
269,105,186446,1,0,0:0:0:0:
437,59,186531,1,0,0:0:0:0:
498,46,186616,1,0,0:0:0:0:
437,59,186703,1,0,3:0:0:0:
251,261,186789,6,0,L|115:244,1,104
304,182,187046,2,0,L|399:170,2,52,0|0|0,3:0|0:0|0:0,0:0:0:0:
56,284,187389,2,0,L|46:165,1,104,0|0,3:0|0:0,0:0:0:0:
291,257,187731,2,0,L|432:274,1,104,0|0,3:0|0:0,0:0:0:0:
332,284,187989,1,0,0:0:0:0:
144,300,188074,6,0,L|20:314,1,104,0|0,3:0|0:0,0:0:0:0:
326,104,188417,2,0,L|331:228,1,104,0|0,3:0|0:0,0:0:0:0:
267,210,188674,1,0,0:0:0:0:
108,215,188760,2,0,L|106:149,1,52,0|0,3:0|0:0,0:0:0:0:
280,292,188931,2,0,L|401:289,2,104,2|2|2,0:0|2:0|0:0,0:0:0:0:
43,348,189446,6,0,L|40:209,1,109.199996667481,4|0,3:2|0:0,0:0:0:0:
304,203,189789,2,0,L|449:200,1,109.199996667481,0|0,3:0|0:0,0:0:0:0:
350,182,190046,1,0,0:0:0:0:
173,244,190131,2,0,L|171:111,1,109.199996667481,0|0,3:0|0:0,0:0:0:0:
314,124,190474,1,0,3:0:0:0:
253,116,190560,1,0,0:0:0:0:
193,110,190646,1,0,0:0:0:0:
459,263,190817,6,0,L|461:130,1,109.199996667481,0|0,3:0|0:0,0:0:0:0:
397,145,191074,1,0,0:0:0:0:
224,247,191160,2,0,L|351:231,1,109.199996667481,0|0,3:0|0:0,0:0:0:0:
191,194,191503,2,0,L|189:115,1,54.5999983337403,0|0,3:0|2:0,0:0:0:0:
358,319,191674,2,0,L|420:325,1,54.5999983337403,0|0,2:0|0:0,0:0:0:0:
249,349,191846,2,0,L|97:368,1,109.199996667481,0|0,3:0|0:0,0:0:0:0:
373,198,192189,6,0,L|495:215,1,109.199996667481,0|0,3:0|0:0,0:0:0:0:
309,275,192446,2,0,L|306:157,1,109.199996667481
369,162,192703,1,0,0:0:0:0:
432,158,192789,1,0,0:0:0:0:
268,90,192874,2,0,L|146:107,1,109.199996667481,0|0,3:0|0:0,0:0:0:0:
323,165,193131,2,0,L|326:47,1,109.199996667481
257,55,193389,1,0,0:0:0:0:
26,320,193560,6,0,L|21:188,1,109.199996667481,0|0,3:0|0:0,0:0:0:0:
88,203,193817,1,0,0:0:0:0:
235,167,193903,2,0,L|334:161,2,54.5999983337403,0|0|0,3:0|0:0|0:0,0:0:0:0:
94,108,194246,1,0,3:0:0:0:
154,101,194331,1,0,0:0:0:0:
215,95,194417,1,0,0:0:0:0:
361,78,194589,2,0,L|363:153,1,54.5999983337403,0|0,3:0|0:0,0:0:0:0:
209,233,194760,2,0,L|125:238,1,54.5999983337403
323,330,194931,6,0,L|470:323,1,109.199996667481,0|0,3:2|0:0,0:0:0:0:
275,251,195189,2,0,P|220:232|201:151,1,109.199996667481
264,166,195446,1,0,0:0:0:0:
413,100,195617,2,0,L|413:245,1,109.199996667481,0|0,3:0|0:0,0:0:0:0:
254,298,195874,2,0,L|110:297,1,109.199996667481
309,222,196131,1,0,0:0:0:0:
429,242,196303,6,0,P|419:182|351:158,1,109.199996667481,0|0,3:0|0:0,0:0:0:0:
222,201,196560,2,0,L|225:69,1,109.199996667481
383,91,196817,1,0,0:0:0:0:
265,166,196989,2,0,L|211:161,1,54.5999983337403,0|0,3:0|0:0,0:0:0:0:
383,288,197160,2,0,L|437:283,1,54.5999983337403
253,360,197331,2,0,L|123:349,1,124.799996191406,0|0,3:0|0:0,0:0:0:0:
411,121,197674,6,0,L|417:242,1,104,0|0,3:0|0:0,0:0:0:0:
276,272,198017,1,0,2:0:0:0:
229,248,198103,1,0,0:0:0:0:
207,210,198188,1,0,0:0:0:0:
228,165,198274,1,0,0:0:0:0:
277,150,198359,1,0,2:0:0:0:
33,265,198531,1,2,0:0:0:0:
33,265,198789,1,2,0:0:0:0:
376,242,199046,6,0,L|499:255,1,104,0|0,2:0|2:0,0:0:0:0:
333,347,199389,2,0,L|210:360,1,104
376,275,199731,1,0,0:0:0:0:
376,275,199817,1,0,0:0:0:0:
376,275,199903,1,0,0:0:0:0:
224,239,200074,1,4,3:0:0:0:
362,198,200246,1,4,3:0:0:0:
53,186,200417,6,0,L|167:203,1,104,4|0,0:0|0:0,0:0:0:0:
294,284,200760,2,0,L|180:301,1,104,8|0,2:3|0:0,0:0:0:0:
53,320,201103,2,0,L|48:205,1,104,0|0,2:0|0:0,0:0:0:0:
157,205,201446,1,8,0:3:0:0:
319,188,201617,6,0,P|302:128|163:68,1,208,2|0,0:0|0:0,0:0:0:0:
317,120,202132,2,0,L|438:110,1,104,8|0,0:3|0:0,0:0:0:0:
287,258,202475,1,0,2:3:0:0:
219,218,202560,1,2,0:0:0:0:
202,198,202603,1,0,0:0:0:0:
194,170,202646,1,0,0:0:0:0:
203,142,202689,1,0,0:0:0:0:
223,126,202732,1,0,0:0:0:0:
306,153,202817,2,0,L|427:143,1,114.400003491211,8|0,0:3|0:0,0:0:0:0:
290,352,203160,6,0,L|281:228,1,104,0|0,2:0|0:0,0:0:0:0:
138,250,203503,2,0,L|129:126,1,104,8|0,0:3|0:0,0:0:0:0:
274,61,203846,1,0,0:0:0:0:
357,101,204017,1,0,0:0:0:0:
390,190,204189,1,8,0:3:0:0:
351,272,204360,1,0,0:0:0:0:
256,314,204532,1,0,0:0:0:0:
408,343,204703,5,2,0:0:0:0:
262,313,204875,2,0,P|208:270|281:164,1,208,2|2,0:2|0:0,0:0:0:0:
405,231,205389,1,2,0:0:0:0:
405,231,205560,1,0,0:0:0:0:
405,231,205732,1,2,0:0:0:0:
128,296,205903,6,0,P|137:232|273:173,1,208,0|8,3:0|0:3,0:0:0:0:
121,206,206417,1,0,0:0:0:0:
71,177,206503,1,0,0:0:0:0:
53,122,206589,1,0,0:0:0:0:
73,69,206674,1,0,0:0:0:0:
126,47,206760,1,0,0:0:0:0:
259,171,206931,2,0,L|393:187,1,104,8|2,0:3|0:2,0:0:0:0:
229,300,207274,6,0,L|220:171,1,104
88,214,207617,2,0,L|79:85,1,104,8|0,0:3|0:0,0:0:0:0:
221,197,207960,1,0,0:0:0:0:
287,166,208046,1,2,0:0:0:0:
285,140,208088,1,0,0:0:0:0:
272,117,208131,1,0,0:0:0:0:
252,102,208174,1,0,0:0:0:0:
223,97,208217,1,0,0:0:0:0:
150,81,208303,2,0,L|285:69,1,104,8|0,0:3|0:0,0:0:0:0:
396,62,208646,6,0,L|400:183,1,104
256,232,208989,2,0,L|152:241,1,104,8|0,0:3|0:0,0:0:0:0:
292,314,209331,1,0,0:0:0:0:
348,307,209417,1,0,0:0:0:0:
405,300,209503,1,0,0:0:0:0:
256,232,209674,2,0,L|131:219,2,104,8|0|0,0:3|0:0|3:0,0:0:0:0:
394,227,210189,5,0,0:0:0:0:
442,210,210274,1,0,0:0:0:0:
471,168,210360,1,2,0:0:0:0:
470,117,210446,1,0,0:0:0:0:
439,76,210531,1,0,0:0:0:0:
390,62,210617,1,0,0:0:0:0:
245,111,210703,2,0,L|183:113,1,52,2|0,0:0|0:0,0:0:0:0:
351,159,210874,2,0,L|413:161,1,52,2|0,0:0|0:0,0:0:0:0:
242,232,211046,2,0,L|239:315,1,52,4|0,0:0|0:0,0:0:0:0:
322,281,211217,2,0,L|325:364,1,52
160,346,211389,6,0,P|105:333|33:209,1,208,0|8,3:0|0:3,0:0:0:0:
140,177,211903,1,0,0:0:0:0:
275,138,212074,1,0,0:0:0:0:
275,138,212160,1,0,0:0:0:0:
275,138,212246,1,0,0:0:0:0:
167,97,212417,1,8,0:3:0:0:
317,231,212589,6,0,P|370:202|299:100,1,208,2|0,0:0|0:0,0:0:0:0:
176,148,213103,2,0,L|168:38,1,104,8|0,0:3|0:0,0:0:0:0:
314,97,213446,1,0,0:0:0:0:
383,129,213531,1,2,0:0:0:0:
382,156,213573,1,0,0:0:0:0:
371,181,213616,1,0,0:0:0:0:
351,200,213659,1,0,0:0:0:0:
325,209,213702,1,0,0:0:0:0:
252,235,213789,2,0,L|131:245,1,104,8|0,0:3|0:0,0:0:0:0:
287,306,214131,6,0,L|291:178,1,104
424,209,214474,2,0,L|428:81,1,104,8|0,0:3|0:0,0:0:0:0:
306,135,214817,1,0,0:0:0:0:
254,141,214903,1,0,0:0:0:0:
202,148,214989,1,0,0:0:0:0:
335,270,215160,2,0,L|339:142,1,104,8|0,0:3|0:0,0:0:0:0:
108,128,215503,6,0,L|104:242,1,104,0|2,0:0|0:0,0:0:0:0:
256,239,215846,2,0,L|363:251,1,104,2|0,0:0|0:0,0:0:0:0:
203,289,216189,1,2,0:0:0:0:
360,250,216360,2,0,P|402:224|429:174,2,104,2|0|2,0:0|0:0|0:0,0:0:0:0:
120,344,216874,6,0,L|112:207,1,104,0|0,3:0|0:0,0:0:0:0:
230,187,217217,1,8,0:3:0:0:
365,202,217389,1,0,0:0:0:0:
359,150,217474,1,0,0:0:0:0:
335,103,217560,1,0,0:0:0:0:
290,75,217646,1,0,0:0:0:0:
239,66,217731,1,0,0:0:0:0:
135,81,217903,1,8,0:3:0:0:
259,56,218074,1,2,0:0:0:0:
126,188,218246,6,0,L|18:188,1,104
160,149,218589,2,0,L|272:152,1,104,8|0,0:3|0:0,0:0:0:0:
141,231,218931,1,0,0:0:0:0:
75,186,219017,1,2,0:0:0:0:
80,160,219059,1,0,0:0:0:0:
94,139,219102,1,0,0:0:0:0:
116,124,219145,1,0,0:0:0:0:
141,119,219188,1,0,0:0:0:0:
214,138,219274,2,0,L|353:124,1,104,8|0,0:3|0:0,0:0:0:0:
186,286,219617,6,0,L|177:187,1,52,2|0,2:3|0:0,0:0:0:0:
365,270,219789,1,0,0:0:0:0:
413,252,219874,1,0,0:0:0:0:
443,211,219960,1,8,0:3:0:0:
443,159,220046,1,0,0:0:0:0:
415,117,220131,1,0,0:0:0:0:
363,99,220217,1,0,0:0:0:0:
214,244,220303,2,0,L|211:167,1,52,0|0,2:0|0:0,0:0:0:0:
289,186,220474,2,0,L|362:183,1,52
194,102,220646,2,0,L|118:102,2,52
442,98,220989,5,4,3:2:0:0:
248,240,221331,1,0,3:0:0:0:
217,232,221388,1,0,3:0:0:0:
203,202,221445,1,0,3:0:0:0:
215,176,221502,1,0,3:0:0:0:
246,161,221559,1,0,3:0:0:0:
429,199,221674,1,0,3:0:0:0:
502,175,221789,1,0,3:0:0:0:
429,199,221903,1,0,3:0:0:0:
247,319,222017,1,0,3:0:0:0:
244,232,222189,1,0,3:0:0:0:
476,292,222360,1,0,3:0:0:0:
