osu file format v14

[General]
AudioFilename: audio.mp3
AudioLeadIn: 0
PreviewTime: 79787
Countdown: 0
SampleSet: Soft
StackLeniency: 0.7
Mode: 2
LetterboxInBreaks: 0
WidescreenStoryboard: 1

[Editor]
Bookmarks: 24672,46615,52101,68558,123415,134387,145358,150844,156329,178272,200215,222158
DistanceSpacing: 1
BeatDivisor: 8
GridSize: 4
TimelineZoom: 1.7

[Metadata]
Title:SUMMER
TitleUnicode:SUMMER
Artist:Zekk
ArtistUnicode:Zekk
Creator:Spectator
Version:Platter
Source:osu!
Tags:electronic instrumental jemzuu ajamez -momox momox featured artist fa mappers' guild mg future bass hardcore megarex fugene trinity force
BeatmapID:2894330
BeatmapSetID:1393068

[Difficulty]
HPDrainRate:4
CircleSize:3.2
OverallDifficulty:8
ApproachRate:8
SliderMultiplier:1.9
SliderTickRate:2

[Events]
//Background and Video events
0,0,"summer.jpg",0,0
//Break Periods
2,47017,51553
2,123817,127839
2,145760,147553
//Storyboard Layer 0 (Background)
//Storyboard Layer 1 (Fail)
//Storyboard Layer 2 (Pass)
//Storyboard Layer 3 (Foreground)
//Storyboard Layer 4 (Overlay)
//Storyboard Sound Samples

[TimingPoints]
189,342.857142857143,4,2,1,65,1,0
2589,-100,4,2,5,65,0,0
2674,-100,4,2,1,65,0,0
5331,-100,4,2,1,65,0,0
5417,-100,4,2,1,65,0,0
8417,-100,4,2,5,65,0,0
8589,-100,4,2,1,65,0,0
8760,-86.9565217391304,4,2,1,65,0,0
8931,-100,4,2,1,65,0,0
13560,-100,4,2,5,65,0,0
13646,-100,4,2,1,65,0,0
13903,-100,4,2,1,75,0,0
22131,-100,4,2,1,75,0,0
22817,-100,4,2,1,75,0,0
23503,-100,4,2,5,75,0,0
23589,-100,4,2,1,75,0,0
23846,-100,4,2,1,60,0,0
24189,-100,4,2,1,75,0,0
24531,-100,4,2,1,75,0,0
24874,-100,4,2,5,80,0,0
24960,-100,4,2,1,80,0,0
25217,-100,4,2,1,80,0,0
33103,-100,4,2,1,85,0,0
35846,-100,4,2,5,90,0,0
36017,-100,4,2,1,90,0,0
46131,-100,4,2,30,75,0,0
52303,-100,4,2,1,80,0,0
56417,-100,4,2,1,80,0,0
57789,-100,4,2,1,85,0,0
62417,-100,4,2,1,85,0,0
62589,-100,4,2,5,85,0,0
62931,-100,4,2,1,85,0,0
63274,-100,4,2,1,85,0,0
64646,-100,4,2,5,85,0,0
64731,-100,4,2,1,85,0,0
66017,-100,4,2,5,85,0,0
66103,-100,4,2,1,85,0,0
67389,-100,4,2,5,85,0,0
67474,-100,4,2,1,85,0,0
68417,-100,4,3,20,85,0,0
68760,-100,4,2,4,90,0,0
74246,-100,4,2,5,90,0,0
74331,-100,4,2,4,90,0,0
78360,-100,4,2,5,90,0,0
78446,-100,4,2,4,90,0,0
78703,-100,4,2,1,90,0,0
79046,-100,4,2,1,60,0,0
79389,-100,4,2,1,80,0,0
80074,-100,4,2,2,90,0,1
80246,-100,4,2,2,90,0,0
80931,-100,4,2,2,90,0,0
81446,-100,4,2,2,90,0,0
82731,-100,4,2,2,90,0,0
82989,-100,4,2,2,90,0,0
83246,-100,4,2,2,90,0,0
83674,-100,4,2,2,90,0,0
84189,-100,4,2,2,90,0,0
84703,-100,4,2,2,90,0,0
85046,-100,4,2,2,90,0,0
85217,-100,4,2,2,90,0,0
85389,-100,4,2,2,90,0,0
85560,-100,4,2,2,90,0,0
85731,-100,4,2,2,90,0,0
87103,-100,4,2,2,90,0,0
87360,-100,4,2,2,90,0,0
87960,-100,4,2,2,90,0,0
88217,-100,4,2,2,90,0,0
88474,-100,4,2,2,90,0,0
88989,-100,4,2,2,90,0,0
89760,-100,4,2,2,90,0,0
91903,-100,4,2,2,90,0,0
92417,-100,4,2,2,90,0,0
92674,-100,4,2,2,90,0,0
92931,-100,4,2,2,90,0,0
93103,-100,4,2,2,90,0,0
93446,-100,4,2,2,90,0,0
93703,-100,4,2,2,90,0,0
93960,-100,4,2,2,90,0,0
94131,-100,4,2,2,90,0,0
94389,-100,4,2,2,90,0,0
94646,-100,4,2,2,90,0,0
94989,-100,4,2,2,90,0,0
101331,-100,4,2,2,90,0,0
101674,-100,4,2,2,90,0,1
101846,-100,4,2,2,90,0,0
105617,-100,4,2,2,90,0,0
106303,-100,4,2,2,90,0,0
108360,-100,4,2,2,90,0,0
108874,-100,4,2,2,90,0,0
109903,-100,4,2,2,90,0,0
110931,-100,4,2,2,90,0,0
112989,-100,4,2,2,90,0,0
113331,-100,4,2,2,90,0,0
120874,-100,4,2,2,90,0,0
122246,-100,4,2,2,70,0,0
123617,-100,4,2,30,70,0,0
126360,-100,4,2,1,45,0,0
127389,-100,4,2,1,55,0,0
128589,-100,4,2,1,65,0,0
129103,-100,4,2,1,65,0,0
131846,-100,4,2,1,65,0,0
133217,-100,4,2,5,65,0,0
133303,-100,4,2,1,65,0,0
134246,-100,4,3,20,65,0,0
134589,-100,4,2,4,65,0,0
139389,-100,4,2,5,65,0,0
139474,-100,4,2,4,65,0,0
140074,-100,4,2,5,65,0,0
140160,-100,4,2,1,65,0,0
141446,-100,4,2,5,65,0,0
141531,-100,4,2,1,65,0,0
142817,-100,4,2,5,65,0,0
142903,-100,4,2,1,65,0,0
144189,-100,4,2,5,65,0,0
144274,-100,4,2,1,65,0,0
145217,-100,4,3,20,75,0,0
145303,-100,4,2,1,65,0,0
145560,-100,4,2,30,65,0,0
148303,-100,4,2,1,45,0,0
148989,-100,4,2,1,50,0,0
149674,-100,4,2,1,55,0,0
150189,-100,4,2,1,60,0,0
151046,-100,4,2,4,65,0,0
153789,-100,4,2,4,70,0,0
155160,-100,4,2,1,55,0,0
156189,-100,4,2,1,70,0,0
156360,-100,4,2,1,55,0,0
156531,-100,4,2,3,95,0,1
156703,-100,4,2,3,95,0,0
165360,-100,4,2,3,95,0,0
165617,-100,4,2,3,95,0,0
166131,-100,4,2,3,95,0,0
166389,-100,4,2,3,95,0,0
170246,-100,4,2,3,95,0,0
170417,-100,4,2,3,95,0,0
176417,-100,4,2,3,95,0,0
177446,-100,4,2,3,95,0,0
177789,-100,4,2,3,95,0,0
178474,-100,4,2,3,95,0,0
178817,-100,4,2,5,95,0,1
178989,-100,4,2,3,95,0,0
189446,-100,4,2,5,95,0,0
189617,-100,4,2,3,95,0,0
197331,-100,4,2,3,95,0,0
197674,-100,4,2,3,95,0,0
198531,-100,4,2,1,85,0,0
199046,-100,4,2,2,85,0,0
200417,-100,4,2,1,80,0,0
202817,-100,4,2,1,80,0,0
202903,-100,4,2,1,80,0,0
211046,-100,4,2,5,80,0,0
211131,-100,4,2,1,80,0,0
220989,-100,4,2,5,80,0,0
221331,-100,4,2,1,55,0,0
221760,-100,4,2,1,75,0,0
222189,-100,4,2,1,65,0,0

[Colours]
Combo1 : 114,134,203
Combo2 : 199,240,102
Combo3 : 104,199,230
Combo4 : 117,186,112

[HitObjects]
196,292,1560,5,0,0:0:0:0:
288,268,1731,2,0,L|294:213,1,47.5
198,236,1989,2,0,L|204:181,1,47.5
375,367,2246,2,0,L|381:312,1,47.5
288,267,2503,1,0,0:0:0:0:
191,266,2589,1,4,0:0:0:0:
305,87,2931,6,0,L|409:78,1,95,0|0,3:0|0:0,0:0:0:0:
303,127,3274,2,0,L|292:238,1,95,0|0,3:0|0:0,0:0:0:0:
391,238,3617,2,0,L|511:257,2,95,0|0|0,3:0|0:0|3:0,0:0:0:0:
217,304,4131,6,0,P|159:300|98:171,1,190,2|0,0:0|0:0,0:0:0:0:
188,152,4646,2,0,L|308:171,1,95,0|0,3:0|0:0,0:0:0:0:
449,117,4989,2,0,L|453:177,2,47.5,0|2|0,3:0|0:0|0:0,0:0:0:0:
329,69,5331,2,0,L|438:72,1,95,0|0,3:0|0:0,0:0:0:0:
253,117,5674,6,0,L|242:236,1,95,0|0,3:0|0:0,0:0:0:0:
141,254,6017,2,0,L|261:273,1,95,0|0,3:0|0:0,0:0:0:0:
339,323,6360,2,0,L|222:306,1,95,0|0,3:0|0:0,0:0:0:0:
141,254,6703,2,0,L|261:273,2,95,0|0|0,3:0|0:0|3:0,0:0:0:0:
311,220,7217,5,2,0:0:0:0:
311,220,7389,2,0,P|299:165|160:107,1,190,2|2,3:2|3:2,0:0:0:0:
20,97,7903,1,2,0:0:0:0:
20,97,8246,1,2,0:0:0:0:
190,100,8417,6,0,L|393:76,1,190,4|8,3:2|3:0,0:0:0:0:
208,197,8931,2,0,L|204:257,2,47.5
301,160,9274,1,0,0:0:0:0:
208,197,9446,2,0,L|92:189,1,95,8|2,3:0|0:0,0:0:0:0:
285,332,9789,6,0,L|401:324,1,95,2|0,3:2|0:0,0:0:0:0:
279,264,10131,2,0,L|268:383,1,95,8|0,3:0|0:0,0:0:0:0:
444,238,10474,2,0,L|448:298,2,47.5,0|2|0,3:0|0:0|0:0,0:0:0:0:
341,143,10817,2,0,L|461:162,1,95,8|0,3:0|0:0,0:0:0:0:
261,215,11160,6,0,L|141:234,1,95,2|0,3:2|0:0,0:0:0:0:
67,268,11503,2,0,L|60:150,1,95,8|0,3:0|0:0,0:0:0:0:
168,99,11846,1,0,3:0:0:0:
236,149,12017,1,0,0:0:0:0:
258,227,12189,1,8,3:0:0:0:
232,304,12360,1,0,0:0:0:0:
158,352,12531,1,2,3:2:0:0:
330,304,12703,6,0,L|340:222,4,47.5,0|0|2|0|0,0:0|0:0|0:0|0:0|0:0,0:0:0:0:
158,276,13217,1,2,0:0:0:0:
115,255,13302,1,0,0:0:0:0:
86,218,13388,1,2,0:0:0:0:
76,172,13474,1,0,0:0:0:0:
87,127,13559,1,4,0:0:0:0:
120,91,13645,1,0,0:0:0:0:
172,72,13731,1,2,0:0:0:0:
410,152,13903,6,0,L|419:253,1,95,0|0,3:0|0:0,0:0:0:0:
313,238,14246,2,0,L|209:244,1,95,8|0,3:0|0:0,0:0:0:0:
327,330,14589,2,0,L|431:336,2,95,0|0|8,3:0|0:0|3:0,0:0:0:0:
154,335,15103,6,0,P|168:277|308:238,1,190,2|0,0:2|0:0,0:0:0:0:
390,177,15617,2,0,L|295:171,1,95,8|0,3:0|0:0,0:0:0:0:
124,172,15960,2,0,L|120:232,2,47.5,0|2|0,3:0|0:0|0:0,0:0:0:0:
227,77,16302,2,0,L|107:96,1,95,8|0,3:0|0:0,0:0:0:0:
307,134,16646,6,0,L|316:270,1,95,0|0,3:0|0:0,0:0:0:0:
205,234,16989,2,0,L|85:253,1,95,8|0,3:0|0:0,0:0:0:0:
217,243,17331,2,0,L|226:379,1,95,0|0,3:0|0:0,0:0:0:0:
115,343,17674,2,0,L|-5:362,2,95,8|0|0,3:0|0:0|3:0,0:0:0:0:
289,338,18189,5,2,0:0:0:0:
289,338,18360,2,0,P|269:278|148:224,1,190,2|2,3:2|3:2,0:0:0:0:
333,181,18874,1,2,0:0:0:0:
333,181,19217,1,2,0:0:0:0:
161,222,19389,6,0,P|98:193|178:142,1,190,0|8,3:0|3:0,0:0:0:0:
336,162,19903,2,0,L|348:100,2,47.5,0|0|0,0:0|0:0|3:0,0:0:0:0:
232,251,20246,2,0,L|347:239,1,95,0|8,0:0|3:0,0:0:0:0:
435,278,20589,1,2,0:2:0:0:
264,331,20760,6,0,L|169:340,1,95,2|0,3:2|0:0,0:0:0:0:
279,53,21103,2,0,L|287:158,1,95,8|0,3:0|0:0,0:0:0:0:
114,170,21446,2,0,L|104:216,2,47.5,0|2|0,3:0|0:0|0:0,0:0:0:0:
220,113,21789,2,0,L|125:122,1,95,8|0,3:0|0:0,0:0:0:0:
296,208,22131,1,2,3:2:0:0:
126,124,22303,5,0,0:0:0:0:
82,138,22388,1,0,0:0:0:0:
63,180,22474,1,0,0:0:0:0:
82,222,22560,1,0,0:0:0:0:
126,236,22645,1,0,0:0:0:0:
294,269,22817,1,0,0:0:0:0:
339,258,22902,1,0,0:0:0:0:
373,225,22988,1,0,0:0:0:0:
384,180,23074,1,0,0:0:0:0:
370,135,23159,1,0,0:0:0:0:
334,104,23245,1,0,0:0:0:0:
288,96,23331,1,0,0:0:0:0:
42,95,23503,5,4,3:2:0:0:
203,141,23846,2,0,L|208:281,1,126.666666666667,0|0,3:0|3:0,0:0:0:0:
135,255,24189,1,0,3:0:0:0:
67,246,24303,1,0,3:0:0:0:
135,255,24417,1,0,3:0:0:0:
263,307,24531,2,0,L|394:300,1,95,8|0,3:2|0:0,0:0:0:0:
110,336,24874,6,0,P|57:290|132:204,1,190,4|8,3:2|0:0,0:0:0:0:
282,176,25389,1,0,0:0:0:0:
379,140,25560,2,0,L|383:247,1,95,0|0,3:0|0:0,0:0:0:0:
280,278,25903,2,0,L|402:274,1,95,8|0,0:0|0:0,0:0:0:0:
203,331,26246,5,0,3:0:0:0:
114,283,26417,1,0,0:0:0:0:
115,241,26502,1,0,0:0:0:0:
115,204,26588,1,8,0:0:0:0:
217,173,26759,1,0,0:0:0:0:
388,113,26931,2,0,L|441:111,2,47.5,0|0|0,3:0|0:0|0:0,0:0:0:0:
220,86,27274,2,0,L|167:84,2,47.5,8|0|0,0:0|0:0|0:0,0:0:0:0:
389,112,27617,6,0,P|375:168|253:223,1,190,0|8,3:0|0:0,0:0:0:0:
165,207,28131,1,0,0:0:0:0:
337,256,28303,2,0,L|342:158,1,95,0|0,3:0|0:0,0:0:0:0:
231,91,28646,2,0,L|342:84,1,95,8|0,0:0|0:0,0:0:0:0:
156,241,28989,6,0,L|45:234,1,95
162,155,29331,2,0,L|51:148,1,95,8|0,0:0|0:0,0:0:0:0:
233,72,29674,2,0,L|300:65,2,47.5,0|0|0,3:0|0:0|2:0,0:0:0:0:
69,151,30017,2,0,L|59:89,4,47.5,0|0|0|0|0,0:0|0:0|0:0|0:0|3:0,0:0:0:0:
315,264,30703,6,0,L|415:284,1,95,8|0,0:0|0:0,0:0:0:0:
242,274,31046,2,0,P|167:256|119:149,1,190,0|8,3:0|0:0,0:0:0:0:
216,127,31560,1,0,0:0:0:0:
386,167,31731,6,0,P|446:142|362:86,1,190,0|8,3:0|0:0,0:0:0:0:
281,49,32246,1,0,0:0:0:0:
111,94,32417,1,0,3:0:0:0:
110,141,32503,1,0,0:0:0:0:
109,188,32589,1,0,0:0:0:0:
214,194,32760,1,8,0:0:0:0:
166,194,32846,1,0,0:0:0:0:
118,195,32931,1,0,0:0:0:0:
288,266,33103,6,0,P|358:254|411:144,1,190,0|8,3:0|0:0,0:0:0:0:
316,127,33617,1,0,0:0:0:0:
146,61,33789,2,0,L|141:174,1,95,0|0,3:0|0:0,0:0:0:0:
249,36,34131,2,0,L|386:42,1,95,8|0,0:0|0:0,0:0:0:0:
172,245,34474,6,0,L|35:251,1,95,0|0,3:0|0:0,0:0:0:0:
183,338,34817,2,0,L|46:344,1,95,8|0,0:0|0:0,0:0:0:0:
261,278,35160,2,0,L|385:287,1,95,0|0,3:0|0:0,0:0:0:0:
180,196,35503,1,2,0:0:0:0:
180,196,35674,1,2,0:0:0:0:
432,128,35846,6,0,L|440:332,1,190,4|8,3:2|0:0,0:0:0:0:
328,290,36360,1,0,0:0:0:0:
170,194,36531,2,0,L|63:205,1,95,0|0,3:0|0:0,0:0:0:0:
187,108,36874,2,0,L|294:119,1,95,8|0,0:0|0:0,0:0:0:0:
456,178,37217,6,0,L|463:299,1,95,0|0,3:0|0:0,0:0:0:0:
352,341,37560,2,0,L|459:352,1,95,8|0,0:0|0:0,0:0:0:0:
273,266,37903,1,0,3:0:0:0:
225,271,37989,1,0,0:0:0:0:
178,276,38074,1,0,0:0:0:0:
285,170,38246,1,8,0:0:0:0:
333,175,38332,1,0,0:0:0:0:
380,180,38417,1,0,0:0:0:0:
208,211,38589,6,0,P|134:192|80:89,1,190,0|8,3:0|0:0,0:0:0:0:
182,73,39103,1,0,0:0:0:0:
356,149,39274,2,0,P|417:127|346:62,1,190,0|8,3:0|0:0,0:0:0:0:
252,48,39789,1,0,0:0:0:0:
78,207,39960,6,0,L|291:182,1,190,0|8,3:0|0:0,0:0:0:0:
165,157,40474,1,0,0:0:0:0:
338,109,40646,1,0,3:0:0:0:
388,121,40731,1,0,0:0:0:0:
338,109,40817,1,0,0:0:0:0:
164,240,40989,1,0,0:0:0:0:
118,214,41074,1,0,0:0:0:0:
98,165,41160,1,0,0:0:0:0:
118,117,41246,1,0,0:0:0:0:
165,96,41331,1,0,3:0:0:0:
406,244,41503,6,0,L|500:254,2,95,0|8|0,0:0|0:0|0:0,0:0:0:0:
233,267,42017,2,0,P|242:206|381:161,1,190,0|8,3:0|0:0,0:0:0:0:
449,173,42531,1,0,0:0:0:0:
275,208,42703,6,0,P|222:173|309:94,1,190,0|8,3:0|0:0,0:0:0:0:
378,112,43217,1,0,0:0:0:0:
208,153,43389,1,0,3:0:0:0:
161,160,43474,1,0,2:0:0:0:
114,168,43560,1,0,0:0:0:0:
215,43,43731,1,8,0:0:0:0:
168,50,43816,1,0,0:0:0:0:
121,58,43902,1,0,0:0:0:0:
288,299,44074,6,0,P|346:270|267:202,1,190,0|2,3:0|0:0,0:0:0:0:
176,115,44589,1,0,0:0:0:0:
223,108,44674,1,0,0:0:0:0:
270,101,44760,1,2,0:0:0:0:
441,183,44931,1,2,0:0:0:0:
441,183,45103,1,2,0:0:0:0:
441,183,45274,1,2,0:0:0:0:
184,312,45446,5,0,0:0:0:0:
188,207,45789,2,0,L|347:207,1,126.666666666667
252,194,46131,1,0,3:0:0:0:
189,182,46246,1,0,3:0:0:0:
251,194,46360,1,0,3:0:0:0:
313,206,46474,1,0,3:0:0:0:
408,120,46646,1,0,3:0:0:0:
138,89,46817,1,4,0:0:0:0:
280,113,52303,6,0,L|346:125,1,47.5
421,212,52560,2,0,L|355:224,1,47.5
205,214,52817,2,0,L|205:282,1,47.5
310,272,53074,2,0,L|376:284,1,47.5
189,345,53331,2,0,L|123:357,1,47.5
295,254,53674,6,0,P|281:199|167:139,1,190,0|2,0:0|0:0,0:0:0:0:
59,126,54189,2,0,L|284:90,1,190,0|2,0:0|0:0,0:0:0:0:
153,76,54703,1,0,0:0:0:0:
449,165,55046,6,0,L|451:237,1,47.5
346,259,55303,2,0,L|274:258,1,47.5
129,155,55560,2,0,L|176:155,1,47.5
280,109,55817,2,0,L|278:61,1,47.5
175,103,56074,2,0,L|173:55,1,47.5
418,191,56417,6,0,L|422:287,1,95,4|0,0:0|0:0,0:0:0:0:
315,268,56760,2,0,L|185:275,1,95
393,207,57103,1,0,3:0:0:0:
393,207,57274,1,8,3:2:0:0:
150,137,57446,1,0,3:0:0:0:
52,288,57789,6,0,P|64:232|192:180,1,190,4|0,0:0|0:0,0:0:0:0:
281,176,58303,2,0,P|269:120|141:68,1,190,0|0,3:0|0:0,0:0:0:0:
49,136,58817,2,0,L|43:10,1,95,0|0,3:0|0:0,0:0:0:0:
213,238,59160,6,0,P|267:204|203:120,1,190,0|0,3:0|0:0,0:0:0:0:
115,107,59674,1,0,3:0:0:0:
287,90,59846,1,0,0:0:0:0:
378,114,60017,1,0,0:0:0:0:
285,90,60189,1,0,3:2:0:0:
193,66,60360,1,0,0:0:0:0:
25,185,60531,6,0,P|41:127|182:76,1,190,0|0,3:0|0:0,0:0:0:0:
259,184,61046,2,0,P|243:126|102:75,1,190,0|0,3:0|0:0,0:0:0:0:
228,54,61560,1,0,3:0:0:0:
321,39,61731,1,0,0:0:0:0:
83,214,61903,5,8,2:3:0:0:
7,181,62074,1,2,0:0:0:0:
7,181,62246,1,8,2:3:0:0:
83,214,62417,1,2,0:0:0:0:
330,166,62589,1,4,0:0:0:0:
451,288,63274,6,0,P|438:232|321:170,1,190,8|8,3:0|3:0,0:0:0:0:
236,147,63789,1,0,0:0:0:0:
406,66,63960,2,0,L|420:136,2,47.5,8|0|0,3:0|0:0|0:0,0:0:0:0:
296,67,64303,2,0,L|419:79,1,95,8|0,2:3|3:0,0:0:0:0:
219,199,64646,6,0,L|96:211,1,95,4|0,0:2|0:0,0:0:0:0:
235,278,64989,2,0,L|242:162,1,95,8|0,0:3|0:0,0:0:0:0:
130,109,65331,2,0,L|7:121,1,95,8|0,0:3|0:0,0:0:0:0:
207,162,65674,1,8,0:3:0:0:
253,171,65760,1,0,0:0:0:0:
299,180,65846,1,0,0:0:0:0:
128,270,66017,5,4,0:2:0:0:
84,255,66102,1,0,0:0:0:0:
65,213,66188,1,0,0:0:0:0:
84,171,66274,1,0,0:0:0:0:
128,158,66359,1,8,0:3:0:0:
217,190,66531,1,0,0:0:0:0:
306,223,66703,1,8,0:3:0:0:
66,279,66960,1,0,3:0:0:0:
66,279,67217,1,0,3:0:0:0:
304,278,67389,1,4,3:2:0:0:
429,201,68074,6,0,L|435:82,1,95
332,92,68417,1,0,0:0:0:0:
44,253,68760,6,0,L|37:134,1,95,12|0,0:0|0:0,0:0:0:0:
136,121,69103,1,2,0:0:0:0:
306,91,69274,2,0,L|195:82,2,95,8|0|2,0:0|0:0|0:0,0:0:0:0:
478,187,69789,2,0,L|367:178,1,95,8|2,0:0|0:0,0:0:0:0:
214,268,70131,6,0,L|203:151,1,95,8|0,0:0|0:0,0:0:0:0:
312,102,70474,2,0,L|201:93,1,95,2|8,0:0|0:0,0:0:0:0:
389,353,70817,2,0,L|400:236,1,95,8|2,0:0|0:0,0:0:0:0:
291,187,71160,2,0,L|402:178,1,95,8|10,0:0|0:0,0:0:0:0:
216,102,71503,6,0,L|105:93,2,95,8|0|2,0:0|0:0|0:0,0:0:0:0:
386,204,72017,2,0,L|393:85,1,95,8|0,0:0|0:0,0:0:0:0:
294,72,72360,1,2,0:0:0:0:
123,94,72531,2,0,L|217:101,1,95,8|2,0:0|0:0,0:0:0:0:
391,192,72874,6,0,L|296:199,1,95,8|2,0:0|0:0,0:0:0:0:
404,382,73217,2,0,L|411:263,1,95,8|0,0:0|0:0,0:0:0:0:
153,288,73560,1,10,0:0:0:0:
34,185,73903,1,10,0:0:0:0:
135,153,74074,1,0,0:0:0:0:
383,203,74246,6,0,L|496:214,2,95,4|0|2,2:2|0:0|0:0,0:0:0:0:
216,120,74760,2,0,L|121:127,2,95,8|0|2,0:0|0:0|0:0,0:0:0:0:
388,48,75274,2,0,L|396:160,1,95,8|2,0:0|0:0,0:0:0:0:
223,196,75617,6,0,L|128:203,1,95,8|0,0:0|0:0,0:0:0:0:
174,213,75874,1,0,0:0:0:0:
220,221,75960,1,10,0:0:0:0:
319,243,76131,1,8,0:0:0:0:
159,340,76303,2,0,P|109:316|184:232,1,190,8|8,0:0|0:0,0:0:0:0:
261,235,76817,1,8,0:0:0:0:
428,272,76989,5,8,0:0:0:0:
472,256,77074,1,8,0:0:0:0:
504,222,77160,1,8,0:0:0:0:
512,176,77246,1,8,0:0:0:0:
504,131,77331,1,8,0:0:0:0:
473,96,77417,1,8,0:0:0:0:
429,80,77503,1,8,0:0:0:0:
256,159,77674,1,8,0:0:0:0:
153,181,77846,1,8,0:0:0:0:
254,159,78017,1,8,0:0:0:0:
356,137,78189,1,8,0:0:0:0:
119,317,78360,6,0,P|56:287|134:232,1,190,4|0,0:0|0:0,0:0:0:0:
166,198,78789,1,0,0:0:0:0:
187,151,78874,1,0,0:0:0:0:
164,103,78960,1,0,0:0:0:0:
115,83,79046,1,0,3:0:0:0:
11,71,79217,1,0,3:0:0:0:
258,70,79389,1,4,3:2:0:0:
376,139,79731,2,0,L|381:253,1,95,0|0,3:0|0:0,0:0:0:0:
128,284,80074,6,0,L|124:163,1,95,4|0,3:2|0:0,0:0:0:0:
297,192,80417,2,0,L|426:189,2,95,8|0|0,3:0|0:0|0:0,0:0:0:0:
56,281,80931,6,0,P|65:223|186:164,1,190,0|8,3:0|3:0,0:0:0:0:
273,126,81446,1,0,3:0:0:0:
102,68,81617,2,0,L|99:16,1,47.5,0|0,0:0|3:0,0:0:0:0:
203,62,81874,2,0,L|272:58,1,47.5,0|0,0:0|3:0,0:0:0:0:
422,137,82131,2,0,L|295:141,1,95,8|0,3:0|0:0,0:0:0:0:
58,288,82474,5,0,3:2:0:0:
187,206,82731,1,0,3:0:0:0:
58,288,82989,1,0,3:0:0:0:
230,277,83160,2,0,L|351:290,2,95,8|0|0,3:0|0:0|0:0,0:0:0:0:
470,242,83674,6,0,P|466:182|351:121,1,190,0|0,3:0|0:0,0:0:0:0:
259,123,84189,2,0,L|386:107,1,95
189,227,84531,2,0,L|182:104,1,95,8|0,3:0|3:0,0:0:0:0:
290,109,84874,2,0,L|167:127,1,95,0|0,3:3|0:0,0:0:0:0:
368,193,85217,2,0,L|491:211,1,95,0|0,3:0|0:0,0:0:0:0:
211,286,85560,6,0,P|149:272|89:167,1,190,4|8,3:2|3:0,0:0:0:0:
236,140,86160,1,0,3:0:0:0:
477,261,86417,6,0,L|474:56,1,190,0|8,3:0|3:0,0:0:0:0:
364,120,86931,2,0,L|304:112,1,47.5,0|0,3:0|0:0,0:0:0:0:
145,232,87189,2,0,L|306:215,1,142.5,0|0,3:0|3:0,0:0:0:0:
391,175,87617,2,0,L|267:161,1,95,8|0,3:0|0:0,0:0:0:0:
125,187,87960,5,0,3:0:0:0:
125,187,88217,1,0,3:0:0:0:
263,156,88474,1,0,3:0:0:0:
25,119,88646,1,8,3:0:0:0:
25,119,88817,1,0,0:0:0:0:
263,156,88989,6,0,L|448:180,3,142.5,0|0|0|0,3:0|3:0|3:0|3:0,0:0:0:0:
161,258,90017,1,8,3:0:0:0:
161,333,90189,1,0,0:0:0:0:
331,262,90360,2,0,L|452:273,1,95,2|2,0:0|0:0,0:0:0:0:
185,198,90703,6,0,P|122:187|64:72,1,190,0|4,3:0|3:2,0:0:0:0:
163,59,91217,1,0,0:0:0:0:
331,144,91389,2,0,L|512:121,1,142.5,8|0,3:0|3:0,0:0:0:0:
151,320,91903,6,0,P|89:284|170:232,1,190,0|8,3:0|3:0,0:0:0:0:
325,167,92417,1,0,3:0:0:0:
325,167,92503,1,0,0:0:0:0:
235,240,92674,2,0,L|410:224,1,142.5,0|0,3:0|3:0,0:0:0:0:
203,330,93103,2,0,L|90:318,1,95,8|0,3:0|0:0,0:0:0:0:
367,132,93446,5,4,3:2:0:0:
239,92,93703,1,0,3:0:0:0:
367,132,93960,1,0,3:0:0:0:
120,168,94131,1,8,3:0:0:0:
120,168,94389,1,0,3:0:0:0:
342,228,94646,6,0,P|328:176|187:113,1,190,0|8,3:0|3:0,0:0:0:0:
44,192,95160,2,0,L|36:88,1,95,0|0,3:0|3:0,0:0:0:0:
208,224,95503,2,0,L|303:214,1,95
192,132,95846,2,0,L|97:122,1,95,0|0,2:1|0:0,0:0:0:0:
337,311,96189,6,0,P|403:274|325:224,1,190,4|0,3:2|0:0,0:0:0:0:
237,188,96703,1,0,0:0:0:0:
68,236,96874,2,0,L|62:140,1,95,8|0,3:0|0:0,0:0:0:0:
173,119,97217,2,0,L|51:111,1,95,0|0,0:0|3:0,0:0:0:0:
319,207,97560,5,0,3:0:0:0:
426,167,97731,2,0,P|412:119|282:53,1,190
188,48,98246,1,8,3:0:0:0:
442,47,98503,1,8,3:0:0:0:
442,47,98760,1,0,0:0:0:0:
200,155,98931,6,0,L|29:189,2,142.5,0|0|0,3:0|3:0|3:0,0:0:0:0:
373,213,99617,2,0,L|377:329,1,95,8|0,3:0|3:0,0:0:0:0:
204,302,99960,6,0,L|33:336,3,142.5,0|0|0|0,3:0|3:0|3:0|3:0,0:0:0:0:
308,188,100989,1,8,3:0:0:0:
308,188,101160,1,0,0:0:0:0:
202,148,101331,1,0,0:0:0:0:
155,157,101416,1,0,0:0:0:0:
108,167,101502,1,0,0:0:0:0:
361,297,101674,6,0,P|415:276|343:203,1,190,4|0,3:2|0:0,0:0:0:0:
257,163,102189,1,0,0:0:0:0:
87,172,102360,2,0,L|236:153,1,142.5,8|0,3:0|0:0,0:0:0:0:
475,228,102874,6,0,L|326:209,1,142.5,0|0,3:0|0:0,0:0:0:0:
93,333,103389,2,0,L|218:318,1,95,0|0,3:0|0:0,0:0:0:0:
345,132,103731,2,0,L|351:236,1,95,8|0,3:0|0:0,0:0:0:0:
246,244,104074,2,0,L|371:229,1,95
168,304,104417,5,0,3:0:0:0:
294,251,104674,1,0,3:0:0:0:
168,304,104931,1,0,3:0:0:0:
426,207,105103,1,8,3:0:0:0:
468,189,105188,1,0,0:0:0:0:
486,146,105274,1,0,0:0:0:0:
467,104,105360,1,0,0:0:0:0:
423,88,105445,1,0,0:0:0:0:
253,103,105617,6,0,L|100:122,1,142.5,0|0,3:0|0:0,0:0:0:0:
351,172,106131,2,0,L|359:272,1,95,0|0,3:0|0:0,0:0:0:0:
184,311,106474,1,8,3:0:0:0:
123,300,106560,2,0,P|81:268|142:209,1,142.5
175,199,106903,1,0,0:0:0:0:
226,192,106989,1,0,0:0:0:0:
462,227,107160,6,0,P|451:173|321:98,1,190,4|0,3:2|0:0,0:0:0:0:
447,68,107674,1,0,0:0:0:0:
277,64,107846,2,0,L|97:54,1,142.5,0|0,3:0|0:0,0:0:0:0:
381,182,108360,6,0,L|388:340,1,142.5,0|0,3:0|0:0,0:0:0:0:
137,264,108874,2,0,L|35:273,1,95,0|0,3:0|0:0,0:0:0:0:
208,328,109217,1,8,3:0:0:0:
252,311,109302,1,0,0:0:0:0:
282,276,109388,1,0,0:0:0:0:
292,230,109474,1,0,0:0:0:0:
278,185,109559,1,0,0:0:0:0:
245,152,109645,1,0,0:0:0:0:
199,140,109731,1,0,0:0:0:0:
454,65,109903,6,0,L|459:248,1,142.5,0|0,3:0|0:0,0:0:0:0:
348,203,110331,2,0,L|262:203,1,47.5,0|0,0:0|3:0,0:0:0:0:
126,281,110589,2,0,L|260:282,1,95,8|0,3:3|0:0,0:0:0:0:
464,124,110931,6,0,L|469:307,1,142.5,0|0,3:0|0:0,0:0:0:0:
227,157,111446,2,0,L|70:167,1,142.5,0|0,3:0|0:0,0:0:0:0:
324,216,111960,1,2,0:0:0:0:
412,196,112131,1,2,0:0:0:0:
412,196,112303,1,2,0:0:0:0:
324,216,112474,1,2,0:0:0:0:
76,228,112646,6,0,P|21:187|111:110,1,190,4|0,3:2|0:0,0:0:0:0:
320,153,113246,1,0,0:0:0:0:
365,163,113331,1,8,3:0:0:0:
463,192,113503,2,0,L|345:209,1,95
194,265,113846,6,0,L|191:98,1,142.5,0|0,3:0|0:0,0:0:0:0:
432,103,114360,2,0,L|435:205,1,95,0|0,3:0|0:0,0:0:0:0:
339,207,114703,2,0,L|464:225,1,95,8|0,3:0|0:0,0:0:0:0:
261,326,115046,2,0,L|136:344,1,95
434,154,115389,5,0,3:0:0:0:
301,120,115646,1,0,3:0:0:0:
434,154,115903,1,0,3:0:0:0:
184,208,116074,1,8,3:0:0:0:
184,208,116331,1,2,2:0:0:0:
426,292,116589,6,0,P|416:232|290:180,1,190,0|0,3:2|0:0,0:0:0:0:
202,206,117103,2,0,L|197:112,1,95,0|0,3:0|0:0,0:0:0:0:
368,108,117446,2,0,L|438:116,1,47.5,8|0,3:0|0:0,0:0:0:0:
300,207,117789,2,0,L|179:221,1,95
455,309,118131,6,0,P|445:258|323:192,1,190,0|0,3:0|3:0,0:0:0:0:
240,170,118646,1,0,0:0:0:0:
69,131,118817,2,0,L|243:107,2,142.5,0|0|0,3:0|3:0|3:0,0:0:0:0:
240,216,119503,6,0,P|303:184|232:124,1,190,0|0,3:0|3:0,0:0:0:0:
146,95,120017,1,0,0:0:0:0:
318,77,120189,1,0,3:0:0:0:
329,171,120360,1,0,0:0:0:0:
74,315,120531,1,0,0:0:0:0:
161,290,120703,1,0,3:0:0:0:
416,300,120874,6,0,L|425:153,1,142.5,0|0,3:0|0:0,0:0:0:0:
281,107,121389,1,0,0:0:0:0:
110,199,121560,2,0,L|270:178,2,142.5,0|0|0,3:0|3:0|3:0,0:0:0:0:
350,298,122246,6,0,L|456:286,1,95,0|0,3:0|0:0,0:0:0:0:
332,258,122589,2,0,L|326:147,1,95,2|0,0:0|0:0,0:0:0:0:
439,121,122931,1,2,0:0:0:0:
391,116,123017,1,0,0:0:0:0:
343,112,123103,1,0,0:0:0:0:
173,191,123274,2,0,L|167:80,1,95,2|0,2:3|0:0,0:0:0:0:
421,47,123617,1,4,0:2:0:0:
323,143,128589,6,0,L|449:166,2,95,2|2|2,0:0|0:0|0:0,0:0:0:0:
153,216,129103,6,0,P|96:203|25:84,1,190,2|0,0:0|0:0,0:0:0:0:
119,83,129617,1,0,0:0:0:0:
213,67,129789,2,0,L|79:52,2,95
442,131,130474,6,0,L|448:345,1,190,2|0,0:0|0:0,0:0:0:0:
353,299,130989,1,0,0:0:0:0:
262,276,131160,2,0,P|284:216|422:174,1,190,2|2,0:0|0:0,0:0:0:0:
157,290,131846,5,2,0:0:0:0:
77,237,132017,1,0,0:0:0:0:
50,145,132189,1,2,0:0:0:0:
83,56,132360,1,2,0:0:0:0:
174,29,132531,2,0,P|232:58|163:137,1,190,2|2,0:0|0:0,0:0:0:0:
73,151,133046,1,2,0:0:0:0:
244,216,133217,6,0,L|363:211,1,95,4|0,2:0|2:0,0:0:0:0:
459,154,133560,1,0,2:0:0:0:
412,144,133646,1,0,2:0:0:0:
365,135,133731,1,0,2:0:0:0:
193,189,133903,1,0,3:0:0:0:
193,87,134074,1,0,3:0:0:0:
448,49,134246,1,0,3:0:0:0:
271,308,134589,6,0,P|214:289|148:174,1,190,4|8,0:0|0:0,0:0:0:0:
240,159,135103,1,0,0:0:0:0:
408,106,135274,2,0,L|411:223,1,95,8|0,0:0|0:0,0:0:0:0:
302,232,135617,2,0,L|434:230,1,95,8|0,0:0|0:0,0:0:0:0:
228,329,135960,6,0,P|178:297|249:202,1,190,8|8,0:0|0:0,0:0:0:0:
321,188,136474,1,0,0:0:0:0:
150,156,136646,1,8,0:0:0:0:
57,174,136817,1,0,0:0:0:0:
150,156,136989,1,8,0:0:0:0:
243,138,137160,1,0,0:0:0:0:
412,131,137331,6,0,P|373:215|289:256,1,190,8|8,0:0|0:0,0:0:0:0:
195,236,137846,1,0,0:0:0:0:
363,141,138017,1,8,0:0:0:0:
409,149,138103,1,0,0:0:0:0:
455,158,138189,1,0,0:0:0:0:
356,239,138360,2,0,L|237:258,1,95,8|0,0:0|0:0,0:0:0:0:
23,281,138703,5,0,0:0:0:0:
22,186,138874,1,2,0:0:0:0:
193,195,139046,1,8,0:0:0:0:
285,174,139217,1,2,0:0:0:0:
40,102,139389,1,4,0:2:0:0:
247,303,140074,6,0,P|316:283|375:157,1,190,4|8,0:2|0:3,0:0:0:0:
280,175,140589,1,0,0:0:0:0:
111,139,140760,1,0,0:0:0:0:
157,128,140846,1,0,0:0:0:0:
202,117,140931,1,0,0:0:0:0:
313,82,141103,2,0,L|319:210,1,95,8|2,0:3|0:0,0:0:0:0:
149,263,141446,6,0,L|32:254,1,95,4|2,0:2|0:0,0:0:0:0:
160,182,141789,2,0,L|272:189,2,95,8|2|8,0:3|0:0|0:3,0:0:0:0:
49,117,142303,1,2,0:0:0:0:
219,91,142474,1,8,0:3:0:0:
266,97,142560,1,0,0:0:0:0:
313,103,142646,1,0,3:0:0:0:
142,334,142817,5,4,2:2:0:0:
58,288,142989,1,2,0:0:0:0:
23,199,143160,1,8,0:3:0:0:
49,117,143331,1,2,0:0:0:0:
135,77,143503,1,8,0:3:0:0:
374,128,143760,1,0,0:0:0:0:
374,128,144017,1,0,0:0:0:0:
116,163,144189,1,4,3:2:0:0:
250,208,144874,6,0,L|242:88,1,95,8|8,3:0|3:0,0:0:0:0:
130,64,145217,1,0,0:0:0:0:
439,56,145560,1,4,0:0:0:0:
256,192,148303,12,0,150703,0:0:0:0:
444,283,151046,6,0,L|451:180,1,95,4|0,0:0|0:0,0:0:0:0:
355,178,151389,1,8,0:2:0:0:
188,194,151560,2,0,L|72:205,2,95,0|8|0,0:0|0:0|0:0,0:0:0:0:
360,76,152074,2,0,L|244:87,1,95,8|0,0:2|0:0,0:0:0:0:
93,200,152417,6,0,L|89:93,1,95,8|0,0:0|0:0,0:0:0:0:
136,101,152674,1,0,0:0:0:0:
183,97,152760,1,8,0:0:0:0:
281,88,152931,1,0,0:0:0:0:
117,294,153103,2,0,P|60:255|136:182,1,190,8|8,0:0|0:0,0:0:0:0:
225,207,153617,1,0,0:0:0:0:
397,246,153789,5,8,0:0:0:0:
392,198,153874,1,8,0:0:0:0:
375,154,153960,1,8,0:0:0:0:
347,116,154046,1,8,0:0:0:0:
311,86,154131,1,8,0:0:0:0:
267,67,154217,1,8,0:0:0:0:
221,60,154303,1,8,0:0:0:0:
52,112,154474,1,8,0:0:0:0:
140,140,154646,1,8,0:0:0:0:
232,148,154817,1,8,0:0:0:0:
141,178,154989,1,8,0:0:0:0:
312,232,155160,5,8,3:0:0:0:
398,155,155331,2,0,L|336:147,1,47.5,0|0,3:0|3:0,0:0:0:0:
243,165,155589,2,0,L|181:157,1,47.5,0|0,3:0|3:0,0:0:0:0:
368,220,155846,1,0,3:0:0:0:
376,312,156017,1,0,3:0:0:0:
108,332,156189,1,4,3:2:0:0:
260,140,156531,6,0,L|269:267,1,95,4|2,3:2|0:0,0:0:0:0:
156,219,156874,1,0,3:0:0:0:
108,212,156959,1,0,0:0:0:0:
61,206,157045,1,2,0:0:0:0:
233,347,157217,2,0,L|365:331,1,95,0|2,3:0|0:0,0:0:0:0:
219,269,157560,2,0,L|87:253,1,95,0|2,3:0|0:0,0:0:0:0:
297,143,157903,6,0,L|303:275,1,95,0|2,3:0|0:0,0:0:0:0:
191,238,158246,1,0,0:0:0:0:
144,234,158331,1,0,0:0:0:0:
97,231,158417,1,2,0:0:0:0:
335,333,158589,1,0,0:0:0:0:
436,357,158760,1,2,0:0:0:0:
479,342,158845,1,0,0:0:0:0:
498,300,158931,1,0,3:0:0:0:
480,257,159017,1,0,0:0:0:0:
437,241,159102,1,0,0:0:0:0:
202,242,159274,6,0,L|190:123,1,95,0|2,3:0|0:0,0:0:0:0:
298,170,159617,1,0,0:0:0:0:
345,165,159702,1,0,0:0:0:0:
392,161,159788,1,2,0:0:0:0:
221,367,159960,2,0,L|209:248,1,95,0|2,3:0|0:0,0:0:0:0:
323,259,160303,2,0,L|195:251,1,95,0|2,3:0|0:0,0:0:0:0:
57,274,160646,5,0,3:0:0:0:
152,267,160817,1,2,0:0:0:0:
146,220,160902,1,0,0:0:0:0:
120,180,160988,1,0,3:0:0:0:
81,154,161074,1,0,0:0:0:0:
34,147,161159,1,2,0:0:0:0:
288,184,161331,1,0,0:0:0:0:
391,220,161503,1,0,0:0:0:0:
432,199,161588,1,0,0:0:0:0:
449,156,161674,1,0,3:0:0:0:
431,113,161760,1,0,0:0:0:0:
389,95,161845,1,0,0:0:0:0:
144,136,162017,6,0,L|28:132,1,95,0|2,3:0|0:0,0:0:0:0:
156,168,162360,2,0,L|275:174,1,95,0|2,3:0|0:0,0:0:0:0:
78,243,162703,2,0,L|76:358,1,95,0|2,3:0|0:0,0:0:0:0:
186,293,163046,2,0,L|305:299,1,95,0|2,3:0|0:0,0:0:0:0:
32,236,163389,6,0,L|24:120,1,95,0|2,3:0|0:0,0:0:0:0:
136,116,163731,1,0,0:0:0:0:
88,112,163816,1,0,0:0:0:0:
41,109,163902,1,2,0:0:0:0:
213,277,164074,1,0,3:0:0:0:
255,257,164159,1,0,0:0:0:0:
286,221,164245,1,2,0:0:0:0:
296,175,164331,1,0,0:0:0:0:
286,129,164416,1,0,3:0:0:0:
257,93,164502,1,0,0:0:0:0:
214,73,164588,1,2,0:0:0:0:
44,194,164760,6,0,L|160:171,1,95,0|2,3:0|0:0,0:0:0:0:
252,112,165103,2,0,L|136:96,1,95,0|2,3:0|0:0,0:0:0:0:
404,184,165446,2,0,L|410:298,1,95,0|2,0:0|0:0,0:0:0:0:
300,294,165789,2,0,L|394:306,1,95,0|2,3:0|0:0,0:0:0:0:
124,335,166131,6,0,L|116:208,1,95,0|2,3:0|0:0,0:0:0:0:
230,199,166474,2,0,L|136:187,1,95,0|2,3:0|0:0,0:0:0:0:
307,91,166817,2,0,L|401:79,1,95,0|0,3:0|0:0,0:0:0:0:
227,114,167160,1,2,2:0:0:0:
227,114,167331,1,2,0:0:0:0:
468,156,167503,6,0,L|476:276,1,95,4|2,3:2|0:0,0:0:0:0:
368,232,167846,1,0,0:0:0:0:
320,236,167931,1,0,0:0:0:0:
273,240,168017,1,2,0:0:0:0:
100,324,168189,2,0,L|94:206,1,95,0|2,3:0|0:0,0:0:0:0:
206,185,168531,2,0,L|93:178,1,95,0|2,3:0|0:0,0:0:0:0:
284,184,168874,6,0,L|397:177,1,95,0|2,3:0|0:0,0:0:0:0:
276,156,169217,1,0,0:0:0:0:
278,109,169302,1,0,0:0:0:0:
303,68,169388,1,2,0:0:0:0:
343,45,169474,1,0,0:0:0:0:
390,43,169559,1,0,0:0:0:0:
218,316,169731,1,2,0:0:0:0:
174,300,169816,1,0,0:0:0:0:
157,257,169902,1,0,3:0:0:0:
177,215,169988,1,0,0:0:0:0:
221,203,170073,1,2,0:0:0:0:
467,123,170246,6,0,L|474:280,1,142.5,0|0,3:0|0:0,0:0:0:0:
365,238,170674,2,0,L|312:243,1,47.5,0|2,0:0|0:0,0:0:0:0:
148,179,170931,1,0,3:0:0:0:
242,167,171103,1,2,0:0:0:0:
336,156,171274,1,0,3:0:0:0:
242,167,171446,1,2,0:0:0:0:
71,242,171617,6,0,L|68:130,1,95,0|2,3:0|0:0,0:0:0:0:
178,106,171960,1,0,3:0:0:0:
130,102,172045,1,0,0:0:0:0:
83,99,172131,1,2,0:0:0:0:
256,207,172303,2,0,L|338:198,2,47.5,0|0|2,3:0|0:0|0:0,0:0:0:0:
145,235,172646,1,0,0:0:0:0:
142,188,172731,1,0,0:0:0:0:
140,137,172817,1,0,0:0:0:0:
383,244,172989,6,0,L|482:235,1,95,0|2,3:0|0:0,0:0:0:0:
370,175,173331,2,0,L|271:166,1,95,0|2,0:0|0:0,0:0:0:0:
116,304,173674,2,0,L|110:195,1,95,0|2,3:0|0:0,0:0:0:0:
200,177,174017,1,0,3:0:0:0:
369,164,174189,1,2,0:0:0:0:
200,177,174360,6,0,L|105:184,1,95,0|2,3:0|0:0,0:0:0:0:
346,277,174703,2,0,L|353:165,1,95,0|2,0:0|0:0,0:0:0:0:
242,157,175046,2,0,L|357:146,1,95,0|2,3:0|0:0,0:0:0:0:
93,216,175389,1,0,3:0:0:0:
48,204,175474,1,0,0:0:0:0:
29,163,175560,1,2,0:0:0:0:
50,122,175646,1,0,0:0:0:0:
94,113,175731,1,0,3:0:0:0:
258,119,175903,5,0,0:0:0:0:
258,119,176246,1,0,0:0:0:0:
132,271,176417,1,0,0:0:0:0:
143,224,176502,1,0,0:0:0:0:
165,183,176588,1,0,0:0:0:0:
197,148,176674,1,0,0:0:0:0:
236,121,176759,1,0,0:0:0:0:
281,106,176845,1,0,0:0:0:0:
328,102,176931,1,0,0:0:0:0:
162,231,177103,6,0,P|102:192|172:123,1,190,0|0,0:0|2:0,0:0:0:0:
301,135,177674,1,0,2:0:0:0:
238,124,177789,1,0,3:0:0:0:
175,113,177903,1,0,3:0:0:0:
237,124,178017,1,0,3:0:0:0:
364,180,178131,1,0,3:0:0:0:
461,152,178303,1,0,3:0:0:0:
364,180,178474,1,0,3:0:0:0:
117,225,178817,6,0,L|21:207,1,95,4|0,3:2|0:0,0:0:0:0:
76,203,179074,1,0,0:0:0:0:
123,199,179160,1,0,3:0:0:0:
225,191,179331,1,0,0:0:0:0:
392,132,179503,2,0,L|496:152,1,95,0|0,3:0|0:0,0:0:0:0:
317,298,179846,5,0,3:0:0:0:
273,281,179931,1,0,0:0:0:0:
255,239,180017,1,0,0:0:0:0:
274,197,180103,1,0,0:0:0:0:
318,182,180188,1,0,3:0:0:0:
416,195,180360,1,0,0:0:0:0:
245,79,180531,1,0,3:0:0:0:
197,85,180617,1,0,0:0:0:0:
149,91,180703,1,0,0:0:0:0:
252,162,180874,2,0,L|335:170,2,47.5,0|0|0,3:0|0:0|0:0,0:0:0:0:
80,311,181217,6,0,L|70:148,1,142.5,0|0,3:0|0:0,0:0:0:0:
205,197,181731,1,0,0:0:0:0:
375,257,181903,1,0,3:0:0:0:
418,240,181988,1,0,0:0:0:0:
449,204,182074,1,0,0:0:0:0:
459,159,182160,1,0,0:0:0:0:
447,113,182245,1,0,3:0:0:0:
414,80,182331,1,0,0:0:0:0:
369,66,182417,1,0,0:0:0:0:
198,199,182589,6,0,L|188:81,1,95,0|0,3:0|0:0,0:0:0:0:
294,146,182931,1,0,3:0:0:0:
341,139,183017,1,0,0:0:0:0:
388,132,183103,1,0,0:0:0:0:
220,328,183274,1,0,3:0:0:0:
177,311,183359,1,0,0:0:0:0:
146,275,183445,1,0,0:0:0:0:
136,230,183531,1,0,0:0:0:0:
148,184,183616,1,0,0:0:0:0:
181,151,183702,1,0,0:0:0:0:
226,137,183788,1,0,0:0:0:0:
466,206,183960,6,0,L|467:145,1,47.5,0|0,3:0|0:0,0:0:0:0:
353,117,184217,2,0,L|270:109,1,47.5,0|0,0:0|3:0,0:0:0:0:
132,204,184474,2,0,L|49:196,1,47.5
174,127,184731,2,0,L|257:119,1,47.5
393,157,184989,2,0,L|452:162,2,47.5,0|0|0,3:0|0:0|0:0,0:0:0:0:
196,313,185331,6,0,L|190:212,1,95,0|0,3:0|0:0,0:0:0:0:
304,236,185674,2,0,L|188:224,1,95,0|0,3:0|0:0,0:0:0:0:
382,165,186017,1,0,3:0:0:0:
386,212,186103,1,0,0:0:0:0:
390,259,186189,1,0,0:0:0:0:
141,168,186360,1,0,3:0:0:0:
93,174,186446,1,0,0:0:0:0:
46,180,186531,1,0,0:0:0:0:
213,245,186703,6,0,L|299:251,1,47.5,0|0,3:0|0:0,0:0:0:0:
372,268,186960,2,0,L|200:272,1,142.5
396,158,187389,2,0,L|401:253,1,95,0|0,3:0|0:0,0:0:0:0:
296,320,187731,2,0,L|409:316,1,95,0|0,3:0|0:0,0:0:0:0:
216,320,188074,6,0,L|103:316,1,95,0|0,3:0|0:0,0:0:0:0:
228,260,188417,2,0,L|115:256,1,95,0|0,3:0|0:0,0:0:0:0:
305,106,188760,1,0,3:0:0:0:
309,200,188931,1,2,0:0:0:0:
203,196,189103,1,2,2:0:0:0:
207,290,189274,1,2,0:0:0:0:
459,222,189446,6,0,P|438:145|308:93,1,190,4|0,3:2|3:0,0:0:0:0:
244,100,189960,1,0,0:0:0:0:
71,171,190131,2,0,L|209:181,1,95,0|0,3:0|0:0,0:0:0:0:
277,222,190474,1,0,3:0:0:0:
230,230,190560,1,0,0:0:0:0:
183,238,190646,1,0,0:0:0:0:
433,222,190817,6,0,L|435:283,1,47.5,0|0,3:0|0:0,0:0:0:0:
289,326,191160,2,0,L|165:334,1,95,0|0,3:0|0:0,0:0:0:0:
434,210,191503,1,0,3:0:0:0:
425,163,191589,1,0,2:0:0:0:
398,124,191674,1,0,2:0:0:0:
357,99,191760,1,0,0:0:0:0:
310,89,191846,1,0,3:0:0:0:
148,130,192017,1,0,0:0:0:0:
310,89,192189,6,0,L|461:110,2,142.5,0|0|0,3:0|0:0|0:0,0:0:0:0:
138,244,192874,2,0,L|128:92,1,142.5,0|0,3:0|0:0,0:0:0:0:
369,253,193389,6,0,P|430:239|489:116,1,190
386,111,193903,2,0,L|250:95,1,95,0|0,3:0|0:0,0:0:0:0:
119,247,194246,2,0,L|114:120,1,95,0|0,3:0|0:0,0:0:0:0:
228,120,194589,1,0,3:0:0:0:
180,116,194674,1,0,0:0:0:0:
133,112,194760,1,0,0:0:0:0:
300,239,194931,6,0,L|123:222,1,142.5,0|0,3:2|0:0,0:0:0:0:
54,173,195360,2,0,L|133:166,1,47.5
272,125,195617,1,0,3:0:0:0:
361,166,195789,2,0,L|364:223,1,47.5
193,268,196046,2,0,L|188:328,1,47.5
453,354,196303,6,0,L|457:191,1,142.5,0|0,3:0|0:0,0:0:0:0:
363,264,196731,2,0,L|288:258,1,47.5
56,248,196989,1,0,3:0:0:0:
61,201,197074,1,0,0:0:0:0:
88,162,197160,1,0,0:0:0:0:
129,139,197246,1,0,0:0:0:0:
176,138,197331,1,0,3:0:0:0:
340,112,197503,1,0,0:0:0:0:
175,35,197674,5,0,3:0:0:0:
96,85,197845,1,0,0:0:0:0:
65,173,198016,1,0,2:0:0:0:
96,261,198188,1,0,0:0:0:0:
175,311,198359,1,0,2:0:0:0:
431,265,198531,1,2,0:0:0:0:
431,265,198789,1,2,0:0:0:0:
191,117,199046,6,0,L|89:108,1,95,0|0,2:0|2:0,0:0:0:0:
206,210,199389,2,0,L|308:201,1,95
131,324,199731,2,0,L|56:331,2,47.5
240,253,200074,2,0,L|123:242,1,95,4|4,3:0|3:0,0:0:0:0:
397,72,200417,6,0,L|404:191,1,95,4|0,0:0|0:0,0:0:0:0:
298,148,200760,2,0,L|171:157,1,95,8|0,2:3|0:0,0:0:0:0:
307,160,201103,2,0,L|434:169,2,95,0|0|8,2:0|0:0|0:3,0:0:0:0:
135,217,201617,6,0,P|150:155|283:112,1,190,2|0,0:0|0:0,0:0:0:0:
368,71,202131,2,0,L|273:64,1,95,8|0,0:3|0:0,0:0:0:0:
100,188,202474,2,0,L|96:248,2,47.5,0|2|0,2:3|0:0|0:0,0:0:0:0:
203,93,202817,2,0,L|79:104,1,95,8|0,0:3|0:0,0:0:0:0:
281,154,203160,6,0,L|287:271,1,95,0|0,2:0|0:0,0:0:0:0:
178,257,203503,2,0,L|54:268,1,95,8|0,0:3|0:0,0:0:0:0:
255,344,203846,2,0,L|349:335,1,95
245,261,204189,2,0,L|150:252,2,95,8|0|0,0:3|0:0|0:0,0:0:0:0:
418,202,204703,5,2,0:0:0:0:
418,202,204874,2,0,P|408:147|265:93,1,190,2|2,0:2|0:0,0:0:0:0:
126,86,205389,1,2,0:0:0:0:
126,86,205731,1,2,0:0:0:0:
298,83,205903,6,0,L|495:117,1,190,0|8,3:0|0:3,0:0:0:0:
317,247,206417,2,0,L|314:200,2,47.5
427,235,206760,2,0,L|433:329,1,95,0|8,0:0|0:3,0:0:0:0:
264,108,207103,6,0,L|134:97,2,95,2|0|0,0:2|0:0|0:0,0:0:0:0:
154,178,207617,2,0,L|45:170,1,95,8|0,0:3|0:0,0:0:0:0:
231,316,207960,2,0,L|235:376,2,47.5,0|2|0,0:0|0:0|0:0,0:0:0:0:
128,221,208302,2,0,L|252:232,1,95,8|0,0:3|0:0,0:0:0:0:
394,308,208646,5,0,0:0:0:0:
477,325,208817,1,0,0:0:0:0:
477,325,208989,1,8,0:3:0:0:
394,308,209160,1,0,0:0:0:0:
228,204,209331,1,0,0:0:0:0:
145,221,209502,1,0,0:0:0:0:
145,221,209674,1,8,0:3:0:0:
228,204,209845,1,0,0:0:0:0:
396,244,210017,1,0,3:0:0:0:
236,223,210703,5,2,0:0:0:0:
192,208,210788,1,0,0:0:0:0:
174,165,210874,1,2,0:0:0:0:
195,124,210960,1,0,0:0:0:0:
239,112,211045,1,4,0:0:0:0:
346,78,211217,1,0,0:0:0:0:
100,64,211389,6,0,P|48:88|120:172,1,190,0|8,3:0|0:3,0:0:0:0:
276,248,212074,2,0,L|86:219,1,190,0|8,0:0|0:3,0:0:0:0:
253,196,212589,1,2,0:0:0:0:
349,170,212760,6,0,P|330:105|200:57,1,190,0|8,0:0|0:3,0:0:0:0:
134,74,213274,1,0,0:0:0:0:
301,117,213446,1,0,0:0:0:0:
301,117,213531,1,2,0:0:0:0:
301,117,213617,1,0,0:0:0:0:
196,156,213789,2,0,L|92:148,1,95,8|0,0:3|0:0,0:0:0:0:
267,281,214131,6,0,P|329:262|388:126,1,190,0|8,0:0|0:3,0:0:0:0:
297,135,214646,1,0,0:0:0:0:
141,185,214817,2,0,P|91:151|155:59,1,190,0|8,0:0|0:3,0:0:0:0:
238,42,215331,1,0,0:0:0:0:
331,25,215503,1,0,0:0:0:0:
161,125,215674,5,2,0:0:0:0:
161,125,215846,1,2,0:0:0:0:
162,228,216189,1,2,0:0:0:0:
328,224,216360,1,2,0:0:0:0:
328,224,216703,1,2,0:0:0:0:
162,228,216874,6,0,P|86:210|41:107,1,190,0|8,3:0|0:3,0:0:0:0:
133,93,217389,1,0,0:0:0:0:
229,67,217560,2,0,L|16:49,1,190,0|8,0:0|0:3,0:0:0:0:
211,226,218074,6,0,P|262:197|196:105,1,190,2|0,0:0|0:0,0:0:0:0:
116,89,218589,1,8,0:3:0:0:
209,104,218760,1,0,0:0:0:0:
375,146,218931,1,0,0:0:0:0:
375,146,219017,1,2,0:0:0:0:
375,146,219103,1,0,0:0:0:0:
282,166,219274,1,8,0:3:0:0:
189,187,219446,1,0,0:0:0:0:
359,294,219617,5,2,2:3:0:0:
403,283,219702,1,0,0:0:0:0:
424,242,219788,1,0,0:0:0:0:
405,200,219874,1,0,0:0:0:0:
361,187,219959,1,8,0:3:0:0:
267,207,220131,1,0,0:0:0:0:
100,293,220303,5,0,2:0:0:0:
54,279,220388,1,0,0:0:0:0:
22,245,220474,1,0,0:0:0:0:
11,200,220560,1,0,0:0:0:0:
23,154,220645,1,0,0:0:0:0:
57,121,220731,1,0,0:0:0:0:
102,109,220817,1,0,0:0:0:0:
349,104,220989,5,4,3:2:0:0:
195,319,221331,2,0,L|187:106,1,190,0|0,3:0|3:0,0:0:0:0:
251,118,221789,1,0,3:0:0:0:
313,108,221903,1,0,3:0:0:0:
375,98,222017,1,0,3:0:0:0:
281,78,222189,1,0,3:0:0:0:
114,86,222360,1,0,3:0:0:0:
