osu file format v14

[General]
AudioFilename: audio.mp3
AudioLeadIn: 0
PreviewTime: 79787
Countdown: 0
SampleSet: Soft
StackLeniency: 0.7
Mode: 2
LetterboxInBreaks: 0
WidescreenStoryboard: 1

[Editor]
Bookmarks: 13701,24672,46615,52101,57587,68558,79529,101472,112444,117929,123415,134387,145358,150844,156329,167301,178272,200215,222158
DistanceSpacing: 0.9
BeatDivisor: 4
GridSize: 16
TimelineZoom: 1.4

[Metadata]
Title:SUMMER
TitleUnicode:SUMMER
Artist:Zekk
ArtistUnicode:Zekk
Creator:Spectator
Version:MomoX's Overdose
Source:osu!
Tags:electronic instrumental jemzuu ajamez -momox momox featured artist fa mappers' guild mg future bass hardcore megarex fugene trinity force
BeatmapID:2887903
BeatmapSetID:1393068

[Difficulty]
HPDrainRate:5.5
CircleSize:4
OverallDifficulty:9.2
ApproachRate:9.2
SliderMultiplier:2.08
SliderTickRate:2

[Events]
//Background and Video events
0,0,"summer.jpg",0,0
//Break Periods
2,47017,51733
2,123817,125790
2,145760,147733
//Storyboard Layer 0 (Background)
//Storyboard Layer 1 (Fail)
//Storyboard Layer 2 (Pass)
//Storyboard Layer 3 (Foreground)
//Storyboard Layer 4 (Overlay)
//Storyboard Sound Samples

[TimingPoints]
189,342.857142857143,4,2,1,65,1,0
5331,-100,4,2,1,65,0,0
5417,-100,4,2,1,65,0,0
8760,-100,4,2,1,65,0,0
8931,-100,4,2,1,65,0,0
10131,-100,4,2,1,65,0,0
10302,-100,4,2,1,65,0,0
13217,-100,4,2,1,70,0,0
13560,-100,4,2,1,70,0,0
13903,-100,4,2,1,75,0,0
22131,-100,4,2,1,75,0,0
22817,-100,4,2,1,75,0,0
23846,-100,4,2,1,60,0,0
24189,-100,4,2,1,75,0,0
24531,-64.5161290322581,4,2,1,75,0,0
24874,-100,4,2,1,80,0,0
25217,-100,4,2,1,80,0,0
33103,-100,4,2,1,85,0,0
35846,-100,4,2,1,90,0,0
46131,-100,4,2,30,75,0,0
52303,-100,4,2,1,80,0,0
56417,-100,4,2,1,80,0,0
57789,-100,4,2,1,85,0,0
61924,-100,4,2,1,15,0,0
62074,-100,4,2,1,50,0,0
62267,-100,4,2,1,15,0,0
62417,-100,4,2,1,75,0,0
63274,-100,4,2,1,85,0,0
67389,-80,4,2,1,85,0,0
67731,-100,4,2,1,85,0,0
68417,-100,4,3,20,85,0,0
68760,-100,4,2,4,90,0,0
78703,-100,4,2,1,90,0,0
79046,-100,4,2,1,60,0,0
79389,-100,4,2,1,80,0,0
80074,-62.5,4,2,2,90,0,1
80246,-100,4,2,2,90,0,0
80931,-64.5161290322581,4,2,2,90,0,0
81446,-100,4,2,2,90,0,0
82731,-100,4,2,2,90,0,0
82989,-100,4,2,2,90,0,0
83246,-100,4,2,2,90,0,0
83674,-64.5161290322581,4,2,2,90,0,0
84189,-100,4,2,2,90,0,0
84703,-100,4,2,2,90,0,0
85046,-100,4,2,2,90,0,0
85217,-44.4444444444445,4,2,2,90,0,0
85389,-100,4,2,2,90,0,0
85560,-41.6666666666667,4,2,2,90,0,0
85731,-100,4,2,2,90,0,0
87103,-100,4,2,2,90,0,0
87360,-100,4,2,2,90,0,0
87960,-100,4,2,2,90,0,0
88217,-100,4,2,2,90,0,0
88474,-100,4,2,2,90,0,0
88989,-100,4,2,2,90,0,0
89760,-100,4,2,2,90,0,0
91046,-62.5,4,2,2,90,0,0
91389,-100,4,2,2,90,0,0
91903,-64.5161290322581,4,2,2,90,0,0
92417,-100,4,2,2,90,0,0
92674,-100,4,2,2,90,0,0
92931,-100,4,2,2,90,0,0
93103,-62.5,4,2,2,90,0,0
93446,-64.5161290322581,4,2,2,90,0,0
93703,-100,4,2,2,90,0,0
93960,-100,4,2,2,90,0,0
94131,-100,4,2,2,90,0,0
94389,-100,4,2,2,90,0,0
94646,-64.5161290322581,4,2,2,90,0,0
94989,-100,4,2,2,90,0,0
101331,-100,4,2,2,90,0,0
101674,-100,4,2,2,90,0,1
101846,-100,4,2,2,90,0,0
105617,-100,4,2,2,90,0,0
106303,-100,4,2,2,90,0,0
108360,-100,4,2,2,90,0,0
108874,-100,4,2,2,90,0,0
109903,-100,4,2,2,90,0,0
110931,-100,4,2,2,90,0,0
112989,-100,4,2,2,90,0,0
113331,-100,4,2,2,90,0,0
120874,-100,4,2,2,90,0,0
122246,-100,4,2,2,70,0,0
123617,-100,4,2,30,70,0,0
126360,-100,4,2,1,45,0,0
127389,-100,4,2,1,55,0,0
128589,-100,4,2,1,65,0,0
129103,-100,4,2,1,65,0,0
131846,-100,4,2,1,65,0,0
134246,-100,4,3,20,65,0,0
134589,-100,4,2,4,65,0,0
140074,-100,4,2,1,65,0,0
144189,-80,4,2,1,65,0,0
144531,-100,4,2,1,65,0,0
145217,-100,4,3,20,75,0,0
145303,-100,4,2,1,65,0,0
145560,-100,4,2,30,65,0,0
148303,-100,4,2,1,45,0,0
148989,-100,4,2,1,50,0,0
149674,-100,4,2,1,55,0,0
150189,-100,4,2,1,60,0,0
151046,-100,4,2,4,65,0,0
153789,-100,4,2,4,70,0,0
155160,-100,4,2,1,55,0,0
156189,-100,4,2,1,70,0,0
156360,-100,4,2,1,55,0,0
156531,-64.5161290322581,4,2,3,95,0,1
156703,-64.5161290322581,4,2,3,95,0,0
165360,-64.5161290322581,4,2,3,95,0,0
165617,-64.5161290322581,4,2,3,95,0,0
166131,-64.5161290322581,4,2,3,95,0,0
166389,-64.5161290322581,4,2,3,95,0,0
170246,-64.5161290322581,4,2,3,95,0,0
170417,-64.5161290322581,4,2,3,95,0,0
176417,-64.5161290322581,4,2,3,95,0,0
177446,-64.5161290322581,4,2,3,95,0,0
177789,-64.5161290322581,4,2,3,95,0,0
178474,-100,4,2,3,95,0,0
178817,-100,4,2,3,95,0,1
178989,-100,4,2,3,95,0,0
189446,-66.6666666666667,4,2,3,95,0,0
196303,-100,4,2,3,95,0,0
197331,-100,4,2,3,95,0,0
197674,-100,4,2,3,95,0,0
198531,-100,4,2,1,85,0,0
199046,-100,4,2,2,85,0,0
200417,-100,4,2,1,80,0,0
221331,-100,4,2,1,55,0,0
221760,-100,4,2,1,75,0,0
222017,-62.5,4,2,1,75,0,0
222189,-100,4,2,1,65,0,0

[Colours]
Combo1 : 114,134,203
Combo2 : 199,240,102
Combo3 : 104,199,230
Combo4 : 167,198,85

[HitObjects]
312,188,1560,5,0,0:0:0:0:
160,235,1731,2,0,L|160:289,1,52,0|0,0:0|0:0,0:0:0:0:
312,188,1989,2,0,L|312:130,1,52,0|0,0:0|0:0,0:0:0:0:
160,235,2246,1,0,0:0:0:0:
214,234,2331,2,0,P|235:171|197:151,1,104,0|0,0:0|0:0,0:0:0:0:
60,143,2589,1,0,0:0:0:0:
342,158,2931,6,0,P|371:208|316:219,1,104,0|0,3:0|0:0,0:0:0:0:
180,269,3274,2,0,P|151:219|206:208,1,104,0|0,3:0|0:0,0:0:0:0:
342,156,3617,2,0,L|222:156,1,104,0|0,3:0|0:0,0:0:0:0:
401,109,3960,1,0,3:0:0:0:
238,156,4131,1,2,0:0:0:0:
468,199,4303,6,0,L|468:335,1,104,0|0,0:0|0:0,0:0:0:0:
306,312,4646,2,0,L|306:176,1,104,0|0,3:0|0:0,0:0:0:0:
143,91,4989,1,0,3:0:0:0:
192,109,5074,1,2,0:0:0:0:
210,142,5116,1,0,0:0:0:0:
205,180,5159,1,0,0:0:0:0:
179,207,5202,1,0,0:0:0:0:
141,213,5245,1,0,0:0:0:0:
26,211,5331,1,0,3:0:0:0:
183,222,5503,1,0,0:0:0:0:
414,202,5674,6,0,L|307:202,1,104,0|0,3:0|0:0,0:0:0:0:
143,119,6017,2,0,L|250:119,1,104,0|0,3:0|0:0,0:0:0:0:
414,202,6360,2,0,L|414:79,1,104,0|0,3:0|0:0,0:0:0:0:
247,106,6703,2,0,L|98:106,1,104,0|0,3:0|0:0,0:0:0:0:
310,171,7046,5,0,3:0:0:0:
82,154,7217,1,2,0:0:0:0:
186,159,7389,2,0,L|186:301,1,104,2|0,3:2|0:0,0:0:0:0:
352,211,7731,1,2,3:2:0:0:
248,216,7903,2,0,L|248:345,1,104,2|0,0:0|0:0,0:0:0:0:
415,219,8246,1,2,0:0:0:0:
186,69,8417,6,0,L|314:69,1,104,4|0,3:2|0:0,0:0:0:0:
123,128,8760,1,8,3:0:0:0:
353,165,8931,2,0,L|353:250,1,52,0|0,0:0|0:0,0:0:0:0:
287,242,9103,1,0,0:0:0:0:
390,141,9274,1,0,0:0:0:0:
121,171,9446,1,8,3:0:0:0:
277,166,9617,1,2,0:0:0:0:
41,106,9789,6,0,L|181:106,1,104,2|0,3:2|0:0,0:0:0:0:
311,103,10131,1,8,3:0:0:0:
80,156,10303,2,0,L|0:155,2,52,0|0|0,0:0|0:0|3:0,0:0:0:0:
185,192,10560,2,0,L|197:220,4,26,2|0|0|0|0,0:0|0:0|0:0|0:0|0:0,0:0:0:0:
80,156,10817,2,0,P|47:182|108:207,1,104,8|0,3:0|0:0,0:0:0:0:
310,154,11160,6,0,L|310:280,1,104,2|0,3:2|0:0,0:0:0:0:
143,253,11503,1,8,3:0:0:0:
371,103,11674,1,0,0:0:0:0:
423,105,11760,1,0,0:0:0:0:
371,103,11846,1,0,3:0:0:0:
267,102,12017,1,0,0:0:0:0:
497,99,12189,1,8,3:0:0:0:
331,170,12360,1,0,0:0:0:0:
77,186,12531,5,2,3:2:0:0:
244,93,12703,1,0,0:0:0:0:
264,140,12788,1,0,0:0:0:0:
262,191,12874,1,2,0:0:0:0:
238,237,12960,1,0,0:0:0:0:
196,267,13045,1,0,0:0:0:0:
145,275,13131,1,0,0:0:0:0:
310,245,13217,2,0,L|407:245,1,52,2|0,0:0|0:0,0:0:0:0:
414,245,13389,2,0,L|340:245,1,52,2|0,0:0|0:0,0:0:0:0:
216,158,13560,2,0,L|315:158,1,52,4|0,0:0|0:0,0:0:0:0:
320,158,13731,2,0,L|402:158,1,52,2|0,0:0|0:0,0:0:0:0:
189,192,13903,6,0,L|189:336,1,104,0|0,3:0|0:0,0:0:0:0:
356,115,14246,2,0,L|469:115,1,104,8|0,3:0|0:0,0:0:0:0:
323,185,14589,2,0,L|175:184,2,104,0|0|8,3:0|0:0|3:0,0:0:0:0:
156,106,15103,1,2,0:2:0:0:
387,54,15274,6,0,L|387:192,1,104,0|0,3:0|0:0,0:0:0:0:
220,307,15617,2,0,L|220:169,1,104,8|0,3:0|0:0,0:0:0:0:
388,51,15960,1,0,3:0:0:0:
440,69,16046,1,2,0:0:0:0:
458,102,16088,1,0,0:0:0:0:
453,140,16131,1,0,0:0:0:0:
427,167,16174,1,0,0:0:0:0:
389,173,16217,1,0,0:0:0:0:
274,174,16303,1,8,3:0:0:0:
431,182,16475,1,0,0:0:0:0:
203,66,16646,6,0,L|74:66,1,104,0|0,3:0|0:0,0:0:0:0:
266,139,16989,1,8,3:0:0:0:
37,135,17160,2,0,L|36:214,1,52,0|0,0:0|0:0,0:0:0:0:
110,191,17331,1,0,3:0:0:0:
16,97,17503,1,0,0:0:0:0:
266,139,17674,1,8,3:0:0:0:
266,139,17846,1,0,0:0:0:0:
37,135,18017,5,0,3:0:0:0:
204,167,18189,1,2,0:0:0:0:
100,197,18360,2,0,L|100:315,1,104,2|0,3:2|0:0,0:0:0:0:
267,94,18703,1,2,3:2:0:0:
163,124,18874,2,0,L|163:242,1,104,2|0,0:0|0:0,0:0:0:0:
330,211,19217,1,2,0:0:0:0:
99,58,19389,6,0,L|232:58,1,104,0|0,3:0|0:0,0:0:0:0:
37,133,19731,1,8,3:0:0:0:
267,125,19903,2,0,L|343:125,2,52,0|0|0,0:0|0:0|3:0,0:0:0:0:
163,124,20245,1,0,0:0:0:0:
419,121,20417,1,8,3:0:0:0:
252,90,20589,1,2,0:2:0:0:
480,143,20760,6,0,L|345:143,1,104,2|0,3:2|0:0,0:0:0:0:
209,138,21103,1,8,3:0:0:0:
437,204,21274,2,0,L|437:300,1,52,0|0,0:0|0:0,0:0:0:0:
384,203,21446,1,0,3:0:0:0:
280,101,21531,1,2,0:0:0:0:
244,131,21573,1,0,0:0:0:0:
232,179,21616,1,0,0:0:0:0:
246,227,21659,1,0,0:0:0:0:
283,255,21702,1,0,0:0:0:0:
390,194,21789,2,0,L|389:85,1,104,8|0,3:0|0:0,0:0:0:0:
152,78,22131,6,0,P|119:109|180:120,1,104,2|0,3:2|0:0,0:0:0:0:
207,140,22389,1,0,0:0:0:0:
321,138,22474,2,0,L|405:139,1,52,0|0,0:0|0:0,0:0:0:0:
372,138,22646,2,0,L|320:137,1,52,0|0,0:0|0:0,0:0:0:0:
207,140,22817,2,0,L|207:226,1,52,0|0,0:0|0:0,0:0:0:0:
321,138,22989,2,0,L|321:57,1,52,0|0,0:0|0:0,0:0:0:0:
207,140,23160,2,0,L|123:141,1,52,0|0,0:0|0:0,0:0:0:0:
156,140,23332,2,0,L|207:139,1,52,0|0,0:0|0:0,0:0:0:0:
370,186,23503,6,0,P|412:241|339:261,1,138.666666666667,0|0,3:0|0:0,0:0:0:0:
184,174,23846,1,0,3:0:0:0:
219,174,23903,1,0,3:0:0:0:
254,174,23960,1,0,3:0:0:0:
288,174,24017,1,0,3:0:0:0:
323,174,24074,1,0,3:0:0:0:
149,222,24189,2,0,L|57:222,2,69.3333333333333,0|0|0,3:0|3:0|3:0,0:0:0:0:
344,278,24531,2,0,L|167:278,1,161.200001229858,8|0,3:2|0:0,0:0:0:0:
415,132,24874,6,0,P|402:222|340:231,1,156,4|0,0:0|0:0,0:0:0:0:
233,233,25217,2,0,L|101:233,1,104,8|0,0:0|0:0,0:0:0:0:
294,111,25560,2,0,L|168:187,1,104,0|0,3:0|0:0,0:0:0:0:
382,253,25903,2,0,L|498:253,1,104,8|0,0:0|0:0,0:0:0:0:
255,199,26246,5,0,3:0:0:0:
421,93,26417,1,0,0:0:0:0:
433,142,26502,1,0,0:0:0:0:
416,191,26588,1,8,0:0:0:0:
377,223,26674,1,0,0:0:0:0:
326,230,26759,1,0,0:0:0:0:
94,207,26931,1,0,3:0:0:0:
146,207,27016,1,0,0:0:0:0:
198,207,27102,1,0,0:0:0:0:
30,107,27274,1,8,0:0:0:0:
82,107,27359,1,0,0:0:0:0:
134,107,27445,1,0,0:0:0:0:
365,97,27617,6,0,L|365:246,1,104,0|0,3:0|0:0,0:0:0:0:
198,87,27960,1,8,0:0:0:0:
364,98,28131,1,0,0:0:0:0:
131,163,28303,2,0,P|110:221|146:225,1,104,0|0,3:0|0:0,0:0:0:0:
369,157,28646,2,0,L|227:157,1,104,8|0,0:0|0:0,0:0:0:0:
496,120,28989,5,0,0:0:0:0:
330,102,29160,1,0,0:0:0:0:
305,146,29245,1,0,0:0:0:0:
313,196,29331,1,8,0:0:0:0:
350,231,29417,1,0,0:0:0:0:
401,236,29502,1,0,0:0:0:0:
170,123,29674,1,0,3:0:0:0:
164,173,29759,1,0,0:0:0:0:
195,213,29845,1,0,2:0:0:0:
245,220,29931,1,0,2:0:0:0:
413,96,30017,1,0,0:0:0:0:
364,111,30102,1,0,0:0:0:0:
314,127,30188,1,0,0:0:0:0:
265,142,30274,1,0,0:0:0:0:
73,256,30360,6,0,L|186:226,1,104,0|0,3:0|0:0,0:0:0:0:
340,221,30703,1,8,0:0:0:0:
173,229,30874,1,0,0:0:0:0:
432,124,31046,2,0,L|432:246,1,104,0|0,3:0|0:0,0:0:0:0:
265,142,31389,1,8,0:0:0:0:
432,124,31560,1,0,0:0:0:0:
203,198,31731,6,0,L|317:272,1,104,0|0,3:0|0:0,0:0:0:0:
457,259,32074,1,8,0:0:0:0:
290,254,32246,1,0,0:0:0:0:
457,259,32417,2,0,L|458:127,1,104,0|0,3:0|0:0,0:0:0:0:
229,96,32760,1,8,0:0:0:0:
280,93,32845,1,0,0:0:0:0:
332,90,32931,1,0,0:0:0:0:
98,144,33103,6,0,L|98:261,1,104,0|0,3:0|0:0,0:0:0:0:
265,142,33446,1,8,0:0:0:0:
98,248,33617,1,0,0:0:0:0:
331,175,33789,2,0,L|217:260,1,104,0|0,3:0|0:0,0:0:0:0:
81,184,34131,1,8,0:0:0:0:
247,237,34303,1,0,0:0:0:0:
16,250,34474,6,0,L|130:335,1,104,0|0,3:0|0:0,0:0:0:0:
266,259,34816,1,8,0:0:0:0:
100,312,34988,1,0,0:0:0:0:
331,110,35160,2,0,L|483:109,1,104,0|0,3:0|0:0,0:0:0:0:
194,176,35503,1,2,0:0:0:0:
434,109,35674,1,2,0:0:0:0:
185,105,35846,6,0,P|103:136|117:209,1,156,4|0,0:0|0:0,0:0:0:0:
221,188,36189,2,0,L|364:188,1,104,8|0,0:0|0:0,0:0:0:0:
97,77,36531,2,0,L|97:201,1,104,0|0,3:0|0:0,0:0:0:0:
339,139,36874,2,0,L|235:139,1,104,8|0,0:0|0:0,0:0:0:0:
470,212,37217,5,0,3:0:0:0:
303,226,37389,1,0,0:0:0:0:
352,215,37474,1,0,0:0:0:0:
384,175,37560,1,8,0:0:0:0:
383,124,37646,1,0,0:0:0:0:
349,85,37731,1,0,0:0:0:0:
118,162,37903,2,0,L|24:162,2,52,0|0|0,3:0|0:0|0:0,0:0:0:0:
286,111,38246,2,0,L|286:203,1,52,8|0,0:0|0:0,0:0:0:0:
126,195,38417,1,0,0:0:0:0:
358,198,38589,6,0,L|508:198,1,104,0|0,3:0|0:0,0:0:0:0:
295,120,38931,1,8,0:0:0:0:
462,198,39103,1,0,0:0:0:0:
234,136,39274,2,0,L|357:222,1,104,0|0,3:0|0:0,0:0:0:0:
486,150,39617,1,8,0:0:0:0:
319,195,39789,1,0,0:0:0:0:
88,228,39960,6,0,L|211:142,1,104,0|0,3:0|0:0,0:0:0:0:
340,214,40303,1,8,0:0:0:0:
173,169,40475,1,0,0:0:0:0:
401,98,40646,2,0,L|327:98,2,52,0|0|0,3:0|0:0|0:0,0:0:0:0:
234,106,40989,1,0,0:0:0:0:
227,156,41074,1,0,0:0:0:0:
258,195,41160,1,0,0:0:0:0:
308,200,41246,1,0,0:0:0:0:
140,260,41331,6,0,L|26:187,1,104,0|0,3:0|0:0,0:0:0:0:
219,163,41674,1,8,0:0:0:0:
386,138,41846,1,0,0:0:0:0:
155,66,42017,2,0,L|155:175,1,104,0|0,3:0|0:0,0:0:0:0:
322,132,42360,1,8,0:0:0:0:
155,170,42531,1,0,0:0:0:0:
388,195,42703,6,0,L|292:259,1,104,0|0,3:0|0:0,0:0:0:0:
134,290,43046,1,8,0:0:0:0:
301,252,43217,1,0,0:0:0:0:
69,140,43389,1,0,3:0:0:0:
121,140,43474,1,0,2:0:0:0:
173,140,43560,1,0,0:0:0:0:
339,79,43731,1,8,0:0:0:0:
391,79,43816,1,0,0:0:0:0:
339,79,43902,1,0,0:0:0:0:
109,114,44074,6,0,L|109:239,1,104,0|0,3:0|0:0,0:0:0:0:
258,214,44417,2,0,L|380:214,1,104,2|0,0:0|0:0,0:0:0:0:
131,113,44760,2,0,L|-8:113,3,104,2|2|2|2,0:0|0:0|0:0|0:0,0:0:0:0:
282,175,45446,6,0,L|414:175,1,104,0|0,0:0|0:0,0:0:0:0:
308,113,45703,1,0,0:0:0:0:
152,89,45789,1,0,0:0:0:0:
115,120,45846,1,0,0:0:0:0:
101,166,45903,1,0,0:0:0:0:
114,212,45960,1,0,0:0:0:0:
149,244,46017,1,0,0:0:0:0:
341,222,46131,2,0,L|443:223,2,69.3333333333333,0|0|0,3:0|3:0|3:0,0:0:0:0:
156,147,46474,1,0,3:0:0:0:
323,151,46646,1,0,3:0:0:0:
81,85,46817,5,4,0:0:0:0:
394,95,52303,6,0,L|394:174,1,52,0|0,0:0|0:0,0:0:0:0:
163,209,52560,2,0,L|163:286,1,52,0|0,0:0|0:0,0:0:0:0:
330,77,52817,2,0,L|330:164,1,52,0|0,0:0|0:0,0:0:0:0:
226,183,53074,2,0,L|226:96,1,52,0|0,0:0|0:0,0:0:0:0:
330,77,53331,1,0,0:0:0:0:
330,77,53417,2,0,L|168:140,1,156,0|0,0:0|0:0,0:0:0:0:
419,145,53846,6,0,L|290:145,2,104,2|2|0,0:0|0:0|0:0,0:0:0:0:
252,230,54360,2,0,L|113:229,2,104,2|2|0,0:0|0:0|0:0,0:0:0:0:
419,178,54874,1,2,0:0:0:0:
187,78,55046,6,0,L|187:149,1,52,0|0,0:0|0:0,0:0:0:0:
419,178,55303,2,0,L|419:277,1,52,0|0,0:0|0:0,0:0:0:0:
252,188,55560,2,0,L|252:264,1,52,0|0,0:0|0:0,0:0:0:0:
356,51,55817,2,0,L|356:133,1,52,0|0,0:0|0:0,0:0:0:0:
252,186,56074,1,0,0:0:0:0:
252,186,56160,2,0,L|403:186,1,104,0|0,0:0|0:0,0:0:0:0:
178,106,56417,6,0,P|145:144|206:146,1,104,4|0,0:0|0:0,0:0:0:0:
346,171,56760,2,0,L|453:171,1,104,0|0,0:0|0:0,0:0:0:0:
218,71,57103,1,0,3:0:0:0:
384,72,57274,1,8,3:2:0:0:
152,57,57446,2,0,P|106:123|162:140,1,156,0|0,3:0|0:0,0:0:0:0:
341,150,57789,6,0,P|358:218|324:247,1,104,4|0,0:0|0:0,0:0:0:0:
288,249,58046,1,0,0:0:0:0:
237,249,58131,1,0,0:0:0:0:
288,249,58216,1,0,0:0:0:0:
340,249,58302,1,0,3:0:0:0:
173,159,58474,2,0,L|85:159,2,52,0|0|0,0:0|0:0|0:0,0:0:0:0:
340,121,58817,1,0,3:0:0:0:
173,159,58989,1,0,0:0:0:0:
407,114,59160,6,0,L|407:246,1,104,0|0,3:0|0:0,0:0:0:0:
355,218,59417,1,0,0:0:0:0:
407,218,59503,2,0,L|471:218,2,52,0|0|0,0:0|0:0|3:0,0:0:0:0:
176,242,59846,1,0,0:0:0:0:
342,184,60017,2,0,L|440:184,1,52,0|0,0:0|0:0,0:0:0:0:
236,218,60189,1,0,3:2:0:0:
70,159,60360,1,0,0:0:0:0:
304,74,60531,6,0,L|432:104,1,104,0|0,3:0|0:0,0:0:0:0:
353,117,60789,1,0,0:0:0:0:
301,126,60874,1,0,0:0:0:0:
353,126,60959,1,0,0:0:0:0:
405,126,61045,1,0,3:0:0:0:
174,215,61217,2,0,L|225:214,3,52,0|0|0|0,0:0|0:0|0:0|0:0,0:0:0:0:
174,215,61560,1,0,3:0:0:0:
128,196,61645,1,0,0:0:0:0:
127,147,61731,1,0,0:0:0:0:
172,126,61817,1,0,0:0:0:0:
336,173,61903,5,8,2:3:0:0:
170,96,62074,2,0,L|263:96,1,52,2|0,0:0|0:0,0:0:0:0:
388,173,62246,1,8,2:3:0:0:
222,96,62417,2,0,L|315:96,1,52,2|0,0:0|0:0,0:0:0:0:
440,172,62589,2,0,P|475:101|424:84,1,138.666666666667,0|0,0:0|0:0,0:0:0:0:
247,69,62931,2,0,L|169:69,2,69.3333333333333,0|0|0,0:0|0:0|0:0,0:0:0:0:
456,104,63274,6,0,P|472:171|378:203,1,156,8|0,3:0|0:0,0:0:0:0:
291,213,63617,2,0,L|163:213,1,104,8|0,3:0|0:0,0:0:0:0:
417,95,63960,1,8,3:0:0:0:
469,95,64046,2,0,L|469:190,1,52,0|0,0:0|0:0,0:0:0:0:
312,170,64217,2,0,L|312:255,1,52,0|8,3:0|2:3,0:0:0:0:
364,221,64388,1,0,0:0:0:0:
207,224,64474,2,0,L|207:310,1,52,0|0,3:0|0:0,0:0:0:0:
374,288,64646,6,0,P|426:235|356:196,1,156,8|0,0:3|0:0,0:0:0:0:
263,189,64989,2,0,L|121:188,1,104,8|0,0:3|0:0,0:0:0:0:
389,77,65331,1,8,0:3:0:0:
337,76,65416,1,0,0:0:0:0:
285,76,65502,1,0,0:0:0:0:
453,148,65674,1,8,0:3:0:0:
462,198,65759,1,0,0:0:0:0:
436,241,65845,1,0,0:0:0:0:
387,257,65931,1,0,0:0:0:0:
215,189,66017,5,8,0:3:0:0:
171,211,66102,1,0,0:0:0:0:
171,260,66188,1,0,0:0:0:0:
216,281,66274,1,0,0:0:0:0:
332,282,66360,2,0,L|451:282,1,104,8|0,0:3|0:0,0:0:0:0:
205,77,66703,2,0,P|190:142|230:140,1,104,8|0,0:3|0:0,0:0:0:0:
353,200,66960,2,0,P|368:135|328:137,1,104,0|0,3:0|0:0,0:0:0:0:
205,77,67217,2,0,L|115:77,1,52,0|0,3:0|0:0,0:0:0:0:
340,159,67389,6,0,L|158:80,1,173.333333333333,4|0,0:0|0:0,0:0:0:0:
407,247,67731,2,0,L|269:187,1,138.666666666667,0|0,0:0|0:0,0:0:0:0:
477,111,68074,1,0,0:0:0:0:
477,111,68246,1,0,0:0:0:0:
246,76,68417,2,0,P|195:128|259:162,1,156,0|0,0:0|0:0,0:0:0:0:
475,178,68760,6,0,L|323:178,1,104,12|0,0:0|0:0,0:0:0:0:
422,178,69017,2,0,L|515:178,1,52,0|2,0:0|0:0,0:0:0:0:
307,100,69274,2,0,P|297:160|324:153,1,104,8|0,0:0|0:0,0:0:0:0:
361,159,69531,2,0,L|460:159,1,52,0|2,0:0|0:0,0:0:0:0:
255,184,69789,2,0,L|407:185,1,104,8|2,0:0|0:0,0:0:0:0:
307,183,70046,1,0,0:0:0:0:
143,179,70131,5,8,0:0:0:0:
310,94,70303,2,0,L|211:93,1,52,0|0,0:0|0:0,0:0:0:0:
91,178,70474,1,2,0:0:0:0:
259,155,70646,1,8,0:0:0:0:
28,112,70817,2,0,L|28:253,1,104,8|2,0:0|0:0,0:0:0:0:
195,222,71160,2,0,L|81:222,1,104,8|10,0:0|0:0,0:0:0:0:
323,97,71503,6,0,P|356:137|308:150,1,104,8|0,0:0|0:0,0:0:0:0:
270,156,71760,2,0,L|348:156,1,52,0|2,0:0|0:0,0:0:0:0:
155,198,72017,2,0,P|134:256|183:251,1,104,8|0,0:0|0:0,0:0:0:0:
209,268,72274,2,0,L|304:268,1,52,0|2,0:0|0:0,0:0:0:0:
94,146,72531,1,8,0:0:0:0:
261,126,72703,1,2,0:0:0:0:
32,91,72874,5,8,0:0:0:0:
199,121,73046,2,0,P|223:173|184:171,1,104,2|8,0:0|0:0,0:0:0:0:
32,91,73389,1,0,0:0:0:0:
266,88,73560,2,0,L|132:88,1,104,10|0,0:0|0:0,0:0:0:0:
393,190,73903,2,0,L|259:190,1,104,10|0,0:0|0:0,0:0:0:0:
57,189,74246,6,0,P|35:244|72:248,1,104,12|0,0:0|0:0,0:0:0:0:
112,253,74503,2,0,L|190:253,1,52,0|2,0:0|0:0,0:0:0:0:
396,159,74760,2,0,L|257:159,1,104,8|0,0:0|0:0,0:0:0:0:
343,159,75017,2,0,L|436:159,1,52,0|2,0:0|0:0,0:0:0:0:
164,91,75274,2,0,L|303:91,1,104,8|2,0:0|0:0,0:0:0:0:
217,91,75531,1,0,0:0:0:0:
50,59,75617,5,8,0:0:0:0:
217,91,75789,2,0,L|294:91,1,52,0|0,0:0|0:0,0:0:0:0:
102,191,75960,1,10,0:0:0:0:
269,91,76131,1,8,0:0:0:0:
33,125,76303,2,0,P|30:181|91:200,1,104,8|0,0:0|0:0,0:0:0:0:
146,205,76560,1,0,0:0:0:0:
314,211,76646,2,0,L|440:210,1,104,8|8,0:0|0:0,0:0:0:0:
180,210,76989,6,0,L|180:276,1,52,8|8,0:0|0:0,0:0:0:0:
284,260,77160,2,0,L|284:351,1,52,8|8,0:0|0:0,0:0:0:0:
132,109,77331,2,0,L|132:175,1,52,8|8,0:0|0:0,0:0:0:0:
236,159,77503,2,0,L|236:250,1,52,8|8,0:0|0:0,0:0:0:0:
88,235,77674,2,0,L|-11:235,1,52,8|8,0:0|0:0,0:0:0:0:
184,300,77846,2,0,L|275:300,1,52,8|8,0:0|0:0,0:0:0:0:
75,261,78017,2,0,L|-24:261,1,52,8|8,0:0|0:0,0:0:0:0:
209,188,78189,2,0,L|300:188,1,52,8|8,0:0|0:0,0:0:0:0:
69,89,78360,6,0,P|83:174|144:180,1,156,4|0,0:0|0:0,0:0:0:0:
193,159,78703,1,0,0:0:0:0:
206,207,78788,1,0,0:0:0:0:
183,252,78874,1,0,0:0:0:0:
135,269,78960,1,0,0:0:0:0:
284,273,79046,2,0,L|432:273,1,104,0|0,3:0|3:0,0:0:0:0:
353,271,79274,2,0,L|293:271,1,34.6666666666667,0|0,3:0|3:0,0:0:0:0:
192,126,79389,2,0,P|141:178|203:215,1,156,4|0,3:2|0:0,0:0:0:0:
426,114,79731,6,0,L|426:242,1,104,0|0,3:0|0:0,0:0:0:0:
189,231,80074,2,0,L|380:218,1,166.4,4|0,3:2|0:0,0:0:0:0:
276,171,80331,1,0,0:0:0:0:
86,162,80417,2,0,P|62:217|104:220,1,104,8|0,3:0|0:0,0:0:0:0:
259,248,80674,2,0,L|106:252,1,104,0|0,3:0|0:0,0:0:0:0:
333,85,80931,6,0,P|360:183|161:271,1,322.400002459717,0|8,3:0|3:0,0:0:0:0:
431,144,81446,2,0,L|327:144,1,104,0|0,3:0|0:0,0:0:0:0:
162,198,81703,2,0,L|266:198,1,104,0|0,3:0|0:0,0:0:0:0:
118,119,81960,2,0,L|40:119,1,52,0|0,3:0|2:0,0:0:0:0:
235,154,82131,2,0,L|109:154,1,104,8|0,3:0|0:0,0:0:0:0:
371,70,82474,6,0,L|371:210,1,104,0|0,3:2|0:0,0:0:0:0:
203,91,82731,2,0,L|63:93,1,104,0|0,3:0|0:0,0:0:0:0:
269,181,82989,2,0,L|268:318,1,104,0|8,3:0|3:0,0:0:0:0:
113,241,83246,2,0,L|206:240,1,52,0|0,0:0|0:0,0:0:0:0:
322,157,83417,2,0,L|189:157,1,104,0|0,3:0|0:0,0:0:0:0:
51,74,83674,6,0,P|26:169|201:262,1,322.400002459717,0|0,3:0|0:0,0:0:0:0:
425,143,84189,1,0,0:0:0:0:
259,126,84360,1,0,0:0:0:0:
489,162,84531,1,8,3:0:0:0:
327,189,84703,2,0,L|450:189,2,104,0|0|0,3:0|3:3|0:0,0:0:0:0:
85,215,85217,2,0,L|335:216,1,234.000008926392,0|0,3:0|0:0,0:0:0:0:
226,116,85560,6,0,L|481:117,1,249.599992382813,4|0,3:2|0:0,0:0:0:0:
239,196,85903,2,0,L|115:196,1,104,8|0,3:0|0:0,0:0:0:0:
290,81,86160,2,0,L|414:81,1,104,0|0,3:0|0:0,0:0:0:0:
199,128,86417,6,0,L|199:234,1,104,0|0,3:0|0:0,0:0:0:0:
430,209,86760,1,8,3:0:0:0:
263,151,86931,2,0,P|241:209|276:218,1,104,0|0,3:0|0:0,0:0:0:0:
424,160,87189,2,0,P|446:102|411:93,1,104,0|0,3:0|0:0,0:0:0:0:
263,151,87446,2,0,L|167:151,1,52,0|0,3:0|0:0,0:0:0:0:
369,72,87617,2,0,L|480:71,1,104,8|0,3:0|0:0,0:0:0:0:
395,118,87874,1,0,0:0:0:0:
226,162,87960,6,0,L|225:295,1,104,0|0,3:0|0:0,0:0:0:0:
64,260,88217,2,0,L|64:121,1,104,0|0,3:0|0:0,0:0:0:0:
226,162,88474,2,0,L|307:162,1,52,0|0,3:0|0:0,0:0:0:0:
125,83,88646,1,8,3:0:0:0:
278,162,88817,1,0,0:0:0:0:
48,207,88989,6,0,L|47:350,1,104,0|0,3:0|0:0,0:0:0:0:
213,126,89246,2,0,L|213:263,1,104,0|0,3:0|0:0,0:0:0:0:
378,238,89503,2,0,L|245:237,1,104,0|0,3:0|0:0,0:0:0:0:
99,145,89760,2,0,L|100:223,1,52,0|0,3:0|0:0,0:0:0:0:
152,198,89931,1,0,0:0:0:0:
343,183,90017,5,8,3:0:0:0:
176,120,90189,1,0,0:0:0:0:
404,173,90360,2,0,L|404:274,1,52,2|0,0:0|0:0,0:0:0:0:
253,261,90531,2,0,L|253:347,1,52,2|0,0:0|0:0,0:0:0:0:
433,201,90703,2,0,L|293:198,1,104,0|0,3:0|0:0,0:0:0:0:
95,133,91046,6,0,L|312:133,1,166.4,4|0,3:2|0:0,0:0:0:0:
31,183,91389,2,0,L|32:316,1,104,8|0,3:0|0:0,0:0:0:0:
219,317,91646,2,0,L|218:173,1,104,0|0,3:0|0:0,0:0:0:0:
441,98,91903,6,0,P|419:249|268:276,1,322.400002459717,0|8,3:0|3:0,0:0:0:0:
19,184,92417,2,0,L|123:184,1,104,0|0,3:0|0:0,0:0:0:0:
293,124,92674,2,0,L|189:124,1,104,0|0,3:0|0:0,0:0:0:0:
17,182,92931,2,0,L|17:274,1,52,0|0,3:0|0:0,0:0:0:0:
237,272,93103,2,0,L|51:272,1,166.4,8|0,3:0|0:0,0:0:0:0:
324,171,93446,6,0,L|535:171,1,161.200001229858,4|0,3:2|0:0,0:0:0:0:
311,89,93703,2,0,L|175:89,1,104,0|0,3:0|0:0,0:0:0:0:
375,129,93960,2,0,L|374:219,1,52,0|0,3:0|0:0,0:0:0:0:
204,203,94131,2,0,L|357:203,1,104,8|0,3:0|0:0,0:0:0:0:
155,129,94389,2,0,L|2:129,1,104,0|0,3:0|0:0,0:0:0:0:
286,64,94646,6,0,P|297:165|120:269,1,322.400002459717,0|8,3:0|3:0,0:0:0:0:
363,211,95160,1,0,3:0:0:0:
197,188,95331,1,0,3:0:0:0:
434,97,95503,2,0,L|434:213,1,104,0|0,0:0|0:0,0:0:0:0:
268,138,95846,1,0,2:1:0:0:
435,97,96017,1,0,0:0:0:0:
199,81,96189,6,0,P|168:160|204:164,1,156,4|0,3:2|0:0,0:0:0:0:
357,166,96531,1,0,0:0:0:0:
376,212,96616,1,0,0:0:0:0:
355,258,96702,1,0,0:0:0:0:
307,274,96788,1,0,0:0:0:0:
161,270,96874,2,0,L|17:208,1,156,8|0,3:0|0:0,0:0:0:0:
180,162,97217,1,0,0:0:0:0:
18,101,97389,1,0,3:0:0:0:
248,73,97560,6,0,L|379:73,1,104,0|0,3:0|0:0,0:0:0:0:
185,139,97903,1,0,0:0:0:0:
352,148,98074,2,0,L|267:148,1,52,0|0,0:0|3:0,0:0:0:0:
128,171,98246,2,0,P|109:233|146:236,1,104,8|0,3:0|0:0,0:0:0:0:
284,241,98503,2,0,L|412:241,1,104,8|0,3:0|0:0,0:0:0:0:
337,242,98760,2,0,L|253:242,1,52,0|0,0:0|0:0,0:0:0:0:
135,112,98931,6,0,L|135:245,1,104,0|0,3:0|0:0,0:0:0:0:
286,60,99189,2,0,L|286:199,1,104,0|0,3:0|0:0,0:0:0:0:
434,169,99446,2,0,L|350:169,1,52,0|0,3:0|0:0,0:0:0:0:
199,179,99617,1,8,3:0:0:0:
181,226,99702,1,0,0:0:0:0:
201,272,99788,1,0,3:0:0:0:
249,290,99874,1,0,0:0:0:0:
419,167,99960,2,0,L|419:298,1,104,0|0,3:0|0:0,0:0:0:0:
257,225,100217,6,0,L|257:90,1,104,0|0,3:0|0:0,0:0:0:0:
92,92,100474,2,0,L|216:93,1,104,0|0,3:0|0:0,0:0:0:0:
343,160,100731,2,0,L|344:249,1,52,0|0,3:0|0:0,0:0:0:0:
291,213,100903,1,0,0:0:0:0:
125,205,100989,1,8,3:0:0:0:
291,213,101160,1,0,0:0:0:0:
62,127,101331,1,0,0:0:0:0:
19,149,101416,1,0,0:0:0:0:
18,198,101502,1,0,0:0:0:0:
62,222,101588,1,0,0:0:0:0:
233,225,101674,6,0,L|381:153,1,156,4|0,3:2|0:0,0:0:0:0:
201,131,102017,2,0,L|85:131,1,104,0|0,0:0|0:0,0:0:0:0:
253,71,102274,1,0,0:0:0:0:
97,158,102360,2,0,P|68:205|122:204,1,104,8|0,3:0|0:0,0:0:0:0:
177,221,102617,1,0,0:0:0:0:
328,217,102703,2,0,L|328:286,1,52,0|0,0:0|0:0,0:0:0:0:
167,270,102874,6,0,L|43:270,1,104,0|0,3:0|0:0,0:0:0:0:
222,144,103131,2,0,P|252:194|207:207,1,104,0|0,0:0|0:0,0:0:0:0:
66,78,103389,2,0,L|66:158,1,52,0|0,3:0|0:0,0:0:0:0:
224,207,103560,2,0,L|299:208,1,52,0|0,0:0|0:0,0:0:0:0:
125,149,103731,2,0,P|97:201|141:211,1,104,8|0,3:0|0:0,0:0:0:0:
203,217,103989,1,0,0:0:0:0:
370,211,104074,1,0,0:0:0:0:
203,217,104246,1,0,0:0:0:0:
435,145,104417,6,0,L|309:145,1,104,0|0,3:0|0:0,0:0:0:0:
180,82,104674,2,0,L|294:82,1,104,0|0,3:0|0:0,0:0:0:0:
436,147,104931,2,0,L|435:249,1,52,0|0,3:0|0:0,0:0:0:0:
250,161,105103,2,0,P|195:191|220:242,1,104,8|0,3:0|0:0,0:0:0:0:
252,257,105360,1,0,0:0:0:0:
425,266,105446,2,0,L|345:264,1,52,0|0,0:0|0:0,0:0:0:0:
180,173,105617,6,0,L|179:287,1,104,0|0,3:0|0:0,0:0:0:0:
322,93,105874,2,0,L|322:180,1,52,0|0,0:0|0:0,0:0:0:0:
271,149,106046,1,0,0:0:0:0:
107,147,106131,2,0,L|107:227,1,52,0|0,3:0|0:0,0:0:0:0:
271,149,106303,2,0,L|344:150,1,52,0|0,0:0|0:0,0:0:0:0:
152,85,106474,2,0,L|38:85,1,104,8|0,3:0|0:0,0:0:0:0:
126,139,106731,1,0,0:0:0:0:
304,178,106817,1,0,0:0:0:0:
315,227,106902,1,0,0:0:0:0:
288,269,106988,1,0,0:0:0:0:
238,279,107074,1,0,0:0:0:0:
81,207,107160,6,0,P|56:263|101:277,1,104,4|0,3:2|0:0,0:0:0:0:
160,277,107417,1,0,0:0:0:0:
325,137,107503,2,0,L|479:137,1,104,0|0,0:0|0:0,0:0:0:0:
350,195,107760,1,0,0:0:0:0:
188,213,107846,2,0,L|73:213,1,104,0|0,3:0|0:0,0:0:0:0:
250,98,108103,2,0,L|365:98,1,104,0|0,0:0|0:0,0:0:0:0:
186,215,108360,6,0,P|164:269|199:271,1,104,0|0,3:0|0:0,0:0:0:0:
342,153,108617,2,0,L|342:281,1,104,0|0,0:0|0:0,0:0:0:0:
181,172,108874,2,0,L|108:172,1,52,0|0,3:0|0:0,0:0:0:0:
305,93,109046,2,0,L|306:180,1,52,0|0,0:0|0:0,0:0:0:0:
142,113,109217,1,8,3:0:0:0:
133,162,109302,1,0,0:0:0:0:
161,204,109388,1,0,0:0:0:0:
211,213,109474,1,0,0:0:0:0:
381,281,109560,1,0,0:0:0:0:
389,231,109645,1,0,0:0:0:0:
361,189,109731,1,0,0:0:0:0:
311,180,109817,1,0,0:0:0:0:
144,104,109903,6,0,L|274:103,1,104,0|0,3:0|0:0,0:0:0:0:
422,165,110160,2,0,L|292:166,1,104,0|0,0:0|0:0,0:0:0:0:
144,105,110417,2,0,L|140:172,1,52,0|0,3:0|0:0,0:0:0:0:
303,158,110589,1,8,3:3:0:0:
136,199,110760,2,0,L|196:198,1,52,0|0,0:0|0:0,0:0:0:0:
360,106,110931,6,0,L|361:229,1,104,0|0,3:0|0:0,0:0:0:0:
194,84,111189,2,0,L|193:204,1,104,0|0,0:0|0:0,0:0:0:0:
359,103,111446,2,0,L|214:104,2,104,0|0|0,3:0|0:0|0:0,0:0:0:0:
125,201,111960,1,2,0:0:0:0:
230,168,112131,1,2,0:0:0:0:
63,127,112303,1,2,0:0:0:0:
46,174,112388,1,0,0:0:0:0:
71,218,112474,1,2,0:0:0:0:
121,229,112560,1,0,0:0:0:0:
292,229,112646,6,0,L|461:229,1,156,4|0,3:2|0:0,0:0:0:0:
282,86,112989,2,0,L|133:86,1,104,0|0,0:0|0:0,0:0:0:0:
338,145,113246,1,0,0:0:0:0:
179,123,113331,2,0,L|315:122,1,104,8|0,3:0|0:0,0:0:0:0:
205,175,113589,1,0,0:0:0:0:
59,177,113674,1,0,0:0:0:0:
34,220,113759,1,0,0:0:0:0:
211,260,113846,6,0,L|348:260,1,104,0|0,3:0|0:0,0:0:0:0:
150,99,114103,2,0,L|72:100,2,52,0|0|0,0:0|0:0|0:0,0:0:0:0:
315,166,114360,2,0,L|385:166,1,52,0|0,3:0|0:0,0:0:0:0:
197,196,114531,2,0,L|197:283,1,52,0|0,0:0|0:0,0:0:0:0:
364,160,114703,2,0,L|239:161,1,104,8|0,3:0|0:0,0:0:0:0:
339,101,114960,1,0,0:0:0:0:
486,97,115046,2,0,L|334:95,1,104,0|0,0:0|0:0,0:0:0:0:
137,129,115389,6,0,L|137:263,1,104,0|0,3:0|0:0,0:0:0:0:
288,317,115646,2,0,L|288:183,1,104,0|0,3:0|0:0,0:0:0:0:
449,153,115903,2,0,L|362:155,1,52,0|0,3:0|2:0,0:0:0:0:
209,207,116074,2,0,L|347:207,1,104,8|0,3:0|0:0,0:0:0:0:
474,92,116331,2,0,L|336:92,1,104,2|0,2:0|0:0,0:0:0:0:
172,104,116589,6,0,P|135:191|209:198,1,156,0|0,3:2|0:0,0:0:0:0:
328,187,116931,2,0,L|395:187,1,52,0|0,0:0|2:0,0:0:0:0:
216,133,117103,1,0,3:0:0:0:
380,187,117274,1,0,0:0:0:0:
148,200,117446,1,8,3:0:0:0:
70,202,117531,2,0,L|216:203,1,104,0|0,0:0|0:0,0:0:0:0:
370,133,117789,2,0,P|393:193|364:205,1,104,0|0,0:0|0:0,0:0:0:0:
293,199,118046,1,0,0:0:0:0:
137,97,118131,6,0,L|139:223,1,104,0|0,3:0|0:0,0:0:0:0:
190,200,118389,2,0,L|266:200,1,52,0|0,0:0|3:0,0:0:0:0:
79,241,118560,1,0,0:0:0:0:
79,241,118646,1,0,0:0:0:0:
317,243,118817,2,0,L|467:243,1,104,0|0,3:0|0:0,0:0:0:0:
264,149,119074,2,0,L|110:148,1,104,0|0,3:0|0:0,0:0:0:0:
321,49,119331,2,0,L|321:146,1,52,0|0,3:0|0:0,0:0:0:0:
139,146,119503,6,0,L|-11:147,1,104,0|0,3:0|0:0,0:0:0:0:
115,92,119760,1,0,0:0:0:0:
296,146,119846,2,0,L|296:224,1,52,0|0,3:0|0:0,0:0:0:0:
115,226,120017,2,0,L|115:289,1,52,0|0,0:0|0:0,0:0:0:0:
318,130,120189,2,0,L|395:132,2,52,0|0|0,3:0|0:0|0:0,0:0:0:0:
170,169,120446,2,0,L|172:270,1,52,0|0,3:0|0:0,0:0:0:0:
223,218,120617,1,0,0:0:0:0:
388,208,120703,2,0,L|452:209,1,52,0|0,3:0|0:0,0:0:0:0:
265,306,120874,5,0,3:0:0:0:
186,261,120960,2,0,L|316:260,1,104,0|0,0:0|0:0,0:0:0:0:
127,160,121217,1,0,3:0:0:0:
127,160,121389,1,0,0:0:0:0:
363,126,121560,2,0,L|232:125,1,104,0|0,3:0|0:0,0:0:0:0:
102,222,121817,2,0,L|233:221,1,104,0|0,3:0|0:0,0:0:0:0:
357,174,122074,2,0,L|263:174,1,52,0|0,3:0|0:0,0:0:0:0:
92,155,122246,6,0,L|92:268,1,104,0|0,3:0|0:0,0:0:0:0:
146,257,122503,1,0,0:0:0:0:
312,299,122589,1,2,0:0:0:0:
146,257,122760,1,0,0:0:0:0:
375,134,122931,1,2,0:0:0:0:
406,173,123016,1,0,0:0:0:0:
394,222,123102,1,0,0:0:0:0:
347,241,123188,1,0,2:3:0:0:
156,231,123274,2,0,L|272:202,1,104,2|0,2:3|0:0,0:0:0:0:
486,140,123617,5,4,0:2:0:0:
256,192,126360,12,0,128417,0:0:0:0:
210,121,128589,6,0,L|328:121,2,104,2|2|2,0:0|0:0|0:0,0:0:0:0:
443,139,129103,6,0,L|442:262,1,104,2|0,0:0|0:0,0:0:0:0:
275,224,129446,1,0,0:0:0:0:
444,137,129617,1,0,0:0:0:0:
452,187,129702,1,0,0:0:0:0:
435,236,129788,1,0,0:0:0:0:
396,269,129874,1,0,0:0:0:0:
345,279,129959,1,0,0:0:0:0:
178,103,130131,2,0,L|324:104,1,104,0|0,0:0|0:0,0:0:0:0:
50,184,130474,6,0,L|51:310,1,104,2|0,0:0|0:0,0:0:0:0:
218,280,130817,1,0,0:0:0:0:
51,119,130989,2,0,L|52:208,1,52,0|0,0:0|0:0,0:0:0:0:
119,178,131160,2,0,L|121:280,1,52,2|0,0:0|0:0,0:0:0:0:
50,118,131331,1,0,0:0:0:0:
217,109,131503,2,0,L|102:108,1,104,2|0,0:0|0:0,0:0:0:0:
346,156,131846,6,0,L|472:156,1,104,2|0,0:0|0:0,0:0:0:0:
283,248,132189,1,2,0:0:0:0:
450,48,132360,2,0,L|450:141,1,52,2|0,0:0|0:0,0:0:0:0:
383,118,132531,2,0,L|385:218,1,52,2|0,0:0|0:0,0:0:0:0:
450,49,132703,1,0,0:0:0:0:
284,104,132874,2,0,L|419:103,1,104,2|2,0:0|0:0,0:0:0:0:
152,187,133217,5,4,2:0:0:0:
319,181,133389,1,0,2:0:0:0:
152,187,133560,1,0,2:0:0:0:
116,222,133645,1,0,2:0:0:0:
128,270,133731,1,0,2:0:0:0:
176,284,133817,1,0,2:0:0:0:
329,280,133903,2,0,L|398:280,1,52,0|0,3:0|0:0,0:0:0:0:
227,185,134074,2,0,L|167:185,1,52,0|0,3:0|0:0,0:0:0:0:
330,77,134246,1,0,3:0:0:0:
375,96,134331,1,0,0:0:0:0:
383,145,134417,1,0,0:0:0:0:
346,178,134503,1,0,0:0:0:0:
171,150,134589,6,0,P|154:218|188:247,1,104,4|0,0:0|0:0,0:0:0:0:
224,249,134846,1,0,0:0:0:0:
275,249,134931,1,8,0:0:0:0:
224,249,135016,1,0,0:0:0:0:
172,249,135102,1,0,0:0:0:0:
339,159,135274,2,0,L|427:159,2,52,8|0|0,0:0|0:0|0:0,0:0:0:0:
172,121,135617,1,8,0:0:0:0:
339,159,135789,1,0,0:0:0:0:
105,114,135960,6,0,L|105:246,1,104,8|0,0:0|0:0,0:0:0:0:
157,218,136217,1,0,0:0:0:0:
105,218,136303,2,0,L|41:218,2,52,8|0|0,0:0|0:0|0:0,0:0:0:0:
336,242,136646,1,8,0:0:0:0:
170,184,136817,2,0,L|72:184,1,52,0|0,0:0|0:0,0:0:0:0:
276,218,136989,1,8,0:0:0:0:
442,159,137160,1,0,0:0:0:0:
208,74,137331,6,0,L|80:104,1,104,8|0,0:0|0:0,0:0:0:0:
159,117,137589,1,0,0:0:0:0:
211,126,137674,1,8,0:0:0:0:
159,126,137759,1,0,0:0:0:0:
107,126,137845,1,0,0:0:0:0:
338,215,138017,2,0,L|287:214,3,52,8|0|0|0,0:0|0:0|0:0|0:0,0:0:0:0:
338,215,138360,1,8,0:0:0:0:
384,196,138445,1,0,0:0:0:0:
385,147,138531,1,0,0:0:0:0:
340,126,138617,1,0,0:0:0:0:
176,173,138703,5,0,0:0:0:0:
342,96,138874,2,0,L|249:96,1,52,2|0,0:0|0:0,0:0:0:0:
124,173,139046,1,8,0:0:0:0:
290,96,139217,2,0,L|197:96,1,52,2|0,0:0|0:0,0:0:0:0:
72,172,139389,2,0,P|37:101|88:84,1,138.666666666667,8|0,0:0|0:0,0:0:0:0:
265,69,139731,2,0,L|343:69,2,69.3333333333333,0|0|0,0:0|0:0|0:0,0:0:0:0:
56,104,140074,6,0,P|40:171|134:203,1,156,4|0,0:2|0:0,0:0:0:0:
221,213,140417,2,0,L|349:213,1,104,8|0,0:3|0:0,0:0:0:0:
93,71,140760,2,0,L|93:169,1,52,0|0,0:0|0:0,0:0:0:0:
182,130,140931,2,0,L|184:226,1,52,0|0,0:0|0:0,0:0:0:0:
81,180,141103,1,8,0:3:0:0:
61,226,141188,1,0,0:0:0:0:
82,272,141274,1,2,0:0:0:0:
130,288,141360,1,0,0:0:0:0:
290,287,141446,6,0,L|463:266,1,156,8|0,0:3|0:0,0:0:0:0:
334,186,141789,2,0,L|186:186,1,104,8|2,0:3|0:0,0:0:0:0:
458,78,142131,1,8,0:3:0:0:
406,77,142216,1,0,0:0:0:0:
354,77,142302,1,2,0:0:0:0:
187,99,142474,1,8,0:3:0:0:
176,148,142559,1,0,0:0:0:0:
206,188,142645,1,0,3:0:0:0:
257,191,142731,1,0,3:0:0:0:
430,187,142817,5,0,3:0:0:0:
474,209,142902,1,0,0:0:0:0:
474,258,142988,1,2,0:0:0:0:
429,279,143074,1,0,0:0:0:0:
313,280,143160,2,0,L|194:280,1,104,8|2,0:3|0:0,0:0:0:0:
454,60,143503,1,8,0:3:0:0:
297,67,143674,2,0,P|282:132|322:130,1,104,2|0,0:0|0:0,0:0:0:0:
445,190,143931,2,0,P|460:125|420:127,1,104,2|0,0:0|0:0,0:0:0:0:
298,103,144189,6,0,L|460:181,1,173.333333333333,4|0,3:2|0:0,0:0:0:0:
234,165,144531,2,0,L|369:234,1,138.666666666667,0|0,0:0|0:0,0:0:0:0:
168,109,144874,1,8,3:0:0:0:
168,109,145046,1,8,3:0:0:0:
399,74,145217,2,0,P|450:126|386:160,1,156,0|0,0:0|0:0,0:0:0:0:
238,154,145560,5,4,0:0:0:0:
256,192,148303,12,0,150874,0:0:0:0:
316,166,151046,6,0,P|345:215|306:228,1,104,4|0,0:0|0:0,0:0:0:0:
264,229,151303,2,0,L|333:229,1,52,0|8,0:0|0:2,0:0:0:0:
148,174,151560,2,0,P|119:125|158:112,1,104,0|8,0:0|0:0,0:0:0:0:
200,111,151817,2,0,L|131:111,1,52,0|0,0:0|0:0,0:0:0:0:
314,176,152074,2,0,L|172:176,1,104,8|0,0:2|0:0,0:0:0:0:
265,131,152331,1,0,0:0:0:0:
96,155,152417,5,8,0:0:0:0:
265,131,152589,2,0,L|188:132,1,52,0|0,0:0|0:0,0:0:0:0:
47,149,152760,1,8,0:0:0:0:
47,149,152931,1,0,0:0:0:0:
215,250,153103,1,8,0:0:0:0:
47,149,153274,1,0,0:0:0:0:
215,250,153446,1,8,0:0:0:0:
383,149,153617,1,0,0:0:0:0:
152,73,153789,6,0,L|152:145,1,52,8|8,0:0|0:0,0:0:0:0:
260,152,153960,2,0,L|260:223,1,52,8|8,0:0|0:0,0:0:0:0:
117,180,154131,2,0,L|117:252,1,52,8|8,0:0|0:0,0:0:0:0:
225,259,154303,2,0,L|225:331,1,52,8|8,0:0|0:0,0:0:0:0:
66,262,154474,2,0,L|147:262,1,52,8|8,0:0|0:0,0:0:0:0:
273,261,154646,2,0,L|334:261,1,52,8|8,0:0|0:0,0:0:0:0:
154,170,154817,2,0,L|235:170,1,52,8|8,0:0|0:0,0:0:0:0:
361,169,154989,2,0,L|422:169,1,52,8|8,0:0|0:0,0:0:0:0:
199,248,155160,5,8,3:0:0:0:
367,141,155331,2,0,L|367:201,1,52,0|0,3:0|3:0,0:0:0:0:
199,248,155589,2,0,L|199:346,1,52,0|0,3:0|3:0,0:0:0:0:
32,115,155846,2,0,L|32:177,1,52,0|0,3:0|3:0,0:0:0:0:
85,171,156017,1,0,3:0:0:0:
120,171,156074,1,0,3:0:0:0:
155,171,156131,1,0,3:0:0:0:
313,176,156189,2,0,P|363:225|278:251,1,156,4|0,3:2|0:0,0:0:0:0:
88,202,156531,6,0,P|50:281|103:290,1,161.200001229858,4|2,3:2|0:0,0:0:0:0:
175,288,156789,1,0,0:0:0:0:
351,188,156874,2,0,L|351:283,1,80.6000006149292,0|0,3:0|0:0,0:0:0:0:
175,288,157046,2,0,L|257:257,1,80.6000006149292,2|0,0:0|0:0,0:0:0:0:
412,111,157217,2,0,P|463:175|395:190,1,161.200001229858,0|2,3:0|0:0,0:0:0:0:
335,190,157474,1,0,0:0:0:0:
170,143,157560,2,0,L|337:140,1,161.200001229858,0|2,3:0|0:0,0:0:0:0:
87,191,157903,6,0,P|59:279|108:277,1,161.200001229858,0|2,3:0|0:0,0:0:0:0:
261,270,158160,2,0,L|77:224,1,161.200001229858,0|0,0:0|0:0,0:0:0:0:
186,198,158417,1,2,0:0:0:0:
349,156,158503,2,0,P|391:236|334:251,1,161.200001229858,0|0,0:0|0:0,0:0:0:0:
268,253,158760,2,0,L|410:254,1,80.6000006149292,2|0,0:0|0:0,0:0:0:0:
185,130,158931,1,0,3:0:0:0:
118,167,159016,1,0,0:0:0:0:
122,244,159102,1,0,0:0:0:0:
192,274,159188,1,0,0:0:0:0:
365,230,159274,6,0,L|181:209,1,161.200001229858,0|2,3:0|0:0,0:0:0:0:
374,75,159531,2,0,P|402:151|372:148,1,161.200001229858,0|0,0:0|0:0,0:0:0:0:
216,141,159789,2,0,L|128:138,1,80.6000006149292,2|0,0:0|0:0,0:0:0:0:
296,203,159960,2,0,P|324:279|294:276,1,161.200001229858,0|2,3:0|0:0,0:0:0:0:
216,268,160217,1,0,0:0:0:0:
381,230,160303,2,0,L|183:230,1,161.200001229858,0|2,3:0|0:0,0:0:0:0:
463,99,160646,6,0,L|296:93,1,161.200001229858,0|2,3:0|0:0,0:0:0:0:
382,54,160903,2,0,L|382:167,1,80.6000006149292,0|0,0:0|3:0,0:0:0:0:
233,160,161074,2,0,L|367:253,1,161.200001229858,0|0,0:0|0:0,0:0:0:0:
328,316,161331,1,0,0:0:0:0:
253,334,161417,1,0,0:0:0:0:
75,179,161503,2,0,L|248:137,2,161.200001229858,0|0|0,0:0|3:0|0:0,0:0:0:0:
318,134,162017,6,0,P|315:236|249:243,1,161.200001229858,0|2,3:0|0:0,0:0:0:0:
195,246,162274,1,0,0:0:0:0:
359,100,162360,2,0,L|360:211,1,80.6000006149292,0|0,3:0|0:0,0:0:0:0:
198,147,162531,2,0,L|198:243,1,80.6000006149292,2|0,0:0|0:0,0:0:0:0:
384,255,162703,2,0,P|446:189|349:155,1,161.200001229858,0|2,3:0|0:0,0:0:0:0:
332,144,162960,1,0,0:0:0:0:
171,153,163046,1,0,3:0:0:0:
332,144,163217,1,2,0:0:0:0:
88,94,163389,6,0,L|259:131,1,161.200001229858,0|2,3:0|0:0,0:0:0:0:
430,215,163646,2,0,L|259:178,1,161.200001229858,0|0,0:0|0:0,0:0:0:0:
345,147,163903,2,0,L|443:140,1,80.6000006149292,2|0,0:0|0:0,0:0:0:0:
258,53,164074,2,0,P|202:113|273:169,1,161.200001229858,0|2,3:0|0:0,0:0:0:0:
318,209,164331,1,0,0:0:0:0:
483,133,164417,2,0,P|467:240|422:283,1,161.200001229858,0|2,3:0|0:0,0:0:0:0:
352,283,164674,1,0,0:0:0:0:
184,174,164760,6,0,P|151:259|194:262,1,161.200001229858,0|2,3:0|0:0,0:0:0:0:
345,262,165017,2,0,L|177:197,1,161.200001229858,0|0,0:0|0:0,0:0:0:0:
275,174,165274,1,2,0:0:0:0:
100,142,165360,2,0,L|284:67,1,161.200001229858,0|0,0:0|0:0,0:0:0:0:
426,94,165617,2,0,L|255:129,2,161.200001229858,2|0|2,0:0|3:0|0:0,0:0:0:0:
182,105,166131,6,0,L|20:105,1,161.200001229858,0|2,3:0|0:0,0:0:0:0:
206,170,166389,2,0,L|206:284,1,80.6000006149292,0|0,0:0|3:0,0:0:0:0:
124,250,166560,1,0,0:0:0:0:
300,215,166646,2,0,L|480:195,1,161.200001229858,2|0,0:0|3:0,0:0:0:0:
291,102,166989,2,0,L|290:213,1,80.6000006149292,0|0,0:0|0:0,0:0:0:0:
452,102,167160,2,0,L|269:101,1,161.200001229858,2|2,2:0|0:0,0:0:0:0:
41,113,167503,6,0,L|41:279,1,161.200001229858,4|2,3:2|0:0,0:0:0:0:
206,280,167760,2,0,P|237:186|167:178,1,161.200001229858,0|0,0:0|0:0,0:0:0:0:
121,169,168017,2,0,L|211:169,1,80.6000006149292,2|0,0:0|0:0,0:0:0:0:
372,113,168189,2,0,L|371:220,1,80.6000006149292,0|0,3:0|0:0,0:0:0:0:
295,199,168360,2,0,L|299:305,1,80.6000006149292,2|0,0:0|0:0,0:0:0:0:
457,120,168531,2,0,L|457:209,1,80.6000006149292,0|0,3:0|0:0,0:0:0:0:
294,199,168703,2,0,L|214:199,1,80.6000006149292,2|0,0:0|0:0,0:0:0:0:
379,291,168874,6,0,P|387:193|340:215,1,161.200001229858,0|2,3:0|0:0,0:0:0:0:
216,213,169131,2,0,L|398:190,1,161.200001229858,0|0,0:0|0:0,0:0:0:0:
297,131,169389,1,2,0:0:0:0:
122,221,169474,2,0,P|76:147|148:114,1,161.200001229858,0|0,0:0|0:0,0:0:0:0:
297,131,169731,2,0,L|394:129,1,80.6000006149292,2|0,0:0|0:0,0:0:0:0:
203,112,169903,2,0,L|95:111,1,80.6000006149292,0|0,3:0|0:0,0:0:0:0:
203,112,170074,2,0,L|310:113,1,80.6000006149292,2|0,0:0|0:0,0:0:0:0:
95,182,170246,6,0,P|69:266|114:258,1,161.200001229858,0|2,3:0|0:0,0:0:0:0:
254,200,170503,1,0,0:0:0:0:
335,199,170589,2,0,L|335:304,1,80.6000006149292,0|0,3:0|0:0,0:0:0:0:
159,252,170760,2,0,L|247:251,1,80.6000006149292,2|0,0:0|0:0,0:0:0:0:
429,122,170931,1,0,3:0:0:0:
268,126,171103,1,2,0:0:0:0:
107,130,171274,1,0,3:0:0:0:
268,126,171446,1,2,0:0:0:0:
25,149,171617,6,0,P|43:236|108:256,1,161.200001229858,0|2,3:0|0:0,0:0:0:0:
263,171,171960,1,0,3:0:0:0:
297,240,172045,1,0,0:0:0:0:
262,309,172131,1,2,0:0:0:0:
185,323,172217,1,0,0:0:0:0:
344,149,172303,1,0,3:0:0:0:
405,196,172388,1,0,0:0:0:0:
404,274,172474,1,2,0:0:0:0:
342,320,172560,1,0,0:0:0:0:
189,259,172646,2,0,L|95:259,1,80.6000006149292,0|0,0:0|0:0,0:0:0:0:
189,259,172817,2,0,L|292:259,1,80.6000006149292,0|0,0:0|0:0,0:0:0:0:
436,139,172989,6,0,L|261:180,1,161.200001229858,0|2,3:0|0:0,0:0:0:0:
117,132,173246,2,0,L|292:91,1,161.200001229858,0|0,0:0|0:0,0:0:0:0:
117,132,173503,2,0,L|116:233,1,80.6000006149292,2|0,0:0|0:0,0:0:0:0:
272,206,173674,2,0,P|296:291|252:280,1,161.200001229858,0|2,3:0|0:0,0:0:0:0:
191,277,173931,1,0,0:0:0:0:
336,138,174017,2,0,L|337:249,1,80.6000006149292,0|0,3:0|0:0,0:0:0:0:
171,278,174189,2,0,L|57:276,1,80.6000006149292,2|0,0:0|0:0,0:0:0:0:
239,241,174360,6,0,L|466:236,1,161.200001229858,0|2,3:0|0:0,0:0:0:0:
241,143,174617,2,0,L|14:148,1,161.200001229858,0|0,0:0|0:0,0:0:0:0:
161,192,174874,1,2,0:0:0:0:
341,170,174960,2,0,P|386:246|320:270,1,161.200001229858,0|0,0:0|0:0,0:0:0:0:
260,275,175217,2,0,L|362:273,1,80.6000006149292,2|0,0:0|0:0,0:0:0:0:
185,91,175389,2,0,L|184:204,1,80.6000006149292,0|0,3:0|0:0,0:0:0:0:
346,169,175560,2,0,L|461:169,1,80.6000006149292,2|0,0:0|0:0,0:0:0:0:
234,106,175731,6,0,L|234:285,1,161.200001229858,0|0,3:0|0:0,0:0:0:0:
383,78,176074,2,0,L|383:294,1,161.200001229858,0|0,3:0|0:0,0:0:0:0:
230,175,176417,1,0,0:0:0:0:
203,249,176502,1,0,0:0:0:0:
231,323,176588,1,0,0:0:0:0:
301,360,176674,1,0,0:0:0:0:
465,72,176760,1,0,0:0:0:0:
484,148,176845,1,0,0:0:0:0:
456,223,176931,1,0,0:0:0:0:
390,267,177017,1,0,0:0:0:0:
183,141,177103,6,0,P|154:217|258:335,1,241.800001844788,0|0,0:0|0:0,0:0:0:0:
399,330,177446,1,0,2:0:0:0:
439,319,177503,1,0,2:0:0:0:
464,285,177560,1,0,2:0:0:0:
463,243,177617,1,0,2:0:0:0:
434,212,177674,1,0,2:0:0:0:
393,205,177731,1,0,2:0:0:0:
233,184,177789,2,0,L|359:183,2,107.466667486572,0|0|0,3:0|3:0|3:0,0:0:0:0:
41,81,178131,2,0,L|233:81,1,161.200001229858,0|0,3:0|3:0,0:0:0:0:
439,84,178474,2,0,P|450:149|356:178,1,156,0|0,3:0|0:0,0:0:0:0:
229,179,178817,6,0,L|105:179,1,104,4|0,3:2|0:0,0:0:0:0:
178,134,179074,1,0,0:0:0:0:
348,162,179160,2,0,L|463:162,1,104,0|0,3:0|0:0,0:0:0:0:
285,78,179503,2,0,L|141:78,1,104,0|0,3:0|0:0,0:0:0:0:
234,123,179760,1,0,0:0:0:0:
383,157,179846,6,0,L|383:238,1,52,0|0,3:0|0:0,0:0:0:0:
293,237,180017,2,0,L|292:335,1,52,0|0,0:0|0:0,0:0:0:0:
459,98,180189,2,0,L|336:98,1,104,0|0,3:0|0:0,0:0:0:0:
189,97,180531,2,0,L|189:197,1,52,0|0,3:0|0:0,0:0:0:0:
242,150,180703,1,0,0:0:0:0:
76,230,180874,1,0,3:0:0:0:
66,179,180959,1,0,0:0:0:0:
93,136,181045,1,0,0:0:0:0:
142,122,181131,1,0,0:0:0:0:
305,124,181217,6,0,L|487:125,1,156,0|0,3:0|0:0,0:0:0:0:
306,223,181560,2,0,L|199:223,1,104,0|0,3:0|0:0,0:0:0:0:
369,103,181903,1,0,3:0:0:0:
413,124,181988,1,0,0:0:0:0:
413,173,182074,1,0,0:0:0:0:
369,195,182160,1,0,0:0:0:0:
205,174,182246,2,0,L|123:176,2,52,0|0|0,3:0|0:0|0:0,0:0:0:0:
435,72,182589,6,0,P|466:117|424:142,1,104,0|0,3:0|0:0,0:0:0:0:
358,140,182846,1,0,0:0:0:0:
195,132,182931,2,0,L|310:131,1,104,0|0,3:0|0:0,0:0:0:0:
220,76,183189,1,0,0:0:0:0:
67,80,183274,2,0,P|27:128|51:158,1,104,0|0,3:0|0:0,0:0:0:0:
100,183,183531,1,0,0:0:0:0:
243,147,183617,1,0,0:0:0:0:
189,158,183702,1,0,0:0:0:0:
151,190,183788,1,0,0:0:0:0:
144,233,183874,1,0,0:0:0:0:
288,264,183960,5,0,3:0:0:0:
183,277,184046,2,0,P|149:250|204:219,1,104,0|0,0:0|0:0,0:0:0:0:
337,155,184303,2,0,L|205:155,1,104,0|0,3:0|0:0,0:0:0:0:
62,130,184560,2,0,L|194:130,1,104,0|0,0:0|0:0,0:0:0:0:
321,140,184817,2,0,P|318:207|268:213,1,104,0|0,0:0|3:0,0:0:0:0:
137,208,185074,2,0,L|10:208,1,104,0|0,0:0|0:0,0:0:0:0:
217,114,185331,6,0,L|328:112,1,104,0|0,3:0|0:0,0:0:0:0:
246,53,185589,1,0,0:0:0:0:
100,99,185674,1,0,3:0:0:0:
265,69,185846,1,0,0:0:0:0:
36,206,186017,1,0,3:0:0:0:
18,253,186102,1,0,0:0:0:0:
40,298,186188,1,0,0:0:0:0:
89,312,186274,1,0,0:0:0:0:
251,143,186360,1,0,3:0:0:0:
301,144,186445,1,0,0:0:0:0:
334,182,186531,1,0,0:0:0:0:
328,232,186617,1,0,0:0:0:0:
129,238,186703,5,0,3:0:0:0:
208,236,186789,2,0,P|240:280|197:288,1,104,0|0,0:0|0:0,0:0:0:0:
46,178,187046,2,0,L|169:178,1,104,0|0,3:0|0:0,0:0:0:0:
324,260,187303,2,0,L|201:260,1,104,0|0,0:0|0:0,0:0:0:0:
298,173,187560,1,0,0:0:0:0:
465,91,187731,2,0,L|465:210,1,104,0|0,3:0|0:0,0:0:0:0:
386,197,187989,1,0,0:0:0:0:
195,90,188074,5,0,3:0:0:0:
362,107,188246,1,0,0:0:0:0:
310,107,188331,1,0,0:0:0:0:
258,107,188417,1,0,3:0:0:0:
425,202,188589,2,0,L|343:203,1,52,0|0,0:0|0:0,0:0:0:0:
215,205,188760,1,0,3:0:0:0:
370,188,188931,1,2,0:0:0:0:
280,217,189103,1,2,2:0:0:0:
428,286,189274,2,0,L|504:286,1,52,2|0,0:0|0:0,0:0:0:0:
308,259,189446,6,0,L|95:258,1,156.000005950928,4|0,3:2|0:0,0:0:0:0:
232,258,189703,1,0,0:0:0:0:
392,98,189789,2,0,P|448:202|408:223,1,156.000005950928,0|0,3:0|0:0,0:0:0:0:
369,209,190046,1,0,0:0:0:0:
198,202,190131,1,0,3:0:0:0:
354,142,190302,1,0,0:0:0:0:
198,202,190474,1,0,3:0:0:0:
436,187,190646,6,0,P|444:245|346:283,1,156.000005950928,0|0,0:0|3:0,0:0:0:0:
217,290,190903,2,0,P|168:259|241:204,1,156.000005950928,0|0,0:0|0:0,0:0:0:0:
364,109,191160,2,0,L|364:193,1,78.000002975464,0|0,3:0|0:0,0:0:0:0:
214,194,191331,2,0,L|214:110,1,78.000002975464,0|0,0:0|0:0,0:0:0:0:
399,75,191503,2,0,P|437:155|390:170,1,156.000005950928,0|0,3:0|2:0,0:0:0:0:
319,168,191760,1,0,0:0:0:0:
159,124,191846,2,0,L|159:235,1,78.000002975464,0|0,3:0|0:0,0:0:0:0:
319,168,192017,2,0,L|319:279,1,78.000002975464,0|0,0:0|0:0,0:0:0:0:
141,220,192189,6,0,P|115:303|165:292,1,156.000005950928,0|0,3:0|0:0,0:0:0:0:
300,253,192446,2,0,P|326:170|276:181,1,156.000005950928,0|0,0:0|0:0,0:0:0:0:
143,218,192703,2,0,L|50:219,1,78.000002975464,0|0,0:0|0:0,0:0:0:0:
223,103,192874,2,0,P|264:177|201:179,1,156.000005950928,0|0,3:0|0:0,0:0:0:0:
68,129,193131,2,0,L|234:130,1,156.000005950928,0|0,0:0|0:0,0:0:0:0:
394,126,193389,2,0,L|394:227,1,78.000002975464,0|0,0:0|0:0,0:0:0:0:
238,248,193560,6,0,L|67:248,1,156.000005950928,0|0,3:0|0:0,0:0:0:0:
161,199,193817,1,0,0:0:0:0:
317,199,193903,2,0,L|141:199,1,156.000005950928,0|0,3:0|0:0,0:0:0:0:
347,93,194246,2,0,L|347:203,1,78.000002975464,0|0,3:0|0:0,0:0:0:0:
269,176,194417,1,0,0:0:0:0:
433,207,194589,1,0,3:0:0:0:
450,280,194674,1,0,0:0:0:0:
408,344,194760,1,0,0:0:0:0:
334,358,194846,1,0,0:0:0:0:
161,227,194931,6,0,P|129:306|172:309,1,156.000005950928,0|0,3:2|0:0,0:0:0:0:
326,205,195189,2,0,P|358:126|315:123,1,156.000005950928,0|0,0:0|0:0,0:0:0:0:
162,225,195446,2,0,L|162:120,1,78.000002975464,0|0,0:0|0:0,0:0:0:0:
339,117,195617,2,0,P|331:213|252:211,1,156.000005950928,0|0,3:0|0:0,0:0:0:0:
213,224,195874,1,0,0:0:0:0:
371,171,195960,1,0,3:0:0:0:
433,212,196045,1,0,0:0:0:0:
431,286,196131,1,0,0:0:0:0:
367,325,196217,1,0,0:0:0:0:
200,192,196303,6,0,L|84:191,1,104,0|0,3:0|0:0,0:0:0:0:
246,283,196560,2,0,L|369:285,1,104,0|0,0:0|0:0,0:0:0:0:
201,189,196817,2,0,L|202:103,1,52,0|0,0:0|0:0,0:0:0:0:
354,70,196989,2,0,L|354:166,1,52,0|0,3:0|0:0,0:0:0:0:
260,121,197160,2,0,L|260:194,1,52,0|0,0:0|0:0,0:0:0:0:
421,174,197331,1,0,3:0:0:0:
444,218,197416,1,0,0:0:0:0:
426,265,197502,1,0,0:0:0:0:
378,283,197588,1,0,0:0:0:0:
217,146,197674,5,0,3:0:0:0:
291,146,197760,2,0,L|292:248,1,52,0|0,0:0|0:0,0:0:0:0:
143,206,197931,2,0,L|143:307,1,52,0|0,0:0|2:0,0:0:0:0:
196,255,198103,1,0,0:0:0:0:
343,229,198189,2,0,L|343:317,1,52,0|0,0:0|0:0,0:0:0:0:
195,119,198360,2,0,L|195:210,1,52,0|0,2:0|0:0,0:0:0:0:
272,183,198531,2,0,L|272:263,1,52,2|0,0:0|0:0,0:0:0:0:
219,234,198703,1,0,0:0:0:0:
59,220,198789,2,0,L|212:219,1,104,2|0,0:0|0:0,0:0:0:0:
334,255,199046,5,0,2:0:0:0:
231,263,199217,1,0,2:0:0:0:
231,263,199389,1,0,0:0:0:0:
334,265,199560,1,0,0:0:0:0:
172,260,199731,1,0,0:0:0:0:
225,247,199817,1,0,0:0:0:0:
277,262,199903,1,0,0:0:0:0:
115,267,200074,1,4,3:0:0:0:
277,262,200245,1,4,3:0:0:0:
46,187,200417,6,0,L|178:187,1,104,4|0,0:0|0:0,0:0:0:0:
316,115,200760,2,0,P|345:165|290:176,1,104,8|0,2:3|0:0,0:0:0:0:
154,228,201103,2,0,L|274:228,1,104,0|0,2:0|0:0,0:0:0:0:
95,275,201446,1,8,0:3:0:0:
258,228,201617,1,2,0:0:0:0:
28,213,201789,6,0,L|28:77,1,104,0|0,0:0|0:0,0:0:0:0:
183,78,202132,2,0,L|51:77,1,104,8|0,0:3|0:0,0:0:0:0:
247,272,202475,1,0,2:3:0:0:
296,254,202560,1,2,0:0:0:0:
314,221,202602,1,0,0:0:0:0:
309,183,202645,1,0,0:0:0:0:
283,156,202688,1,0,0:0:0:0:
245,150,202731,1,0,0:0:0:0:
131,149,202817,1,8,0:3:0:0:
287,141,202989,1,0,0:0:0:0:
41,181,203160,6,0,L|148:181,1,104,0|0,2:0|0:0,0:0:0:0:
312,264,203503,2,0,L|205:264,1,104,8|0,0:3|0:0,0:0:0:0:
41,181,203846,2,0,L|41:304,1,104,0|0,0:0|0:0,0:0:0:0:
208,277,204189,2,0,L|357:277,1,104,8|0,0:3|0:0,0:0:0:0:
145,212,204532,5,0,0:0:0:0:
373,229,204703,1,2,0:0:0:0:
269,224,204875,2,0,L|269:82,1,104,2|0,0:2|0:0,0:0:0:0:
103,172,205217,1,2,0:0:0:0:
207,167,205389,2,0,L|207:38,1,104,2|0,0:0|0:0,0:0:0:0:
40,164,205732,1,2,0:0:0:0:
269,314,205903,6,0,L|141:314,1,104,0|0,3:0|0:0,0:0:0:0:
332,255,206246,1,8,0:3:0:0:
102,218,206417,2,0,L|102:133,1,52,0|0,0:0|0:0,0:0:0:0:
187,146,206589,1,0,0:0:0:0:
83,189,206760,1,0,0:0:0:0:
334,212,206932,1,8,0:3:0:0:
178,217,207103,1,2,0:2:0:0:
414,277,207275,6,0,L|291:280,2,104,0|0|8,0:0|0:0|0:3,0:0:0:0:
181,207,207789,2,0,L|101:208,2,52,0|0|0,0:0|0:0|0:0,0:0:0:0:
286,171,208046,2,0,L|298:143,4,26,2|0|0|0|0,0:0|0:0|0:0|0:0|0:0,0:0:0:0:
181,207,208303,2,0,P|148:181|209:156,1,104,8|0,0:3|0:0,0:0:0:0:
410,208,208646,6,0,L|293:208,1,104,0|0,0:0|0:0,0:0:0:0:
473,137,208989,1,8,0:3:0:0:
242,219,209160,1,0,0:0:0:0:
242,219,209246,1,0,0:0:0:0:
294,221,209332,1,0,0:0:0:0:
399,220,209503,1,0,0:0:0:0:
176,137,209674,2,0,L|72:138,1,104,8|0,0:3|0:0,0:0:0:0:
301,139,210017,5,0,3:0:0:0:
468,102,210189,1,0,0:0:0:0:
485,150,210274,1,0,0:0:0:0:
482,202,210360,1,2,0:0:0:0:
461,249,210446,1,0,0:0:0:0:
424,285,210531,1,0,0:0:0:0:
376,304,210617,1,0,0:0:0:0:
217,298,210703,2,0,L|120:298,1,52,2|0,0:0|0:0,0:0:0:0:
113,298,210875,2,0,L|187:298,1,52,2|0,0:0|0:0,0:0:0:0:
311,211,211046,2,0,L|212:211,1,52,4|0,0:0|0:0,0:0:0:0:
207,211,211217,2,0,L|125:211,1,52,0|0,0:0|0:0,0:0:0:0:
323,192,211389,6,0,L|323:336,1,104,0|0,3:0|0:0,0:0:0:0:
156,115,211732,2,0,L|43:115,1,104,8|0,0:3|0:0,0:0:0:0:
189,185,212075,2,0,L|337:184,2,104,0|0|8,0:0|0:0|0:3,0:0:0:0:
356,106,212589,1,2,0:0:0:0:
125,54,212760,6,0,L|125:192,1,104,0|0,0:0|0:0,0:0:0:0:
292,307,213103,2,0,L|292:169,1,104,8|0,0:3|0:0,0:0:0:0:
124,51,213446,1,0,0:0:0:0:
72,69,213532,1,2,0:0:0:0:
54,102,213574,1,0,0:0:0:0:
59,140,213617,1,0,0:0:0:0:
85,167,213660,1,0,0:0:0:0:
123,173,213703,1,0,0:0:0:0:
238,173,213789,1,8,0:3:0:0:
81,182,213961,1,0,0:0:0:0:
309,66,214132,6,0,L|438:66,1,104,0|0,0:0|0:0,0:0:0:0:
246,139,214475,1,8,0:3:0:0:
475,135,214646,2,0,L|476:214,1,52,0|0,0:0|0:0,0:0:0:0:
392,206,214817,1,0,0:0:0:0:
496,135,214989,1,0,0:0:0:0:
246,139,215160,1,8,0:3:0:0:
246,139,215332,1,0,0:0:0:0:
475,135,215503,5,0,0:0:0:0:
308,167,215675,1,2,0:0:0:0:
412,197,215846,2,0,L|412:315,1,104,2|0,0:0|0:0,0:0:0:0:
244,176,216189,1,2,0:0:0:0:
140,206,216360,2,0,L|140:324,1,104,2|0,0:0|0:0,0:0:0:0:
308,227,216703,1,2,0:0:0:0:
78,62,216875,6,0,L|211:62,1,104,0|0,3:0|0:0,0:0:0:0:
16,137,217217,1,8,0:3:0:0:
247,133,217389,2,0,L|309:133,2,52,0|0|0,0:0|0:0|0:0,0:0:0:0:
144,167,217731,1,0,0:0:0:0:
408,128,217903,1,8,0:3:0:0:
241,97,218075,1,2,0:0:0:0:
480,143,218246,6,0,L|351:138,2,104,0|0|8,0:0|0:0|0:3,0:0:0:0:
236,236,218760,2,0,L|236:332,1,52,0|0,0:0|0:0,0:0:0:0:
289,235,218932,1,0,0:0:0:0:
393,133,219017,1,2,0:0:0:0:
429,163,219059,1,0,0:0:0:0:
441,211,219102,1,0,0:0:0:0:
427,259,219145,1,0,0:0:0:0:
390,287,219188,1,0,0:0:0:0:
283,226,219275,2,0,L|415:225,1,104,8|0,0:3|0:0,0:0:0:0:
158,119,219617,6,0,P|125:150|186:161,1,104,2|0,2:3|0:0,0:0:0:0:
213,181,219875,1,0,0:0:0:0:
327,179,219960,2,0,L|411:180,1,52,8|0,0:3|0:0,0:0:0:0:
378,179,220132,2,0,L|326:178,1,52,0|0,0:0|0:0,0:0:0:0:
176,174,220303,1,0,2:0:0:0:
162,222,220388,1,0,0:0:0:0:
188,266,220474,1,0,0:0:0:0:
237,276,220560,1,0,0:0:0:0:
88,199,220646,2,0,L|4:200,1,52,0|0,0:0|0:0,0:0:0:0:
37,199,220818,2,0,L|88:198,1,52,0|0,0:0|0:0,0:0:0:0:
258,275,220989,5,0,3:0:0:0:
49,167,221332,1,0,3:0:0:0:
84,167,221389,1,0,3:0:0:0:
119,167,221446,1,0,3:0:0:0:
153,167,221503,1,0,3:0:0:0:
188,167,221560,1,0,3:0:0:0:
153,167,221617,1,0,3:0:0:0:
26,217,221675,2,0,L|111:217,2,69.3333333333333,0|0|0,3:0|3:0|3:0,0:0:0:0:
209,271,222017,2,0,L|6:271,1,166.4,0|0,3:0|3:0,0:0:0:0:
274,174,222360,5,0,3:0:0:0:
