osu file format v14

[General]
AudioFilename: audio.mp3
AudioLeadIn: 0
PreviewTime: 155065
Countdown: 0
SampleSet: Soft
StackLeniency: 0.7
Mode: 3
LetterboxInBreaks: 0
SpecialStyle: 0
WidescreenStoryboard: 0

[Editor]
DistanceSpacing: 2.8
BeatDivisor: 8
GridSize: 16
TimelineZoom: 2.2

[Metadata]
Title:SUMMER
TitleUnicode:SUMMER
Artist:Zekk
ArtistUnicode:Zekk
Creator:Shima Rin
Version:Ichigo
Source:osu!
Tags:MEGAREX Trinity Force FUGENE FÜGENE 03 Future Bass M3 Spring 春 2019 MRX-037 MRX-041 Tofu1222 FAMoss Featured Artists FA Mappers' Guild MG Electronic Instrumental
BeatmapID:2419040
BeatmapSetID:1159269

[Difficulty]
HPDrainRate:8
CircleSize:4
OverallDifficulty:8
ApproachRate:5
SliderMultiplier:1.4
SliderTickRate:1

[Events]
//Background and Video events
0,0,"BG.jpg",0,0
//Break Periods
//Storyboard Layer 0 (Background)
//Storyboard Layer 1 (Fail)
//Storyboard Layer 2 (Pass)
//Storyboard Layer 3 (Foreground)
//Storyboard Layer 4 (Overlay)
//Storyboard Sound Samples

[TimingPoints]
1551,342.857142857143,4,2,1,60,1,0
79722,-100,4,2,1,60,0,1
100979,-100,4,2,1,60,0,0
101665,-100,4,2,1,60,0,1
123608,-100,4,2,1,60,0,0
156522,-100,4,2,1,60,0,1
177093,-100,4,2,1,60,0,0
178808,-100,4,2,1,60,0,1
200408,-100,4,2,1,60,0,0

[HitObjects]
192,192,1208,5,0,0:0:0:0:
320,192,1293,1,0,0:0:0:0:
192,192,1379,1,0,0:0:0:0:
320,192,1465,1,0,0:0:0:0:
64,192,1551,1,2,0:0:0:0:
192,192,1551,1,0,0:0:0:0:
320,192,1636,1,0,0:0:0:0:
64,192,1722,1,0,0:0:0:70:LR_Drum Rim Fast.wav
192,192,1722,1,0,0:0:0:0:
320,192,1808,1,0,0:0:0:70:LR_Drum Rim Fast.wav
448,192,1808,1,0,0:0:0:0:
192,192,1893,1,0,0:0:0:0:
64,192,1979,1,0,0:0:0:70:LR_Drum Rim Fast_C.wav
320,192,1979,1,0,0:0:0:0:
192,192,2065,1,0,0:0:0:70:LR_Drum Rim Fast_C.wav
448,192,2065,1,0,0:0:0:0:
320,192,2151,1,0,0:0:0:0:
64,192,2236,1,2,0:0:0:0:
192,192,2236,1,0,0:0:0:0:
320,192,2322,1,0,0:0:0:70:LR_Drum Rim Fast.wav
448,192,2322,1,0,0:0:0:0:
64,192,2408,1,0,0:0:0:0:
192,192,2465,1,0,0:0:0:50:Cymatics - Kick 41 - E.wav
320,192,2522,1,0,0:0:0:50:Cymatics - Kick 41 - E.wav
64,192,2579,128,0,2836:0:0:0:70:VEC3 Snares 040_Reverb.wav
192,192,2579,128,0,2836:0:0:0:0:
448,192,2579,128,0,2836:0:0:0:0:
64,192,2922,128,2,3179:0:0:0:0:
320,192,2922,1,0,0:0:0:70:cymbal09.wav
448,192,2922,1,0,0:0:0:0:
192,192,3008,1,0,0:0:0:0:
448,192,3093,1,0,0:0:0:0:
320,192,3179,1,0,0:0:0:0:
64,192,3265,1,2,0:0:0:0:
192,192,3265,1,0,0:0:0:0:
448,192,3351,1,0,0:0:0:0:
320,192,3436,1,0,0:0:0:0:
192,192,3522,1,0,0:0:0:0:
64,192,3608,1,2,0:0:0:0:
448,192,3608,1,0,0:0:0:0:
320,192,3693,1,0,0:0:0:0:
64,192,3779,1,0,0:0:0:0:
192,192,3865,1,0,0:0:0:0:
320,192,3951,1,2,0:0:0:0:
448,192,3951,1,0,0:0:0:0:
64,192,4036,1,0,0:0:0:0:
192,192,4122,1,0,0:0:0:0:
320,192,4208,1,0,0:0:0:0:
64,192,4293,1,2,0:0:0:0:
448,192,4293,1,0,0:0:0:0:
192,192,4379,1,0,0:0:0:0:
448,192,4465,1,0,0:0:0:0:
320,192,4551,1,0,0:0:0:0:
64,192,4636,1,2,0:0:0:0:
192,192,4636,1,0,0:0:0:0:
448,192,4722,1,0,0:0:0:0:
320,192,4808,1,0,0:0:0:0:
192,192,4893,1,0,0:0:0:0:
64,192,4979,1,2,0:0:0:0:
448,192,4979,1,0,0:0:0:0:
192,192,5065,1,0,0:0:0:0:
320,192,5108,1,0,0:0:0:0:
448,192,5151,1,0,0:0:0:0:
64,192,5193,1,0,0:0:0:0:
192,192,5236,1,0,0:0:0:0:
320,192,5279,1,0,0:0:0:0:
64,192,5322,1,2,0:0:0:0:
448,192,5322,1,0,0:0:0:0:
192,192,5408,1,0,0:0:0:0:
320,192,5493,1,0,0:0:0:0:
448,192,5579,1,0,0:0:0:0:
64,192,5665,1,2,0:0:0:0:
192,192,5665,1,0,0:0:0:0:
320,192,5751,1,0,0:0:0:0:
448,192,5836,1,0,0:0:0:0:
192,192,5922,1,0,0:0:0:0:
64,192,6008,1,2,0:0:0:0:
448,192,6008,1,0,0:0:0:0:
320,192,6093,1,0,0:0:0:0:
192,192,6179,1,0,0:0:0:0:
64,192,6265,1,0,0:0:0:0:
320,192,6351,1,2,0:0:0:0:
448,192,6351,1,0,0:0:0:0:
192,192,6436,1,0,0:0:0:0:
64,192,6522,1,0,0:0:0:0:
320,192,6608,1,0,0:0:0:0:
64,192,6693,1,2,0:0:0:0:
448,192,6693,1,0,0:0:0:0:
192,192,6779,1,0,0:0:0:0:
320,192,6865,1,0,0:0:0:0:
448,192,6951,1,0,0:0:0:0:
64,192,7036,1,2,0:0:0:0:
192,192,7036,1,0,0:0:0:0:
320,192,7122,1,0,0:0:0:0:
448,192,7208,128,0,7379:0:0:0:0:
64,192,7293,1,0,0:0:0:0:
192,192,7379,128,2,7551:0:0:0:0:
320,192,7379,1,0,0:0:0:0:
448,192,7465,1,0,0:0:0:0:
64,192,7551,1,0,0:0:0:0:
192,192,7636,1,0,0:0:0:0:
320,192,7722,128,2,7893:0:0:0:0:
448,192,7722,1,0,0:0:0:0:
64,192,7808,1,0,0:0:0:0:
192,192,7893,128,0,8065:0:0:0:0:
320,192,7979,1,0,0:0:0:0:
448,192,8065,1,0,0:0:0:0:
192,192,8151,1,0,0:0:0:0:
320,192,8236,128,0,8408:0:0:0:0:
448,192,8322,1,0,0:0:0:0:
64,192,8408,128,2,8579:0:0:0:0:
192,192,8408,1,0,0:0:0:70:ride08.wav
320,192,8579,1,0,0:0:0:0:
448,192,8579,128,0,8922:0:0:0:0:
64,192,8751,1,2,0:0:0:0:
192,192,8751,1,0,0:0:0:70:Clap.wav
320,192,8922,1,0,0:0:0:0:
192,192,9008,1,0,0:0:0:0:
64,192,9093,1,2,0:0:0:0:
448,192,9093,1,0,0:0:0:0:
192,192,9179,1,0,0:0:0:0:
320,192,9265,1,0,0:0:0:0:
64,192,9436,1,2,0:0:0:0:
192,192,9436,1,0,0:0:0:70:Clap.wav
448,192,9436,1,0,0:0:0:0:
320,192,9608,1,0,0:0:0:0:
448,192,9608,128,0,9779:0:0:0:0:
64,192,9779,128,2,9865:0:0:0:0:
192,192,9779,1,0,0:0:0:0:
320,192,9951,1,0,0:0:0:0:
64,192,10122,1,2,0:0:0:0:
192,192,10122,1,0,0:0:0:70:Clap.wav
448,192,10122,1,0,0:0:0:0:
320,192,10293,1,0,0:0:0:0:
192,192,10379,1,0,0:0:0:0:
64,192,10465,1,2,0:0:0:0:
448,192,10465,1,0,0:0:0:0:
192,192,10551,1,0,0:0:0:0:
320,192,10593,1,0,0:0:0:0:
448,192,10636,1,0,0:0:0:0:
64,192,10679,1,0,0:0:0:0:
192,192,10722,1,0,0:0:0:0:
320,192,10765,1,0,0:0:0:0:
64,192,10808,1,2,0:0:0:0:
448,192,10808,1,0,0:0:0:70:Clap.wav
192,192,10979,1,0,0:0:0:0:
448,192,11151,1,2,0:0:0:0:
320,192,11151,128,0,11236:0:0:0:0:
192,192,11322,1,0,0:0:0:0:
64,192,11493,1,2,0:0:0:0:
320,192,11493,1,0,0:0:0:70:Clap.wav
448,192,11493,1,0,0:0:0:0:
192,192,11665,1,0,0:0:0:0:
320,192,11751,1,0,0:0:0:0:
64,192,11836,1,2,0:0:0:0:
448,192,11836,1,0,0:0:0:0:
320,192,11922,1,0,0:0:0:0:
192,192,12008,1,0,0:0:0:0:
64,192,12179,1,2,0:0:0:0:
320,192,12179,1,0,0:0:0:70:Clap.wav
448,192,12179,1,0,0:0:0:0:
192,192,12351,1,0,0:0:0:0:
320,192,12522,1,2,0:0:0:0:
448,192,12522,128,0,12608:0:0:0:0:
64,192,12693,1,0,0:0:0:0:
192,192,12779,1,0,0:0:0:0:
448,192,12865,1,0,0:0:0:0:
320,192,12951,1,0,0:0:0:0:
64,192,13036,1,0,0:0:0:0:
192,192,13122,1,0,0:0:0:0:
320,192,13208,1,0,0:0:0:0:
448,192,13208,128,0,13293:0:0:0:0:
192,192,13293,128,0,13379:0:0:0:0:
320,192,13379,128,0,13465:0:0:0:0:
64,192,13465,128,0,13551:0:0:0:0:
320,192,13551,1,0,0:0:0:70:VEC3 Snares 040_Reverb.wav
448,192,13551,128,0,13808:0:0:0:0:
192,192,13636,1,0,0:0:0:0:
64,192,13722,1,0,0:0:0:0:
320,192,13808,1,0,0:0:0:0:
64,192,13893,1,4,0:0:0:0:
192,192,13893,1,2,0:0:0:0:
448,192,13893,128,0,14151:0:0:0:0:
320,192,13979,1,0,0:0:0:0:
64,192,14065,1,0,0:0:0:0:
192,192,14151,1,0,0:0:0:0:
320,192,14236,1,2,0:0:0:0:
448,192,14236,1,8,0:0:0:0:
64,192,14322,1,0,0:0:0:0:
192,192,14408,1,0,0:0:0:0:
320,192,14493,1,0,0:0:0:0:
64,192,14579,1,2,0:0:0:0:
448,192,14579,1,0,0:0:0:0:
192,192,14665,1,0,0:0:0:0:
448,192,14751,1,0,0:0:0:0:
320,192,14836,1,0,0:0:0:0:
64,192,14922,1,2,0:0:0:0:
192,192,14922,1,8,0:0:0:0:
448,192,15008,1,0,0:0:0:0:
320,192,15093,1,0,0:0:0:0:
192,192,15179,1,0,0:0:0:0:
64,192,15265,1,2,0:0:0:0:
448,192,15265,1,0,0:0:0:0:
320,192,15351,1,0,0:0:0:0:
64,192,15436,1,0,0:0:0:0:
192,192,15522,1,0,0:0:0:0:
320,192,15608,1,2,0:0:0:0:
448,192,15608,1,8,0:0:0:0:
64,192,15693,1,0,0:0:0:0:
192,192,15779,1,0,0:0:0:0:
320,192,15865,1,0,0:0:0:0:
64,192,15951,1,2,0:0:0:0:
448,192,15951,1,0,0:0:0:0:
320,192,16036,1,0,0:0:0:0:
192,192,16079,1,0,0:0:0:0:
64,192,16122,1,0,0:0:0:0:
448,192,16165,1,0,0:0:0:0:
320,192,16208,1,0,0:0:0:0:
192,192,16251,1,0,0:0:0:0:
64,192,16293,1,2,0:0:0:0:
448,192,16293,1,8,0:0:0:0:
320,192,16379,1,0,0:0:0:0:
192,192,16465,1,0,0:0:0:0:
64,192,16551,1,0,0:0:0:0:
320,192,16636,1,2,0:0:0:0:
448,192,16636,1,0,0:0:0:0:
192,192,16722,1,0,0:0:0:0:
64,192,16808,1,0,0:0:0:0:
320,192,16893,1,0,0:0:0:0:
64,192,16979,1,2,0:0:0:0:
448,192,16979,1,8,0:0:0:0:
192,192,17065,1,0,0:0:0:0:
320,192,17151,1,0,0:0:0:0:
448,192,17236,1,0,0:0:0:0:
64,192,17322,1,2,0:0:0:0:
192,192,17322,1,0,0:0:0:0:
320,192,17408,1,0,0:0:0:0:
448,192,17493,1,0,0:0:0:0:
192,192,17579,1,0,0:0:0:0:
64,192,17665,1,2,0:0:0:0:
448,192,17665,1,8,0:0:0:0:
320,192,17751,1,0,0:0:0:0:
192,192,17836,1,0,0:0:0:0:
64,192,17922,1,0,0:0:0:0:
320,192,18008,1,2,0:0:0:0:
448,192,18008,1,0,0:0:0:0:
192,192,18093,1,0,0:0:0:0:
64,192,18179,128,0,18351:0:0:0:0:
448,192,18265,1,0,0:0:0:0:
192,192,18351,1,2,0:0:0:0:
320,192,18351,128,8,18522:0:0:0:0:
64,192,18436,1,0,0:0:0:0:
448,192,18522,1,0,0:0:0:0:
320,192,18608,1,0,0:0:0:0:
64,192,18693,1,2,0:0:0:0:
192,192,18693,128,0,18865:0:0:0:0:
448,192,18779,1,0,0:0:0:0:
320,192,18865,128,0,19036:0:0:0:0:
192,192,18951,1,0,0:0:0:0:
64,192,19036,1,8,0:0:0:0:
320,192,19122,1,0,0:0:0:0:
192,192,19208,128,0,19379:0:0:0:0:
64,192,19293,1,0,0:0:0:0:
320,192,19379,1,2,0:0:0:0:
448,192,19379,128,0,19551:0:0:0:0:
64,192,19551,128,0,19893:0:0:0:0:
192,192,19551,1,0,0:0:0:0:
320,192,19722,1,2,0:0:0:0:
448,192,19722,1,8,0:0:0:0:
192,192,19808,1,0,0:0:0:0:
448,192,19893,1,0,0:0:0:0:
320,192,19979,1,0,0:0:0:0:
64,192,20065,1,2,0:0:0:0:
192,192,20065,1,0,0:0:0:0:
448,192,20151,1,0,0:0:0:0:
320,192,20236,1,0,0:0:0:0:
192,192,20322,1,0,0:0:0:0:
64,192,20408,1,8,0:0:0:0:
320,192,20408,1,2,0:0:0:0:
448,192,20408,1,0,0:0:0:0:
192,192,20493,1,0,0:0:0:0:
64,192,20579,128,0,20751:0:0:0:0:
448,192,20579,1,0,0:0:0:0:
320,192,20665,1,0,0:0:0:0:
192,192,20751,1,2,0:0:0:0:
448,192,20751,128,0,20836:0:0:0:0:
320,192,20836,1,0,0:0:0:0:
64,192,20922,1,0,0:0:0:0:
192,192,21008,1,0,0:0:0:0:
64,192,21093,1,8,0:0:0:0:
320,192,21093,1,2,0:0:0:0:
448,192,21093,1,0,0:0:0:0:
192,192,21179,1,0,0:0:0:0:
320,192,21265,1,0,0:0:0:0:
448,192,21351,1,0,0:0:0:0:
64,192,21436,1,2,0:0:0:0:
192,192,21436,1,0,0:0:0:0:
448,192,21522,1,0,0:0:0:0:
320,192,21565,1,0,0:0:0:0:
192,192,21608,1,0,0:0:0:0:
64,192,21651,1,0,0:0:0:0:
448,192,21693,1,0,0:0:0:0:
320,192,21736,1,0,0:0:0:0:
64,192,21779,1,8,0:0:0:0:
192,192,21779,1,2,0:0:0:0:
448,192,21865,1,0,0:0:0:0:
64,192,21951,1,0,0:0:0:0:
320,192,22036,1,0,0:0:0:0:
192,192,22122,128,2,22208:0:0:0:0:
64,192,22122,1,0,0:0:0:0:
448,192,22122,1,0,0:0:0:0:
320,192,22293,1,0,0:0:0:0:
64,192,22465,1,8,0:0:0:0:
192,192,22465,1,2,0:0:0:0:
448,192,22551,1,0,0:0:0:0:
192,192,22636,1,0,0:0:0:0:
448,192,22722,1,0,0:0:0:0:
192,192,22808,1,2,0:0:0:0:
320,192,22808,1,0,0:0:0:0:
64,192,22893,1,0,0:0:0:0:
320,192,22979,1,0,0:0:0:0:
64,192,23065,1,0,0:0:0:0:
320,192,23151,1,8,0:0:0:0:
448,192,23151,1,2,0:0:0:0:
192,192,23236,1,0,0:0:0:0:
448,192,23322,1,0,0:0:0:0:
192,192,23408,1,0,0:0:0:0:
64,192,23493,1,2,0:0:0:0:
320,192,23493,1,0,0:0:0:70:ride08.wav
448,192,23493,1,0,0:0:0:0:
64,192,23836,1,0,0:0:0:70:LR_Drum Rim Fast.wav
192,192,23893,1,0,0:0:0:70:LR_Drum Rim Fast.wav
448,192,23951,1,0,0:0:0:70:LR_Drum Rim Fast_C.wav
320,192,24008,1,0,0:0:0:70:LR_Drum Rim Fast_C.wav
64,192,24065,1,0,0:0:0:50:LR_Snare Fast.wav
192,192,24122,1,0,0:0:0:50:LR_Snare Fast.wav
320,192,24179,1,2,0:0:0:0:
448,192,24179,1,0,0:0:0:0:
320,192,24293,1,2,0:0:0:0:
448,192,24293,1,0,0:0:0:0:
64,192,24351,1,0,0:0:0:0:
320,192,24408,1,2,0:0:0:0:
448,192,24408,1,0,0:0:0:0:
64,192,24522,1,0,0:0:0:70:VEC3 Snares 040_Reverb.wav
192,192,24522,1,0,0:0:0:0:
448,192,24522,1,0,0:0:0:0:
64,192,24693,1,2,0:0:0:0:
192,192,24693,1,0,0:0:0:0:
64,192,24865,128,4,25122:0:0:0:0:
192,192,24865,1,2,0:0:0:0:
320,192,24865,1,0,0:0:0:0:
448,192,24865,1,0,0:0:0:0:
320,192,25036,1,0,0:0:0:0:
192,192,25122,1,0,0:0:0:0:
64,192,25208,1,2,0:0:0:0:
320,192,25208,1,8,0:0:0:0:
448,192,25208,1,0,0:0:0:0:
192,192,25379,1,0,0:0:0:0:
320,192,25465,1,0,0:0:0:0:
64,192,25551,1,2,0:0:0:0:
448,192,25551,1,0,0:0:0:0:
320,192,25722,128,0,25893:0:0:0:0:
64,192,25893,1,8,0:0:0:0:
192,192,25893,1,2,0:0:0:0:
448,192,25893,1,0,0:0:0:0:
320,192,26065,1,0,0:0:0:0:
192,192,26151,1,0,0:0:0:0:
64,192,26236,1,2,0:0:0:0:
448,192,26236,1,0,0:0:0:0:
192,192,26408,1,0,0:0:0:0:
320,192,26493,1,0,0:0:0:0:
64,192,26579,1,2,0:0:0:0:
192,192,26579,1,8,0:0:0:0:
448,192,26579,1,0,0:0:0:0:
320,192,26751,1,0,0:0:0:0:
192,192,26836,1,0,0:0:0:0:
64,192,26922,1,2,0:0:0:0:
448,192,26922,1,0,0:0:0:0:
320,192,27008,1,0,0:0:0:0:
192,192,27093,128,0,27265:0:0:0:0:
64,192,27265,1,2,0:0:0:0:
320,192,27265,1,8,0:0:0:0:
448,192,27265,1,0,0:0:0:0:
192,192,27351,1,0,0:0:0:0:
64,192,27436,1,0,0:0:0:0:
192,192,27522,1,0,0:0:0:0:
320,192,27608,1,2,0:0:0:0:
448,192,27608,1,0,0:0:0:0:
192,192,27779,1,0,0:0:0:0:
320,192,27865,1,0,0:0:0:0:
64,192,27951,1,2,0:0:0:0:
192,192,27951,1,8,0:0:0:0:
448,192,27951,1,0,0:0:0:0:
320,192,28122,1,0,0:0:0:0:
192,192,28208,1,0,0:0:0:0:
64,192,28293,1,2,0:0:0:0:
448,192,28293,1,0,0:0:0:0:
192,192,28465,128,0,28636:0:0:0:0:
64,192,28636,1,2,0:0:0:0:
320,192,28636,1,8,0:0:0:0:
448,192,28636,1,0,0:0:0:0:
192,192,28808,1,0,0:0:0:0:
320,192,28893,1,0,0:0:0:0:
64,192,28979,1,2,0:0:0:0:
448,192,28979,1,0,0:0:0:0:
320,192,29151,1,0,0:0:0:0:
192,192,29236,1,0,0:0:0:0:
64,192,29322,1,2,0:0:0:0:
320,192,29322,1,8,0:0:0:0:
448,192,29322,1,0,0:0:0:0:
192,192,29493,1,0,0:0:0:0:
320,192,29579,1,0,0:0:0:0:
64,192,29665,1,2,0:0:0:0:
448,192,29665,1,0,0:0:0:0:
192,192,29751,1,0,0:0:0:0:
320,192,29836,128,0,30008:0:0:0:0:
192,192,29922,1,0,0:0:0:0:
64,192,30008,1,0,0:0:0:70:LR_Drum Rim Fast.wav
448,192,30008,1,0,0:0:0:0:
320,192,30093,1,0,0:0:0:70:LR_Drum Rim Fast.wav
192,192,30179,1,0,0:0:0:70:LR_Drum Rim Fast_C.wav
192,192,30265,1,0,0:0:0:70:LR_Drum Rim Fast_C.wav
64,192,30351,1,2,0:0:0:0:
320,192,30351,1,0,0:0:0:70:ride08.wav
448,192,30351,128,0,30522:0:0:0:0:
192,192,30522,1,0,0:0:0:0:
64,192,30693,1,8,0:0:0:0:
320,192,30693,128,2,30865:0:0:0:0:
448,192,30693,1,0,0:0:0:0:
192,192,30865,128,0,31036:0:0:0:0:
320,192,30951,1,0,0:0:0:0:
64,192,31036,1,2,0:0:0:0:
448,192,31036,128,0,31208:0:0:0:0:
320,192,31208,1,0,0:0:0:0:
64,192,31379,1,8,0:0:0:0:
192,192,31379,128,2,31551:0:0:0:0:
448,192,31379,1,0,0:0:0:0:
320,192,31551,128,0,31722:0:0:0:0:
64,192,31722,128,2,31893:0:0:0:0:
448,192,31722,1,0,0:0:0:0:
320,192,31893,1,0,0:0:0:0:
64,192,31979,1,0,0:0:0:0:
192,192,32065,1,8,0:0:0:0:
320,192,32065,1,2,0:0:0:0:
448,192,32065,128,0,32236:0:0:0:0:
64,192,32236,128,0,32408:0:0:0:0:
192,192,32408,128,2,32579:0:0:0:0:
320,192,32408,1,0,0:0:0:0:
448,192,32493,1,0,0:0:0:0:
64,192,32579,1,0,0:0:0:0:
64,192,32751,128,8,32922:0:0:0:0:
320,192,32751,1,2,0:0:0:0:
448,192,32751,1,0,0:0:0:0:
192,192,32836,1,0,0:0:0:0:
448,192,32922,128,0,33093:0:0:0:0:
192,192,33008,1,0,0:0:0:0:
64,192,33093,1,2,0:0:0:0:
320,192,33093,128,0,33265:0:0:0:0:
192,192,33265,1,0,0:0:0:0:
64,192,33436,128,8,33779:0:0:0:0:
320,192,33436,1,2,0:0:0:0:
448,192,33436,1,0,0:0:0:0:
192,192,33608,128,0,33693:0:0:0:0:
320,192,33693,128,0,33779:0:0:0:0:
192,192,33779,1,2,0:0:0:0:
448,192,33779,128,0,33951:0:0:0:0:
64,192,33951,1,0,0:0:0:0:
192,192,34122,128,8,34293:0:0:0:0:
320,192,34122,1,2,0:0:0:0:
448,192,34122,1,0,0:0:0:0:
64,192,34293,128,0,34465:0:0:0:0:
192,192,34465,1,2,0:0:0:0:
320,192,34465,128,0,34636:0:0:0:0:
448,192,34636,1,0,0:0:0:0:
64,192,34808,128,8,34979:0:0:0:0:
192,192,34808,1,2,0:0:0:0:
320,192,34808,1,0,0:0:0:0:
448,192,34979,128,0,35151:0:0:0:0:
320,192,35065,1,0,0:0:0:0:
64,192,35151,1,2,0:0:0:0:
192,192,35151,128,0,35322:0:0:0:0:
320,192,35322,128,0,35493:0:0:0:0:
64,192,35493,128,8,35579:0:0:0:0:
448,192,35493,1,0,0:0:0:0:
192,192,35579,1,0,0:0:0:0:
64,192,35665,128,0,35751:0:0:0:0:
448,192,35665,1,0,0:0:0:0:
192,192,35751,1,0,0:0:0:0:
64,192,35836,1,4,0:0:0:0:
320,192,35836,128,2,36179:0:0:0:0:
448,192,35836,128,0,36008:0:0:0:0:
192,192,36008,128,0,36179:0:0:0:0:
64,192,36179,128,8,36522:0:0:0:0:
448,192,36179,1,2,0:0:0:0:
192,192,36351,128,0,36522:0:0:0:0:
320,192,36522,1,2,0:0:0:0:
448,192,36522,128,0,36693:0:0:0:0:
64,192,36693,1,0,0:0:0:0:
192,192,36865,128,8,37208:0:0:0:0:
448,192,36865,1,2,0:0:0:0:
320,192,37036,128,0,37208:0:0:0:0:
64,192,37208,1,2,0:0:0:0:
448,192,37208,128,0,37379:0:0:0:0:
320,192,37379,1,0,0:0:0:0:
64,192,37465,1,0,0:0:0:0:
192,192,37551,128,8,37893:0:0:0:0:
448,192,37551,1,2,0:0:0:0:
320,192,37722,128,0,37893:0:0:0:0:
64,192,37893,1,2,0:0:0:0:
448,192,37893,128,0,38065:0:0:0:0:
192,192,37979,1,0,0:0:0:0:
320,192,38065,1,0,0:0:0:0:
64,192,38236,128,8,38579:0:0:0:0:
192,192,38236,1,2,0:0:0:0:
320,192,38322,1,0,0:0:0:0:
448,192,38322,1,0,0:0:0:0:
192,192,38408,128,0,38579:0:0:0:0:
320,192,38579,128,2,38751:0:0:0:0:
448,192,38579,1,0,0:0:0:0:
64,192,38751,1,0,0:0:0:0:
192,192,38922,128,8,39265:0:0:0:0:
448,192,38922,1,2,0:0:0:0:
320,192,39093,128,0,39179:0:0:0:0:
64,192,39179,128,0,39265:0:0:0:0:
320,192,39265,1,2,0:0:0:0:
448,192,39265,128,0,39436:0:0:0:0:
64,192,39436,1,0,0:0:0:0:
192,192,39608,128,8,39951:0:0:0:0:
448,192,39608,1,2,0:0:0:0:
320,192,39779,128,0,39951:0:0:0:0:
64,192,39951,1,2,0:0:0:0:
448,192,39951,128,0,40122:0:0:0:0:
320,192,40122,1,0,0:0:0:0:
64,192,40208,1,0,0:0:0:0:
192,192,40293,128,8,40636:0:0:0:0:
448,192,40293,1,2,0:0:0:0:
320,192,40465,128,0,40636:0:0:0:0:
64,192,40636,1,2,0:0:0:0:
448,192,40636,128,0,40722:0:0:0:0:
192,192,40722,128,0,40808:0:0:0:0:
448,192,40808,128,0,40979:0:0:0:0:
64,192,40979,128,0,41151:0:0:0:70:LR_Drum Rim Fast.wav
320,192,40979,1,0,0:0:0:0:
192,192,41065,1,0,0:0:0:70:LR_Drum Rim Fast.wav
320,192,41151,128,0,41236:0:0:0:70:LR_Drum Rim Fast_C.wav
64,192,41236,1,0,0:0:0:70:LR_Drum Rim Fast_C.wav
192,192,41279,1,0,0:0:0:0:
320,192,41322,1,2,0:0:0:0:
448,192,41322,128,0,41493:0:0:0:70:ride08.wav
64,192,41493,1,0,0:0:0:0:
192,192,41665,128,8,42008:0:0:0:0:
448,192,41665,1,2,0:0:0:0:
320,192,41836,128,0,42008:0:0:0:0:
64,192,42008,1,2,0:0:0:0:
448,192,42008,128,0,42179:0:0:0:0:
320,192,42179,1,0,0:0:0:0:
64,192,42351,128,2,42693:0:0:0:0:
448,192,42351,1,8,0:0:0:0:
320,192,42522,128,0,42693:0:0:0:0:
192,192,42693,1,2,0:0:0:0:
448,192,42693,128,0,42865:0:0:0:70:ride08.wav
320,192,42865,1,0,0:0:0:0:
192,192,42951,1,0,0:0:0:0:
64,192,43036,128,2,43379:0:0:0:0:
448,192,43036,1,8,0:0:0:0:
192,192,43208,128,0,43379:0:0:0:0:
320,192,43379,128,2,43551:0:0:0:0:
448,192,43379,1,0,0:0:0:0:
192,192,43465,1,0,0:0:0:0:
64,192,43551,1,0,0:0:0:0:
64,192,43722,128,2,43893:0:0:0:0:
448,192,43722,1,8,0:0:0:0:
320,192,43808,1,0,0:0:0:0:
192,192,43893,128,0,44065:0:0:0:0:
448,192,43893,1,0,0:0:0:0:
320,192,43979,1,0,0:0:0:0:
64,192,44065,1,2,0:0:0:0:
448,192,44065,128,0,44236:0:0:0:70:ride08.wav
192,192,44236,1,0,0:0:0:0:
320,192,44408,128,8,44579:0:0:0:0:
448,192,44408,1,0,0:0:0:0:
64,192,44579,128,0,44665:0:0:0:0:
192,192,44665,128,0,44751:0:0:0:0:
320,192,44751,1,8,0:0:0:0:
448,192,44751,128,0,44836:0:0:0:0:
448,192,44922,128,0,45008:0:0:0:0:
192,192,45008,128,0,45093:0:0:0:0:
320,192,45093,1,8,0:0:0:0:
448,192,45093,128,0,45265:0:0:0:0:
192,192,45265,1,0,0:0:0:0:
64,192,45436,1,2,0:0:0:0:
320,192,45436,1,0,0:0:0:70:ride08.wav
448,192,45436,128,0,45779:0:0:0:0:
192,192,45608,1,0,0:0:0:0:
320,192,45693,1,0,0:0:0:0:
64,192,45779,1,0,0:0:0:70:LR_Drum Rim Fast.wav
192,192,45836,1,0,0:0:0:70:LR_Drum Rim Fast.wav
448,192,45893,1,0,0:0:0:70:LR_Drum Rim Fast_C.wav
320,192,45951,1,0,0:0:0:70:LR_Drum Rim Fast_C.wav
64,192,46008,1,0,0:0:0:50:LR_Snare Fast.wav
192,192,46065,1,0,0:0:0:50:LR_Snare Fast.wav
320,192,46122,1,2,0:0:0:0:
448,192,46122,1,0,0:0:0:0:
320,192,46236,1,2,0:0:0:0:
448,192,46236,1,0,0:0:0:0:
320,192,46351,1,2,0:0:0:0:
448,192,46351,1,0,0:0:0:0:
64,192,46465,1,2,0:0:0:0:
192,192,46465,1,0,0:0:0:0:
64,192,46636,1,2,0:0:0:0:
192,192,46636,1,0,0:0:0:0:
64,192,46808,1,2,0:0:0:0:
192,192,46808,1,0,0:0:0:70:cymbal09.wav
320,192,46808,1,0,0:0:0:70:VEC3 Snares 040_Reverb.wav
448,192,46808,1,0,0:0:0:0:
64,192,48179,1,0,0:0:0:0:
192,192,48179,1,0,0:0:0:0:
320,192,49551,1,0,0:0:0:0:
448,192,49551,1,0,0:0:0:0:
64,192,50922,1,0,0:0:0:0:
448,192,50922,128,0,51093:0:0:0:0:
320,192,51008,128,0,51179:0:0:0:0:
192,192,51093,128,0,51265:0:0:0:0:
64,192,51179,128,0,51351:0:0:0:0:
448,192,51265,128,0,51436:0:0:0:0:
320,192,51351,128,0,51522:0:0:0:0:
192,192,51436,128,0,51608:0:0:0:0:
64,192,51522,128,0,51608:0:0:0:0:
320,192,51608,1,0,0:0:0:0:
448,192,51608,1,0,0:0:0:0:
64,192,51779,1,0,0:0:0:0:
192,192,51951,1,0,0:0:0:0:
192,192,52122,1,0,0:0:0:0:
64,192,52293,1,0,0:0:0:70:ride08.wav
320,192,52293,1,0,0:0:0:0:
448,192,52293,1,0,0:0:0:0:
192,192,52465,1,0,0:0:0:0:
320,192,52636,1,0,0:0:0:70:Clap.wav
448,192,52636,1,0,0:0:0:0:
64,192,52808,1,0,0:0:0:0:
320,192,52979,1,0,0:0:0:0:
64,192,53151,1,0,0:0:0:0:
320,192,53322,1,0,0:0:0:70:Clap.wav
448,192,53322,1,0,0:0:0:0:
192,192,53493,1,0,0:0:0:0:
64,192,53665,1,0,0:0:0:0:
448,192,53665,1,0,0:0:0:0:
320,192,53836,128,0,54008:0:0:0:0:
64,192,54008,128,0,54179:0:0:0:70:Clap.wav
192,192,54008,1,0,0:0:0:0:
320,192,54179,1,0,0:0:0:0:
192,192,54265,1,0,0:0:0:0:
448,192,54351,128,0,54522:0:0:0:0:
320,192,54436,1,0,0:0:0:0:
192,192,54522,128,0,54693:0:0:0:0:
64,192,54693,1,0,0:0:0:70:Clap.wav
448,192,54693,1,0,0:0:0:0:
320,192,54865,128,0,55036:0:0:0:0:
64,192,55036,128,0,55208:0:0:0:0:
448,192,55036,1,0,0:0:0:0:
192,192,55208,1,0,0:0:0:0:
320,192,55379,1,0,0:0:0:70:Clap.wav
448,192,55379,1,0,0:0:0:0:
64,192,55551,1,0,0:0:0:0:
320,192,55722,1,0,0:0:0:0:
64,192,55893,1,0,0:0:0:0:
320,192,56065,1,0,0:0:0:70:Clap.wav
448,192,56065,1,0,0:0:0:0:
192,192,56236,1,0,0:0:0:0:
64,192,56408,1,2,0:0:0:0:
320,192,56408,1,0,0:0:0:70:ride08.wav
448,192,56408,1,0,0:0:0:0:
192,192,56579,1,0,0:0:0:0:
448,192,56751,1,0,0:0:0:70:Clap.wav
64,192,56836,1,0,0:0:0:0:
320,192,56922,1,0,0:0:0:0:
192,192,57008,1,0,0:0:0:0:
64,192,57093,1,2,0:0:0:0:
448,192,57093,1,0,0:0:0:0:
320,192,57136,1,0,0:0:0:0:
192,192,57179,1,0,0:0:0:0:
64,192,57222,1,0,0:0:0:0:
320,192,57265,1,0,0:0:0:70:LR_Snare Fast.wav
448,192,57265,1,0,0:0:0:0:
192,192,57351,1,0,0:0:0:0:
64,192,57436,1,0,0:0:0:70:ride08.wav
320,192,57436,1,0,0:0:0:0:
448,192,57436,1,0,0:0:0:0:
192,192,57522,1,0,0:0:0:0:
448,192,57608,1,0,0:0:0:100:LR_Snare Drum.wav
320,192,57693,1,0,0:0:0:0:
64,192,57779,128,2,58208:0:0:0:0:
192,192,57779,1,4,0:0:0:0:
448,192,57779,1,0,0:0:0:0:
320,192,57951,1,0,0:0:0:0:
448,192,58036,1,0,0:0:0:0:
192,192,58122,1,0,0:0:0:70:Clap.wav
320,192,58208,1,0,0:0:0:0:
64,192,58293,128,2,58722:0:0:0:0:
448,192,58293,1,0,0:0:0:0:
192,192,58379,1,0,0:0:0:0:
320,192,58465,1,0,0:0:0:0:
448,192,58636,1,0,0:0:0:0:
192,192,58722,1,0,0:0:0:0:
64,192,58808,128,2,59065:0:0:0:0:
320,192,58808,1,0,0:0:0:70:Clap.wav
448,192,58893,1,0,0:0:0:0:
192,192,58979,1,0,0:0:0:0:
320,192,59065,1,0,0:0:0:0:
64,192,59151,1,2,0:0:0:0:
448,192,59151,128,0,59579:0:0:0:0:
192,192,59322,1,0,0:0:0:0:
64,192,59408,1,0,0:0:0:0:
320,192,59493,1,0,0:0:0:70:Clap.wav
192,192,59579,1,0,0:0:0:0:
64,192,59665,1,2,0:0:0:0:
448,192,59665,128,0,60093:0:0:0:0:
320,192,59751,1,0,0:0:0:0:
192,192,59836,1,0,0:0:0:0:
64,192,60008,1,0,0:0:0:0:
320,192,60093,1,0,0:0:0:0:
192,192,60179,1,2,0:0:0:0:
448,192,60179,128,0,60436:0:0:0:70:Clap.wav
64,192,60265,1,0,0:0:0:0:
320,192,60351,1,0,0:0:0:0:
192,192,60436,1,0,0:0:0:0:
64,192,60522,128,2,60951:0:0:0:0:
448,192,60522,1,0,0:0:0:0:
192,192,60608,1,0,0:0:0:0:
320,192,60693,1,0,0:0:0:0:
448,192,60779,1,0,0:0:0:0:
192,192,60865,1,0,0:0:0:70:Clap.wav
448,192,60951,1,0,0:0:0:0:
64,192,61036,128,2,61465:0:0:0:0:
320,192,61036,1,0,0:0:0:0:
192,192,61122,1,0,0:0:0:0:
448,192,61208,1,0,0:0:0:0:
320,192,61293,1,0,0:0:0:0:
192,192,61379,1,0,0:0:0:0:
448,192,61465,1,0,0:0:0:0:
64,192,61551,128,2,61808:0:0:0:0:
320,192,61551,128,0,61636:0:0:0:70:Clap.wav
192,192,61636,128,0,61722:0:0:0:0:
448,192,61722,128,0,61808:0:0:0:0:
320,192,61808,128,0,61893:0:0:0:0:
64,192,61893,1,2,0:0:0:0:
448,192,61893,1,0,0:0:0:0:
192,192,61936,1,0,0:0:0:0:
320,192,61979,1,0,0:0:0:0:
448,192,62022,1,0,0:0:0:0:
64,192,62065,1,0,0:0:0:0:
192,192,62151,1,0,0:0:0:0:
64,192,62236,1,2,0:0:0:0:
320,192,62236,1,0,0:0:0:70:Clap.wav
448,192,62236,1,0,0:0:0:0:
192,192,62322,1,0,0:0:0:0:
448,192,62408,1,0,0:0:0:0:
320,192,62493,1,0,0:0:0:0:
64,192,62579,1,2,0:0:0:0:
192,192,62579,1,0,0:0:0:70:ride08.wav
448,192,62579,1,0,0:0:0:0:
320,192,62665,1,0,0:0:0:0:
192,192,62708,1,0,0:0:0:0:
64,192,62751,1,0,0:0:0:0:
448,192,62922,128,0,63151:0:0:0:0:
320,192,63036,1,0,0:0:0:0:
192,192,63151,1,0,0:0:0:0:
64,192,63265,1,4,0:0:0:0:
320,192,63265,1,2,0:0:0:0:
448,192,63265,1,0,0:0:0:0:
192,192,63436,1,0,0:0:0:0:
320,192,63522,1,0,0:0:0:0:
64,192,63608,1,8,0:0:0:0:
192,192,63608,1,2,0:0:0:0:
320,192,63779,1,0,0:0:0:0:
192,192,63865,1,0,0:0:0:0:
320,192,63951,1,2,0:0:0:0:
448,192,63951,1,0,0:0:0:0:
64,192,64036,1,0,0:0:0:0:
192,192,64122,128,0,64208:0:0:0:0:
320,192,64208,1,2,0:0:0:0:
448,192,64208,1,0,0:0:0:0:
64,192,64293,1,8,0:0:0:0:
192,192,64293,1,0,0:0:0:0:
320,192,64379,1,0,0:0:0:0:
64,192,64465,128,2,64551:0:0:0:0:
448,192,64465,1,0,0:0:0:0:
192,192,64551,1,0,0:0:0:0:
64,192,64636,128,4,64893:0:0:0:0:
320,192,64636,1,2,0:0:0:0:
448,192,64636,1,0,0:0:0:0:
192,192,64722,1,0,0:0:0:0:
320,192,64808,1,0,0:0:0:0:
448,192,64893,1,0,0:0:0:0:
64,192,64979,1,2,0:0:0:0:
192,192,64979,1,8,0:0:0:0:
320,192,65065,1,0,0:0:0:0:
64,192,65151,1,0,0:0:0:0:
192,192,65236,1,0,0:0:0:0:
320,192,65322,1,2,0:0:0:0:
448,192,65322,1,0,0:0:0:0:
64,192,65408,1,0,0:0:0:0:
192,192,65493,1,0,0:0:0:0:
320,192,65579,1,2,0:0:0:0:
448,192,65579,1,0,0:0:0:0:
64,192,65665,1,8,0:0:0:0:
192,192,65665,1,0,0:0:0:0:
320,192,65751,1,0,0:0:0:0:
64,192,65836,1,2,0:0:0:0:
448,192,65836,1,0,0:0:0:0:
192,192,65922,1,0,0:0:0:0:
64,192,66008,128,2,66265:0:0:0:0:
320,192,66008,1,4,0:0:0:0:
448,192,66008,1,0,0:0:0:0:
192,192,66093,1,0,0:0:0:0:
320,192,66179,1,0,0:0:0:0:
448,192,66265,1,0,0:0:0:0:
64,192,66351,1,8,0:0:0:0:
192,192,66351,1,2,0:0:0:0:
448,192,66436,1,0,0:0:0:0:
320,192,66522,1,0,0:0:0:0:
192,192,66608,1,0,0:0:0:0:
64,192,66693,1,2,0:0:0:0:
448,192,66693,1,0,0:0:0:0:
320,192,66779,1,0,0:0:0:0:
192,192,66865,128,0,66951:0:0:0:0:
320,192,66951,1,2,0:0:0:0:
448,192,66951,1,0,0:0:0:0:
64,192,67036,1,8,0:0:0:0:
192,192,67036,1,0,0:0:0:0:
320,192,67122,128,0,67208:0:0:0:0:
64,192,67208,1,2,0:0:0:0:
448,192,67208,1,0,0:0:0:0:
192,192,67293,1,0,0:0:0:0:
448,192,67379,128,2,67722:0:0:0:0:
320,192,67379,1,0,0:0:0:70:ride08.wav
64,192,67379,1,0,0:0:0:0:
64,192,67722,1,0,0:0:0:0:
192,192,67808,1,0,0:0:0:0:
448,192,67893,1,0,0:0:0:0:
320,192,67979,1,0,0:0:0:0:
64,192,68065,1,8,0:0:0:0:
192,192,68065,1,0,0:0:0:0:
448,192,68236,1,0,0:0:0:70:Cymatics - Kick 41 - E.wav
192,192,68408,1,0,0:0:0:70:LR4_ClapReverbDPS.wav
320,192,68408,128,0,68751:0:0:0:0:
64,192,68751,128,2,68922:0:0:0:0:
192,192,68751,1,4,0:0:0:0:
448,192,68751,1,0,0:0:0:0:
320,192,68922,1,0,0:0:0:0:
448,192,68922,128,0,69008:0:0:0:0:
64,192,69008,1,0,0:0:0:0:
192,192,69008,128,0,69179:0:0:0:0:
320,192,69093,1,0,0:0:0:70:Clap.wav
448,192,69093,1,0,0:0:0:0:
64,192,69265,128,0,69351:0:0:0:0:
192,192,69265,1,0,0:0:0:0:
320,192,69436,1,0,0:0:0:70:Clap.wav
448,192,69436,128,0,69522:0:0:0:0:
64,192,69522,1,0,0:0:0:0:
192,192,69522,128,0,69693:0:0:0:0:
448,192,69608,1,0,0:0:0:0:
64,192,69779,128,0,69865:0:0:0:70:Clap.wav
192,192,69779,1,0,0:0:0:0:
320,192,69951,128,0,70036:0:0:0:0:
448,192,69951,1,0,0:0:0:0:
64,192,70036,1,0,0:0:0:0:
192,192,70036,128,0,70122:0:0:0:0:
320,192,70122,1,0,0:0:0:70:Clap.wav
448,192,70122,128,0,70208:0:0:0:0:
64,192,70293,128,0,70379:0:0:0:0:
192,192,70293,1,0,0:0:0:0:
320,192,70379,128,0,70551:0:0:0:0:
448,192,70379,1,0,0:0:0:0:
64,192,70465,1,0,0:0:0:70:Clap.wav
192,192,70465,1,0,0:0:0:0:
320,192,70636,1,0,0:0:0:0:
448,192,70636,128,0,70722:0:0:0:0:
64,192,70808,1,0,0:0:0:70:Clap.wav
448,192,70808,128,0,70979:0:0:0:0:
320,192,70893,1,0,0:0:0:0:
64,192,70979,128,0,71151:0:0:0:0:
192,192,70979,1,0,0:0:0:0:
320,192,71151,1,0,0:0:0:70:Clap.wav
448,192,71151,128,0,71236:0:0:0:0:
64,192,71322,1,0,0:0:0:0:
192,192,71365,1,0,0:0:0:0:
320,192,71408,1,0,0:0:0:0:
448,192,71451,1,0,0:0:0:0:
64,192,71493,128,0,71665:0:0:0:70:Clap.wav
192,192,71493,1,0,0:0:0:0:
320,192,71665,1,0,0:0:0:0:
448,192,71665,128,0,71751:0:0:0:0:
64,192,71751,1,0,0:0:0:0:
192,192,71751,128,0,71922:0:0:0:0:
320,192,71836,1,0,0:0:0:70:Clap.wav
448,192,71836,1,0,0:0:0:0:
448,192,72008,1,0,0:0:0:0:
320,192,72051,1,0,0:0:0:0:
192,192,72093,1,0,0:0:0:0:
64,192,72136,1,0,0:0:0:0:
320,192,72179,128,0,72265:0:0:0:70:Clap.wav
448,192,72179,1,0,0:0:0:0:
64,192,72265,128,0,72436:0:0:0:0:
192,192,72265,1,0,0:0:0:0:
448,192,72351,1,0,0:0:0:0:
192,192,72522,128,0,72608:0:0:0:70:Clap.wav
320,192,72522,1,0,0:0:0:0:
64,192,72693,1,0,0:0:0:0:
448,192,72693,128,0,72779:0:0:0:0:
320,192,72779,1,0,0:0:0:0:
64,192,72865,128,0,72951:0:0:0:70:Clap.wav
192,192,72865,1,0,0:0:0:0:
320,192,73036,128,0,73208:0:0:0:0:
448,192,73036,128,0,73122:0:0:0:0:
64,192,73208,128,0,73379:0:0:0:70:Clap.wav
192,192,73208,128,0,73379:0:0:0:0:
320,192,73379,1,0,0:0:0:0:
192,192,73551,128,0,73722:0:0:0:70:Clap.wav
448,192,73551,128,0,73722:0:0:0:0:
64,192,73722,128,0,73893:0:0:0:0:
320,192,73893,1,0,0:0:0:70:Clap.wav
448,192,73893,128,0,74065:0:0:0:0:
64,192,74065,1,0,0:0:0:0:
192,192,74065,1,0,0:0:0:0:
320,192,74151,1,0,0:0:0:0:
64,192,74236,128,2,74322:0:0:0:0:
192,192,74236,1,4,0:0:0:0:
448,192,74236,1,0,0:0:0:0:
320,192,74322,1,0,0:0:0:0:
64,192,74408,128,0,74579:0:0:0:0:
448,192,74408,1,0,0:0:0:0:
192,192,74493,1,0,0:0:0:0:
320,192,74579,1,2,0:0:0:0:
448,192,74579,128,0,74665:0:0:0:70:Clap.wav
64,192,74665,1,0,0:0:0:0:
192,192,74751,1,0,0:0:0:0:
448,192,74751,128,0,74836:0:0:0:0:
320,192,74836,1,0,0:0:0:0:
64,192,74922,1,2,0:0:0:0:
448,192,74922,128,0,75093:0:0:0:70:Clap.wav
192,192,75008,1,0,0:0:0:0:
64,192,75093,128,0,75179:0:0:0:0:
320,192,75093,1,0,0:0:0:0:
448,192,75179,1,0,0:0:0:0:
64,192,75265,128,2,75351:0:0:0:0:
192,192,75265,1,0,0:0:0:70:Clap.wav
320,192,75351,1,0,0:0:0:0:
64,192,75436,128,0,75522:0:0:0:0:
448,192,75436,1,0,0:0:0:0:
192,192,75522,1,0,0:0:0:0:
64,192,75608,1,2,0:0:0:0:
320,192,75608,1,0,0:0:0:70:Clap.wav
448,192,75608,1,0,0:0:0:0:
192,192,75779,1,0,0:0:0:0:
320,192,75865,1,0,0:0:0:0:
448,192,75865,1,0,0:0:0:0:
64,192,75951,1,2,0:0:0:0:
192,192,75951,1,0,0:0:0:70:Clap.wav
64,192,76122,1,0,0:0:0:0:
192,192,76122,1,0,0:0:0:0:
320,192,76293,1,2,0:0:0:0:
448,192,76293,1,0,0:0:0:70:Clap.wav
320,192,76465,1,0,0:0:0:0:
448,192,76465,1,0,0:0:0:0:
64,192,76636,1,2,0:0:0:0:
192,192,76636,1,0,0:0:0:70:Clap.wav
64,192,76808,1,2,0:0:0:0:
192,192,76808,1,0,0:0:0:0:
320,192,76979,1,2,0:0:0:0:
448,192,76979,1,0,0:0:0:70:Clap.wav
320,192,77065,1,0,0:0:0:70:LR_Snare Fast.wav
448,192,77065,1,0,0:0:0:0:
64,192,77151,1,0,0:0:0:70:LR_Snare Fast.wav
192,192,77151,1,0,0:0:0:0:
64,192,77236,1,0,0:0:0:70:LR_Snare Fast.wav
192,192,77236,1,0,0:0:0:0:
320,192,77322,1,0,0:0:0:70:LR_Snare Fast.wav
448,192,77322,1,0,0:0:0:0:
64,192,77408,1,0,0:0:0:60:LR_Snare Fast.wav
192,192,77408,1,0,0:0:0:0:
320,192,77493,1,0,0:0:0:60:LR_Snare Fast.wav
448,192,77493,1,0,0:0:0:0:
64,192,77579,1,0,0:0:0:60:LR_Snare Fast.wav
192,192,77579,1,0,0:0:0:0:
320,192,77665,1,0,0:0:0:50:LR_Snare Fast.wav
448,192,77665,1,0,0:0:0:0:
192,192,77751,1,0,0:0:0:50:LR_Snare Fast.wav
64,192,77836,1,0,0:0:0:50:LR_Snare Fast.wav
448,192,77836,1,0,0:0:0:0:
320,192,77922,1,0,0:0:0:50:LR_Snare Fast.wav
64,192,78008,1,0,0:0:0:40:LR_Snare Fast.wav
192,192,78008,1,0,0:0:0:0:
448,192,78093,1,0,0:0:0:40:LR_Snare Fast.wav
320,192,78179,1,0,0:0:0:40:LR_Snare Fast.wav
192,192,78265,1,0,0:0:0:40:LR_Snare Fast.wav
64,192,78351,1,2,0:0:0:0:
320,192,78351,1,4,0:0:0:0:
448,192,78351,1,0,0:0:0:70:ride08.wav
192,192,78608,1,0,0:0:0:0:
320,192,78693,128,0,78865:0:0:0:0:
448,192,78779,128,0,78865:0:0:0:40:LR_Drum Rim Fast.wav
64,192,78865,1,0,0:0:0:40:LR_Tom Drop.wav
192,192,78951,1,0,0:0:0:40:LR_Drum Rim Fast_C.wav
320,192,79036,1,2,0:0:0:0:
448,192,79036,1,0,0:0:0:0:
64,192,79208,1,0,0:0:0:0:
192,192,79265,1,0,0:0:0:50:Cymatics - Kick 41 - E.wav
320,192,79322,1,0,0:0:0:50:Cymatics - Kick 41 - E.wav
64,192,79379,128,0,79636:0:0:0:70:VEC3 Snares 040_Reverb.wav
192,192,79379,128,0,79636:0:0:0:0:
448,192,79379,1,0,0:0:0:0:
64,192,79722,1,2,0:0:0:0:
320,192,79722,1,4,0:0:0:0:
448,192,79722,128,0,79893:0:0:0:0:
192,192,79893,128,0,79979:0:0:0:0:
64,192,80065,128,2,80236:0:0:0:0:
192,192,80065,128,0,80236:0:0:0:70:cymbal09.wav
320,192,80065,1,0,0:0:0:0:
448,192,80065,1,0,0:0:0:0:
448,192,80236,1,0,0:0:0:0:
320,192,80322,1,0,0:0:0:0:
64,192,80408,128,0,80493:0:0:0:70:LR4_SnareKKF.wav
192,192,80408,1,0,0:0:0:0:
448,192,80408,128,0,80579:0:0:0:0:
192,192,80579,128,2,80665:0:0:0:0:
320,192,80665,1,2,0:0:0:0:
448,192,80665,1,0,0:0:0:0:
64,192,80751,1,0,0:0:0:0:
192,192,80793,1,0,0:0:0:0:
320,192,80836,1,0,0:0:0:0:
448,192,80879,1,0,0:0:0:0:
64,192,80922,128,2,81179:0:0:0:0:
192,192,80922,128,0,81179:0:0:0:0:
320,192,81179,1,0,0:0:0:0:
64,192,81265,1,0,0:0:0:70:LR4_SnareKKF.wav
192,192,81265,128,0,81436:0:0:0:0:
448,192,81265,1,0,0:0:0:0:
320,192,81436,1,2,0:0:0:0:
448,192,81436,1,0,0:0:0:0:
64,192,81608,128,0,81779:0:0:0:0:
320,192,81693,1,2,0:0:0:0:
448,192,81693,1,0,0:0:0:0:
192,192,81779,1,0,0:0:0:0:
64,192,81865,1,0,0:0:0:0:
320,192,81951,1,2,0:0:0:0:
448,192,81951,1,0,0:0:0:0:
192,192,82036,128,0,82122:0:0:0:0:
64,192,82122,128,0,82379:0:0:0:70:LR4_SnareKKF.wav
320,192,82122,1,0,0:0:0:0:
448,192,82122,1,0,0:0:0:0:
192,192,82293,1,0,0:0:0:0:
320,192,82293,128,0,82379:0:0:0:0:
64,192,82465,128,2,82636:0:0:0:0:
192,192,82465,128,0,82551:0:0:0:0:
448,192,82465,1,0,0:0:0:0:
192,192,82722,128,2,82893:0:0:0:0:
320,192,82722,128,0,82808:0:0:0:0:
448,192,82722,1,0,0:0:0:0:
64,192,82979,1,2,0:0:0:0:
320,192,82979,128,0,83151:0:0:0:0:
448,192,82979,128,0,83065:0:0:0:0:
64,192,83151,1,0,0:0:0:70:LR4_SnareKKF.wav
192,192,83151,1,0,0:0:0:0:
448,192,83151,1,0,0:0:0:0:
320,192,83236,128,0,83322:0:0:0:0:
192,192,83322,1,0,0:0:0:0:
320,192,83408,1,2,0:0:0:0:
448,192,83408,128,0,83579:0:0:0:0:
64,192,83493,128,0,83579:0:0:0:0:
192,192,83493,1,0,0:0:0:0:
64,192,83665,1,2,0:0:0:0:
192,192,83665,128,0,84008:0:0:0:0:
320,192,83665,128,0,84008:0:0:0:0:
448,192,84008,128,0,84179:0:0:0:0:
64,192,84179,1,2,0:0:0:0:
192,192,84179,128,0,84265:0:0:0:0:
320,192,84179,128,0,84351:0:0:0:0:
64,192,84351,128,2,84522:0:0:0:0:
192,192,84351,128,0,84436:0:0:0:0:
448,192,84351,1,0,0:0:0:0:
192,192,84522,1,0,0:0:0:70:LR4_SnareKKF.wav
320,192,84522,1,0,0:0:0:0:
448,192,84522,1,0,0:0:0:0:
64,192,84693,1,2,0:0:0:0:
192,192,84693,128,0,84865:0:0:0:0:
320,192,84693,128,0,84779:0:0:0:0:
320,192,84865,1,0,0:0:0:0:
448,192,84865,128,0,85036:0:0:0:0:
64,192,85036,128,0,85465:0:0:0:0:
320,192,85036,128,0,85208:0:0:0:0:
192,192,85208,1,2,0:0:0:0:
448,192,85208,128,4,85465:0:0:0:0:
64,192,85551,128,2,85808:0:0:0:0:
320,192,85551,1,0,0:0:0:70:cymbal09.wav
448,192,85551,128,0,85808:0:0:0:0:
192,192,85808,128,0,85893:0:0:0:0:
64,192,85893,1,0,0:0:0:70:LR4_SnareKKF.wav
320,192,85893,128,0,86065:0:0:0:0:
448,192,85893,1,0,0:0:0:0:
320,192,86151,128,2,86236:0:0:0:0:
448,192,86151,1,0,0:0:0:0:
64,192,86236,1,0,0:0:0:0:
192,192,86322,1,0,0:0:0:0:
320,192,86408,128,2,86665:0:0:0:0:
448,192,86408,128,0,86665:0:0:0:0:
64,192,86751,1,0,0:0:0:70:LR4_SnareKKF.wav
320,192,86751,1,0,0:0:0:0:
448,192,86751,1,0,0:0:0:0:
192,192,86836,1,0,0:0:0:0:
320,192,86879,1,0,0:0:0:0:
64,192,86922,128,2,87093:0:0:0:0:
448,192,86922,1,0,0:0:0:0:
192,192,87008,1,0,0:0:0:0:
320,192,87093,1,0,0:0:0:0:
448,192,87136,1,0,0:0:0:0:
64,192,87179,128,2,87436:0:0:0:0:
192,192,87179,128,0,87436:0:0:0:0:
320,192,87436,1,2,0:0:0:0:
448,192,87436,1,0,0:0:0:0:
192,192,87522,128,0,87608:0:0:0:0:
64,192,87608,1,0,0:0:0:70:LR4_SnareKKF.wav
320,192,87608,1,0,0:0:0:0:
448,192,87608,1,0,0:0:0:0:
192,192,87693,128,0,87779:0:0:0:0:
448,192,87779,128,0,87865:0:0:0:0:
320,192,87865,1,0,0:0:0:0:
64,192,87951,128,2,88122:0:0:0:0:
192,192,87951,128,0,88036:0:0:0:0:
448,192,87951,1,0,0:0:0:0:
192,192,88208,128,2,88379:0:0:0:0:
320,192,88208,128,0,88293:0:0:0:0:
448,192,88208,1,0,0:0:0:0:
64,192,88465,1,2,0:0:0:0:
320,192,88465,128,0,88636:0:0:0:0:
448,192,88465,128,0,88551:0:0:0:0:
64,192,88636,1,0,0:0:0:70:LR4_SnareKKF.wav
192,192,88636,128,0,88722:0:0:0:0:
448,192,88636,1,0,0:0:0:0:
320,192,88808,128,0,88893:0:0:0:0:
64,192,88893,1,0,0:0:0:0:
192,192,88979,128,2,89065:0:0:0:0:
320,192,88979,128,0,89151:0:0:0:0:
448,192,88979,128,0,89836:0:0:0:0:
64,192,89236,128,2,89408:0:0:0:0:
192,192,89236,128,0,89322:0:0:0:0:
192,192,89493,128,2,89579:0:0:0:0:
320,192,89493,128,0,89665:0:0:0:0:
64,192,89751,128,2,89922:0:0:0:0:
192,192,89751,128,0,89836:0:0:0:0:
320,192,89836,128,0,89922:0:0:0:0:
192,192,90008,128,0,90179:0:0:0:70:LR4_SnareKKF.wav
320,192,90008,1,0,0:0:0:0:
448,192,90008,1,0,0:0:0:0:
64,192,90179,128,0,90265:0:0:0:0:
192,192,90351,1,0,0:0:0:0:
320,192,90351,1,0,0:0:0:0:
64,192,90436,1,0,0:0:0:0:
448,192,90522,1,0,0:0:0:0:
320,192,90565,1,0,0:0:0:0:
192,192,90608,128,0,90693:0:0:0:0:
64,192,90693,1,4,0:0:0:0:
320,192,90693,1,2,0:0:0:0:
448,192,90693,128,0,90865:0:0:0:0:
320,192,90951,128,0,91036:0:0:0:0:
64,192,91036,1,2,0:0:0:0:
192,192,91036,1,0,0:0:0:70:cymbal09.wav
448,192,91036,1,0,0:0:0:0:
320,192,91122,128,0,91208:0:0:0:0:
64,192,91208,1,0,0:0:0:0:
192,192,91293,1,0,0:0:0:0:
64,192,91379,1,0,0:0:0:70:LR4_SnareKKF.wav
320,192,91379,1,0,0:0:0:0:
448,192,91379,128,0,91551:0:0:0:0:
192,192,91551,1,2,0:0:0:0:
64,192,91636,128,2,91808:0:0:0:0:
320,192,91636,1,0,0:0:0:0:
448,192,91722,1,0,0:0:0:0:
192,192,91808,128,0,92151:0:0:0:0:
320,192,91893,128,2,92151:0:0:0:0:
448,192,91893,128,0,92751:0:0:0:0:
64,192,92236,1,0,0:0:0:70:LR4_SnareKKF.wav
192,192,92236,1,0,0:0:0:0:
320,192,92236,1,0,0:0:0:0:
64,192,92408,1,2,0:0:0:0:
192,192,92408,1,0,0:0:0:0:
320,192,92493,1,0,0:0:0:0:
64,192,92579,1,0,0:0:0:0:
192,192,92665,1,2,0:0:0:0:
320,192,92665,128,0,92836:0:0:0:0:
64,192,92751,128,0,93093:0:0:0:0:
320,192,92922,1,2,0:0:0:0:
448,192,92922,1,0,0:0:0:0:
192,192,93093,128,0,93436:0:0:0:70:LR4_SnareKKF.wav
320,192,93093,1,0,0:0:0:0:
448,192,93093,1,0,0:0:0:0:
64,192,93265,1,0,0:0:0:0:
320,192,93265,1,0,0:0:0:0:
64,192,93436,1,4,0:0:0:0:
320,192,93436,1,2,0:0:0:0:
448,192,93436,128,0,93608:0:0:0:0:
64,192,93693,1,4,0:0:0:0:
192,192,93693,128,2,93779:0:0:0:0:
448,192,93693,128,0,93865:0:0:0:0:
320,192,93779,128,0,93865:0:0:0:0:
192,192,93865,128,0,93951:0:0:0:0:
64,192,93951,128,4,94122:0:0:0:0:
320,192,93951,1,2,0:0:0:0:
448,192,93951,1,0,0:0:0:0:
192,192,94122,1,0,0:0:0:70:LR4_SnareKKF.wav
320,192,94122,128,0,94208:0:0:0:0:
448,192,94122,128,0,94293:0:0:0:0:
192,192,94293,128,0,94379:0:0:0:0:
64,192,94379,128,2,94465:0:0:0:0:
320,192,94379,128,4,94551:0:0:0:0:
448,192,94379,1,0,0:0:0:0:
64,192,94636,128,2,94893:0:0:0:0:
192,192,94636,128,4,95322:0:0:0:0:
448,192,94636,1,0,0:0:0:0:
64,192,94979,1,0,0:0:0:70:LR4_SnareKKF.wav
320,192,94979,1,0,0:0:0:0:
448,192,94979,128,0,95151:0:0:0:0:
64,192,95151,1,2,0:0:0:0:
320,192,95151,128,0,95322:0:0:0:0:
64,192,95322,1,2,0:0:0:0:
448,192,95322,1,0,0:0:0:0:
192,192,95365,1,0,0:0:0:0:
320,192,95408,1,0,0:0:0:0:
448,192,95451,1,0,0:0:0:0:
64,192,95493,128,0,95665:0:0:0:0:
192,192,95579,1,0,0:0:0:0:
320,192,95665,1,2,0:0:0:0:
448,192,95665,1,0,0:0:0:0:
64,192,95751,1,0,0:0:0:0:
192,192,95836,1,0,0:0:0:0:
320,192,95836,128,0,96008:0:0:0:0:
64,192,96008,1,0,0:0:0:0:
192,192,96093,1,0,0:0:0:0:
64,192,96179,1,4,0:0:0:0:
320,192,96179,128,2,96522:0:0:0:0:
448,192,96179,128,0,96779:0:0:0:0:
64,192,96522,128,0,96779:0:0:0:0:
192,192,96522,1,0,0:0:0:0:
192,192,96693,1,0,0:0:0:0:
64,192,96865,1,0,0:0:0:70:LR4_SnareKKF.wav
320,192,96865,128,0,97208:0:0:0:70:cymbal09.wav
448,192,96865,1,0,0:0:0:0:
448,192,97036,1,0,0:0:0:0:
64,192,97208,128,0,97379:0:0:0:0:
448,192,97208,1,0,0:0:0:0:
192,192,97379,128,2,97722:0:0:0:0:
320,192,97379,1,0,0:0:0:0:
448,192,97379,1,0,0:0:0:0:
64,192,97551,1,2,0:0:0:0:
320,192,97551,1,0,0:0:0:0:
448,192,97551,1,0,0:0:0:0:
64,192,97722,1,0,0:0:0:0:
320,192,97722,128,0,98065:0:0:0:0:
64,192,97893,1,0,0:0:0:70:Clap.wav
448,192,97893,1,0,0:0:0:0:
64,192,98065,1,0,0:0:0:0:
192,192,98065,128,0,98236:0:0:0:0:
320,192,98151,1,2,0:0:0:0:
448,192,98151,1,0,0:0:0:0:
64,192,98236,1,0,0:0:0:70:LR4_SnareKKF.wav
320,192,98236,1,0,0:0:0:0:
448,192,98236,1,0,0:0:0:0:
192,192,98322,1,0,0:0:0:0:
320,192,98408,1,0,0:0:0:0:
64,192,98493,1,0,0:0:0:70:LR4_SnareKKF.wav
192,192,98493,1,0,0:0:0:0:
448,192,98493,1,0,0:0:0:0:
320,192,98579,1,0,0:0:0:70:Clap.wav
320,192,98751,1,0,0:0:0:0:
64,192,98922,1,4,0:0:0:0:
320,192,98922,128,2,99093:0:0:0:0:
448,192,98922,128,0,99093:0:0:0:0:
64,192,99179,128,4,99351:0:0:0:0:
192,192,99179,128,2,99351:0:0:0:0:
448,192,99179,1,0,0:0:0:0:
64,192,99436,1,4,0:0:0:0:
320,192,99436,128,2,99522:0:0:0:0:
448,192,99436,128,0,99522:0:0:0:0:
64,192,99608,1,0,0:0:0:70:LR4_SnareKKF.wav
192,192,99608,1,0,0:0:0:0:
320,192,99608,1,0,0:0:0:0:
448,192,99608,1,0,0:0:0:0:
320,192,99779,1,0,0:0:0:0:
192,192,99865,1,0,0:0:0:0:
64,192,99951,1,4,0:0:0:0:
320,192,99951,128,2,100122:0:0:0:0:
448,192,99951,128,0,100122:0:0:0:0:
192,192,100036,1,0,0:0:0:0:
64,192,100208,1,4,0:0:0:0:
192,192,100208,128,2,100379:0:0:0:0:
448,192,100208,128,0,100379:0:0:0:0:
320,192,100293,1,0,0:0:0:0:
64,192,100465,128,4,100636:0:0:0:0:
192,192,100465,1,2,0:0:0:0:
448,192,100465,128,0,100636:0:0:0:0:
320,192,100551,1,0,0:0:0:0:
64,192,100722,1,4,0:0:0:0:
320,192,100722,128,2,100893:0:0:0:0:
448,192,100722,128,0,100893:0:0:0:0:
192,192,100808,1,0,0:0:0:0:
64,192,100979,1,0,0:0:0:70:LR4_SnareKKF.wav
192,192,100979,1,0,0:0:0:0:
320,192,100979,1,0,0:0:0:0:
448,192,100979,1,0,0:0:0:0:
192,192,101151,1,0,0:0:0:0:
448,192,101322,1,0,0:0:0:70:LR4_ClapReverbDPS.wav
320,192,101408,1,0,0:0:0:0:
64,192,101493,1,2,0:0:0:0:
192,192,101579,1,0,0:0:0:0:
64,192,101665,128,2,101922:0:0:0:0:
320,192,101665,1,0,0:0:0:70:cymbal09.wav
448,192,101665,1,0,0:0:0:0:
64,192,102008,1,0,0:0:0:0:
192,192,102008,128,0,102179:0:0:0:0:
320,192,102093,1,0,0:0:0:0:
448,192,102179,1,0,0:0:0:0:
320,192,102265,128,0,102436:0:0:0:0:
64,192,102351,1,0,0:0:0:70:LR4_SnareKKF.wav
192,192,102351,1,0,0:0:0:0:
448,192,102351,1,0,0:0:0:0:
64,192,102522,128,0,102693:0:0:0:0:
320,192,102522,1,0,0:0:0:0:
192,192,102608,1,0,0:0:0:0:
320,192,102693,128,0,102865:0:0:0:0:
448,192,102693,1,0,0:0:0:0:
192,192,102779,128,0,102865:0:0:0:0:
64,192,102865,1,2,0:0:0:0:
448,192,102865,128,0,103036:0:0:0:0:
192,192,103036,1,0,0:0:0:0:
320,192,103122,128,0,103208:0:0:0:0:
448,192,103122,1,0,0:0:0:0:
64,192,103208,1,0,0:0:0:0:
192,192,103293,1,0,0:0:0:0:
64,192,103379,128,2,103465:0:0:0:0:
448,192,103379,1,0,0:0:0:0:
320,192,103465,1,0,0:0:0:0:
192,192,103551,128,0,103636:0:0:0:0:
448,192,103636,1,0,0:0:0:0:
64,192,103722,1,0,0:0:0:70:LR4_SnareKKF.wav
192,192,103722,1,0,0:0:0:0:
320,192,103722,1,0,0:0:0:0:
448,192,103808,128,0,103979:0:0:0:0:
320,192,103893,1,0,0:0:0:0:
192,192,103979,1,0,0:0:0:0:
64,192,104065,1,0,0:0:0:0:
448,192,104065,128,0,104236:0:0:0:0:
320,192,104151,1,0,0:0:0:0:
64,192,104236,1,0,0:0:0:0:
192,192,104236,128,0,104408:0:0:0:0:
320,192,104322,1,0,0:0:0:0:
64,192,104408,128,2,104579:0:0:0:0:
448,192,104408,128,0,104579:0:0:0:0:
192,192,104665,128,2,104836:0:0:0:0:
448,192,104665,128,0,104836:0:0:0:0:
320,192,104922,128,2,105093:0:0:0:0:
448,192,104922,128,0,105008:0:0:0:0:
64,192,105093,128,0,105265:0:0:0:70:LR4_SnareKKF.wav
192,192,105093,1,0,0:0:0:0:
448,192,105093,1,0,0:0:0:0:
320,192,105179,128,0,105265:0:0:0:0:
448,192,105265,128,0,105351:0:0:0:0:
64,192,105351,128,0,105522:0:0:0:0:
192,192,105351,128,0,105436:0:0:0:0:
448,192,105436,128,0,105522:0:0:0:0:
320,192,105522,128,0,105608:0:0:0:0:
64,192,105608,128,2,105779:0:0:0:0:
192,192,105608,128,0,105693:0:0:0:0:
448,192,105779,1,0,0:0:0:0:
320,192,105865,128,0,105951:0:0:0:0:
64,192,105951,1,0,0:0:0:0:
192,192,106036,1,0,0:0:0:0:
320,192,106122,1,2,0:0:0:0:
448,192,106122,128,0,106293:0:0:0:0:
64,192,106293,1,0,0:0:0:0:
192,192,106293,128,0,106465:0:0:0:0:
64,192,106465,1,0,0:0:0:70:LR4_SnareKKF.wav
320,192,106465,1,0,0:0:0:0:
448,192,106465,1,0,0:0:0:0:
192,192,106551,128,0,106722:0:0:0:0:
64,192,106636,1,0,0:0:0:0:
320,192,106722,1,0,0:0:0:0:
64,192,106808,128,0,106893:0:0:0:0:
448,192,106808,1,0,0:0:0:0:
320,192,106893,128,0,106979:0:0:0:0:
192,192,106979,128,0,107065:0:0:0:0:
448,192,107065,128,0,107151:0:0:0:0:
64,192,107151,128,2,107322:0:0:0:0:
192,192,107151,128,0,107322:0:0:0:70:cymbal09.wav
320,192,107151,1,0,0:0:0:0:
192,192,107408,128,0,107493:0:0:0:0:
64,192,107493,1,0,0:0:0:0:
448,192,107493,128,0,107665:0:0:0:0:
320,192,107579,128,0,107665:0:0:0:0:
64,192,107665,128,0,107836:0:0:0:0:
192,192,107836,128,0,107922:0:0:0:70:LR4_SnareKKF.wav
320,192,107836,1,0,0:0:0:0:
448,192,107836,128,0,108008:0:0:0:0:
64,192,107922,128,0,108008:0:0:0:0:
64,192,108093,128,0,108265:0:0:0:0:
320,192,108093,128,0,108179:0:0:0:0:
192,192,108179,128,0,108265:0:0:0:0:
320,192,108265,128,0,108351:0:0:0:0:
64,192,108351,1,2,0:0:0:0:
192,192,108351,128,0,108522:0:0:0:0:
448,192,108351,128,0,108522:0:0:0:0:
64,192,108608,128,0,108779:0:0:0:0:
192,192,108608,1,0,0:0:0:0:
448,192,108608,128,0,108779:0:0:0:0:
64,192,108865,1,2,0:0:0:0:
320,192,108865,128,0,109036:0:0:0:0:
448,192,108865,128,0,108951:0:0:0:0:
192,192,109036,128,0,109208:0:0:0:0:
448,192,109036,128,0,109122:0:0:0:0:
64,192,109208,1,0,0:0:0:70:LR4_SnareKKF.wav
320,192,109208,1,0,0:0:0:0:
448,192,109208,1,0,0:0:0:0:
192,192,109293,128,0,109379:0:0:0:0:
320,192,109379,128,0,109465:0:0:0:0:
64,192,109465,128,0,109551:0:0:0:0:
192,192,109551,128,0,109722:0:0:0:0:
448,192,109551,128,0,109636:0:0:0:0:
320,192,109636,128,0,109722:0:0:0:0:
64,192,109722,128,0,109808:0:0:0:0:
192,192,109808,128,0,109893:0:0:0:0:
64,192,109893,128,2,110065:0:0:0:0:
320,192,109893,1,4,0:0:0:0:
448,192,109893,128,0,110065:0:0:0:0:
192,192,110065,1,0,0:0:0:0:
320,192,110151,128,0,110322:0:0:0:0:
448,192,110151,128,0,110322:0:0:0:0:
64,192,110236,1,0,0:0:0:0:
192,192,110322,1,0,0:0:0:0:
64,192,110408,1,2,0:0:0:0:
320,192,110408,1,4,0:0:0:0:
448,192,110408,128,0,110493:0:0:0:0:
64,192,110579,1,0,0:0:0:70:LR4_SnareKKF.wav
192,192,110579,128,0,110665:0:0:0:0:
448,192,110579,1,0,0:0:0:0:
320,192,110751,128,0,110836:0:0:0:0:
448,192,110751,1,0,0:0:0:0:
192,192,110836,1,0,0:0:0:0:
64,192,110922,128,2,111093:0:0:0:0:
320,192,110922,1,4,0:0:0:0:
448,192,110922,1,0,0:0:0:0:
192,192,111008,128,0,111093:0:0:0:0:
320,192,111093,1,0,0:0:0:0:
64,192,111179,128,0,111351:0:0:0:0:
192,192,111179,128,0,111351:0:0:0:0:
448,192,111265,1,0,0:0:0:0:
64,192,111436,128,2,111522:0:0:0:0:
192,192,111436,1,0,0:0:0:0:
320,192,111522,1,0,0:0:0:0:
192,192,111608,128,0,111693:0:0:0:0:
448,192,111693,1,0,0:0:0:0:
64,192,111779,1,0,0:0:0:0:
320,192,111779,128,0,111865:0:0:0:0:
192,192,111865,1,0,0:0:0:0:
320,192,111951,1,0,0:0:0:0:
448,192,111951,128,0,112036:0:0:0:0:
64,192,112036,1,0,0:0:0:0:
320,192,112122,1,0,0:0:0:0:
448,192,112122,128,0,112293:0:0:0:0:
64,192,112293,1,0,0:0:0:0:
192,192,112293,1,0,0:0:0:0:
64,192,112465,1,0,0:0:0:0:
192,192,112465,128,0,112551:0:0:0:0:
320,192,112551,128,0,112636:0:0:0:0:
64,192,112636,128,2,112893:0:0:0:0:
192,192,112636,1,0,0:0:0:70:cymbal09.wav
448,192,112636,1,0,0:0:0:0:
64,192,112979,1,0,0:0:0:0:
192,192,112979,128,0,113151:0:0:0:0:
448,192,113151,1,0,0:0:0:0:
320,192,113236,128,0,113408:0:0:0:0:
64,192,113322,1,0,0:0:0:70:LR4_SnareKKF.wav
192,192,113322,1,0,0:0:0:0:
448,192,113322,1,0,0:0:0:0:
64,192,113493,128,0,113665:0:0:0:0:
320,192,113493,1,0,0:0:0:0:
192,192,113579,1,0,0:0:0:0:
320,192,113665,128,0,113836:0:0:0:0:
448,192,113665,1,0,0:0:0:0:
192,192,113751,128,0,113836:0:0:0:0:
64,192,113836,1,2,0:0:0:0:
448,192,113836,128,0,114008:0:0:0:0:
192,192,114008,1,0,0:0:0:0:
320,192,114093,128,0,114265:0:0:0:0:
448,192,114093,1,0,0:0:0:0:
64,192,114179,1,0,0:0:0:0:
192,192,114265,1,0,0:0:0:0:
64,192,114351,128,2,114436:0:0:0:0:
448,192,114351,1,0,0:0:0:0:
320,192,114436,1,0,0:0:0:0:
192,192,114522,128,0,114608:0:0:0:0:
448,192,114608,1,0,0:0:0:0:
64,192,114693,1,0,0:0:0:70:LR4_SnareKKF.wav
192,192,114693,1,0,0:0:0:0:
320,192,114693,1,0,0:0:0:0:
448,192,114779,128,0,114865:0:0:0:0:
64,192,114865,1,0,0:0:0:0:
192,192,114908,1,0,0:0:0:0:
320,192,114951,1,0,0:0:0:0:
448,192,114993,1,0,0:0:0:0:
64,192,115036,1,0,0:0:0:0:
192,192,115036,128,0,115208:0:0:0:0:
320,192,115208,128,0,115379:0:0:0:0:
448,192,115208,1,0,0:0:0:0:
64,192,115379,128,2,115551:0:0:0:0:
192,192,115379,1,0,0:0:0:0:
448,192,115379,128,0,115551:0:0:0:0:
192,192,115551,1,0,0:0:0:0:
64,192,115636,128,2,115808:0:0:0:0:
320,192,115636,128,0,115808:0:0:0:0:
448,192,115808,1,0,0:0:0:0:
64,192,115893,128,2,115979:0:0:0:0:
320,192,115893,128,0,115979:0:0:0:0:
192,192,115979,128,0,116065:0:0:0:0:
64,192,116065,128,0,116236:0:0:0:70:LR4_SnareKKF.wav
320,192,116065,1,0,0:0:0:0:
448,192,116065,128,0,116236:0:0:0:0:
192,192,116151,1,0,0:0:0:0:
320,192,116236,1,0,0:0:0:0:
192,192,116322,128,0,116493:0:0:0:0:
448,192,116322,128,0,116493:0:0:0:0:
320,192,116408,1,0,0:0:0:0:
64,192,116493,1,0,0:0:0:0:
192,192,116579,1,2,0:0:0:0:
320,192,116579,128,0,116836:0:0:0:0:
448,192,116579,128,0,117351:0:0:0:0:
64,192,116836,128,0,117008:0:0:0:0:
320,192,117008,1,0,0:0:0:0:
64,192,117093,1,2,0:0:0:0:
192,192,117093,1,0,0:0:0:0:
320,192,117265,1,0,0:0:0:0:
192,192,117351,1,0,0:0:0:0:
64,192,117436,1,0,0:0:0:70:LR4_SnareKKF.wav
320,192,117436,1,0,0:0:0:0:
448,192,117436,128,0,117608:0:0:0:0:
192,192,117522,128,0,117608:0:0:0:0:
64,192,117608,128,0,117779:0:0:0:0:
448,192,117693,1,0,0:0:0:0:
192,192,117779,1,0,0:0:0:0:
320,192,117779,128,0,117951:0:0:0:0:
192,192,117951,1,0,0:0:0:0:
320,192,118036,128,0,118122:0:0:0:0:
64,192,118122,128,2,118293:0:0:0:0:
192,192,118122,128,0,118293:0:0:0:70:cymbal09.wav
448,192,118122,1,0,0:0:0:0:
192,192,118379,128,0,118465:0:0:0:0:
64,192,118465,1,2,0:0:0:0:
448,192,118465,128,0,118636:0:0:0:0:
320,192,118551,128,0,118636:0:0:0:0:
192,192,118636,128,0,118808:0:0:0:0:
64,192,118808,1,2,0:0:0:0:
320,192,118808,128,0,119065:0:0:0:0:
448,192,118808,128,0,118979:0:0:0:0:
64,192,119065,128,2,119236:0:0:0:0:
192,192,119065,128,0,119151:0:0:0:0:
448,192,119065,1,0,0:0:0:0:
320,192,119236,128,0,119322:0:0:0:0:
64,192,119322,1,2,0:0:0:0:
192,192,119322,128,0,119493:0:0:0:0:
448,192,119322,128,0,119493:0:0:0:0:
64,192,119493,128,2,119665:0:0:0:0:
320,192,119493,128,0,119665:0:0:0:0:
64,192,119751,128,0,119836:0:0:0:0:
192,192,119836,128,2,120008:0:0:0:0:
320,192,119836,1,0,0:0:0:0:
448,192,119922,128,0,120008:0:0:0:0:
64,192,120008,128,0,120179:0:0:0:0:
320,192,120008,1,0,0:0:0:0:
192,192,120093,1,0,0:0:0:0:
320,192,120179,128,2,120351:0:0:0:0:
448,192,120179,128,0,120351:0:0:0:0:
64,192,120351,128,0,120436:0:0:0:0:
192,192,120436,128,2,120608:0:0:0:0:
320,192,120436,1,0,0:0:0:0:
448,192,120436,128,0,120522:0:0:0:0:
64,192,120522,128,0,120693:0:0:0:0:
192,192,120693,1,2,0:0:0:0:
320,192,120693,128,0,120865:0:0:0:0:
448,192,120693,128,0,120865:0:0:0:0:
64,192,120865,128,2,121036:0:0:0:0:
192,192,120865,1,0,0:0:0:0:
448,192,120951,128,0,121036:0:0:0:0:
320,192,121036,1,0,0:0:0:0:
192,192,121122,128,0,121208:0:0:0:0:
64,192,121208,1,2,0:0:0:0:
448,192,121208,1,0,0:0:0:0:
192,192,121293,1,0,0:0:0:0:
320,192,121379,128,0,121465:0:0:0:0:
64,192,121551,128,2,121636:0:0:0:0:
448,192,121551,1,0,0:0:0:0:
320,192,121636,1,0,0:0:0:0:
192,192,121722,128,0,121808:0:0:0:0:
64,192,121808,1,2,0:0:0:0:
448,192,121808,1,0,0:0:0:0:
320,192,121893,128,0,122065:0:0:0:0:
448,192,121979,128,0,122065:0:0:0:0:
64,192,122065,1,2,0:0:0:0:
192,192,122065,1,0,0:0:0:0:
320,192,122151,128,0,122236:0:0:0:0:
64,192,122236,1,2,0:0:0:0:
192,192,122236,1,0,0:0:0:70:ride08.wav
448,192,122236,1,0,0:0:0:0:
320,192,122322,1,0,0:0:0:0:
64,192,122408,128,0,122493:0:0:0:0:
192,192,122408,1,0,0:0:0:0:
320,192,122493,1,0,0:0:0:0:
64,192,122579,1,0,0:0:0:0:
192,192,122579,128,0,122665:0:0:0:0:
448,192,122665,1,0,0:0:0:0:
64,192,122751,1,0,0:0:0:0:
320,192,122751,128,0,122836:0:0:0:0:
448,192,122836,1,0,0:0:0:0:
192,192,122922,128,0,123008:0:0:0:0:
320,192,123008,128,0,123093:0:0:0:0:
64,192,123093,1,2,0:0:0:0:
192,192,123093,128,0,123179:0:0:0:0:
320,192,123179,128,0,123265:0:0:0:0:
64,192,123265,1,0,0:0:0:70:LR4_ClapReverbDPS.wav
192,192,123265,1,0,0:0:0:0:
448,192,123265,1,0,0:0:0:0:
192,192,123436,1,0,0:0:0:0:
64,192,123608,1,2,0:0:0:0:
192,192,123608,1,0,0:0:0:70:cymbal09.wav
320,192,123608,1,0,0:0:0:70:VEC3 Snares 040_Reverb.wav
448,192,123608,1,0,0:0:0:0:
64,192,124979,1,0,0:0:0:0:
192,192,124979,1,0,0:0:0:0:
64,192,126351,1,0,0:0:0:0:
448,192,126351,1,0,0:0:0:0:
192,192,127722,1,0,0:0:0:0:
320,192,127722,1,0,0:0:0:0:
64,192,127893,1,0,0:0:0:0:
448,192,128065,1,0,0:0:0:0:
320,192,128151,1,0,0:0:0:0:
64,192,128236,1,0,0:0:0:0:
192,192,128322,1,0,0:0:0:0:
320,192,128408,1,0,0:0:0:0:
448,192,128408,1,0,0:0:0:0:
64,192,128579,1,0,0:0:0:0:
192,192,128751,1,0,0:0:0:0:
320,192,128922,1,0,0:0:0:0:
64,192,129093,1,0,0:0:0:0:
448,192,129093,1,0,0:0:0:0:
192,192,129265,1,0,0:0:0:0:
320,192,129436,1,0,0:0:0:70:Clap.wav
448,192,129436,1,0,0:0:0:0:
192,192,129608,1,0,0:0:0:0:
320,192,129693,1,0,0:0:0:0:
192,192,129779,1,0,0:0:0:0:
320,192,129865,1,0,0:0:0:0:
192,192,129951,1,0,0:0:0:0:
320,192,130122,1,0,0:0:0:70:Clap.wav
448,192,130122,1,0,0:0:0:0:
64,192,130293,1,0,0:0:0:0:
192,192,130465,1,0,0:0:0:0:
320,192,130465,1,0,0:0:0:0:
448,192,130636,1,0,0:0:0:0:
64,192,130808,1,0,0:0:0:70:Clap.wav
192,192,130808,1,0,0:0:0:0:
320,192,130979,1,0,0:0:0:0:
192,192,131065,1,0,0:0:0:0:
320,192,131151,1,0,0:0:0:0:
192,192,131236,1,0,0:0:0:0:
320,192,131322,1,0,0:0:0:0:
64,192,131493,1,0,0:0:0:70:Clap.wav
192,192,131493,1,0,0:0:0:0:
320,192,131665,1,0,0:0:0:0:
64,192,131836,128,0,132008:0:0:0:0:
448,192,131836,1,0,0:0:0:0:
192,192,132008,128,0,132179:0:0:0:0:
320,192,132179,128,0,132351:0:0:0:70:Clap.wav
448,192,132179,1,0,0:0:0:0:
64,192,132351,128,0,132522:0:0:0:0:
192,192,132436,1,0,0:0:0:0:
448,192,132522,128,0,132693:0:0:0:0:
320,192,132608,1,0,0:0:0:0:
192,192,132693,1,0,0:0:0:0:
320,192,132865,1,0,0:0:0:70:Clap.wav
448,192,132865,128,0,133036:0:0:0:0:
192,192,133036,128,0,133208:0:0:0:0:
64,192,133208,1,2,0:0:0:0:
320,192,133208,128,0,133379:0:0:0:70:ride08.wav
448,192,133208,1,0,0:0:0:0:
64,192,133379,128,0,133551:0:0:0:0:
192,192,133465,1,0,0:0:0:0:
448,192,133551,128,0,133722:0:0:0:70:Clap.wav
320,192,133636,1,0,0:0:0:0:
64,192,133722,1,0,0:0:0:0:
192,192,133808,1,0,0:0:0:0:
320,192,133893,1,2,0:0:0:0:
448,192,133893,1,0,0:0:0:0:
192,192,133979,1,0,0:0:0:0:
64,192,134065,1,0,0:0:0:70:LR_Snare Fast.wav
448,192,134065,1,0,0:0:0:0:
320,192,134151,1,0,0:0:0:0:
64,192,134236,1,0,0:0:0:70:ride08.wav
192,192,134236,1,0,0:0:0:0:
448,192,134236,1,0,0:0:0:0:
320,192,134322,1,0,0:0:0:0:
64,192,134408,1,0,0:0:0:100:LR_Snare Drum.wav
192,192,134493,1,0,0:0:0:0:
64,192,134579,1,2,0:0:0:0:
320,192,134579,1,4,0:0:0:0:
448,192,134579,1,0,0:0:0:0:
192,192,134751,1,0,0:0:0:0:
320,192,134836,1,0,0:0:0:0:
64,192,134922,1,2,0:0:0:0:
448,192,134922,1,0,0:0:0:0:
320,192,135008,1,0,0:0:0:0:
192,192,135093,1,0,0:0:0:0:
64,192,135179,1,0,0:0:0:0:
320,192,135265,1,2,0:0:0:0:
448,192,135265,1,0,0:0:0:0:
192,192,135436,1,0,0:0:0:0:
64,192,135522,1,0,0:0:0:0:
320,192,135608,1,2,0:0:0:0:
448,192,135608,1,0,0:0:0:0:
64,192,135693,1,0,0:0:0:0:
192,192,135779,1,0,0:0:0:0:
320,192,135865,1,0,0:0:0:0:
64,192,135951,1,2,0:0:0:0:
448,192,135951,1,0,0:0:0:0:
320,192,136122,1,0,0:0:0:0:
192,192,136208,1,0,0:0:0:0:
64,192,136293,1,2,0:0:0:0:
448,192,136293,1,0,0:0:0:0:
192,192,136379,1,0,0:0:0:0:
320,192,136465,1,0,0:0:0:0:
448,192,136551,1,0,0:0:0:0:
64,192,136636,1,2,0:0:0:0:
192,192,136636,1,0,0:0:0:0:
320,192,136808,1,0,0:0:0:0:
448,192,136893,1,0,0:0:0:0:
64,192,136979,1,2,0:0:0:0:
192,192,136979,1,0,0:0:0:0:
448,192,137065,1,0,0:0:0:0:
320,192,137151,1,0,0:0:0:0:
192,192,137236,1,0,0:0:0:0:
64,192,137322,1,2,0:0:0:0:
448,192,137322,1,0,0:0:0:0:
320,192,137408,1,0,0:0:0:0:
192,192,137493,1,0,0:0:0:0:
64,192,137579,1,0,0:0:0:0:
320,192,137665,1,2,0:0:0:0:
448,192,137665,1,0,0:0:0:0:
64,192,137751,1,0,0:0:0:0:
192,192,137836,1,0,0:0:0:0:
320,192,137922,1,0,0:0:0:0:
64,192,138008,1,2,0:0:0:0:
448,192,138008,1,0,0:0:0:0:
192,192,138093,1,0,0:0:0:0:
320,192,138179,1,0,0:0:0:0:
448,192,138265,1,0,0:0:0:0:
64,192,138351,128,2,138436:0:0:0:0:
192,192,138351,1,0,0:0:0:0:
448,192,138436,128,0,138522:0:0:0:0:
192,192,138522,128,0,138608:0:0:0:0:
320,192,138608,128,0,138693:0:0:0:0:
64,192,138693,1,2,0:0:0:0:
448,192,138693,1,0,0:0:0:70:Clap.wav
192,192,138736,1,0,0:0:0:0:
320,192,138779,1,0,0:0:0:0:
448,192,138822,1,0,0:0:0:0:
64,192,138865,1,0,0:0:0:0:
192,192,138951,1,0,0:0:0:0:
64,192,139036,1,2,0:0:0:0:
320,192,139036,1,0,0:0:0:70:Clap.wav
448,192,139036,1,0,0:0:0:0:
192,192,139122,1,0,0:0:0:0:
448,192,139208,1,0,0:0:0:0:
320,192,139293,1,0,0:0:0:0:
64,192,139379,1,2,0:0:0:0:
192,192,139379,1,0,0:0:0:70:ride08.wav
448,192,139379,1,0,0:0:0:0:
320,192,139465,1,0,0:0:0:0:
192,192,139508,1,0,0:0:0:0:
64,192,139551,1,0,0:0:0:0:
448,192,139722,128,0,139951:0:0:0:0:
320,192,139836,1,0,0:0:0:0:
192,192,139951,1,0,0:0:0:0:
64,192,140065,1,4,0:0:0:0:
320,192,140065,1,2,0:0:0:0:
448,192,140065,1,0,0:0:0:0:
192,192,140322,1,0,0:0:0:0:
320,192,140408,1,0,0:0:0:50:LR_Drum Rim Fast_C.wav
448,192,140408,1,0,0:0:0:0:
64,192,140579,1,0,0:0:0:0:
320,192,140665,1,0,0:0:0:0:
192,192,140751,1,0,0:0:0:70:Clap.wav
448,192,140836,1,0,0:0:0:0:
64,192,140922,128,0,141008:0:0:0:0:
192,192,141008,1,0,0:0:0:0:
320,192,141093,1,0,0:0:0:50:LR_Drum Rim Fast_C.wav
448,192,141093,1,0,0:0:0:0:
192,192,141179,1,0,0:0:0:0:
64,192,141265,128,0,141351:0:0:0:0:
320,192,141351,1,0,0:0:0:0:
64,192,141436,128,4,141693:0:0:0:0:
192,192,141436,1,0,0:0:0:0:
448,192,141436,1,0,0:0:0:0:
320,192,141522,1,0,0:0:0:0:
448,192,141608,1,0,0:0:0:0:
192,192,141693,1,0,0:0:0:0:
64,192,141779,1,0,0:0:0:50:LR_Drum Rim Fast_C.wav
320,192,141779,1,0,0:0:0:0:
448,192,141865,1,0,0:0:0:0:
192,192,141951,1,0,0:0:0:0:
64,192,142036,1,0,0:0:0:0:
448,192,142122,1,0,0:0:0:70:Clap.wav
320,192,142208,1,0,0:0:0:0:
64,192,142293,1,0,0:0:0:0:
192,192,142379,1,0,0:0:0:0:
320,192,142465,1,0,0:0:0:50:LR_Drum Rim Fast_C.wav
448,192,142465,1,0,0:0:0:0:
64,192,142551,1,0,0:0:0:0:
192,192,142551,1,0,0:0:0:0:
320,192,142636,1,0,0:0:0:0:
448,192,142636,1,0,0:0:0:0:
192,192,142722,1,0,0:0:0:0:
64,192,142808,1,4,0:0:0:0:
320,192,142808,1,0,0:0:0:0:
448,192,142808,128,0,143065:0:0:0:0:
192,192,142893,1,0,0:0:0:0:
64,192,142979,1,0,0:0:0:0:
320,192,143065,1,0,0:0:0:0:
192,192,143151,1,0,0:0:0:50:LR_Drum Rim Fast_C.wav
448,192,143151,1,0,0:0:0:0:
64,192,143236,1,0,0:0:0:0:
320,192,143322,1,0,0:0:0:0:
448,192,143408,1,0,0:0:0:0:
64,192,143493,1,0,0:0:0:70:Clap.wav
192,192,143579,1,0,0:0:0:0:
448,192,143665,128,0,143751:0:0:0:0:
320,192,143751,1,0,0:0:0:0:
64,192,143836,1,0,0:0:0:50:LR_Drum Rim Fast_C.wav
192,192,143836,1,0,0:0:0:0:
448,192,143922,128,0,144008:0:0:0:0:
320,192,144008,1,0,0:0:0:0:
192,192,144093,1,0,0:0:0:0:
64,192,144179,1,2,0:0:0:0:
320,192,144179,1,0,0:0:0:70:ride08.wav
448,192,144179,128,0,144522:0:0:0:0:
64,192,144522,1,0,0:0:0:0:
192,192,144608,1,0,0:0:0:0:
448,192,144693,1,0,0:0:0:0:
320,192,144779,1,0,0:0:0:0:
64,192,144865,1,8,0:0:0:0:
192,192,144865,1,0,0:0:0:0:
448,192,145036,1,0,0:0:0:70:Cymatics - Kick 41 - E.wav
192,192,145208,128,0,145551:0:0:0:70:LR4_ClapReverbDPS.wav
320,192,145208,1,0,0:0:0:0:
64,192,145551,1,2,0:0:0:0:
320,192,145551,1,4,0:0:0:0:
448,192,145551,1,0,0:0:0:0:
192,192,145636,1,0,0:0:0:0:
320,192,145722,1,0,0:0:0:0:
448,192,145808,1,0,0:0:0:0:
192,192,145893,1,0,0:0:0:70:Clap.wav
320,192,145979,1,0,0:0:0:0:
64,192,146065,1,0,0:0:0:0:
448,192,146151,1,0,0:0:0:0:
192,192,146322,1,0,0:0:0:0:
320,192,146408,1,0,0:0:0:0:
64,192,146493,1,0,0:0:0:70:Clap.wav
448,192,146579,1,0,0:0:0:0:
192,192,146665,1,0,0:0:0:0:
320,192,146751,1,0,0:0:0:70:Clap.wav
64,192,146836,1,0,0:0:0:0:
448,192,146922,1,0,0:0:0:70:Clap.wav
192,192,147008,1,0,0:0:0:0:
320,192,147093,1,0,0:0:0:0:
64,192,147179,1,0,0:0:0:0:
192,192,147265,1,0,0:0:0:70:Clap.wav
320,192,147351,1,0,0:0:0:0:
64,192,147436,1,0,0:0:0:0:
448,192,147522,1,0,0:0:0:0:
192,192,147693,1,0,0:0:0:0:
320,192,147779,1,0,0:0:0:0:
448,192,147865,1,0,0:0:0:0:
192,192,147951,1,0,0:0:0:70:Clap.wav
64,192,148036,1,0,0:0:0:0:
320,192,148122,1,0,0:0:0:0:
192,192,148208,1,0,0:0:0:0:
448,192,148293,1,0,0:0:0:70:Clap.wav
64,192,148379,1,0,0:0:0:0:
192,192,148465,1,0,0:0:0:0:
320,192,148551,1,0,0:0:0:0:
64,192,148636,1,0,0:0:0:70:Clap.wav
448,192,148722,1,0,0:0:0:0:
192,192,148808,1,0,0:0:0:0:
320,192,148893,1,0,0:0:0:0:
64,192,149065,1,0,0:0:0:0:
448,192,149151,1,0,0:0:0:0:
192,192,149236,1,0,0:0:0:70:Clap.wav
320,192,149322,1,0,0:0:0:0:
64,192,149408,1,0,0:0:0:0:
448,192,149493,1,0,0:0:0:70:Clap.wav
192,192,149579,1,0,0:0:0:0:
320,192,149665,1,0,0:0:0:70:LR_Drum Rim Fast.wav
448,192,149665,1,0,0:0:0:0:
64,192,149751,1,0,0:0:0:0:
192,192,149836,1,0,0:0:0:70:LR_Drum Rim Fast_C.wav
320,192,149836,1,0,0:0:0:0:
448,192,149922,1,0,0:0:0:0:
64,192,150008,1,0,0:0:0:70:LR_Drum Rim Fast_C.wav
192,192,150008,1,0,0:0:0:0:
448,192,150093,1,0,0:0:0:0:
192,192,150179,1,0,0:0:0:70:LR_Drum Rim Fast_C.wav
320,192,150179,1,0,0:0:0:0:
64,192,150265,1,0,0:0:0:0:
320,192,150351,1,0,0:0:0:70:LR_Drum Rim Fast.wav
448,192,150351,1,0,0:0:0:0:
192,192,150436,1,0,0:0:0:0:
64,192,150522,1,0,0:0:0:70:LR_Drum Rim Fast_C.wav
448,192,150522,1,0,0:0:0:0:
192,192,150693,1,0,0:0:0:70:LR_Drum Rim Fast_C.wav
320,192,150693,1,0,0:0:0:0:
448,192,150779,1,0,0:0:0:0:
64,192,150865,1,0,0:0:0:70:LR_Drum Rim Fast_C.wav
192,192,150865,1,0,0:0:0:0:
320,192,150951,1,0,0:0:0:0:
64,192,151036,128,2,151122:0:0:0:0:
192,192,151036,1,4,0:0:0:0:
448,192,151036,1,0,0:0:0:0:
64,192,151208,128,0,151379:0:0:0:0:
320,192,151208,1,0,0:0:0:0:
192,192,151293,1,0,0:0:0:0:
320,192,151379,1,2,0:0:0:0:
448,192,151379,128,0,151465:0:0:0:70:Clap.wav
192,192,151551,1,0,0:0:0:0:
448,192,151551,128,0,151636:0:0:0:0:
64,192,151722,1,2,0:0:0:0:
320,192,151722,1,0,0:0:0:70:Clap.wav
448,192,151722,128,0,151893:0:0:0:0:
64,192,151893,128,0,151979:0:0:0:0:
192,192,151893,1,0,0:0:0:0:
64,192,152065,128,2,152151:0:0:0:0:
448,192,152065,1,0,0:0:0:70:Clap.wav
64,192,152236,128,0,152322:0:0:0:0:
320,192,152236,1,0,0:0:0:0:
192,192,152322,1,0,0:0:0:0:
64,192,152408,1,2,0:0:0:0:
320,192,152408,1,0,0:0:0:70:Clap.wav
448,192,152408,1,0,0:0:0:0:
192,192,152579,1,0,0:0:0:0:
320,192,152665,1,0,0:0:0:0:
448,192,152665,1,0,0:0:0:0:
64,192,152751,1,2,0:0:0:0:
192,192,152751,1,0,0:0:0:70:Clap.wav
64,192,152922,1,0,0:0:0:0:
192,192,152922,1,0,0:0:0:0:
320,192,153093,1,2,0:0:0:0:
448,192,153093,1,0,0:0:0:70:Clap.wav
320,192,153265,1,0,0:0:0:0:
448,192,153265,1,0,0:0:0:0:
64,192,153436,1,2,0:0:0:0:
192,192,153436,1,0,0:0:0:70:Clap.wav
64,192,153608,1,2,0:0:0:0:
192,192,153608,1,0,0:0:0:0:
320,192,153779,1,2,0:0:0:0:
448,192,153779,1,0,0:0:0:70:Clap.wav
320,192,153865,1,0,0:0:0:70:LR_Snare Fast.wav
448,192,153865,1,0,0:0:0:0:
64,192,153951,1,0,0:0:0:70:LR_Snare Fast.wav
192,192,153951,1,0,0:0:0:0:
64,192,154036,1,0,0:0:0:70:LR_Snare Fast.wav
192,192,154036,1,0,0:0:0:0:
320,192,154122,1,0,0:0:0:70:LR_Snare Fast.wav
448,192,154122,1,0,0:0:0:0:
64,192,154208,1,0,0:0:0:60:LR_Snare Fast.wav
192,192,154208,1,0,0:0:0:0:
320,192,154293,1,0,0:0:0:60:LR_Snare Fast.wav
448,192,154293,1,0,0:0:0:0:
64,192,154379,1,0,0:0:0:60:LR_Snare Fast.wav
192,192,154379,1,0,0:0:0:0:
320,192,154465,1,0,0:0:0:50:LR_Snare Fast.wav
448,192,154465,1,0,0:0:0:0:
64,192,154551,1,0,0:0:0:50:LR_Snare Fast.wav
192,192,154636,1,0,0:0:0:50:LR_Snare Fast.wav
448,192,154636,1,0,0:0:0:0:
320,192,154722,1,0,0:0:0:50:LR_Snare Fast.wav
64,192,154808,1,0,0:0:0:40:LR_Snare Fast.wav
192,192,154808,1,0,0:0:0:0:
448,192,154893,1,0,0:0:0:40:LR_Snare Fast.wav
320,192,154979,1,0,0:0:0:40:LR_Snare Fast.wav
192,192,155065,1,0,0:0:0:40:LR_Snare Fast.wav
64,192,155151,1,2,0:0:0:0:
320,192,155151,1,4,0:0:0:0:
448,192,155151,1,0,0:0:0:70:ride08.wav
192,192,155322,1,0,0:0:0:40:LR_Drum Rim Fast.wav
320,192,155408,1,0,0:0:0:40:LR_Drum Rim Fast.wav
64,192,155579,1,0,0:0:0:40:LR_Drum Rim Fast_C.wav
448,192,155665,1,0,0:0:0:40:LR_Drum Rim Fast_C.wav
64,192,155836,1,2,0:0:0:0:
192,192,155836,1,0,0:0:0:0:
320,192,155922,1,0,0:0:0:40:LR_Drum Rim Fast_C.wav
64,192,156008,1,0,0:0:0:40:LR_Drum Rim Fast.wav
192,192,156065,1,0,0:0:0:50:Cymatics - Kick 41 - E.wav
320,192,156122,1,0,0:0:0:50:Cymatics - Kick 41 - E.wav
64,192,156179,128,0,156436:0:0:0:70:VEC3 Snares 040_Reverb.wav
192,192,156179,128,0,156436:0:0:0:0:
448,192,156179,1,0,0:0:0:0:
64,192,156522,1,2,0:0:0:0:
192,192,156522,1,0,0:0:0:70:cymbal09.wav
320,192,156522,1,0,0:0:0:0:
448,192,156522,128,0,156608:0:0:0:0:
64,192,156693,128,0,156779:0:0:0:0:
192,192,156693,1,0,0:0:0:0:
320,192,156779,128,0,156865:0:0:0:0:
64,192,156865,1,8,0:0:0:0:
448,192,156865,1,2,0:0:0:0:
192,192,156951,128,0,157036:0:0:0:0:
320,192,157036,128,0,157122:0:0:0:0:
448,192,157036,1,0,0:0:0:0:
64,192,157122,128,0,157293:0:0:0:0:
192,192,157208,1,2,0:0:0:0:
448,192,157208,1,0,0:0:0:0:
64,192,157379,1,0,0:0:0:0:
320,192,157379,128,0,157465:0:0:0:0:
192,192,157551,1,8,0:0:0:0:
448,192,157551,128,2,157636:0:0:0:0:
64,192,157636,1,0,0:0:0:0:
320,192,157722,128,0,157808:0:0:0:0:
448,192,157722,1,0,0:0:0:0:
192,192,157808,1,0,0:0:0:0:
64,192,157893,1,2,0:0:0:0:
448,192,157893,128,0,157979:0:0:0:0:
320,192,157979,1,0,0:0:0:0:
64,192,158065,128,0,158151:0:0:0:0:
192,192,158065,1,0,0:0:0:0:
320,192,158151,128,0,158236:0:0:0:0:
64,192,158236,1,2,0:0:0:0:
448,192,158236,1,8,0:0:0:0:
192,192,158322,128,0,158408:0:0:0:0:
64,192,158408,128,0,158493:0:0:0:0:
320,192,158408,1,0,0:0:0:0:
448,192,158493,128,0,158665:0:0:0:0:
192,192,158579,1,2,0:0:0:0:
320,192,158579,1,0,0:0:0:0:
64,192,158665,1,0,0:0:0:0:
320,192,158751,128,0,158836:0:0:0:0:
448,192,158751,1,0,0:0:0:0:
192,192,158836,128,0,158922:0:0:0:0:
64,192,158922,1,2,0:0:0:0:
448,192,158922,128,8,159008:0:0:0:0:
192,192,159008,1,0,0:0:0:0:
320,192,159008,128,0,159093:0:0:0:0:
64,192,159093,128,0,159179:0:0:0:0:
448,192,159093,1,0,0:0:0:0:
192,192,159179,128,0,159265:0:0:0:0:
320,192,159265,1,2,0:0:0:0:
448,192,159265,128,0,159351:0:0:0:0:
64,192,159436,128,0,159522:0:0:0:0:
192,192,159436,1,0,0:0:0:0:
320,192,159522,128,0,159608:0:0:0:0:
64,192,159608,1,8,0:0:0:0:
448,192,159608,1,2,0:0:0:0:
192,192,159693,128,0,159779:0:0:0:0:
320,192,159779,1,0,0:0:0:0:
448,192,159779,128,0,159865:0:0:0:0:
64,192,159865,128,0,160036:0:0:0:0:
192,192,159951,1,2,0:0:0:0:
448,192,159951,1,0,0:0:0:0:
64,192,160122,1,0,0:0:0:0:
320,192,160122,128,0,160208:0:0:0:0:
192,192,160293,1,8,0:0:0:0:
448,192,160293,128,2,160379:0:0:0:0:
64,192,160379,1,0,0:0:0:0:
320,192,160465,128,0,160551:0:0:0:0:
448,192,160465,1,0,0:0:0:0:
192,192,160551,1,0,0:0:0:0:
64,192,160636,128,2,160722:0:0:0:0:
448,192,160636,1,0,0:0:0:0:
320,192,160808,1,0,0:0:0:0:
448,192,160808,128,0,160893:0:0:0:0:
192,192,160893,128,0,160979:0:0:0:0:
64,192,160979,1,2,0:0:0:0:
448,192,160979,1,8,0:0:0:0:
320,192,161065,128,0,161151:0:0:0:0:
64,192,161151,128,0,161236:0:0:0:0:
192,192,161151,1,0,0:0:0:0:
448,192,161236,128,0,161408:0:0:0:0:
64,192,161322,1,2,0:0:0:0:
320,192,161322,1,0,0:0:0:0:
192,192,161408,1,0,0:0:0:0:
320,192,161493,128,0,161579:0:0:0:0:
448,192,161493,1,0,0:0:0:0:
64,192,161579,1,0,0:0:0:0:
192,192,161665,128,0,161751:0:0:0:70:LR_Drum Rim Fast.wav
448,192,161665,1,0,0:0:0:0:
320,192,161751,1,0,0:0:0:70:LR_Drum Rim Fast.wav
64,192,161836,1,0,0:0:0:70:LR_Drum Rim Fast_C.wav
448,192,161836,128,0,161922:0:0:0:0:
192,192,161922,1,0,0:0:0:70:LR_Drum Rim Fast_C.wav
64,192,162008,1,2,0:0:0:0:
320,192,162008,128,4,162093:0:0:0:0:
448,192,162008,1,0,0:0:0:0:
192,192,162179,128,0,162265:0:0:0:0:
320,192,162179,1,0,0:0:0:0:
64,192,162265,128,0,162351:0:0:0:0:
192,192,162351,1,2,0:0:0:0:
448,192,162351,1,8,0:0:0:0:
320,192,162436,128,0,162522:0:0:0:0:
64,192,162522,1,0,0:0:0:0:
448,192,162522,128,0,162608:0:0:0:0:
192,192,162608,128,0,162693:0:0:0:0:
320,192,162693,128,2,162865:0:0:0:0:
448,192,162693,1,0,0:0:0:0:
64,192,162865,1,0,0:0:0:0:
448,192,162865,128,0,162951:0:0:0:0:
192,192,162951,128,0,163208:0:0:0:0:
320,192,163036,1,2,0:0:0:0:
448,192,163036,1,8,0:0:0:0:
64,192,163208,1,0,0:0:0:0:
448,192,163208,128,0,163293:0:0:0:0:
320,192,163293,1,0,0:0:0:0:
192,192,163379,128,2,163465:0:0:0:0:
448,192,163379,1,0,0:0:0:0:
64,192,163551,1,0,0:0:0:0:
320,192,163551,128,0,163636:0:0:0:0:
448,192,163636,128,0,163722:0:0:0:0:
64,192,163722,1,8,0:0:0:0:
192,192,163722,1,2,0:0:0:0:
320,192,163808,128,0,163893:0:0:0:0:
192,192,163893,128,0,163979:0:0:0:0:
448,192,163893,1,0,0:0:0:0:
64,192,163979,128,0,164151:0:0:0:0:
320,192,164065,1,2,0:0:0:0:
448,192,164065,1,0,0:0:0:0:
192,192,164151,128,0,164322:0:0:0:0:
64,192,164236,1,0,0:0:0:0:
448,192,164236,128,0,164322:0:0:0:0:
320,192,164322,128,0,164408:0:0:0:0:
64,192,164408,128,8,164493:0:0:0:0:
448,192,164408,1,2,0:0:0:0:
192,192,164493,128,0,164579:0:0:0:0:
320,192,164493,1,0,0:0:0:0:
64,192,164579,1,0,0:0:0:0:
448,192,164579,128,0,164665:0:0:0:0:
320,192,164665,128,0,164751:0:0:0:0:
64,192,164751,1,2,0:0:0:0:
192,192,164751,128,0,164922:0:0:0:0:
320,192,164922,128,0,165008:0:0:0:0:
448,192,164922,1,0,0:0:0:0:
64,192,165008,128,0,165093:0:0:0:0:
192,192,165093,1,2,0:0:0:0:
448,192,165093,1,8,0:0:0:0:
320,192,165179,128,0,165265:0:0:0:0:
64,192,165265,1,0,0:0:0:0:
192,192,165265,128,0,165351:0:0:0:0:
448,192,165351,128,0,165522:0:0:0:0:
64,192,165436,1,2,0:0:0:0:
320,192,165436,1,0,0:0:0:0:
192,192,165608,1,0,0:0:0:0:
320,192,165608,128,0,165693:0:0:0:0:
64,192,165779,128,2,165865:0:0:0:0:
448,192,165779,1,8,0:0:0:0:
192,192,165951,128,0,166036:0:0:0:0:
320,192,165951,1,0,0:0:0:0:
320,192,166122,1,2,0:0:0:0:
448,192,166122,128,0,166293:0:0:0:0:
64,192,166293,128,0,166379:0:0:0:0:
192,192,166293,1,0,0:0:0:0:
320,192,166379,128,0,166465:0:0:0:0:
64,192,166465,1,8,0:0:0:0:
448,192,166465,1,2,0:0:0:0:
192,192,166551,128,0,166636:0:0:0:0:
320,192,166636,1,0,0:0:0:0:
448,192,166636,128,0,166722:0:0:0:0:
64,192,166722,128,0,167065:0:0:0:0:
192,192,166808,1,2,0:0:0:0:
320,192,166808,1,0,0:0:0:0:
192,192,166979,1,0,0:0:0:0:
448,192,166979,128,0,167065:0:0:0:0:
320,192,167065,1,0,0:0:0:0:
64,192,167151,128,0,167236:0:0:0:0:
448,192,167236,1,0,0:0:0:0:
64,192,167322,128,0,167408:0:0:0:0:
320,192,167322,128,0,167493:0:0:0:0:
64,192,167493,1,2,0:0:0:0:
192,192,167493,128,0,167665:0:0:0:70:cymbal09.wav
448,192,167493,128,0,167579:0:0:0:0:
320,192,167665,128,0,167751:0:0:0:0:
448,192,167665,1,0,0:0:0:0:
64,192,167751,128,0,167836:0:0:0:0:
192,192,167836,1,8,0:0:0:0:
320,192,167836,1,2,0:0:0:0:
448,192,167922,128,0,168008:0:0:0:0:
64,192,168008,1,0,0:0:0:0:
192,192,168008,128,0,168093:0:0:0:0:
320,192,168093,128,0,168265:0:0:0:0:
64,192,168179,1,2,0:0:0:0:
448,192,168179,1,0,0:0:0:0:
192,192,168351,128,0,168436:0:0:0:0:
320,192,168351,1,0,0:0:0:0:
320,192,168522,128,8,168608:0:0:0:0:
448,192,168522,1,2,0:0:0:0:
64,192,168693,1,0,0:0:0:0:
192,192,168693,128,0,168779:0:0:0:0:
64,192,168865,1,2,0:0:0:0:
448,192,168865,128,0,168951:0:0:0:0:
192,192,169036,128,0,169122:0:0:0:0:
320,192,169036,1,0,0:0:0:0:
448,192,169122,128,0,169208:0:0:0:0:
64,192,169208,1,2,0:0:0:0:
320,192,169208,1,8,0:0:0:0:
192,192,169293,128,0,169379:0:0:0:0:
64,192,169379,1,0,0:0:0:0:
320,192,169379,128,0,169465:0:0:0:0:
448,192,169465,128,0,169636:0:0:0:0:
64,192,169551,1,2,0:0:0:0:
192,192,169551,1,0,0:0:0:0:
320,192,169722,128,0,169808:0:0:0:0:
448,192,169722,1,0,0:0:0:0:
192,192,169808,128,0,169893:0:0:0:0:
64,192,169893,128,2,169979:0:0:0:0:
448,192,169893,1,8,0:0:0:0:
320,192,169979,128,0,170065:0:0:0:0:
64,192,170065,1,0,0:0:0:0:
192,192,170065,128,0,170151:0:0:0:0:
448,192,170151,128,0,170236:0:0:0:0:
192,192,170236,128,2,170408:0:0:0:0:
320,192,170236,1,0,0:0:0:0:
64,192,170408,128,0,170493:0:0:0:0:
448,192,170408,1,0,0:0:0:0:
320,192,170493,128,0,170579:0:0:0:0:
64,192,170579,1,8,0:0:0:0:
192,192,170579,1,2,0:0:0:0:
448,192,170665,128,0,170751:0:0:0:0:
64,192,170751,1,0,0:0:0:0:
192,192,170751,128,0,170836:0:0:0:0:
320,192,170836,128,0,171008:0:0:0:0:
64,192,170922,1,2,0:0:0:0:
448,192,170922,1,0,0:0:0:0:
192,192,171093,128,0,171179:0:0:0:0:
320,192,171093,1,0,0:0:0:0:
64,192,171265,128,8,171351:0:0:0:0:
448,192,171265,1,2,0:0:0:0:
320,192,171393,128,0,171479:0:0:0:0:
192,192,171436,128,0,171779:0:0:0:0:
64,192,171608,1,2,0:0:0:0:
448,192,171608,1,0,0:0:0:0:
64,192,171779,128,0,171865:0:0:0:0:
320,192,171779,1,0,0:0:0:0:
448,192,171865,1,0,0:0:0:0:
192,192,171951,1,2,0:0:0:0:
320,192,171951,128,8,172036:0:0:0:0:
64,192,172036,128,0,172122:0:0:0:0:
320,192,172122,1,0,0:0:0:0:
448,192,172122,128,0,172208:0:0:0:0:
192,192,172208,128,0,172293:0:0:0:0:
64,192,172293,128,2,172379:0:0:0:0:
320,192,172379,128,0,172465:0:0:0:0:
64,192,172465,1,0,0:0:0:0:
192,192,172465,128,0,172551:0:0:0:0:
448,192,172551,128,0,172636:0:0:0:0:
64,192,172636,128,0,172722:0:0:0:70:LR_Drum Rim Fast.wav
192,192,172636,1,0,0:0:0:0:
320,192,172722,1,0,0:0:0:70:LR_Drum Rim Fast.wav
448,192,172722,128,0,172808:0:0:0:0:
64,192,172808,1,0,0:0:0:70:LR_Drum Rim Fast_C.wav
192,192,172808,128,0,172893:0:0:0:0:
320,192,172893,128,0,172979:0:0:0:70:LR_Drum Rim Fast_C.wav
64,192,172979,128,2,173065:0:0:0:0:
192,192,172979,1,4,0:0:0:0:
448,192,172979,1,0,0:0:0:0:
192,192,173151,128,0,173236:0:0:0:0:
448,192,173151,1,0,0:0:0:0:
320,192,173236,128,0,173322:0:0:0:0:
64,192,173322,1,2,0:0:0:0:
448,192,173322,1,8,0:0:0:0:
192,192,173408,128,0,173493:0:0:0:0:
64,192,173493,1,0,0:0:0:0:
320,192,173536,128,0,173622:0:0:0:0:
448,192,173579,128,0,173836:0:0:0:0:
64,192,173665,1,2,0:0:0:0:
192,192,173665,1,0,0:0:0:0:
192,192,173836,1,0,0:0:0:0:
320,192,173836,1,0,0:0:0:0:
64,192,173922,1,0,0:0:0:0:
320,192,174008,128,2,174179:0:0:0:0:
448,192,174008,1,8,0:0:0:0:
64,192,174179,1,0,0:0:0:0:
192,192,174179,128,0,174351:0:0:0:0:
64,192,174351,1,2,0:0:0:0:
320,192,174351,1,4,0:0:0:0:
448,192,174351,128,0,174436:0:0:0:0:
192,192,174522,128,0,174608:0:0:0:0:
320,192,174522,1,0,0:0:0:0:
448,192,174608,128,0,174693:0:0:0:0:
64,192,174693,1,8,0:0:0:0:
320,192,174693,1,2,0:0:0:0:
192,192,174779,128,0,174865:0:0:0:0:
320,192,174822,128,0,174908:0:0:0:0:
448,192,174865,1,0,0:0:0:0:
64,192,174951,128,0,175036:0:0:0:0:
192,192,174993,128,0,175208:0:0:0:0:
320,192,175036,1,2,0:0:0:0:
448,192,175036,1,0,0:0:0:0:
64,192,175208,128,0,175379:0:0:0:0:
320,192,175208,1,0,0:0:0:0:
320,192,175379,128,8,175465:0:0:0:0:
448,192,175379,1,2,0:0:0:0:
64,192,175465,1,0,0:0:0:0:
192,192,175465,128,0,175551:0:0:0:0:
320,192,175551,1,0,0:0:0:0:
448,192,175551,128,0,175636:0:0:0:0:
64,192,175636,128,0,175722:0:0:0:0:
192,192,175722,1,4,0:0:0:0:
320,192,175722,128,2,176408:0:0:0:0:
448,192,175722,1,0,0:0:0:70:ride08.wav
192,192,175893,1,0,0:0:0:0:
64,192,176065,1,8,0:0:0:0:
192,192,176236,1,0,0:0:0:0:
448,192,176408,128,8,176493:0:0:0:0:
64,192,176493,128,0,176579:0:0:0:0:
320,192,176579,128,0,176665:0:0:0:0:
192,192,176665,128,0,176751:0:0:0:0:
448,192,176751,128,8,176836:0:0:0:0:
64,192,176836,128,0,176922:0:0:0:0:
320,192,176922,128,0,177008:0:0:0:0:
192,192,177008,128,0,177093:0:0:0:0:
64,192,177093,1,2,0:0:0:0:
448,192,177093,1,0,0:0:0:70:ride08.wav
320,192,177136,1,0,0:0:0:0:
192,192,177179,1,0,0:0:0:0:
64,192,177222,1,0,0:0:0:0:
448,192,177265,1,0,0:0:0:0:
320,192,177308,1,0,0:0:0:0:
192,192,177351,1,0,0:0:0:0:
64,192,177393,1,0,0:0:0:0:
448,192,177436,1,0,0:0:0:70:LR_Drum Rim Fast.wav
320,192,177493,1,0,0:0:0:70:LR_Drum Rim Fast.wav
64,192,177551,1,0,0:0:0:70:LR_Drum Rim Fast_C.wav
192,192,177608,1,0,0:0:0:70:LR_Drum Rim Fast_C.wav
448,192,177665,1,0,0:0:0:50:LR_Snare Fast.wav
320,192,177722,1,0,0:0:0:50:LR_Snare Fast.wav
64,192,177779,1,2,0:0:0:0:
192,192,177779,1,0,0:0:0:0:
64,192,177893,1,2,0:0:0:0:
192,192,177893,1,0,0:0:0:0:
320,192,177951,1,2,0:0:0:0:
448,192,177951,1,0,0:0:0:0:
64,192,178008,1,2,0:0:0:0:
192,192,178008,1,0,0:0:0:0:
64,192,178122,1,2,0:0:0:0:
320,192,178122,1,0,0:0:0:70:VEC3 Snares 040_Reverb.wav
448,192,178122,1,0,0:0:0:0:
320,192,178293,1,2,0:0:0:0:
448,192,178293,1,0,0:0:0:0:
64,192,178465,1,2,0:0:0:0:
192,192,178465,1,4,0:0:0:0:
448,192,178465,128,0,178722:0:0:0:0:
320,192,178636,1,0,0:0:0:0:
64,192,178808,128,2,178979:0:0:0:0:
192,192,178808,1,8,0:0:0:0:
320,192,178808,1,0,0:0:0:70:cymbal09.wav
448,192,178808,1,0,0:0:0:0:
448,192,178979,1,0,0:0:0:0:
64,192,179151,128,2,179322:0:0:0:0:
192,192,179151,1,0,0:0:0:0:
448,192,179322,1,0,0:0:0:0:
320,192,179408,1,0,0:0:0:0:
64,192,179493,128,2,179665:0:0:0:0:
192,192,179493,1,8,0:0:0:0:
320,192,179665,1,0,0:0:0:0:
64,192,179836,1,2,0:0:0:0:
448,192,179836,128,0,180008:0:0:0:0:
320,192,180008,1,0,0:0:0:0:
192,192,180093,1,0,0:0:0:0:
320,192,180179,1,8,0:0:0:0:
448,192,180179,128,2,180351:0:0:0:0:
64,192,180265,1,0,0:0:0:0:
192,192,180351,1,0,0:0:0:0:
320,192,180436,1,0,0:0:0:0:
64,192,180522,1,2,0:0:0:0:
448,192,180522,128,0,180693:0:0:0:0:
320,192,180608,1,0,0:0:0:0:
192,192,180693,1,0,0:0:0:0:
64,192,180779,1,0,0:0:0:0:
320,192,180865,1,8,0:0:0:0:
448,192,180865,128,2,181036:0:0:0:0:
64,192,180951,1,0,0:0:0:0:
192,192,180951,1,0,0:0:0:0:
320,192,181036,1,0,0:0:0:0:
192,192,181122,1,0,0:0:0:0:
64,192,181208,128,2,181379:0:0:0:0:
448,192,181208,1,0,0:0:0:0:
320,192,181379,1,0,0:0:0:0:
448,192,181465,128,0,181636:0:0:0:0:
64,192,181551,128,2,181722:0:0:0:0:
192,192,181551,1,8,0:0:0:0:
320,192,181722,128,0,181808:0:0:0:0:
192,192,181808,128,0,181893:0:0:0:0:
64,192,181893,128,2,182065:0:0:0:0:
448,192,181893,128,0,181979:0:0:0:0:
192,192,181979,128,0,182065:0:0:0:0:
320,192,182065,128,0,182151:0:0:0:0:
448,192,182151,128,0,182236:0:0:0:0:
64,192,182236,128,2,182408:0:0:0:0:
192,192,182236,128,8,182322:0:0:0:0:
448,192,182322,128,0,182408:0:0:0:0:
320,192,182408,128,0,182579:0:0:0:0:
64,192,182579,1,2,0:0:0:0:
448,192,182579,128,0,182751:0:0:0:0:
192,192,182665,128,0,182751:0:0:0:0:
320,192,182751,1,0,0:0:0:0:
64,192,182836,128,0,182922:0:0:0:0:
320,192,182922,1,8,0:0:0:0:
448,192,182922,128,2,183093:0:0:0:0:
192,192,183093,128,0,183179:0:0:0:0:
64,192,183265,1,2,0:0:0:0:
448,192,183265,128,0,183436:0:0:0:0:
320,192,183351,128,0,183436:0:0:0:0:
64,192,183436,128,0,183522:0:0:0:0:
192,192,183522,1,0,0:0:0:0:
320,192,183608,128,0,183693:0:0:0:70:LR_Drum Rim Fast.wav
448,192,183608,128,0,183779:0:0:0:0:
64,192,183693,128,0,183779:0:0:0:70:LR_Drum Rim Fast.wav
192,192,183779,128,0,183865:0:0:0:70:LR_Drum Rim Fast_C.wav
320,192,183865,128,0,183951:0:0:0:70:LR_Drum Rim Fast_C.wav
64,192,183951,128,4,184122:0:0:0:0:
192,192,183951,128,2,184122:0:0:0:0:
448,192,183951,1,0,0:0:0:0:
320,192,184122,1,0,0:0:0:0:
448,192,184208,128,0,184293:0:0:0:0:
64,192,184293,128,8,184465:0:0:0:0:
192,192,184293,1,2,0:0:0:0:
320,192,184379,128,0,184465:0:0:0:0:
448,192,184465,1,0,0:0:0:0:
192,192,184551,1,0,0:0:0:0:
64,192,184636,128,2,184722:0:0:0:0:
320,192,184636,128,0,184808:0:0:0:0:
448,192,184722,128,0,184808:0:0:0:0:
64,192,184808,128,0,184893:0:0:0:0:
192,192,184893,128,0,184979:0:0:0:0:
320,192,184979,128,8,185151:0:0:0:0:
448,192,184979,1,2,0:0:0:0:
64,192,185065,128,0,185151:0:0:0:0:
192,192,185151,128,0,185322:0:0:0:0:
320,192,185322,1,2,0:0:0:0:
448,192,185322,128,0,185493:0:0:0:0:
64,192,185408,128,0,185579:0:0:0:0:
192,192,185493,1,0,0:0:0:0:
320,192,185579,1,0,0:0:0:0:
192,192,185665,128,2,185836:0:0:0:0:
448,192,185665,128,8,185836:0:0:0:0:
64,192,185836,128,0,185922:0:0:0:0:
192,192,186008,128,2,186179:0:0:0:0:
320,192,186008,128,0,186093:0:0:0:0:
64,192,186093,128,0,186179:0:0:0:0:
448,192,186179,128,0,186265:0:0:0:0:
320,192,186265,128,0,186351:0:0:0:0:
64,192,186351,128,2,186436:0:0:0:0:
192,192,186351,128,8,186522:0:0:0:0:
448,192,186436,128,0,186522:0:0:0:0:
320,192,186522,128,0,186608:0:0:0:0:
192,192,186608,128,0,186693:0:0:0:0:
64,192,186693,128,2,186865:0:0:0:0:
448,192,186693,128,0,186865:0:0:0:0:
192,192,186865,1,0,0:0:0:0:
320,192,186951,128,0,187036:0:0:0:0:
64,192,187036,128,8,187208:0:0:0:0:
192,192,187036,1,2,0:0:0:0:
320,192,187122,1,0,0:0:0:0:
448,192,187208,128,0,187293:0:0:0:0:
64,192,187293,1,0,0:0:0:0:
192,192,187379,128,2,187465:0:0:0:0:
320,192,187379,128,0,187551:0:0:0:0:
64,192,187551,128,0,187636:0:0:0:0:
192,192,187636,1,0,0:0:0:0:
320,192,187722,128,8,187893:0:0:0:0:
448,192,187722,128,2,187808:0:0:0:0:
64,192,187808,128,0,187893:0:0:0:0:
192,192,187893,1,0,0:0:0:0:
320,192,187979,128,0,188065:0:0:0:0:
64,192,188065,128,2,188322:0:0:0:0:
448,192,188065,128,0,188236:0:0:0:0:
320,192,188236,128,0,188322:0:0:0:0:
192,192,188322,1,0,0:0:0:0:
64,192,188408,128,2,188665:0:0:0:0:
448,192,188408,128,8,188579:0:0:0:0:
320,192,188493,1,0,0:0:0:0:
192,192,188579,128,0,188665:0:0:0:0:
320,192,188665,1,0,0:0:0:0:
64,192,188751,128,2,189008:0:0:0:0:
192,192,188751,128,0,188922:0:0:0:0:
448,192,188751,128,0,188836:0:0:0:0:
448,192,188922,128,0,189008:0:0:0:0:
320,192,189008,1,0,0:0:0:0:
64,192,189093,1,0,0:0:0:0:
448,192,189093,128,0,189179:0:0:0:0:
192,192,189179,1,0,0:0:0:0:
320,192,189265,128,0,189351:0:0:0:0:
192,192,189351,128,0,189436:0:0:0:0:
64,192,189436,128,2,189608:0:0:0:0:
320,192,189436,1,0,0:0:0:70:cymbal09.wav
448,192,189436,128,0,189693:0:0:0:0:
192,192,189608,1,0,0:0:0:0:
320,192,189693,1,0,0:0:0:0:
64,192,189779,128,2,189951:0:0:0:0:
192,192,189779,128,8,189951:0:0:0:0:
448,192,189951,1,0,0:0:0:0:
320,192,190036,128,0,190208:0:0:0:0:
64,192,190122,128,2,190293:0:0:0:0:
192,192,190122,1,0,0:0:0:0:
192,192,190293,128,0,190379:0:0:0:0:
64,192,190465,128,2,190551:0:0:0:0:
448,192,190465,128,8,190636:0:0:0:0:
320,192,190551,128,0,190636:0:0:0:0:
192,192,190636,128,0,190808:0:0:0:0:
64,192,190808,128,2,190979:0:0:0:0:
448,192,190808,1,0,0:0:0:0:
320,192,190893,128,0,190979:0:0:0:0:
192,192,190979,1,0,0:0:0:0:
320,192,191065,1,0,0:0:0:0:
64,192,191151,128,8,191236:0:0:0:0:
448,192,191151,128,2,191322:0:0:0:0:
320,192,191236,1,0,0:0:0:0:
192,192,191322,128,0,191408:0:0:0:0:
64,192,191408,1,0,0:0:0:0:
320,192,191493,128,2,191665:0:0:0:0:
448,192,191493,128,0,191665:0:0:0:0:
64,192,191665,1,0,0:0:0:0:
192,192,191708,1,0,0:0:0:0:
320,192,191751,1,0,0:0:0:0:
448,192,191793,1,0,0:0:0:0:
64,192,191836,128,8,192008:0:0:0:0:
192,192,191836,128,2,192008:0:0:0:0:
320,192,192008,128,0,192179:0:0:0:0:
192,192,192179,128,2,192351:0:0:0:0:
448,192,192179,128,0,192351:0:0:0:0:
64,192,192351,1,0,0:0:0:0:
320,192,192436,128,0,192608:0:0:0:0:
64,192,192522,128,2,192693:0:0:0:0:
192,192,192522,1,8,0:0:0:0:
448,192,192693,128,0,192779:0:0:0:0:
192,192,192779,128,0,192865:0:0:0:0:
64,192,192865,128,2,193036:0:0:0:0:
320,192,192865,128,0,193036:0:0:0:0:
448,192,193036,1,0,0:0:0:0:
192,192,193122,128,0,193293:0:0:0:0:
320,192,193208,1,2,0:0:0:0:
448,192,193208,128,8,193379:0:0:0:0:
64,192,193379,128,0,194236:0:0:0:0:
320,192,193551,1,2,0:0:0:0:
448,192,193551,128,0,193722:0:0:0:0:
192,192,193722,1,0,0:0:0:0:
320,192,193808,1,0,0:0:0:0:
192,192,193893,1,8,0:0:0:0:
448,192,193893,128,2,194065:0:0:0:0:
320,192,193979,1,0,0:0:0:0:
192,192,194065,1,0,0:0:0:0:
320,192,194236,1,2,0:0:0:0:
448,192,194236,128,0,194408:0:0:0:0:
64,192,194322,1,0,0:0:0:0:
192,192,194322,1,0,0:0:0:0:
320,192,194408,1,0,0:0:0:0:
192,192,194493,1,0,0:0:0:0:
64,192,194579,1,0,0:0:0:70:LR_Drum Rim Fast.wav
448,192,194579,128,0,194751:0:0:0:0:
320,192,194665,1,0,0:0:0:70:LR_Drum Rim Fast.wav
64,192,194751,1,0,0:0:0:70:LR_Drum Rim Fast_C.wav
192,192,194751,1,0,0:0:0:0:
320,192,194836,1,0,0:0:0:70:LR_Drum Rim Fast_C.wav
64,192,194922,128,4,195093:0:0:0:0:
192,192,194922,1,2,0:0:0:0:
448,192,194922,128,0,195093:0:0:0:0:
320,192,195093,1,0,0:0:0:0:
448,192,195179,128,0,195265:0:0:0:0:
192,192,195265,1,8,0:0:0:0:
320,192,195265,128,2,195436:0:0:0:0:
64,192,195351,128,0,195436:0:0:0:0:
192,192,195436,128,0,195522:0:0:0:0:
320,192,195522,128,0,195608:0:0:0:0:
64,192,195608,128,2,195779:0:0:0:0:
448,192,195608,128,0,195865:0:0:0:0:
320,192,195779,1,0,0:0:0:0:
192,192,195865,128,0,195951:0:0:0:0:
320,192,195951,128,8,196122:0:0:0:0:
448,192,195951,1,2,0:0:0:0:
64,192,196036,128,0,196122:0:0:0:0:
192,192,196122,128,0,196208:0:0:0:0:
320,192,196208,128,0,196293:0:0:0:0:
64,192,196293,128,4,196465:0:0:0:0:
192,192,196293,1,2,0:0:0:0:
448,192,196293,128,0,196465:0:0:0:0:
192,192,196465,1,0,0:0:0:0:
320,192,196551,128,0,196636:0:0:0:0:
64,192,196636,1,2,0:0:0:0:
192,192,196636,128,8,196808:0:0:0:0:
448,192,196722,128,0,196808:0:0:0:0:
320,192,196808,128,0,196893:0:0:0:0:
192,192,196893,128,0,196979:0:0:0:0:
64,192,196979,128,2,197151:0:0:0:0:
448,192,196979,128,0,197151:0:0:0:0:
192,192,197151,1,0,0:0:0:0:
320,192,197236,128,0,197322:0:0:0:0:
192,192,197322,128,2,197493:0:0:0:0:
448,192,197322,1,8,0:0:0:0:
64,192,197408,1,0,0:0:0:0:
320,192,197493,128,0,197579:0:0:0:0:
448,192,197493,1,0,0:0:0:0:
64,192,197579,128,0,197665:0:0:0:0:
192,192,197665,128,2,197836:0:0:0:0:
320,192,197665,1,4,0:0:0:0:
448,192,197665,128,0,197836:0:0:0:70:ride08.wav
320,192,197836,1,0,0:0:0:0:
192,192,197922,128,0,198008:0:0:0:0:
64,192,198008,1,8,0:0:0:0:
448,192,198008,1,0,0:0:0:0:
192,192,198093,1,0,0:0:0:0:
320,192,198179,128,0,198265:0:0:0:0:
192,192,198265,1,0,0:0:0:0:
64,192,198351,128,8,198436:0:0:0:0:
448,192,198351,1,0,0:0:0:0:
320,192,198436,1,0,0:0:0:0:
192,192,198522,128,0,198608:0:0:0:0:
64,192,198608,1,0,0:0:0:0:
320,192,198693,1,8,0:0:0:0:
448,192,198693,128,0,198779:0:0:0:0:
192,192,198779,128,0,198865:0:0:0:0:
64,192,198865,1,0,0:0:0:0:
320,192,198951,128,0,199036:0:0:0:0:
64,192,199036,128,2,199208:0:0:0:0:
192,192,199036,1,0,0:0:0:70:ride08.wav
448,192,199036,1,0,0:0:0:0:
320,192,199208,1,2,0:0:0:0:
448,192,199208,1,0,0:0:0:0:
64,192,199379,128,2,199551:0:0:0:0:
192,192,199379,1,0,0:0:0:0:
320,192,199551,1,2,0:0:0:0:
448,192,199551,128,0,199722:0:0:0:0:
64,192,199722,1,2,0:0:0:0:
192,192,199722,128,0,199808:0:0:0:0:
320,192,199808,128,2,199893:0:0:0:0:
448,192,199808,1,0,0:0:0:0:
64,192,199893,1,2,0:0:0:0:
192,192,199893,128,0,200065:0:0:0:0:
320,192,200065,128,2,200151:0:0:0:0:
448,192,200065,1,0,0:0:0:0:
64,192,200151,1,0,0:0:0:0:
192,192,200236,1,2,0:0:0:0:
320,192,200236,128,0,200408:0:0:0:0:
64,192,200408,1,2,0:0:0:0:
192,192,200408,1,0,0:0:0:70:cymbal09.wav
448,192,200408,128,0,200665:0:0:0:0:
320,192,200493,1,0,0:0:0:0:
64,192,200579,1,0,0:0:0:0:
192,192,200665,1,0,0:0:0:0:
320,192,200751,1,2,0:0:0:0:
448,192,200751,1,0,0:0:0:70:Clap.wav
192,192,200836,1,0,0:0:0:0:
64,192,200922,1,0,0:0:0:0:
320,192,201008,1,0,0:0:0:0:
64,192,201093,1,2,0:0:0:0:
192,192,201093,1,0,0:0:0:0:
320,192,201179,1,0,0:0:0:0:
64,192,201265,1,0,0:0:0:0:
192,192,201351,1,0,0:0:0:0:
320,192,201436,1,2,0:0:0:0:
448,192,201436,1,0,0:0:0:70:Clap.wav
64,192,201522,1,0,0:0:0:0:
192,192,201608,1,0,0:0:0:0:
320,192,201693,1,0,0:0:0:0:
64,192,201779,1,2,0:0:0:0:
448,192,201779,1,0,0:0:0:0:
320,192,201865,1,0,0:0:0:0:
192,192,201951,1,0,0:0:0:0:
64,192,202036,1,0,0:0:0:0:
320,192,202122,1,2,0:0:0:0:
448,192,202122,1,0,0:0:0:70:Clap.wav
192,192,202208,1,0,0:0:0:0:
64,192,202293,1,0,0:0:0:0:
320,192,202379,1,0,0:0:0:0:
64,192,202465,1,2,0:0:0:0:
192,192,202465,1,0,0:0:0:0:
448,192,202551,1,0,0:0:0:0:
320,192,202593,1,0,0:0:0:0:
192,192,202636,1,0,0:0:0:0:
64,192,202679,1,0,0:0:0:0:
448,192,202722,1,0,0:0:0:0:
320,192,202765,1,0,0:0:0:0:
64,192,202808,1,2,0:0:0:0:
192,192,202808,1,0,0:0:0:70:Clap.wav
448,192,202893,1,0,0:0:0:0:
320,192,202979,1,0,0:0:0:0:
192,192,203065,1,0,0:0:0:0:
64,192,203151,1,2,0:0:0:0:
448,192,203151,1,0,0:0:0:0:
320,192,203236,1,0,0:0:0:0:
192,192,203322,1,0,0:0:0:0:
64,192,203408,1,0,0:0:0:0:
320,192,203493,1,2,0:0:0:0:
448,192,203493,1,0,0:0:0:70:Clap.wav
192,192,203579,1,0,0:0:0:0:
64,192,203665,1,0,0:0:0:0:
320,192,203751,1,0,0:0:0:0:
64,192,203836,1,2,0:0:0:0:
192,192,203836,1,0,0:0:0:0:
320,192,203922,1,0,0:0:0:0:
64,192,204008,1,0,0:0:0:0:
192,192,204093,1,0,0:0:0:0:
320,192,204179,1,2,0:0:0:0:
448,192,204179,1,0,0:0:0:70:Clap.wav
64,192,204265,1,0,0:0:0:0:
192,192,204351,1,0,0:0:0:0:
320,192,204436,1,0,0:0:0:0:
64,192,204522,1,2,0:0:0:0:
448,192,204522,1,0,0:0:0:0:
192,192,204608,1,0,0:0:0:0:
320,192,204693,128,0,204865:0:0:0:0:
448,192,204779,1,0,0:0:0:0:
64,192,204865,128,2,205036:0:0:0:0:
192,192,204865,1,0,0:0:0:70:Clap.wav
320,192,204951,1,0,0:0:0:0:
448,192,205036,1,0,0:0:0:0:
192,192,205122,1,0,0:0:0:0:
320,192,205208,1,2,0:0:0:0:
448,192,205208,128,0,205379:0:0:0:0:
64,192,205293,1,0,0:0:0:0:
192,192,205379,128,0,205551:0:0:0:0:
320,192,205465,1,0,0:0:0:0:
64,192,205551,1,0,0:0:0:70:Clap.wav
448,192,205551,1,0,0:0:0:0:
192,192,205636,1,0,0:0:0:0:
320,192,205722,128,0,205893:0:0:0:0:
448,192,205808,1,0,0:0:0:0:
64,192,205893,128,2,206065:0:0:0:0:
192,192,205893,1,0,0:0:0:70:ride08.wav
320,192,206065,1,0,0:0:0:0:
448,192,206065,128,0,206408:0:0:0:0:
64,192,206236,1,2,0:0:0:0:
192,192,206236,1,0,0:0:0:70:Clap.wav
320,192,206408,1,0,0:0:0:0:
192,192,206493,1,0,0:0:0:0:
64,192,206579,1,2,0:0:0:0:
448,192,206579,1,0,0:0:0:0:
192,192,206665,1,0,0:0:0:0:
320,192,206751,1,0,0:0:0:0:
64,192,206922,1,2,0:0:0:0:
192,192,206922,1,0,0:0:0:70:Clap.wav
448,192,206922,1,0,0:0:0:0:
320,192,207093,1,0,0:0:0:0:
448,192,207093,128,0,207265:0:0:0:0:
64,192,207265,1,2,0:0:0:0:
192,192,207265,1,0,0:0:0:0:
320,192,207436,1,0,0:0:0:0:
64,192,207608,1,2,0:0:0:0:
192,192,207608,1,0,0:0:0:70:Clap.wav
448,192,207608,1,0,0:0:0:0:
320,192,207779,1,0,0:0:0:0:
192,192,207865,1,0,0:0:0:0:
64,192,207951,1,2,0:0:0:0:
448,192,207951,1,0,0:0:0:0:
192,192,208036,1,0,0:0:0:0:
320,192,208079,1,0,0:0:0:0:
448,192,208122,1,0,0:0:0:0:
64,192,208165,1,0,0:0:0:0:
192,192,208208,1,0,0:0:0:0:
320,192,208251,1,0,0:0:0:0:
64,192,208293,1,2,0:0:0:0:
448,192,208293,1,0,0:0:0:70:Clap.wav
192,192,208465,1,0,0:0:0:0:
320,192,208636,1,2,0:0:0:0:
448,192,208636,1,0,0:0:0:0:
192,192,208808,1,0,0:0:0:0:
64,192,208979,1,2,0:0:0:0:
320,192,208979,1,0,0:0:0:70:Clap.wav
448,192,208979,1,0,0:0:0:0:
192,192,209151,1,0,0:0:0:0:
320,192,209236,1,0,0:0:0:0:
64,192,209322,1,2,0:0:0:0:
448,192,209322,1,0,0:0:0:0:
320,192,209408,1,0,0:0:0:0:
192,192,209493,1,0,0:0:0:0:
64,192,209665,1,2,0:0:0:0:
320,192,209665,1,0,0:0:0:70:Clap.wav
448,192,209665,1,0,0:0:0:0:
192,192,209836,1,0,0:0:0:0:
320,192,210008,1,2,0:0:0:0:
448,192,210008,1,0,0:0:0:0:
64,192,210179,1,0,0:0:0:0:
192,192,210265,1,0,0:0:0:0:
448,192,210351,1,0,0:0:0:0:
320,192,210436,1,0,0:0:0:0:
64,192,210522,1,0,0:0:0:0:
192,192,210608,1,0,0:0:0:0:
320,192,210693,1,0,0:0:0:0:
448,192,210693,128,0,210779:0:0:0:0:
192,192,210779,128,0,210865:0:0:0:0:
320,192,210865,128,0,210951:0:0:0:0:
64,192,210951,128,0,211036:0:0:0:0:
192,192,211036,128,0,211122:0:0:0:70:VEC3 Snares 040_Reverb.wav
448,192,211036,128,0,211293:0:0:0:0:
320,192,211122,128,0,211208:0:0:0:0:
64,192,211208,128,0,211293:0:0:0:0:
192,192,211293,1,0,0:0:0:0:
64,192,211379,128,4,211636:0:0:0:0:
320,192,211379,1,2,0:0:0:0:
448,192,211379,1,0,0:0:0:0:
192,192,211465,1,0,0:0:0:0:
448,192,211551,1,0,0:0:0:0:
320,192,211636,1,0,0:0:0:0:
64,192,211722,1,2,0:0:0:0:
192,192,211722,1,0,0:0:0:70:Clap.wav
320,192,211808,1,0,0:0:0:0:
448,192,211893,1,0,0:0:0:0:
192,192,211979,1,0,0:0:0:0:
320,192,212065,1,2,0:0:0:0:
448,192,212065,1,0,0:0:0:0:
192,192,212151,1,0,0:0:0:0:
448,192,212236,1,0,0:0:0:0:
320,192,212322,1,0,0:0:0:0:
64,192,212408,1,2,0:0:0:0:
192,192,212408,1,0,0:0:0:70:Clap.wav
448,192,212493,1,0,0:0:0:0:
320,192,212579,1,0,0:0:0:0:
192,192,212665,1,0,0:0:0:0:
64,192,212751,1,2,0:0:0:0:
448,192,212751,1,0,0:0:0:0:
192,192,212836,1,0,0:0:0:0:
320,192,212922,1,0,0:0:0:0:
448,192,213008,1,0,0:0:0:0:
64,192,213093,1,2,0:0:0:0:
192,192,213093,1,0,0:0:0:70:Clap.wav
320,192,213179,1,0,0:0:0:0:
448,192,213265,1,0,0:0:0:0:
192,192,213351,1,0,0:0:0:0:
320,192,213436,1,2,0:0:0:0:
448,192,213436,1,0,0:0:0:0:
64,192,213522,1,0,0:0:0:0:
192,192,213565,1,0,0:0:0:0:
320,192,213608,1,0,0:0:0:0:
448,192,213651,1,0,0:0:0:0:
64,192,213693,1,0,0:0:0:0:
192,192,213736,1,0,0:0:0:0:
320,192,213779,1,2,0:0:0:0:
448,192,213779,1,0,0:0:0:70:Clap.wav
64,192,213865,1,0,0:0:0:0:
192,192,213951,1,0,0:0:0:0:
320,192,214036,1,0,0:0:0:0:
64,192,214122,1,2,0:0:0:0:
448,192,214122,1,0,0:0:0:0:
192,192,214208,1,0,0:0:0:0:
320,192,214293,1,0,0:0:0:0:
448,192,214379,1,0,0:0:0:0:
64,192,214465,1,2,0:0:0:0:
192,192,214465,1,0,0:0:0:70:Clap.wav
320,192,214551,1,0,0:0:0:0:
448,192,214636,1,0,0:0:0:0:
192,192,214722,1,0,0:0:0:0:
320,192,214808,1,2,0:0:0:0:
448,192,214808,1,0,0:0:0:0:
192,192,214893,1,0,0:0:0:0:
448,192,214979,1,0,0:0:0:0:
320,192,215065,1,0,0:0:0:0:
64,192,215151,1,2,0:0:0:0:
192,192,215151,1,0,0:0:0:70:Clap.wav
448,192,215236,1,0,0:0:0:0:
320,192,215322,1,0,0:0:0:0:
192,192,215408,1,0,0:0:0:0:
64,192,215493,1,2,0:0:0:0:
448,192,215493,1,0,0:0:0:0:
320,192,215579,1,0,0:0:0:0:
192,192,215665,128,0,215836:0:0:0:0:
64,192,215751,1,0,0:0:0:0:
320,192,215836,1,2,0:0:0:0:
448,192,215836,128,0,216008:0:0:0:70:Clap.wav
192,192,215922,1,0,0:0:0:0:
64,192,216008,1,0,0:0:0:0:
320,192,216093,1,0,0:0:0:0:
64,192,216179,128,2,216351:0:0:0:0:
192,192,216179,1,0,0:0:0:0:
448,192,216265,1,0,0:0:0:0:
320,192,216351,128,0,216522:0:0:0:0:
192,192,216436,1,0,0:0:0:0:
64,192,216522,1,0,0:0:0:70:Clap.wav
448,192,216522,1,0,0:0:0:0:
320,192,216608,1,0,0:0:0:0:
192,192,216693,128,0,216865:0:0:0:0:
64,192,216779,1,0,0:0:0:0:
320,192,216865,1,2,0:0:0:0:
448,192,216865,128,0,217036:0:0:0:0:
64,192,217036,128,0,217379:0:0:0:0:
192,192,217036,1,0,0:0:0:0:
320,192,217208,1,2,0:0:0:0:
448,192,217208,1,0,0:0:0:70:Clap.wav
192,192,217293,1,0,0:0:0:0:
448,192,217379,1,0,0:0:0:0:
320,192,217465,1,0,0:0:0:0:
64,192,217551,1,2,0:0:0:0:
192,192,217551,1,0,0:0:0:0:
320,192,217636,1,0,0:0:0:0:
448,192,217722,1,0,0:0:0:0:
192,192,217808,1,0,0:0:0:0:
64,192,217893,1,2,0:0:0:0:
320,192,217893,1,0,0:0:0:70:Clap.wav
448,192,217893,1,0,0:0:0:0:
192,192,217979,1,0,0:0:0:0:
320,192,218065,128,0,218236:0:0:0:0:
64,192,218236,1,2,0:0:0:0:
448,192,218236,1,0,0:0:0:0:
192,192,218322,1,0,0:0:0:0:
320,192,218408,1,0,0:0:0:0:
448,192,218493,1,0,0:0:0:0:
64,192,218579,1,2,0:0:0:0:
192,192,218579,1,0,0:0:0:70:Clap.wav
448,192,218665,1,0,0:0:0:0:
320,192,218751,1,0,0:0:0:0:
192,192,218836,1,0,0:0:0:0:
64,192,218922,1,2,0:0:0:0:
448,192,218922,1,0,0:0:0:0:
320,192,219008,1,0,0:0:0:0:
192,192,219051,1,0,0:0:0:0:
64,192,219093,1,0,0:0:0:0:
448,192,219136,1,0,0:0:0:0:
320,192,219179,1,0,0:0:0:0:
192,192,219222,1,0,0:0:0:0:
64,192,219265,1,2,0:0:0:0:
448,192,219265,1,0,0:0:0:70:Clap.wav
192,192,219436,1,0,0:0:0:0:
320,192,219436,1,0,0:0:0:0:
64,192,219608,1,2,0:0:0:0:
192,192,219608,1,0,0:0:0:0:
448,192,219608,1,0,0:0:0:0:
320,192,219693,1,0,0:0:0:0:
64,192,219779,1,0,0:0:0:0:
320,192,219865,1,0,0:0:0:0:
64,192,219951,1,2,0:0:0:0:
192,192,219951,1,0,0:0:0:70:Clap.wav
448,192,220036,1,0,0:0:0:0:
192,192,220122,1,0,0:0:0:0:
448,192,220208,1,0,0:0:0:0:
192,192,220293,1,2,0:0:0:0:
320,192,220293,1,0,0:0:0:0:
64,192,220379,1,0,0:0:0:0:
320,192,220465,1,0,0:0:0:0:
64,192,220551,1,0,0:0:0:0:
320,192,220636,1,2,0:0:0:0:
448,192,220636,1,0,0:0:0:70:Clap.wav
192,192,220722,1,0,0:0:0:0:
448,192,220808,1,0,0:0:0:0:
192,192,220893,1,0,0:0:0:0:
64,192,220979,1,2,0:0:0:0:
320,192,220979,1,0,0:0:0:70:ride08.wav
448,192,220979,1,0,0:0:0:0:
192,192,221151,1,0,0:0:0:0:
448,192,221322,1,0,0:0:0:70:LR_Drum Rim Fast.wav
320,192,221379,1,0,0:0:0:70:LR_Drum Rim Fast.wav
64,192,221436,1,0,0:0:0:70:LR_Drum Rim Fast_C.wav
192,192,221493,1,0,0:0:0:70:LR_Drum Rim Fast_C.wav
448,192,221551,1,0,0:0:0:50:LR_Snare Fast.wav
320,192,221608,1,0,0:0:0:50:LR_Snare Fast.wav
64,192,221665,1,2,0:0:0:0:
192,192,221665,1,0,0:0:0:0:
64,192,221779,1,2,0:0:0:0:
192,192,221779,1,0,0:0:0:0:
448,192,221836,1,0,0:0:0:0:
64,192,221893,1,2,0:0:0:0:
192,192,221893,1,0,0:0:0:0:
64,192,222008,1,0,0:0:0:70:VEC3 Snares 040_Reverb.wav
320,192,222008,1,0,0:0:0:0:
448,192,222008,128,0,222351:0:0:0:0:
192,192,222179,1,2,0:0:0:0:
320,192,222179,128,0,222351:0:0:0:0:
64,192,222351,1,2,0:0:0:0:
192,192,222351,1,0,0:0:0:0:
