osu file format v14

[General]
AudioFilename: audio.mp3
AudioLeadIn: 0
PreviewTime: 155065
Countdown: 0
SampleSet: Soft
StackLeniency: 0.7
Mode: 3
LetterboxInBreaks: 0
SpecialStyle: 0
WidescreenStoryboard: 0

[Editor]
DistanceSpacing: 2.8
BeatDivisor: 4
GridSize: 16
TimelineZoom: 1.5

[Metadata]
Title:SUMMER
TitleUnicode:SUMMER
Artist:Zekk
ArtistUnicode:Zekk
Creator:Shima Rin
Version:FAMoss' Normal
Source:osu!
Tags:MEGAREX Trinity Force FUGENE FÜGENE 03 Future Bass M3 Spring 春 2019 MRX-037 MRX-041 Tofu1222 FAMoss Featured Artists FA Mappers' Guild MG Electronic Instrumental
BeatmapID:2508166
BeatmapSetID:1159269

[Difficulty]
HPDrainRate:7.5
CircleSize:4
OverallDifficulty:7.5
ApproachRate:5
SliderMultiplier:1.4
SliderTickRate:1

[Events]
//Background and Video events
0,0,"BG.jpg",0,0
//Break Periods
//Storyboard Layer 0 (Background)
//Storyboard Layer 1 (Fail)
//Storyboard Layer 2 (Pass)
//Storyboard Layer 3 (Foreground)
//Storyboard Layer 4 (Overlay)
//Storyboard Sound Samples
Sample,46808,0,"VEC3 Snares 040_Reverb.wav",70
Sample,58808,0,"Clap.wav",70
Sample,60179,0,"Clap.wav",70
Sample,61551,0,"Clap.wav",70
Sample,62236,0,"Clap.wav",70
Sample,74579,0,"Clap.wav",70
Sample,75951,0,"Clap.wav",70
Sample,76979,0,"Clap.wav",70
Sample,123608,0,"VEC3 Snares 040_Reverb.wav",70
Sample,138693,0,"Clap.wav",70
Sample,151379,0,"Clap.wav",70
Sample,152751,0,"Clap.wav",70
Sample,153779,0,"Clap.wav",70

[TimingPoints]
1551,342.857142857143,4,2,1,60,1,0
79722,-100,4,2,1,60,0,1
100979,-100,4,2,1,60,0,0
101665,-100,4,2,1,60,0,1
123608,-100,4,2,1,60,0,0
156522,-100,4,2,1,60,0,1
177093,-100,4,2,1,60,0,0
178808,-100,4,2,1,60,0,1
200408,-100,4,2,1,60,0,0

[HitObjects]
320,192,1551,5,2,0:0:0:0:
64,192,1722,1,0,0:0:0:70:LR_Drum Rim Fast.wav
192,192,1808,1,0,0:0:0:70:LR_Drum Rim Fast.wav
448,192,1979,1,0,0:0:0:70:LR_Drum Rim Fast_C.wav
320,192,2065,1,0,0:0:0:70:LR_Drum Rim Fast_C.wav
64,192,2236,1,2,0:0:0:0:
192,192,2322,1,0,0:0:0:70:LR_Drum Rim Fast.wav
448,192,2408,1,0,0:0:0:0:
320,192,2493,1,0,0:0:0:0:
64,192,2579,1,0,0:0:0:70:VEC3 Snares 040_Reverb.wav
192,192,2579,1,0,0:0:0:0:
64,192,2922,1,2,0:0:0:0:
448,192,2922,1,0,0:0:0:70:cymbal09.wav
320,192,3265,1,2,0:0:0:0:
448,192,3265,1,0,0:0:0:0:
192,192,3608,1,2,0:0:0:0:
320,192,3951,1,2,0:0:0:0:
448,192,3951,1,0,0:0:0:0:
192,192,4293,1,2,0:0:0:0:
64,192,4636,1,2,0:0:0:0:
448,192,4636,1,0,0:0:0:0:
320,192,4979,1,2,0:0:0:0:
192,192,5151,1,0,0:0:0:0:
64,192,5322,1,2,0:0:0:0:
448,192,5322,1,0,0:0:0:0:
320,192,5665,1,2,0:0:0:0:
64,192,6008,1,2,0:0:0:0:
192,192,6008,1,0,0:0:0:0:
320,192,6351,1,2,0:0:0:0:
64,192,6693,1,2,0:0:0:0:
192,192,6693,1,0,0:0:0:0:
320,192,7036,1,2,0:0:0:0:
64,192,7379,1,2,0:0:0:0:
448,192,7379,1,0,0:0:0:0:
192,192,7722,1,2,0:0:0:0:
320,192,8065,128,0,8408:0:0:0:0:
64,192,8408,1,2,0:0:0:0:
192,192,8408,1,0,0:0:0:70:ride08.wav
64,192,8751,1,2,0:0:0:0:
448,192,8751,1,0,0:0:0:70:Clap.wav
320,192,8922,1,0,0:0:0:0:
192,192,9008,1,0,0:0:0:0:
448,192,9179,1,0,0:0:0:0:
320,192,9265,1,0,0:0:0:0:
64,192,9436,1,2,0:0:0:0:
192,192,9436,1,0,0:0:0:70:Clap.wav
448,192,9608,1,0,0:0:0:0:
320,192,9779,1,2,0:0:0:0:
64,192,10122,1,2,0:0:0:0:
448,192,10122,1,0,0:0:0:70:Clap.wav
192,192,10293,1,0,0:0:0:0:
320,192,10379,1,0,0:0:0:0:
64,192,10551,1,0,0:0:0:0:
192,192,10636,1,0,0:0:0:0:
320,192,10808,1,2,0:0:0:0:
448,192,10808,1,0,0:0:0:70:Clap.wav
64,192,10979,1,0,0:0:0:0:
192,192,11151,1,2,0:0:0:0:
64,192,11493,1,2,0:0:0:0:
448,192,11493,1,0,0:0:0:70:Clap.wav
320,192,11665,1,0,0:0:0:0:
192,192,11751,1,0,0:0:0:0:
448,192,11922,1,0,0:0:0:0:
320,192,12008,1,0,0:0:0:0:
64,192,12179,1,2,0:0:0:0:
192,192,12179,1,0,0:0:0:70:Clap.wav
448,192,12351,1,0,0:0:0:0:
320,192,12522,1,2,0:0:0:0:
192,192,12865,1,0,0:0:0:0:
448,192,13208,128,0,13379:0:0:0:0:
64,192,13379,128,0,13551:0:0:0:0:
320,192,13551,128,0,13722:0:0:0:70:VEC3 Snares 040_Reverb.wav
192,192,13722,128,0,13893:0:0:0:0:
64,192,13893,1,4,0:0:0:0:
448,192,13893,1,2,0:0:0:0:
64,192,14236,1,2,0:0:0:0:
192,192,14236,1,8,0:0:0:0:
320,192,14579,1,2,0:0:0:0:
64,192,14922,1,2,0:0:0:0:
448,192,14922,1,8,0:0:0:0:
192,192,15265,1,2,0:0:0:0:
320,192,15608,1,2,0:0:0:0:
448,192,15608,1,8,0:0:0:0:
192,192,15951,1,2,0:0:0:0:
320,192,16122,1,0,0:0:0:0:
64,192,16293,1,2,0:0:0:0:
448,192,16293,1,8,0:0:0:0:
192,192,16636,1,2,0:0:0:0:
320,192,16979,1,2,0:0:0:0:
448,192,16979,1,8,0:0:0:0:
192,192,17322,1,2,0:0:0:0:
64,192,17665,1,2,0:0:0:0:
448,192,17665,1,8,0:0:0:0:
320,192,18008,1,2,0:0:0:0:
192,192,18179,1,0,0:0:0:0:
64,192,18351,1,2,0:0:0:0:
448,192,18351,1,8,0:0:0:0:
320,192,18693,1,2,0:0:0:0:
192,192,18865,1,0,0:0:0:0:
448,192,19036,1,8,0:0:0:0:
64,192,19379,1,2,0:0:0:0:
320,192,19722,1,2,0:0:0:0:
448,192,19722,1,8,0:0:0:0:
64,192,19893,1,0,0:0:0:0:
192,192,19979,1,0,0:0:0:0:
320,192,20151,1,0,0:0:0:0:
192,192,20236,1,0,0:0:0:0:
64,192,20408,1,8,0:0:0:0:
448,192,20408,1,2,0:0:0:0:
320,192,20579,1,0,0:0:0:0:
192,192,20751,1,2,0:0:0:0:
64,192,21093,1,8,0:0:0:0:
192,192,21093,1,2,0:0:0:0:
448,192,21265,1,0,0:0:0:0:
320,192,21351,1,0,0:0:0:0:
192,192,21522,1,0,0:0:0:0:
320,192,21608,1,0,0:0:0:0:
64,192,21779,1,8,0:0:0:0:
448,192,21779,1,2,0:0:0:0:
192,192,21951,1,0,0:0:0:0:
320,192,22122,1,2,0:0:0:0:
320,192,22465,1,8,0:0:0:0:
448,192,22465,1,2,0:0:0:0:
64,192,22636,1,0,0:0:0:0:
192,192,22722,1,0,0:0:0:0:
320,192,22893,1,0,0:0:0:0:
192,192,22979,1,0,0:0:0:0:
64,192,23151,1,8,0:0:0:0:
448,192,23151,1,2,0:0:0:0:
320,192,23322,1,0,0:0:0:0:
64,192,23493,1,2,0:0:0:0:
192,192,23493,1,0,0:0:0:70:ride08.wav
320,192,23836,128,0,24179:0:0:0:70:LR_Drum Rim Fast.wav
192,192,24179,128,2,24522:0:0:0:0:
64,192,24522,1,0,0:0:0:70:VEC3 Snares 040_Reverb.wav
448,192,24522,1,0,0:0:0:0:
320,192,24693,1,2,0:0:0:0:
64,192,24865,1,4,0:0:0:0:
192,192,24865,1,2,0:0:0:0:
64,192,25208,1,2,0:0:0:0:
448,192,25208,1,8,0:0:0:0:
320,192,25551,1,2,0:0:0:0:
64,192,25893,1,8,0:0:0:0:
192,192,25893,1,2,0:0:0:0:
448,192,26065,1,0,0:0:0:0:
320,192,26236,1,2,0:0:0:0:
64,192,26579,1,2,0:0:0:0:
448,192,26579,1,8,0:0:0:0:
192,192,26922,1,2,0:0:0:0:
320,192,27265,1,2,0:0:0:0:
448,192,27265,1,8,0:0:0:0:
64,192,27436,1,0,0:0:0:0:
192,192,27608,1,2,0:0:0:0:
64,192,27951,1,2,0:0:0:0:
448,192,27951,1,8,0:0:0:0:
320,192,28293,1,2,0:0:0:0:
64,192,28636,1,2,0:0:0:0:
192,192,28636,1,8,0:0:0:0:
448,192,28808,1,0,0:0:0:0:
320,192,28979,1,2,0:0:0:0:
64,192,29322,1,2,0:0:0:0:
448,192,29322,1,8,0:0:0:0:
192,192,29493,1,0,0:0:0:0:
320,192,29665,1,2,0:0:0:0:
64,192,29836,128,0,30008:0:0:0:0:
320,192,30008,128,0,30179:0:0:0:70:LR_Drum Rim Fast.wav
192,192,30179,128,0,30351:0:0:0:70:LR_Drum Rim Fast_C.wav
320,192,30351,1,2,0:0:0:0:
448,192,30351,1,0,0:0:0:70:ride08.wav
64,192,30693,1,8,0:0:0:0:
448,192,30693,1,2,0:0:0:0:
320,192,30865,1,0,0:0:0:0:
192,192,31036,1,2,0:0:0:0:
320,192,31379,1,8,0:0:0:0:
448,192,31379,1,2,0:0:0:0:
64,192,31551,1,0,0:0:0:0:
192,192,31722,1,2,0:0:0:0:
64,192,32065,1,8,0:0:0:0:
448,192,32065,1,2,0:0:0:0:
192,192,32236,1,0,0:0:0:0:
320,192,32408,1,2,0:0:0:0:
64,192,32751,1,8,0:0:0:0:
192,192,32751,1,2,0:0:0:0:
448,192,32922,1,0,0:0:0:0:
320,192,33093,1,2,0:0:0:0:
64,192,33436,1,8,0:0:0:0:
448,192,33436,1,2,0:0:0:0:
320,192,33608,1,0,0:0:0:0:
192,192,33779,1,2,0:0:0:0:
320,192,34122,1,8,0:0:0:0:
448,192,34122,1,2,0:0:0:0:
64,192,34293,1,0,0:0:0:0:
192,192,34465,1,2,0:0:0:0:
64,192,34808,1,8,0:0:0:0:
448,192,34808,1,2,0:0:0:0:
320,192,34979,1,0,0:0:0:0:
192,192,35151,1,2,0:0:0:0:
448,192,35322,1,0,0:0:0:0:
192,192,35493,128,8,35665:0:0:0:0:
320,192,35665,128,0,35836:0:0:0:0:
64,192,35836,1,4,0:0:0:0:
448,192,35836,1,2,0:0:0:0:
64,192,36179,1,8,0:0:0:0:
192,192,36179,1,2,0:0:0:0:
320,192,36351,1,0,0:0:0:0:
448,192,36522,1,2,0:0:0:0:
64,192,36865,1,8,0:0:0:0:
448,192,36865,1,2,0:0:0:0:
192,192,37036,1,0,0:0:0:0:
320,192,37208,1,2,0:0:0:0:
320,192,37551,1,8,0:0:0:0:
448,192,37551,1,2,0:0:0:0:
192,192,37722,1,0,0:0:0:0:
64,192,37893,1,2,0:0:0:0:
64,192,38236,1,8,0:0:0:0:
448,192,38236,1,2,0:0:0:0:
320,192,38408,1,0,0:0:0:0:
192,192,38579,1,2,0:0:0:0:
64,192,38922,1,8,0:0:0:0:
192,192,38922,1,2,0:0:0:0:
320,192,39093,1,0,0:0:0:0:
448,192,39265,1,2,0:0:0:0:
64,192,39608,1,8,0:0:0:0:
448,192,39608,1,2,0:0:0:0:
192,192,39779,1,0,0:0:0:0:
320,192,39951,1,2,0:0:0:0:
320,192,40293,1,8,0:0:0:0:
448,192,40293,1,2,0:0:0:0:
192,192,40465,1,0,0:0:0:0:
64,192,40636,1,2,0:0:0:0:
448,192,40808,1,0,0:0:0:0:
320,192,40979,128,0,41151:0:0:0:70:LR_Drum Rim Fast.wav
192,192,41151,128,0,41322:0:0:0:70:LR_Drum Rim Fast_C.wav
64,192,41322,1,2,0:0:0:0:
448,192,41322,1,0,0:0:0:70:ride08.wav
320,192,41665,1,8,0:0:0:0:
448,192,41665,1,2,0:0:0:0:
192,192,41836,1,0,0:0:0:0:
320,192,42008,1,2,0:0:0:0:
64,192,42351,1,2,0:0:0:0:
448,192,42351,1,8,0:0:0:0:
192,192,42522,1,0,0:0:0:0:
320,192,42693,1,2,0:0:0:0:
448,192,42693,1,0,0:0:0:70:ride08.wav
64,192,43036,1,2,0:0:0:0:
192,192,43036,1,8,0:0:0:0:
320,192,43208,1,0,0:0:0:0:
192,192,43379,1,2,0:0:0:0:
64,192,43722,1,2,0:0:0:0:
448,192,43722,1,8,0:0:0:0:
320,192,43893,1,0,0:0:0:0:
64,192,44065,1,2,0:0:0:0:
192,192,44065,1,0,0:0:0:70:ride08.wav
320,192,44408,1,8,0:0:0:0:
448,192,44579,1,0,0:0:0:0:
192,192,44751,1,8,0:0:0:0:
320,192,44922,1,0,0:0:0:0:
64,192,45093,1,8,0:0:0:0:
192,192,45265,1,0,0:0:0:0:
320,192,45436,1,2,0:0:0:0:
448,192,45436,1,0,0:0:0:70:ride08.wav
192,192,45779,128,0,46122:0:0:0:70:LR_Drum Rim Fast.wav
320,192,46122,128,2,46465:0:0:0:0:
192,192,46465,1,2,0:0:0:0:
320,192,46636,1,2,0:0:0:0:
64,192,46808,1,2,0:0:0:0:
448,192,46808,1,0,0:0:0:70:cymbal09.wav
320,192,48179,1,0,0:0:0:0:
192,192,49551,1,0,0:0:0:0:
448,192,50922,128,0,51608:0:0:0:0:
64,192,51608,1,0,0:0:0:0:
192,192,51951,1,0,0:0:0:0:
320,192,52293,1,0,0:0:0:70:ride08.wav
64,192,52636,1,0,0:0:0:70:Clap.wav
320,192,53322,1,0,0:0:0:70:Clap.wav
192,192,53665,1,0,0:0:0:0:
448,192,54008,1,0,0:0:0:70:Clap.wav
192,192,54693,1,0,0:0:0:70:Clap.wav
320,192,55036,1,0,0:0:0:0:
64,192,55379,1,0,0:0:0:70:Clap.wav
320,192,56065,1,0,0:0:0:70:Clap.wav
64,192,56408,1,2,0:0:0:0:
192,192,56408,1,0,0:0:0:70:ride08.wav
448,192,56751,1,0,0:0:0:70:Clap.wav
64,192,57093,1,2,0:0:0:0:
192,192,57265,1,0,0:0:0:70:LR_Snare Fast.wav
448,192,57436,1,0,0:0:0:70:ride08.wav
192,192,57608,1,0,0:0:0:100:LR_Snare Drum.wav
64,192,57779,1,2,0:0:0:0:
448,192,57779,1,4,0:0:0:0:
320,192,58122,1,0,0:0:0:70:Clap.wav
64,192,58293,1,2,0:0:0:0:
448,192,58465,1,0,0:0:0:0:
320,192,58636,1,0,0:0:0:0:
64,192,58808,1,2,0:0:0:0:
192,192,58979,1,0,0:0:0:0:
448,192,59151,1,2,0:0:0:0:
192,192,59493,1,0,0:0:0:70:Clap.wav
448,192,59665,1,2,0:0:0:0:
64,192,59836,1,0,0:0:0:0:
192,192,60008,1,0,0:0:0:0:
448,192,60179,1,2,0:0:0:0:
320,192,60351,1,0,0:0:0:0:
192,192,60522,1,2,0:0:0:0:
448,192,60865,1,0,0:0:0:70:Clap.wav
192,192,61036,1,2,0:0:0:0:
320,192,61208,1,0,0:0:0:0:
448,192,61379,1,0,0:0:0:0:
192,192,61551,1,2,0:0:0:0:
64,192,61722,1,0,0:0:0:0:
320,192,61893,1,2,0:0:0:0:
320,192,62236,1,2,0:0:0:0:
192,192,62408,1,0,0:0:0:0:
64,192,62579,1,2,0:0:0:0:
448,192,62579,1,0,0:0:0:70:ride08.wav
64,192,63265,1,4,0:0:0:0:
448,192,63265,1,2,0:0:0:0:
320,192,63608,1,8,0:0:0:0:
448,192,63608,1,2,0:0:0:0:
64,192,63951,1,2,0:0:0:0:
192,192,63951,1,0,0:0:0:0:
192,192,64208,1,2,0:0:0:0:
320,192,64465,1,2,0:0:0:0:
64,192,64636,1,4,0:0:0:0:
448,192,64636,1,2,0:0:0:0:
64,192,64979,1,2,0:0:0:0:
192,192,64979,1,8,0:0:0:0:
320,192,65322,1,2,0:0:0:0:
448,192,65322,1,0,0:0:0:0:
320,192,65579,1,2,0:0:0:0:
192,192,65836,1,2,0:0:0:0:
64,192,66008,1,2,0:0:0:0:
448,192,66008,1,4,0:0:0:0:
320,192,66351,1,8,0:0:0:0:
448,192,66351,1,2,0:0:0:0:
64,192,66693,1,2,0:0:0:0:
192,192,66693,1,0,0:0:0:0:
192,192,66951,1,2,0:0:0:0:
320,192,67208,1,2,0:0:0:0:
64,192,67379,1,2,0:0:0:0:
448,192,67379,1,0,0:0:0:70:ride08.wav
192,192,68408,128,0,68751:0:0:0:70:LR4_ClapReverbDPS.wav
64,192,68751,1,2,0:0:0:0:
448,192,68751,1,4,0:0:0:0:
320,192,68922,1,0,0:0:0:0:
64,192,69093,1,0,0:0:0:70:Clap.wav
320,192,69265,1,0,0:0:0:0:
192,192,69436,1,0,0:0:0:70:Clap.wav
320,192,69779,1,0,0:0:0:70:Clap.wav
64,192,69951,1,0,0:0:0:0:
448,192,70122,1,0,0:0:0:70:Clap.wav
192,192,70293,1,0,0:0:0:0:
448,192,70465,1,0,0:0:0:70:Clap.wav
192,192,70636,1,0,0:0:0:0:
320,192,70808,1,0,0:0:0:70:Clap.wav
192,192,71151,1,0,0:0:0:70:Clap.wav
448,192,71322,1,0,0:0:0:0:
64,192,71493,1,0,0:0:0:70:Clap.wav
320,192,71665,1,0,0:0:0:0:
64,192,71836,1,0,0:0:0:70:Clap.wav
320,192,72008,1,0,0:0:0:0:
192,192,72179,1,0,0:0:0:70:Clap.wav
320,192,72522,1,0,0:0:0:70:Clap.wav
64,192,72693,1,0,0:0:0:0:
448,192,72865,1,0,0:0:0:70:Clap.wav
192,192,73036,1,0,0:0:0:0:
448,192,73208,1,0,0:0:0:70:Clap.wav
192,192,73379,1,0,0:0:0:0:
320,192,73551,1,0,0:0:0:70:Clap.wav
192,192,73893,1,0,0:0:0:70:Clap.wav
448,192,74065,1,0,0:0:0:0:
64,192,74236,1,2,0:0:0:0:
192,192,74236,1,4,0:0:0:0:
320,192,74408,1,0,0:0:0:0:
64,192,74579,1,2,0:0:0:0:
320,192,74751,1,0,0:0:0:0:
64,192,74922,1,2,0:0:0:0:
448,192,74922,1,0,0:0:0:70:Clap.wav
320,192,75265,1,2,0:0:0:0:
448,192,75265,1,0,0:0:0:70:Clap.wav
64,192,75436,1,0,0:0:0:0:
320,192,75608,1,2,0:0:0:0:
448,192,75608,1,0,0:0:0:70:Clap.wav
192,192,75779,1,0,0:0:0:0:
448,192,75951,1,2,0:0:0:0:
192,192,76122,1,0,0:0:0:0:
64,192,76293,1,2,0:0:0:0:
448,192,76293,1,0,0:0:0:70:Clap.wav
64,192,76636,1,2,0:0:0:0:
192,192,76636,1,0,0:0:0:70:Clap.wav
448,192,76808,1,2,0:0:0:0:
64,192,76979,1,2,0:0:0:0:
192,192,77065,1,0,0:0:0:70:LR_Snare Fast.wav
320,192,77151,1,0,0:0:0:70:LR_Snare Fast.wav
448,192,77322,1,0,0:0:0:70:LR_Snare Fast.wav
320,192,77408,1,0,0:0:0:60:LR_Snare Fast.wav
192,192,77493,1,0,0:0:0:60:LR_Snare Fast.wav
64,192,77665,1,0,0:0:0:50:LR_Snare Fast.wav
192,192,77751,1,0,0:0:0:50:LR_Snare Fast.wav
320,192,77836,1,0,0:0:0:50:LR_Snare Fast.wav
448,192,78008,1,0,0:0:0:40:LR_Snare Fast.wav
320,192,78093,1,0,0:0:0:40:LR_Snare Fast.wav
192,192,78179,1,0,0:0:0:40:LR_Snare Fast.wav
64,192,78265,1,0,0:0:0:40:LR_Snare Fast.wav
320,192,78351,1,6,0:0:0:0:
448,192,78351,1,0,0:0:0:70:ride08.wav
192,192,78608,1,0,0:0:0:0:
320,192,78693,1,0,0:0:0:0:
64,192,78865,1,0,0:0:0:40:LR_Tom Drop.wav
448,192,79036,1,2,0:0:0:0:
320,192,79208,1,0,0:0:0:0:
64,192,79379,1,0,0:0:0:70:VEC3 Snares 040_Reverb.wav
192,192,79379,1,0,0:0:0:0:
320,192,79722,1,2,0:0:0:0:
448,192,79722,128,4,80065:0:0:0:0:
64,192,80065,1,2,0:0:0:0:
192,192,80065,1,0,0:0:0:70:cymbal09.wav
64,192,80408,1,0,0:0:0:70:LR4_SnareKKF.wav
448,192,80408,1,0,0:0:0:0:
320,192,80579,1,2,0:0:0:0:
192,192,80665,1,2,0:0:0:0:
320,192,80922,1,2,0:0:0:0:
448,192,80922,1,0,0:0:0:0:
64,192,81265,1,0,0:0:0:70:LR4_SnareKKF.wav
448,192,81265,1,0,0:0:0:0:
192,192,81436,1,2,0:0:0:0:
320,192,81693,1,2,0:0:0:0:
448,192,81693,1,0,0:0:0:0:
192,192,81951,1,2,0:0:0:0:
64,192,82122,128,0,82465:0:0:0:70:LR4_SnareKKF.wav
448,192,82122,1,0,0:0:0:0:
320,192,82465,1,2,0:0:0:0:
448,192,82465,1,0,0:0:0:0:
320,192,82722,1,2,0:0:0:0:
192,192,82979,1,2,0:0:0:0:
64,192,83151,1,0,0:0:0:70:LR4_SnareKKF.wav
448,192,83151,1,0,0:0:0:0:
320,192,83408,1,2,0:0:0:0:
448,192,83408,1,0,0:0:0:0:
64,192,83665,128,2,84008:0:0:0:0:
192,192,83665,1,0,0:0:0:0:
320,192,84008,1,0,0:0:0:0:
192,192,84179,1,2,0:0:0:0:
192,192,84351,1,2,0:0:0:0:
64,192,84522,1,0,0:0:0:70:LR4_SnareKKF.wav
448,192,84522,1,0,0:0:0:0:
320,192,84693,1,2,0:0:0:0:
64,192,84865,1,0,0:0:0:0:
192,192,85036,1,0,0:0:0:0:
320,192,85208,1,2,0:0:0:0:
448,192,85208,128,4,85551:0:0:0:0:
64,192,85551,128,2,85893:0:0:0:0:
192,192,85551,1,0,0:0:0:70:cymbal09.wav
320,192,85893,1,0,0:0:0:70:LR4_SnareKKF.wav
448,192,85893,1,0,0:0:0:0:
320,192,86151,1,2,0:0:0:0:
64,192,86408,1,2,0:0:0:0:
192,192,86408,128,0,86751:0:0:0:0:
64,192,86751,1,0,0:0:0:70:LR4_SnareKKF.wav
448,192,86751,1,0,0:0:0:0:
320,192,86922,1,2,0:0:0:0:
64,192,87179,1,2,0:0:0:0:
192,192,87179,1,0,0:0:0:0:
192,192,87436,1,2,0:0:0:0:
64,192,87608,1,0,0:0:0:70:LR4_SnareKKF.wav
448,192,87608,1,0,0:0:0:0:
320,192,87951,1,2,0:0:0:0:
448,192,87951,1,0,0:0:0:0:
320,192,88208,1,2,0:0:0:0:
192,192,88465,1,2,0:0:0:0:
64,192,88636,1,0,0:0:0:70:LR4_SnareKKF.wav
448,192,88636,1,0,0:0:0:0:
320,192,88979,1,2,0:0:0:0:
448,192,88979,1,0,0:0:0:0:
320,192,89236,1,2,0:0:0:0:
64,192,89493,1,2,0:0:0:0:
192,192,89493,1,0,0:0:0:0:
192,192,89751,1,2,0:0:0:0:
64,192,90008,1,0,0:0:0:70:LR4_SnareKKF.wav
448,192,90008,1,0,0:0:0:0:
192,192,90351,1,0,0:0:0:0:
320,192,90522,1,0,0:0:0:0:
64,192,90693,128,4,91036:0:0:0:0:
448,192,90693,1,2,0:0:0:0:
320,192,91036,1,2,0:0:0:0:
448,192,91036,1,0,0:0:0:70:cymbal09.wav
64,192,91379,1,0,0:0:0:70:LR4_SnareKKF.wav
448,192,91379,1,0,0:0:0:0:
192,192,91551,1,2,0:0:0:0:
320,192,91636,1,2,0:0:0:0:
64,192,91893,1,2,0:0:0:0:
192,192,91893,128,0,92236:0:0:0:0:
64,192,92236,1,0,0:0:0:70:LR4_SnareKKF.wav
448,192,92236,1,0,0:0:0:0:
320,192,92408,1,2,0:0:0:0:
64,192,92665,1,2,0:0:0:0:
192,192,92665,1,0,0:0:0:0:
320,192,92922,1,2,0:0:0:0:
64,192,93093,1,0,0:0:0:70:LR4_SnareKKF.wav
448,192,93093,128,0,93436:0:0:0:0:
64,192,93436,1,4,0:0:0:0:
192,192,93436,1,2,0:0:0:0:
192,192,93693,1,6,0:0:0:0:
320,192,93951,1,6,0:0:0:0:
64,192,94122,1,0,0:0:0:70:LR4_SnareKKF.wav
448,192,94122,1,0,0:0:0:0:
64,192,94379,1,2,0:0:0:0:
192,192,94379,1,4,0:0:0:0:
320,192,94636,1,2,0:0:0:0:
448,192,94636,128,4,94979:0:0:0:0:
192,192,94979,1,0,0:0:0:70:LR4_SnareKKF.wav
64,192,94979,1,0,0:0:0:0:
320,192,95151,1,2,0:0:0:0:
320,192,95322,1,2,0:0:0:0:
64,192,95665,1,2,0:0:0:0:
192,192,95665,1,0,0:0:0:0:
448,192,95836,1,0,0:0:0:0:
320,192,96008,1,0,0:0:0:0:
64,192,96179,128,4,96522:0:0:0:0:
192,192,96179,1,2,0:0:0:0:
320,192,96522,1,0,0:0:0:0:
192,192,96693,1,0,0:0:0:0:
64,192,96865,1,0,0:0:0:70:LR4_SnareKKF.wav
448,192,96865,1,0,0:0:0:70:cymbal09.wav
320,192,97122,1,0,0:0:0:70:Clap.wav
192,192,97379,1,2,0:0:0:0:
192,192,97551,1,2,0:0:0:0:
448,192,97893,1,0,0:0:0:70:Clap.wav
320,192,98151,1,2,0:0:0:0:
64,192,98236,1,0,0:0:0:70:LR4_SnareKKF.wav
192,192,98236,1,0,0:0:0:0:
64,192,98493,1,0,0:0:0:70:LR4_SnareKKF.wav
448,192,98493,1,0,0:0:0:0:
320,192,98751,1,0,0:0:0:0:
64,192,98922,1,4,0:0:0:0:
192,192,98922,1,2,0:0:0:0:
192,192,99179,1,6,0:0:0:0:
320,192,99436,1,6,0:0:0:0:
64,192,99608,1,0,0:0:0:70:LR4_SnareKKF.wav
448,192,99608,1,0,0:0:0:0:
64,192,99951,1,4,0:0:0:0:
192,192,99951,1,2,0:0:0:0:
192,192,100208,1,6,0:0:0:0:
320,192,100465,1,4,0:0:0:0:
448,192,100465,1,2,0:0:0:0:
320,192,100722,1,6,0:0:0:0:
64,192,100979,1,0,0:0:0:70:LR4_SnareKKF.wav
448,192,100979,1,0,0:0:0:0:
320,192,101322,1,0,0:0:0:70:LR4_ClapReverbDPS.wav
192,192,101493,1,2,0:0:0:0:
64,192,101665,1,2,0:0:0:0:
448,192,101665,128,0,102008:0:0:0:70:cymbal09.wav
192,192,102008,1,0,0:0:0:0:
64,192,102351,1,0,0:0:0:70:LR4_SnareKKF.wav
448,192,102351,1,0,0:0:0:0:
192,192,102608,1,0,0:0:0:0:
64,192,102779,1,0,0:0:0:0:
320,192,102865,1,2,0:0:0:0:
448,192,102865,1,0,0:0:0:0:
192,192,103122,1,0,0:0:0:0:
320,192,103379,1,2,0:0:0:0:
448,192,103379,1,0,0:0:0:0:
192,192,103551,1,0,0:0:0:0:
64,192,103722,1,0,0:0:0:70:LR4_SnareKKF.wav
448,192,103722,1,0,0:0:0:0:
320,192,103893,1,0,0:0:0:0:
192,192,104065,128,0,104408:0:0:0:0:
320,192,104408,1,2,0:0:0:0:
448,192,104408,1,0,0:0:0:0:
320,192,104665,1,2,0:0:0:0:
192,192,104922,1,2,0:0:0:0:
64,192,105093,1,0,0:0:0:70:LR4_SnareKKF.wav
448,192,105093,1,0,0:0:0:0:
320,192,105265,1,0,0:0:0:0:
192,192,105436,1,0,0:0:0:0:
320,192,105608,1,2,0:0:0:0:
448,192,105608,1,0,0:0:0:0:
192,192,105865,1,0,0:0:0:0:
320,192,106122,1,2,0:0:0:0:
448,192,106122,1,0,0:0:0:0:
192,192,106293,1,0,0:0:0:0:
64,192,106465,1,0,0:0:0:70:LR4_SnareKKF.wav
448,192,106465,1,0,0:0:0:0:
320,192,106808,1,0,0:0:0:0:
192,192,106979,1,0,0:0:0:0:
64,192,107151,128,2,107493:0:0:0:0:
448,192,107151,1,0,0:0:0:70:cymbal09.wav
320,192,107493,1,0,0:0:0:0:
64,192,107836,1,0,0:0:0:70:LR4_SnareKKF.wav
448,192,107836,1,0,0:0:0:0:
320,192,108093,1,0,0:0:0:0:
448,192,108265,1,0,0:0:0:0:
64,192,108351,1,2,0:0:0:0:
192,192,108351,1,0,0:0:0:0:
320,192,108608,1,0,0:0:0:0:
64,192,108865,1,2,0:0:0:0:
192,192,108865,1,0,0:0:0:0:
320,192,109036,1,0,0:0:0:0:
64,192,109208,1,0,0:0:0:70:LR4_SnareKKF.wav
448,192,109208,1,0,0:0:0:0:
192,192,109379,1,0,0:0:0:0:
320,192,109551,128,0,109893:0:0:0:0:
64,192,109893,1,2,0:0:0:0:
448,192,109893,1,4,0:0:0:0:
320,192,110151,1,0,0:0:0:0:
192,192,110408,1,6,0:0:0:0:
64,192,110579,1,0,0:0:0:70:LR4_SnareKKF.wav
448,192,110579,1,0,0:0:0:0:
320,192,110836,1,0,0:0:0:0:
64,192,110922,1,2,0:0:0:0:
192,192,110922,1,4,0:0:0:0:
64,192,111179,1,0,0:0:0:0:
320,192,111436,1,2,0:0:0:0:
448,192,111436,1,0,0:0:0:0:
320,192,111693,1,0,0:0:0:0:
64,192,111951,1,0,0:0:0:0:
448,192,112122,1,0,0:0:0:0:
192,192,112293,1,0,0:0:0:0:
320,192,112465,1,0,0:0:0:0:
64,192,112636,128,2,112979:0:0:0:0:
448,192,112636,1,0,0:0:0:70:cymbal09.wav
320,192,112979,1,0,0:0:0:0:
64,192,113322,1,0,0:0:0:70:LR4_SnareKKF.wav
448,192,113322,1,0,0:0:0:0:
320,192,113579,1,0,0:0:0:0:
448,192,113751,1,0,0:0:0:0:
64,192,113836,1,2,0:0:0:0:
192,192,113836,1,0,0:0:0:0:
320,192,114093,1,0,0:0:0:0:
64,192,114351,1,2,0:0:0:0:
192,192,114351,1,0,0:0:0:0:
320,192,114522,1,0,0:0:0:0:
64,192,114693,1,0,0:0:0:70:LR4_SnareKKF.wav
448,192,114693,1,0,0:0:0:0:
192,192,114865,1,0,0:0:0:0:
320,192,115036,128,0,115379:0:0:0:0:
64,192,115379,1,2,0:0:0:0:
192,192,115379,1,0,0:0:0:0:
192,192,115636,1,2,0:0:0:0:
320,192,115893,1,2,0:0:0:0:
64,192,116065,1,0,0:0:0:70:LR4_SnareKKF.wav
448,192,116065,1,0,0:0:0:0:
192,192,116322,1,0,0:0:0:0:
320,192,116579,1,2,0:0:0:0:
448,192,116579,1,0,0:0:0:0:
192,192,116836,1,0,0:0:0:0:
320,192,117093,1,2,0:0:0:0:
448,192,117093,1,0,0:0:0:0:
192,192,117265,1,0,0:0:0:0:
64,192,117436,1,0,0:0:0:70:LR4_SnareKKF.wav
448,192,117436,1,0,0:0:0:0:
192,192,117779,1,0,0:0:0:0:
320,192,117951,1,0,0:0:0:0:
64,192,118122,1,2,0:0:0:0:
448,192,118122,128,0,118465:0:0:0:70:cymbal09.wav
192,192,118465,1,2,0:0:0:0:
64,192,118808,1,2,0:0:0:0:
448,192,118808,1,0,0:0:0:0:
320,192,119065,1,2,0:0:0:0:
192,192,119322,1,2,0:0:0:0:
64,192,119493,1,2,0:0:0:0:
448,192,119493,1,0,0:0:0:0:
320,192,119836,1,2,0:0:0:0:
448,192,119836,1,0,0:0:0:0:
64,192,120179,1,2,0:0:0:0:
448,192,120179,1,0,0:0:0:0:
192,192,120436,1,2,0:0:0:0:
320,192,120693,1,2,0:0:0:0:
64,192,120865,1,2,0:0:0:0:
448,192,120865,1,0,0:0:0:0:
64,192,121208,1,2,0:0:0:0:
192,192,121208,1,0,0:0:0:0:
64,192,121551,1,2,0:0:0:0:
448,192,121551,1,0,0:0:0:0:
320,192,121808,1,2,0:0:0:0:
192,192,122065,1,2,0:0:0:0:
64,192,122236,1,2,0:0:0:0:
448,192,122236,1,0,0:0:0:70:ride08.wav
320,192,122579,1,0,0:0:0:0:
448,192,122751,1,0,0:0:0:0:
64,192,122922,1,0,0:0:0:0:
192,192,123093,1,2,0:0:0:0:
320,192,123265,1,0,0:0:0:70:LR4_ClapReverbDPS.wav
448,192,123265,1,0,0:0:0:0:
64,192,123608,1,2,0:0:0:0:
448,192,123608,1,0,0:0:0:70:cymbal09.wav
192,192,124979,1,0,0:0:0:0:
320,192,126351,1,0,0:0:0:0:
64,192,127722,1,0,0:0:0:0:
448,192,128408,1,0,0:0:0:0:
192,192,129093,1,0,0:0:0:0:
448,192,129436,1,0,0:0:0:70:Clap.wav
192,192,130122,1,0,0:0:0:70:Clap.wav
320,192,130465,1,0,0:0:0:0:
64,192,130808,1,0,0:0:0:70:Clap.wav
320,192,131493,1,0,0:0:0:70:Clap.wav
192,192,131836,1,0,0:0:0:0:
448,192,132179,1,0,0:0:0:70:Clap.wav
192,192,132865,1,0,0:0:0:70:Clap.wav
320,192,133208,1,2,0:0:0:0:
448,192,133208,1,0,0:0:0:70:ride08.wav
64,192,133551,1,0,0:0:0:70:Clap.wav
448,192,133893,1,2,0:0:0:0:
320,192,134065,1,0,0:0:0:70:LR_Snare Fast.wav
64,192,134236,1,0,0:0:0:70:ride08.wav
320,192,134408,1,0,0:0:0:100:LR_Snare Drum.wav
64,192,134579,1,2,0:0:0:0:
448,192,134579,1,4,0:0:0:0:
64,192,134922,1,2,0:0:0:0:
192,192,134922,1,0,0:0:0:0:
320,192,135265,1,2,0:0:0:0:
64,192,135608,1,2,0:0:0:0:
192,192,135608,1,0,0:0:0:0:
64,192,135951,1,2,0:0:0:0:
320,192,136293,1,2,0:0:0:0:
448,192,136293,1,0,0:0:0:0:
192,192,136636,1,2,0:0:0:0:
320,192,136979,1,2,0:0:0:0:
448,192,136979,1,0,0:0:0:0:
448,192,137322,1,2,0:0:0:0:
64,192,137665,1,2,0:0:0:0:
192,192,137665,1,0,0:0:0:0:
320,192,138008,1,2,0:0:0:0:
64,192,138351,1,2,0:0:0:0:
192,192,138351,1,0,0:0:0:0:
320,192,138522,1,0,0:0:0:0:
64,192,138693,1,2,0:0:0:0:
192,192,138865,1,0,0:0:0:0:
320,192,139036,1,2,0:0:0:0:
448,192,139036,1,0,0:0:0:70:Clap.wav
64,192,139379,1,2,0:0:0:0:
192,192,139379,1,0,0:0:0:70:ride08.wav
320,192,139722,128,0,140065:0:0:0:0:
64,192,140065,1,4,0:0:0:0:
448,192,140065,1,2,0:0:0:0:
320,192,140408,1,0,0:0:0:50:LR_Drum Rim Fast_C.wav
64,192,140579,1,0,0:0:0:0:
320,192,141093,1,0,0:0:0:50:LR_Drum Rim Fast_C.wav
64,192,141265,1,0,0:0:0:0:
320,192,141436,1,4,0:0:0:0:
448,192,141436,1,0,0:0:0:0:
192,192,141779,1,0,0:0:0:50:LR_Drum Rim Fast_C.wav
448,192,141951,1,0,0:0:0:0:
192,192,142465,1,0,0:0:0:50:LR_Drum Rim Fast_C.wav
448,192,142636,1,0,0:0:0:0:
64,192,142808,1,4,0:0:0:0:
192,192,142808,1,0,0:0:0:0:
320,192,143151,1,0,0:0:0:50:LR_Drum Rim Fast_C.wav
64,192,143322,1,0,0:0:0:0:
192,192,143493,1,0,0:0:0:70:Clap.wav
320,192,143836,1,0,0:0:0:50:LR_Drum Rim Fast_C.wav
192,192,144008,1,0,0:0:0:0:
64,192,144179,1,2,0:0:0:0:
448,192,144179,1,0,0:0:0:70:ride08.wav
320,192,144522,1,0,0:0:0:0:
192,192,144865,1,8,0:0:0:0:
320,192,145208,128,0,145551:0:0:0:70:LR4_ClapReverbDPS.wav
64,192,145551,1,2,0:0:0:0:
448,192,145551,1,4,0:0:0:0:
192,192,146922,1,0,0:0:0:70:Clap.wav
320,192,147265,1,0,0:0:0:70:Clap.wav
64,192,147608,1,0,0:0:0:70:Clap.wav
192,192,147951,1,0,0:0:0:70:Clap.wav
448,192,148293,1,0,0:0:0:70:Clap.wav
320,192,148636,1,0,0:0:0:70:Clap.wav
64,192,148979,1,0,0:0:0:70:Clap.wav
192,192,149236,1,0,0:0:0:70:Clap.wav
320,192,149493,1,0,0:0:0:70:Clap.wav
64,192,149665,1,0,0:0:0:70:LR_Drum Rim Fast.wav
192,192,149836,1,0,0:0:0:70:LR_Drum Rim Fast_C.wav
448,192,150008,1,0,0:0:0:70:LR_Drum Rim Fast_C.wav
320,192,150179,1,0,0:0:0:70:LR_Drum Rim Fast_C.wav
192,192,150351,1,0,0:0:0:70:LR_Drum Rim Fast.wav
448,192,150522,1,0,0:0:0:70:LR_Drum Rim Fast_C.wav
64,192,150693,128,0,151036:0:0:0:70:LR_Drum Rim Fast_C.wav
320,192,151036,1,2,0:0:0:0:
448,192,151036,1,4,0:0:0:0:
192,192,151208,1,0,0:0:0:0:
448,192,151379,1,2,0:0:0:0:
192,192,151551,1,0,0:0:0:0:
64,192,151722,1,2,0:0:0:0:
448,192,151722,1,0,0:0:0:70:Clap.wav
64,192,152065,1,2,0:0:0:0:
192,192,152065,1,0,0:0:0:70:Clap.wav
448,192,152236,1,0,0:0:0:0:
64,192,152408,1,2,0:0:0:0:
192,192,152408,1,0,0:0:0:70:Clap.wav
320,192,152579,1,0,0:0:0:0:
64,192,152751,1,2,0:0:0:0:
320,192,152922,1,0,0:0:0:0:
64,192,153093,1,2,0:0:0:0:
448,192,153093,1,0,0:0:0:70:Clap.wav
320,192,153436,1,2,0:0:0:0:
448,192,153436,1,0,0:0:0:70:Clap.wav
64,192,153608,1,2,0:0:0:0:
448,192,153779,1,2,0:0:0:0:
320,192,153865,1,0,0:0:0:70:LR_Snare Fast.wav
192,192,153951,1,0,0:0:0:70:LR_Snare Fast.wav
64,192,154122,1,0,0:0:0:70:LR_Snare Fast.wav
192,192,154208,1,0,0:0:0:60:LR_Snare Fast.wav
320,192,154293,1,0,0:0:0:60:LR_Snare Fast.wav
448,192,154465,1,0,0:0:0:50:LR_Snare Fast.wav
320,192,154551,1,0,0:0:0:50:LR_Snare Fast.wav
192,192,154636,1,0,0:0:0:50:LR_Snare Fast.wav
64,192,154808,1,0,0:0:0:40:LR_Snare Fast.wav
192,192,154893,1,0,0:0:0:40:LR_Snare Fast.wav
320,192,154979,1,0,0:0:0:40:LR_Snare Fast.wav
448,192,155065,1,0,0:0:0:40:LR_Snare Fast.wav
64,192,155151,1,6,0:0:0:0:
192,192,155151,1,0,0:0:0:70:ride08.wav
320,192,155322,1,0,0:0:0:40:LR_Drum Rim Fast.wav
192,192,155408,1,0,0:0:0:40:LR_Drum Rim Fast.wav
448,192,155579,1,0,0:0:0:40:LR_Drum Rim Fast_C.wav
320,192,155665,1,0,0:0:0:40:LR_Drum Rim Fast_C.wav
64,192,155836,1,2,0:0:0:0:
320,192,155922,128,0,156179:0:0:0:40:LR_Drum Rim Fast_C.wav
64,192,156179,1,0,0:0:0:70:VEC3 Snares 040_Reverb.wav
448,192,156179,1,0,0:0:0:0:
64,192,156522,128,2,156865:0:0:0:0:
192,192,156522,1,0,0:0:0:70:cymbal09.wav
320,192,156865,1,8,0:0:0:0:
448,192,156865,1,2,0:0:0:0:
192,192,157036,1,0,0:0:0:0:
448,192,157208,1,2,0:0:0:0:
320,192,157379,1,0,0:0:0:0:
64,192,157551,1,8,0:0:0:0:
192,192,157551,1,2,0:0:0:0:
448,192,157722,1,0,0:0:0:0:
192,192,157893,1,2,0:0:0:0:
320,192,158065,1,0,0:0:0:0:
64,192,158236,1,2,0:0:0:0:
448,192,158236,1,8,0:0:0:0:
192,192,158408,1,0,0:0:0:0:
448,192,158579,1,2,0:0:0:0:
320,192,158751,1,0,0:0:0:0:
64,192,158922,1,2,0:0:0:0:
192,192,158922,1,8,0:0:0:0:
320,192,159093,1,0,0:0:0:0:
64,192,159265,1,2,0:0:0:0:
192,192,159436,1,0,0:0:0:0:
320,192,159608,1,8,0:0:0:0:
448,192,159608,1,2,0:0:0:0:
192,192,159779,1,0,0:0:0:0:
320,192,159951,1,2,0:0:0:0:
192,192,160122,1,0,0:0:0:0:
64,192,160293,1,8,0:0:0:0:
448,192,160293,1,2,0:0:0:0:
320,192,160465,1,0,0:0:0:0:
64,192,160636,1,2,0:0:0:0:
192,192,160808,1,0,0:0:0:0:
320,192,160979,1,2,0:0:0:0:
448,192,160979,1,8,0:0:0:0:
192,192,161151,1,0,0:0:0:0:
448,192,161322,1,2,0:0:0:0:
64,192,161493,1,0,0:0:0:0:
320,192,161665,1,0,0:0:0:70:LR_Drum Rim Fast.wav
320,192,161836,1,0,0:0:0:70:LR_Drum Rim Fast_C.wav
64,192,162008,1,2,0:0:0:0:
448,192,162008,1,4,0:0:0:0:
320,192,162351,1,2,0:0:0:0:
448,192,162351,1,8,0:0:0:0:
192,192,162522,1,0,0:0:0:0:
448,192,162693,1,2,0:0:0:0:
320,192,162865,1,0,0:0:0:0:
64,192,163036,1,2,0:0:0:0:
192,192,163036,1,8,0:0:0:0:
320,192,163208,1,0,0:0:0:0:
448,192,163379,1,2,0:0:0:0:
192,192,163551,1,0,0:0:0:0:
64,192,163722,1,8,0:0:0:0:
448,192,163722,1,2,0:0:0:0:
320,192,163893,1,0,0:0:0:0:
64,192,164065,1,2,0:0:0:0:
192,192,164236,1,0,0:0:0:0:
320,192,164408,1,8,0:0:0:0:
448,192,164408,1,2,0:0:0:0:
64,192,164579,1,0,0:0:0:0:
320,192,164751,1,2,0:0:0:0:
192,192,164922,1,0,0:0:0:0:
320,192,165093,1,2,0:0:0:0:
448,192,165093,1,8,0:0:0:0:
64,192,165265,1,0,0:0:0:0:
320,192,165436,1,2,0:0:0:0:
192,192,165608,1,0,0:0:0:0:
64,192,165779,1,2,0:0:0:0:
448,192,165779,1,8,0:0:0:0:
320,192,165951,1,0,0:0:0:0:
192,192,166122,1,2,0:0:0:0:
448,192,166293,1,0,0:0:0:0:
64,192,166465,1,8,0:0:0:0:
192,192,166465,1,2,0:0:0:0:
320,192,166636,1,0,0:0:0:0:
64,192,166808,1,2,0:0:0:0:
192,192,166808,1,0,0:0:0:0:
320,192,166979,1,0,0:0:0:0:
64,192,167151,1,0,0:0:0:0:
192,192,167322,1,0,0:0:0:0:
320,192,167493,1,2,0:0:0:0:
448,192,167493,128,0,167836:0:0:0:70:cymbal09.wav
64,192,167836,1,8,0:0:0:0:
192,192,167836,1,2,0:0:0:0:
320,192,168008,1,0,0:0:0:0:
64,192,168179,1,2,0:0:0:0:
192,192,168351,1,0,0:0:0:0:
320,192,168522,1,8,0:0:0:0:
448,192,168522,1,2,0:0:0:0:
64,192,168693,1,0,0:0:0:0:
320,192,168865,1,2,0:0:0:0:
192,192,169036,1,0,0:0:0:0:
64,192,169208,1,2,0:0:0:0:
448,192,169208,1,8,0:0:0:0:
320,192,169379,1,0,0:0:0:0:
64,192,169551,1,2,0:0:0:0:
192,192,169722,1,0,0:0:0:0:
320,192,169893,1,2,0:0:0:0:
448,192,169893,1,8,0:0:0:0:
192,192,170065,1,0,0:0:0:0:
448,192,170236,1,2,0:0:0:0:
320,192,170408,1,0,0:0:0:0:
64,192,170579,1,8,0:0:0:0:
192,192,170579,1,2,0:0:0:0:
320,192,170751,1,0,0:0:0:0:
192,192,170922,1,2,0:0:0:0:
320,192,171093,1,0,0:0:0:0:
64,192,171265,1,8,0:0:0:0:
448,192,171265,1,2,0:0:0:0:
192,192,171436,1,0,0:0:0:0:
448,192,171608,1,2,0:0:0:0:
320,192,171779,1,0,0:0:0:0:
64,192,171951,1,2,0:0:0:0:
192,192,171951,1,8,0:0:0:0:
320,192,172122,1,0,0:0:0:0:
192,192,172293,1,2,0:0:0:0:
64,192,172465,1,0,0:0:0:0:
320,192,172636,1,0,0:0:0:70:LR_Drum Rim Fast.wav
320,192,172808,1,0,0:0:0:70:LR_Drum Rim Fast_C.wav
64,192,172979,1,2,0:0:0:0:
448,192,172979,1,4,0:0:0:0:
64,192,173322,1,2,0:0:0:0:
192,192,173322,1,8,0:0:0:0:
448,192,173493,1,0,0:0:0:0:
192,192,173665,1,2,0:0:0:0:
320,192,173836,1,0,0:0:0:0:
64,192,174008,1,2,0:0:0:0:
192,192,174008,1,8,0:0:0:0:
320,192,174179,1,0,0:0:0:0:
64,192,174351,1,2,0:0:0:0:
448,192,174351,1,4,0:0:0:0:
192,192,174522,1,0,0:0:0:0:
320,192,174693,1,8,0:0:0:0:
448,192,174693,1,2,0:0:0:0:
64,192,174865,1,0,0:0:0:0:
320,192,175036,1,2,0:0:0:0:
192,192,175208,1,0,0:0:0:0:
320,192,175379,1,8,0:0:0:0:
448,192,175379,1,2,0:0:0:0:
192,192,175551,1,0,0:0:0:0:
64,192,175722,1,6,0:0:0:0:
448,192,175722,1,0,0:0:0:70:ride08.wav
320,192,175893,1,0,0:0:0:0:
192,192,176236,1,0,0:0:0:0:
320,192,176408,1,8,0:0:0:0:
64,192,176579,1,0,0:0:0:0:
192,192,176751,1,8,0:0:0:0:
320,192,176922,1,0,0:0:0:0:
192,192,177008,1,0,0:0:0:0:
64,192,177093,1,2,0:0:0:0:
448,192,177093,1,0,0:0:0:70:ride08.wav
320,192,177436,128,0,177779:0:0:0:70:LR_Drum Rim Fast.wav
192,192,177779,128,2,178122:0:0:0:0:
64,192,178122,1,2,0:0:0:0:
448,192,178122,1,0,0:0:0:70:VEC3 Snares 040_Reverb.wav
192,192,178293,1,2,0:0:0:0:
320,192,178465,128,6,178808:0:0:0:0:
64,192,178808,1,10,0:0:0:0:
448,192,178808,1,0,0:0:0:70:cymbal09.wav
192,192,178979,1,0,0:0:0:0:
320,192,179151,1,2,0:0:0:0:
64,192,179322,1,0,0:0:0:0:
320,192,179493,1,2,0:0:0:0:
448,192,179493,1,8,0:0:0:0:
192,192,179665,1,0,0:0:0:0:
64,192,179836,1,2,0:0:0:0:
320,192,180008,1,0,0:0:0:0:
64,192,180179,1,8,0:0:0:0:
448,192,180179,1,2,0:0:0:0:
192,192,180351,1,0,0:0:0:0:
448,192,180522,1,2,0:0:0:0:
320,192,180693,1,0,0:0:0:0:
64,192,180865,1,8,0:0:0:0:
192,192,180865,1,2,0:0:0:0:
320,192,181036,1,0,0:0:0:0:
64,192,181208,1,2,0:0:0:0:
192,192,181379,1,0,0:0:0:0:
320,192,181551,1,2,0:0:0:0:
448,192,181551,1,8,0:0:0:0:
192,192,181722,1,0,0:0:0:0:
448,192,181893,1,2,0:0:0:0:
320,192,182065,1,0,0:0:0:0:
64,192,182236,1,2,0:0:0:0:
192,192,182236,1,8,0:0:0:0:
320,192,182408,1,0,0:0:0:0:
64,192,182579,1,2,0:0:0:0:
192,192,182751,1,0,0:0:0:0:
320,192,182922,1,8,0:0:0:0:
448,192,182922,1,2,0:0:0:0:
192,192,183093,1,0,0:0:0:0:
448,192,183265,1,2,0:0:0:0:
64,192,183436,1,0,0:0:0:0:
320,192,183608,1,0,0:0:0:70:LR_Drum Rim Fast.wav
320,192,183779,1,0,0:0:0:70:LR_Drum Rim Fast_C.wav
64,192,183951,1,4,0:0:0:0:
192,192,183951,1,2,0:0:0:0:
64,192,184293,1,8,0:0:0:0:
448,192,184293,1,2,0:0:0:0:
320,192,184465,1,0,0:0:0:0:
192,192,184636,1,2,0:0:0:0:
448,192,184808,1,0,0:0:0:0:
64,192,184979,1,8,0:0:0:0:
192,192,184979,1,2,0:0:0:0:
320,192,185151,1,0,0:0:0:0:
448,192,185322,1,2,0:0:0:0:
192,192,185493,1,0,0:0:0:0:
64,192,185665,1,2,0:0:0:0:
448,192,185665,1,8,0:0:0:0:
320,192,185836,1,0,0:0:0:0:
64,192,186008,1,2,0:0:0:0:
192,192,186179,1,0,0:0:0:0:
320,192,186351,1,2,0:0:0:0:
448,192,186351,1,8,0:0:0:0:
192,192,186522,1,0,0:0:0:0:
448,192,186693,1,2,0:0:0:0:
320,192,186865,1,0,0:0:0:0:
64,192,187036,1,8,0:0:0:0:
192,192,187036,1,2,0:0:0:0:
320,192,187208,1,0,0:0:0:0:
64,192,187379,1,2,0:0:0:0:
192,192,187551,1,0,0:0:0:0:
320,192,187722,1,8,0:0:0:0:
448,192,187722,1,2,0:0:0:0:
192,192,187893,1,0,0:0:0:0:
448,192,188065,1,2,0:0:0:0:
320,192,188236,1,0,0:0:0:0:
64,192,188408,1,2,0:0:0:0:
192,192,188408,1,8,0:0:0:0:
320,192,188579,1,0,0:0:0:0:
64,192,188751,1,2,0:0:0:0:
448,192,188922,1,0,0:0:0:0:
192,192,189093,1,0,0:0:0:0:
192,192,189265,1,0,0:0:0:0:
64,192,189436,1,2,0:0:0:0:
448,192,189436,128,0,189779:0:0:0:70:cymbal09.wav
64,192,189779,1,2,0:0:0:0:
192,192,189779,1,8,0:0:0:0:
320,192,189951,1,0,0:0:0:0:
64,192,190122,1,2,0:0:0:0:
192,192,190293,1,0,0:0:0:0:
320,192,190465,1,2,0:0:0:0:
448,192,190465,1,8,0:0:0:0:
192,192,190636,1,0,0:0:0:0:
64,192,190808,1,2,0:0:0:0:
320,192,190979,1,0,0:0:0:0:
64,192,191151,1,8,0:0:0:0:
448,192,191151,1,2,0:0:0:0:
192,192,191322,1,0,0:0:0:0:
448,192,191493,1,2,0:0:0:0:
320,192,191665,1,0,0:0:0:0:
64,192,191836,1,8,0:0:0:0:
192,192,191836,1,2,0:0:0:0:
320,192,192008,1,0,0:0:0:0:
192,192,192179,1,2,0:0:0:0:
320,192,192351,1,0,0:0:0:0:
64,192,192522,1,2,0:0:0:0:
448,192,192522,1,8,0:0:0:0:
192,192,192693,1,0,0:0:0:0:
448,192,192865,1,2,0:0:0:0:
320,192,193036,1,0,0:0:0:0:
64,192,193208,1,2,0:0:0:0:
192,192,193208,1,8,0:0:0:0:
320,192,193379,1,0,0:0:0:0:
448,192,193551,1,2,0:0:0:0:
192,192,193722,1,0,0:0:0:0:
64,192,193893,1,8,0:0:0:0:
448,192,193893,1,2,0:0:0:0:
320,192,194065,1,0,0:0:0:0:
192,192,194236,1,2,0:0:0:0:
64,192,194408,1,0,0:0:0:0:
320,192,194579,1,0,0:0:0:70:LR_Drum Rim Fast.wav
320,192,194751,1,0,0:0:0:70:LR_Drum Rim Fast_C.wav
64,192,194922,1,4,0:0:0:0:
448,192,194922,1,2,0:0:0:0:
320,192,195265,1,8,0:0:0:0:
448,192,195265,1,2,0:0:0:0:
64,192,195436,1,0,0:0:0:0:
320,192,195608,1,2,0:0:0:0:
192,192,195779,1,0,0:0:0:0:
320,192,195951,1,8,0:0:0:0:
448,192,195951,1,2,0:0:0:0:
192,192,196122,1,0,0:0:0:0:
64,192,196293,1,4,0:0:0:0:
448,192,196293,1,2,0:0:0:0:
320,192,196465,1,0,0:0:0:0:
64,192,196636,1,2,0:0:0:0:
192,192,196636,1,8,0:0:0:0:
448,192,196808,1,0,0:0:0:0:
192,192,196979,1,2,0:0:0:0:
320,192,197151,1,0,0:0:0:0:
64,192,197322,1,2,0:0:0:0:
192,192,197322,1,8,0:0:0:0:
320,192,197493,1,0,0:0:0:0:
64,192,197665,1,6,0:0:0:0:
448,192,197665,1,0,0:0:0:70:ride08.wav
192,192,198008,1,8,0:0:0:0:
320,192,198351,1,8,0:0:0:0:
192,192,198693,1,8,0:0:0:0:
64,192,199036,1,2,0:0:0:0:
448,192,199036,1,0,0:0:0:70:ride08.wav
320,192,199208,1,2,0:0:0:0:
64,192,199379,1,2,0:0:0:0:
448,192,199551,1,2,0:0:0:0:
192,192,199722,1,2,0:0:0:0:
320,192,199808,1,2,0:0:0:0:
448,192,199893,1,2,0:0:0:0:
192,192,200065,1,2,0:0:0:0:
320,192,200236,1,2,0:0:0:0:
64,192,200408,1,2,0:0:0:0:
448,192,200408,1,0,0:0:0:70:cymbal09.wav
64,192,200751,1,2,0:0:0:0:
192,192,200751,1,0,0:0:0:70:Clap.wav
320,192,201093,1,2,0:0:0:0:
64,192,201436,1,2,0:0:0:0:
192,192,201436,1,0,0:0:0:70:Clap.wav
320,192,201779,1,2,0:0:0:0:
64,192,202122,1,2,0:0:0:0:
448,192,202122,1,0,0:0:0:70:Clap.wav
192,192,202465,1,2,0:0:0:0:
320,192,202636,1,0,0:0:0:0:
64,192,202808,1,2,0:0:0:0:
448,192,202808,1,0,0:0:0:70:Clap.wav
192,192,203151,1,2,0:0:0:0:
320,192,203493,1,2,0:0:0:0:
448,192,203493,1,0,0:0:0:70:Clap.wav
192,192,203836,1,2,0:0:0:0:
320,192,204179,1,2,0:0:0:0:
448,192,204179,1,0,0:0:0:70:Clap.wav
192,192,204522,1,2,0:0:0:0:
64,192,204865,1,2,0:0:0:0:
448,192,204865,1,0,0:0:0:70:Clap.wav
320,192,205208,1,2,0:0:0:0:
192,192,205551,1,0,0:0:0:70:Clap.wav
320,192,205893,1,2,0:0:0:0:
448,192,205893,1,0,0:0:0:70:ride08.wav
64,192,206236,1,2,0:0:0:0:
448,192,206236,1,0,0:0:0:70:Clap.wav
192,192,206408,1,0,0:0:0:0:
320,192,206493,1,0,0:0:0:0:
64,192,206665,1,0,0:0:0:0:
192,192,206751,1,0,0:0:0:0:
320,192,206922,1,2,0:0:0:0:
448,192,206922,1,0,0:0:0:70:Clap.wav
64,192,207093,1,0,0:0:0:0:
192,192,207265,1,2,0:0:0:0:
64,192,207608,1,2,0:0:0:0:
448,192,207608,1,0,0:0:0:70:Clap.wav
320,192,207779,1,0,0:0:0:0:
192,192,207865,1,0,0:0:0:0:
448,192,208036,1,0,0:0:0:0:
320,192,208122,1,0,0:0:0:0:
64,192,208293,1,2,0:0:0:0:
192,192,208293,1,0,0:0:0:70:Clap.wav
448,192,208465,1,0,0:0:0:0:
320,192,208636,1,2,0:0:0:0:
64,192,208979,1,2,0:0:0:0:
448,192,208979,1,0,0:0:0:70:Clap.wav
192,192,209151,1,0,0:0:0:0:
320,192,209236,1,0,0:0:0:0:
64,192,209408,1,0,0:0:0:0:
192,192,209493,1,0,0:0:0:0:
320,192,209665,1,2,0:0:0:0:
448,192,209665,1,0,0:0:0:70:Clap.wav
64,192,209836,1,0,0:0:0:0:
192,192,210008,1,2,0:0:0:0:
320,192,210351,1,0,0:0:0:0:
64,192,210693,128,0,210865:0:0:0:0:
448,192,210865,128,0,211036:0:0:0:0:
192,192,211036,128,0,211208:0:0:0:70:VEC3 Snares 040_Reverb.wav
320,192,211208,128,0,211379:0:0:0:0:
64,192,211379,1,4,0:0:0:0:
448,192,211379,1,2,0:0:0:0:
320,192,211722,1,2,0:0:0:0:
448,192,211722,1,0,0:0:0:70:Clap.wav
192,192,212065,1,2,0:0:0:0:
64,192,212408,1,2,0:0:0:0:
448,192,212408,1,0,0:0:0:70:Clap.wav
320,192,212751,1,2,0:0:0:0:
64,192,213093,1,2,0:0:0:0:
192,192,213093,1,0,0:0:0:70:Clap.wav
320,192,213436,1,2,0:0:0:0:
192,192,213608,1,0,0:0:0:0:
64,192,213779,1,2,0:0:0:0:
448,192,213779,1,0,0:0:0:70:Clap.wav
320,192,214122,1,2,0:0:0:0:
64,192,214465,1,2,0:0:0:0:
192,192,214465,1,0,0:0:0:70:Clap.wav
320,192,214808,1,2,0:0:0:0:
64,192,215151,1,2,0:0:0:0:
448,192,215151,1,0,0:0:0:70:Clap.wav
192,192,215493,1,2,0:0:0:0:
320,192,215665,1,0,0:0:0:0:
64,192,215836,1,2,0:0:0:0:
448,192,215836,1,0,0:0:0:70:Clap.wav
192,192,216179,1,2,0:0:0:0:
320,192,216351,1,0,0:0:0:0:
64,192,216522,1,0,0:0:0:70:Clap.wav
448,192,216865,1,2,0:0:0:0:
64,192,217208,1,2,0:0:0:0:
192,192,217208,1,0,0:0:0:70:Clap.wav
448,192,217379,1,0,0:0:0:0:
320,192,217465,1,0,0:0:0:0:
192,192,217636,1,0,0:0:0:0:
320,192,217722,1,0,0:0:0:0:
64,192,217893,1,2,0:0:0:0:
448,192,217893,1,0,0:0:0:70:Clap.wav
192,192,218065,1,0,0:0:0:0:
320,192,218236,1,2,0:0:0:0:
320,192,218579,1,2,0:0:0:0:
448,192,218579,1,0,0:0:0:70:Clap.wav
64,192,218751,1,0,0:0:0:0:
192,192,218836,1,0,0:0:0:0:
320,192,219008,1,0,0:0:0:0:
192,192,219093,1,0,0:0:0:0:
64,192,219265,1,2,0:0:0:0:
448,192,219265,1,0,0:0:0:70:Clap.wav
320,192,219436,1,0,0:0:0:0:
192,192,219608,1,2,0:0:0:0:
64,192,219951,1,2,0:0:0:0:
192,192,219951,1,0,0:0:0:70:Clap.wav
448,192,220122,1,0,0:0:0:0:
320,192,220208,1,0,0:0:0:0:
192,192,220379,1,0,0:0:0:0:
320,192,220465,1,0,0:0:0:0:
64,192,220636,1,2,0:0:0:0:
448,192,220636,1,0,0:0:0:70:Clap.wav
192,192,220808,1,0,0:0:0:0:
320,192,220979,1,2,0:0:0:0:
448,192,220979,1,0,0:0:0:70:ride08.wav
192,192,221322,128,0,221665:0:0:0:70:LR_Drum Rim Fast.wav
320,192,221665,128,2,222008:0:0:0:0:
64,192,222008,1,0,0:0:0:70:VEC3 Snares 040_Reverb.wav
448,192,222008,1,0,0:0:0:0:
192,192,222179,1,2,0:0:0:0:
320,192,222351,1,2,0:0:0:0:
448,192,222351,1,0,0:0:0:0:
