osu file format v14

[General]
AudioFilename: audio.mp3
AudioLeadIn: 0
PreviewTime: 79815
Countdown: 0
SampleSet: Soft
StackLeniency: 0.7
Mode: 3
LetterboxInBreaks: 0
SpecialStyle: 0
WidescreenStoryboard: 1

[Editor]
Bookmarks: 113927
DistanceSpacing: 1
BeatDivisor: 4
GridSize: 16
TimelineZoom: 2.4

[Metadata]
Title:Re_Construct
TitleUnicode:Re_Construct
Artist:Zekk
ArtistUnicode:Zekk
Creator:FelixSpade
Version:Re:Build
Source:osu!
Tags:hard renaissance kyouya- virtue- syadow- famoss dynamix zekk_doujin soundcloud OverRapid
BeatmapID:1432330
BeatmapSetID:677212

[Difficulty]
HPDrainRate:9
CircleSize:4
OverallDifficulty:8.5
ApproachRate:5
SliderMultiplier:1.4
SliderTickRate:1

[Events]
//Background and Video events
0,0,"reconstruct.jpg",0,0
//Break Periods
//Storyboard Layer 0 (Background)
//Storyboard Layer 1 (Fail)
//Storyboard Layer 2 (Pass)
//Storyboard Layer 3 (Foreground)
//Storyboard Layer 4 (Overlay)
//Storyboard Sound Samples

[TimingPoints]
1237,304.568527918782,4,2,1,70,1,0
26820,-166.666666666667,4,2,1,70,0,0
26973,-71.4285714285714,4,2,1,70,0,0
27049,-166.666666666667,4,2,1,70,0,0
27201,-71.4285714285714,4,2,1,70,0,0
27277,-166.666666666667,4,2,1,70,0,0
27429,-71.4285714285714,4,2,1,70,0,0
27506,-100,4,2,1,70,0,0
28039,-166.666666666667,4,2,1,70,0,0
28191,-71.4285714285714,4,2,1,70,0,0
28267,-166.666666666667,4,2,1,70,0,0
28419,-71.4285714285714,4,2,1,70,0,0
28495,-166.666666666667,4,2,1,70,0,0
28648,-71.4285714285714,4,2,1,70,0,0
28724,-100,4,2,1,70,0,0
29257,-166.666666666667,4,2,1,70,0,0
29409,-71.4285714285714,4,2,1,70,0,0
29485,-166.666666666667,4,2,1,70,0,0
29638,-71.4285714285714,4,2,1,70,0,0
29714,-166.666666666667,4,2,1,70,0,0
29866,-71.4285714285714,4,2,1,70,0,0
29942,-166.666666666667,4,2,1,70,0,0
30094,-71.4285714285714,4,2,1,70,0,0
30171,-100,4,2,1,70,0,0
30475,-71.4285714285714,4,2,1,70,0,0
30551,-166.666666666667,4,2,1,70,0,0
30780,-71.4285714285714,4,2,1,70,0,0
30856,-166.666666666667,4,2,1,70,0,0
31084,-71.4285714285714,4,2,1,70,0,0
31160,-166.666666666667,4,2,1,70,0,0
31389,-71.4285714285714,4,2,1,70,0,0
31465,-166.666666666667,4,2,1,70,0,0
31693,-100,4,2,1,70,0,0
41135,-25,4,2,1,70,0,0
41173,-100,4,2,1,70,0,0
41440,-100,4,2,1,70,0,1
45704,-166.666666666667,4,2,1,70,0,1
45856,-71.4285714285714,4,2,1,70,0,1
45932,-166.666666666667,4,2,1,70,0,1
46084,-71.4285714285714,4,2,1,70,0,1
46160,-166.666666666667,4,2,1,70,0,1
46275,-71.4285714285714,4,2,1,70,0,1
46313,-100,4,2,1,70,0,1
49967,-100,4,2,1,70,0,0
51186,-100,4,2,1,70,0,1
59714,-66.667,4,2,1,70,0,0
59764,-200,4,2,1,70,0,0
59815,-66.667,4,2,1,70,0,0
59866,-200,4,2,1,70,0,0
59917,-66.667,4,2,1,70,0,0
59967,-200,4,2,1,70,0,0
60018,-66.667,4,2,1,70,0,0
60069,-200,4,2,1,70,0,0
60120,-66.667,4,2,1,70,0,0
60170,-200,4,2,1,70,0,0
60221,-66.667,4,2,1,70,0,0
60272,-200,4,2,1,70,0,0
60323,-66.667,4,2,1,70,0,0
60373,-200,4,2,1,70,0,0
60424,-66.667,4,2,1,70,0,0
60475,-200,4,2,1,70,0,0
60526,-66.667,4,2,1,70,0,0
60576,-200,4,2,1,70,0,0
60627,-66.667,4,2,1,70,0,0
60678,-200,4,2,1,70,0,0
60729,-66.667,4,2,1,70,0,0
60779,-200,4,2,1,70,0,0
60830,-52.632,4,2,1,70,0,0
60881,-1000,4,2,1,70,0,0
60932,-100,4,2,1,70,0,0
61126,-101.626016260163,4,2,1,70,0,0
61321,-103.305785123967,4,2,1,70,0,0
61516,-105.042016806723,4,2,1,70,0,0
61711,-106.837606837607,4,2,1,70,0,0
61906,-108.695652173913,4,2,1,70,0,0
62101,-110.619469026549,4,2,1,70,0,0
62296,-112.612612612613,4,2,1,70,0,0
62491,-114.678899082569,4,2,1,70,0,0
62686,-116.822429906542,4,2,1,70,0,0
62881,-119.047619047619,4,2,1,70,0,0
63076,-121.359223300971,4,2,1,70,0,0
63271,-123.762376237624,4,2,1,70,0,0
63465,-126.262626262626,4,2,1,70,0,0
63660,-128.865979381443,4,2,1,70,0,0
63855,-131.578947368421,4,2,1,70,0,0
64050,-134.408602150538,4,2,1,70,0,0
64245,-137.362637362637,4,2,1,70,0,0
64440,-140.449438202247,4,2,1,70,0,0
64635,-143.67816091954,4,2,1,70,0,0
64830,-147.058823529412,4,2,1,70,0,0
65025,-150.602409638554,4,2,1,70,0,0
65220,-154.320987654321,4,2,1,70,0,0
65415,-158.227848101266,4,2,1,70,0,0
65610,-162.337662337662,4,2,1,70,0,0
65805,-166.666666666667,4,2,1,70,0,0
65999,-162.337662337662,4,2,1,70,0,0
66194,-158.227848101266,4,2,1,70,0,0
66389,-154.320987654321,4,2,1,70,0,0
66584,-150.602409638554,4,2,1,70,0,0
66779,-147.058823529412,4,2,1,70,0,0
66974,-143.67816091954,4,2,1,70,0,0
67169,-140.449438202247,4,2,1,70,0,0
67364,-137.362637362637,4,2,1,70,0,0
67559,-134.408602150538,4,2,1,70,0,0
67754,-131.578947368421,4,2,1,70,0,0
67949,-128.865979381443,4,2,1,70,0,0
68144,-126.262626262626,4,2,1,70,0,0
68338,-123.762376237624,4,2,1,70,0,0
68533,-121.359223300971,4,2,1,70,0,0
68728,-119.047619047619,4,2,1,70,0,0
68923,-116.822429906542,4,2,1,70,0,0
69118,-114.678899082569,4,2,1,70,0,0
69313,-112.612612612613,4,2,1,70,0,0
69508,-110.619469026549,4,2,1,70,0,0
69703,-108.695652173913,4,2,1,70,0,0
69917,-66.667,4,2,1,70,0,0
69993,-200,4,2,1,70,0,0
70069,-66.667,4,2,1,70,0,0
70145,-200,4,2,1,70,0,0
70221,-66.667,4,2,1,70,0,0
70297,-200,4,2,1,70,0,0
70374,-66.667,4,2,1,70,0,0
70450,-200,4,2,1,70,0,0
70526,-66.667,4,2,1,70,0,0
70602,-200,4,2,1,70,0,0
70678,-100,4,2,1,70,0,0
77988,-166.666666666667,4,2,1,70,0,0
79130,-71.4285714285714,4,2,1,70,0,0
79206,-100,4,2,1,70,0,0
80120,-25,4,2,1,70,0,0
80158,-100,4,2,1,70,0,0
80424,-100,4,2,1,70,0,1
84688,-166.666666666667,4,2,1,70,0,1
84841,-71.4285714285714,4,2,1,70,0,1
84917,-166.666666666667,4,2,1,70,0,1
85069,-71.4285714285714,4,2,1,70,0,1
85145,-166.666666666667,4,2,1,70,0,1
85259,-71.4285714285714,4,2,1,70,0,1
85297,-100,4,2,1,70,0,1
88952,-100,4,2,1,70,0,0
90171,-100,4,2,1,70,0,1
99612,-25,4,2,1,70,0,1
99650,-100,4,2,1,70,0,1
99917,-100,4,2,1,70,0,0
104181,-33.3333333333333,4,2,1,70,0,0
104219,-100,4,2,1,70,0,0
104409,-33.3333333333333,4,2,1,70,0,0
104447,-100,4,2,1,70,0,0
104638,-33.3333333333333,4,2,1,70,0,0
104676,-166.666666666667,4,2,1,70,0,0
105018,-71.4285714285714,4,2,1,70,0,0
105094,-100,4,2,1,70,0,0
109663,-71.4285714285714,4,2,1,70,0,0
109739,-166.666666666667,4,2,1,70,0,0
109967,-71.4285714285714,4,2,1,70,0,0
110044,-166.666666666667,4,2,1,70,0,0
110196,-71.4285714285714,4,2,1,70,0,0
110272,-166.666666666667,4,2,1,70,0,0
110424,-100,4,2,1,70,0,0
111490,-166.666666666667,4,2,1,70,0,0
111643,-71.4285714285714,4,2,1,70,0,0
111719,-166.666666666667,4,2,1,70,0,0
111871,-71.4285714285714,4,2,1,70,0,0
111947,-100,4,2,1,70,0,0
112404,-166.666666666667,4,2,1,70,0,0
112556,-71.4285714285714,4,2,1,70,0,0
112632,-166.666666666667,4,2,1,70,0,0
112785,-71.4285714285714,4,2,1,70,0,0
112861,-100,4,2,1,70,0,0
113927,-66.6666666666667,4,2,1,70,0,0
113965,-200,4,2,1,70,0,0
114003,-66.6666666666667,4,2,1,70,0,0
114041,-200,4,2,1,70,0,0
114079,-66.6666666666667,4,2,1,70,0,0
114117,-200,4,2,1,70,0,0
114155,-66.6666666666667,4,2,1,70,0,0
114193,-200,4,2,1,70,0,0
114231,-66.6666666666667,4,2,1,70,0,0
114269,-200,4,2,1,70,0,0
114308,-66.6666666666667,4,2,1,70,0,0
114346,-200,4,2,1,70,0,0
114384,-66.6666666666667,4,2,1,70,0,0
114422,-200,4,2,1,70,0,0
114460,-66.6666666666667,4,2,1,70,0,0
114498,-200,4,2,1,70,0,0
114536,-100,4,2,1,70,0,0
119105,-20,4,2,1,70,0,0
119143,-100,4,2,1,70,0,0

[HitObjects]
64,192,1237,5,2,0:0:0:0:
192,192,1237,1,0,0:0:0:0:
320,192,1237,1,0,0:0:0:0:
448,192,1389,1,0,0:0:0:70:LR_Tom Normal.wav
320,192,1389,1,0,0:0:0:0:
192,192,1465,1,0,0:0:0:70:LR_Tom Normal.wav
64,192,1465,1,0,0:0:0:0:
320,192,1541,1,0,0:0:0:70:LR_Tom Normal.wav
448,192,1541,1,0,0:0:0:0:
64,192,1693,1,0,0:0:0:70:LR_Tom Hit.wav
192,192,1693,1,0,0:0:0:0:
448,192,1769,1,0,0:0:0:0:
320,192,1846,1,0,0:0:0:70:LR_Tom Hit.wav
192,192,1922,1,0,0:0:0:70:LR_Tom Hit.wav
64,192,1998,1,0,0:0:0:70:LR_Tom Hit 2.wav
320,192,2074,1,0,0:0:0:70:LR_Tom Hit 3.wav
64,192,2150,1,0,0:0:0:70:LR3_Snare DCM.wav
448,192,2150,1,0,0:0:0:0:
192,192,2226,1,0,0:0:0:70:LR3_Snare DCM.wav
320,192,2226,1,0,0:0:0:0:
64,192,2302,1,0,0:0:0:70:LR_Tom Drop.wav
448,192,2302,1,0,0:0:0:0:
320,192,2455,1,6,0:0:0:0:
448,192,2455,1,4,0:0:0:0:
64,192,2455,1,0,0:0:0:0:
192,192,2455,1,0,0:0:0:0:
192,192,2607,1,0,0:0:0:0:
320,192,2683,1,0,0:0:0:0:
192,192,2759,1,0,0:0:0:0:
448,192,2912,1,0,0:0:0:0:
320,192,2988,1,0,0:0:0:0:
448,192,3064,1,0,0:0:0:0:
192,192,3216,1,0,0:0:0:0:
192,192,3368,1,0,0:0:0:0:
448,192,3521,1,0,0:0:0:0:
64,192,3673,1,0,0:0:0:0:
192,192,3825,1,0,0:0:0:0:
320,192,3901,1,0,0:0:0:0:
192,192,3978,1,0,0:0:0:0:
64,192,4130,1,0,0:0:0:0:
192,192,4206,1,0,0:0:0:0:
64,192,4282,1,0,0:0:0:0:
192,192,4358,1,0,0:0:0:0:
320,192,4434,1,6,0:0:0:0:
448,192,4434,1,4,0:0:0:0:
64,192,4511,1,0,0:0:0:0:
320,192,4587,1,0,0:0:0:0:
448,192,4663,1,0,0:0:0:0:
64,192,4739,1,6,0:0:0:0:
192,192,4739,1,4,0:0:0:0:
192,192,4891,1,6,0:0:0:0:
320,192,4891,1,4,0:0:0:0:
448,192,4891,1,0,0:0:0:0:
64,192,5044,1,0,0:0:0:0:
192,192,5120,1,0,0:0:0:0:
64,192,5196,1,0,0:0:0:0:
320,192,5348,1,0,0:0:0:0:
192,192,5424,1,0,0:0:0:0:
320,192,5500,1,0,0:0:0:0:
64,192,5653,1,0,0:0:0:0:
192,192,5729,1,0,0:0:0:0:
64,192,5805,1,0,0:0:0:0:
448,192,5881,1,0,0:0:0:0:
320,192,5957,1,0,0:0:0:0:
448,192,6033,1,0,0:0:0:0:
64,192,6110,1,6,0:0:0:0:
192,192,6110,1,4,0:0:0:0:
320,192,6110,1,0,0:0:0:0:
448,192,6262,1,0,0:0:0:0:
320,192,6338,1,0,0:0:0:0:
448,192,6414,1,0,0:0:0:0:
64,192,6566,1,0,0:0:0:0:
192,192,6643,1,0,0:0:0:0:
64,192,6719,1,0,0:0:0:0:
448,192,6871,1,0,0:0:0:0:
192,192,7023,1,0,0:0:0:0:
320,192,7176,1,0,0:0:0:0:
64,192,7328,1,6,0:0:0:0:
192,192,7328,1,4,0:0:0:0:
448,192,7328,1,0,0:0:0:0:
320,192,7404,1,0,0:0:0:0:
448,192,7480,1,0,0:0:0:0:
64,192,7480,1,0,0:0:0:0:
192,192,7556,1,0,0:0:0:0:
320,192,7632,1,0,0:0:0:70:LR_Snare Drum 3.wav
448,192,7632,1,0,0:0:0:0:
64,192,7709,1,0,0:0:0:0:
192,192,7785,1,0,0:0:0:0:
320,192,7785,1,0,0:0:0:0:
448,192,7861,1,0,0:0:0:0:
64,192,7937,1,0,0:0:0:70:LR_Snare Drum 3.wav
192,192,7937,1,0,0:0:0:0:
320,192,8013,1,0,0:0:0:0:
448,192,8089,1,0,0:0:0:0:
64,192,8089,1,0,0:0:0:0:
192,192,8165,1,0,0:0:0:0:
320,192,8242,1,0,0:0:0:70:LR_Snare Drum 3.wav
448,192,8242,1,0,0:0:0:0:
64,192,8318,1,0,0:0:0:0:
192,192,8394,1,0,0:0:0:0:
320,192,8394,1,0,0:0:0:0:
448,192,8470,1,0,0:0:0:0:
64,192,8546,1,4,0:0:0:0:
192,192,8546,1,2,0:0:0:0:
320,192,8546,1,0,0:0:0:0:
448,192,8622,1,0,0:0:0:0:
64,192,8698,1,0,0:0:0:70:LR_Snare Drum 3.wav
192,192,8698,1,0,0:0:0:0:
448,192,8775,1,0,0:0:0:0:
320,192,8851,1,0,0:0:0:70:LR_Snare Drum 3.wav
64,192,8851,1,0,0:0:0:0:
192,192,8927,1,0,0:0:0:0:
448,192,9003,1,0,0:0:0:70:LR_Snare Drum 3.wav
320,192,9003,1,0,0:0:0:0:
192,192,9079,1,0,0:0:0:0:
64,192,9155,1,0,0:0:0:70:LR_Snare Drum 3.wav
448,192,9155,1,0,0:0:0:0:
320,192,9231,1,0,0:0:0:70:LR_Snare Drum 3.wav
192,192,9308,1,0,0:0:0:70:LR_Snare Drum 3.wav
64,192,9308,1,0,0:0:0:0:
448,192,9384,1,0,0:0:0:70:LR_Snare Drum 3.wav
320,192,9460,1,0,0:0:0:70:LR_Snare Drum 3.wav
192,192,9460,1,0,0:0:0:0:
64,192,9536,1,0,0:0:0:70:LR_Snare Drum 3.wav
448,192,9612,1,0,0:0:0:70:LR_Snare Drum 3.wav
320,192,9612,1,0,0:0:0:0:
64,192,9688,1,0,0:0:0:70:LR_Snare Drum 3.wav
320,192,9764,1,4,0:0:0:0:
448,192,9764,1,2,0:0:0:0:
448,192,9841,1,0,0:0:0:70:LR_Snare Drum 3.wav
320,192,9841,1,0,0:0:0:0:
64,192,9917,1,0,0:0:0:70:LR_Snare Drum 3.wav
192,192,9917,1,0,0:0:0:0:
192,192,9993,1,0,0:0:0:70:LR_Snare Drum 3.wav
64,192,9993,1,0,0:0:0:0:
320,192,10069,1,0,0:0:0:70:LR_Snare Drum 3.wav
448,192,10069,1,0,0:0:0:0:
320,192,10145,1,0,0:0:0:70:LR_Snare Drum 3.wav
448,192,10145,1,0,0:0:0:0:
192,192,10221,1,0,0:0:0:70:LR_Snare Drum 3.wav
64,192,10221,1,0,0:0:0:0:
64,192,10297,1,0,0:0:0:70:LR_Snare Drum 3.wav
192,192,10297,1,0,0:0:0:0:
320,192,10374,1,0,0:0:0:70:LR_Snare Drum 3.wav
448,192,10374,1,0,0:0:0:0:
320,192,10450,1,0,0:0:0:70:LR_Snare Drum 3.wav
448,192,10450,1,0,0:0:0:0:
192,192,10526,1,0,0:0:0:70:LR_Snare Drum 3.wav
64,192,10526,1,0,0:0:0:0:
192,192,10602,1,0,0:0:0:70:LR_Snare Drum 3.wav
64,192,10602,1,0,0:0:0:0:
320,192,10678,1,0,0:0:0:70:LR_Snare Drum 3.wav
448,192,10678,1,0,0:0:0:0:
320,192,10754,1,0,0:0:0:70:LR_Snare Drum 3.wav
448,192,10754,1,0,0:0:0:0:
192,192,10830,1,0,0:0:0:70:LR_Snare Drum 3.wav
64,192,10830,1,0,0:0:0:0:
192,192,10907,1,0,0:0:0:70:LR_Snare Drum 3.wav
64,192,10907,1,0,0:0:0:0:
320,192,10983,1,6,0:0:0:30:
448,192,10983,1,4,0:0:0:0:
64,192,11059,1,0,0:0:0:0:
192,192,11135,1,0,0:0:0:0:
448,192,11211,1,0,0:0:0:70:LR3_Snare DCM.wav
320,192,11211,1,0,0:0:0:0:
64,192,11287,1,0,0:0:0:0:
320,192,11363,1,0,0:0:0:0:
448,192,11440,1,0,0:0:0:70:LR3_Snare DCM.wav
192,192,11440,1,0,0:0:0:0:
64,192,11516,1,0,0:0:0:0:
320,192,11592,1,0,0:0:0:70:LR3_Snare DCM.wav
448,192,11592,1,0,0:0:0:0:
64,192,11668,1,0,0:0:0:70:LR3_Snare DCM.wav
192,192,11668,1,0,0:0:0:0:
448,192,11744,1,0,0:0:0:70:LR3_Snare DCM.wav
320,192,11744,1,0,0:0:0:0:
64,192,11820,1,0,0:0:0:0:
320,192,11896,1,0,0:0:0:70:LR4_Snare DWRS.wav
448,192,11896,1,0,0:0:0:80:wou.wav
64,192,11973,1,0,0:0:0:0:
192,192,11973,1,0,0:0:0:0:
448,192,12049,1,0,0:0:0:0:
320,192,12049,1,0,0:0:0:0:
192,192,12125,1,0,0:0:0:0:
64,192,12125,1,0,0:0:0:0:
448,192,12201,1,4,0:0:0:0:
320,192,12201,1,2,0:0:0:0:
192,192,12277,1,0,0:0:0:0:
64,192,12353,1,0,0:0:0:0:
320,192,12429,1,0,0:0:0:0:
192,192,12506,1,2,0:0:0:0:
64,192,12506,1,0,0:0:0:0:
320,192,12582,1,0,0:0:0:0:
448,192,12658,1,0,0:0:0:0:
64,192,12734,1,0,0:0:0:0:
192,192,12810,1,2,0:0:0:0:
320,192,12810,1,0,0:0:0:0:
448,192,12886,1,0,0:0:0:0:
64,192,12962,1,0,0:0:0:0:
192,192,13039,1,0,0:0:0:0:
320,192,13115,1,2,0:0:0:0:
448,192,13115,1,0,0:0:0:0:
192,192,13191,1,0,0:0:0:0:
64,192,13267,1,0,0:0:0:0:
448,192,13343,1,0,0:0:0:0:
320,192,13419,1,2,0:0:0:0:
192,192,13419,1,0,0:0:0:0:
64,192,13495,1,0,0:0:0:0:
448,192,13572,1,0,0:0:0:0:
320,192,13648,1,0,0:0:0:0:
192,192,13724,1,2,0:0:0:0:
64,192,13724,1,0,0:0:0:0:
448,192,13800,1,0,0:0:0:0:
320,192,13876,1,0,0:0:0:0:
192,192,13952,1,0,0:0:0:0:
64,192,14028,1,2,0:0:0:0:
448,192,14028,1,0,0:0:0:0:
320,192,14105,1,0,0:0:0:0:
192,192,14181,1,0,0:0:0:0:
64,192,14257,1,0,0:0:0:0:
320,192,14333,1,2,0:0:0:0:
448,192,14333,1,0,0:0:0:0:
64,192,14409,1,0,0:0:0:0:
192,192,14485,1,0,0:0:0:0:
320,192,14561,1,0,0:0:0:0:
448,192,14638,1,2,0:0:0:0:
64,192,14638,1,0,0:0:0:0:
192,192,14714,1,0,0:0:0:0:
320,192,14790,1,0,0:0:0:0:
448,192,14866,1,0,0:0:0:0:
192,192,14942,1,2,0:0:0:0:
64,192,14942,1,0,0:0:0:0:
448,192,15018,1,0,0:0:0:0:
320,192,15094,1,0,0:0:0:0:
192,192,15171,1,0,0:0:0:0:
64,192,15247,1,2,0:0:0:0:
448,192,15247,1,0,0:0:0:0:
320,192,15323,1,0,0:0:0:0:
192,192,15399,1,0,0:0:0:0:
64,192,15475,1,0,0:0:0:0:
320,192,15551,1,2,0:0:0:0:
448,192,15551,1,0,0:0:0:0:
64,192,15627,1,0,0:0:0:0:
192,192,15704,1,0,0:0:0:0:
320,192,15780,1,0,0:0:0:0:
448,192,15856,1,2,0:0:0:0:
64,192,15856,1,0,0:0:0:0:
192,192,15932,1,0,0:0:0:0:
320,192,16008,1,0,0:0:0:0:
448,192,16084,1,0,0:0:0:0:
192,192,16160,1,2,0:0:0:0:
64,192,16160,1,0,0:0:0:0:
320,192,16237,1,0,0:0:0:0:
448,192,16313,1,0,0:0:0:0:
64,192,16389,1,0,0:0:0:0:
192,192,16465,1,2,0:0:0:0:
320,192,16465,1,0,0:0:0:0:
448,192,16541,1,0,0:0:0:0:
64,192,16617,1,0,0:0:0:0:
192,192,16617,1,0,0:0:0:0:
320,192,16693,1,2,0:0:0:0:
448,192,16693,1,0,0:0:0:0:
320,192,16846,1,0,0:0:0:0:
64,192,16846,1,0,0:0:0:0:
448,192,16922,1,2,0:0:0:0:
192,192,16922,1,0,0:0:0:0:
320,192,17074,1,6,0:0:0:0:
448,192,17074,1,4,0:0:0:0:
64,192,17074,1,0,0:0:0:0:
192,192,17150,1,0,0:0:0:0:
320,192,17226,1,0,0:0:0:0:
64,192,17302,1,0,0:0:0:0:
192,192,17379,1,2,0:0:0:0:
320,192,17379,1,0,0:0:0:0:
448,192,17455,1,0,0:0:0:0:
192,192,17531,1,0,0:0:0:0:
320,192,17607,1,0,0:0:0:0:
64,192,17683,1,2,0:0:0:0:
448,192,17683,1,0,0:0:0:0:
192,192,17759,1,0,0:0:0:0:
320,192,17835,1,0,0:0:0:0:
448,192,17912,1,0,0:0:0:0:
192,192,17988,1,2,0:0:0:0:
64,192,17988,1,0,0:0:0:0:
448,192,18064,1,0,0:0:0:0:
320,192,18140,1,0,0:0:0:0:
192,192,18216,1,0,0:0:0:0:
448,192,18292,1,2,0:0:0:0:
64,192,18292,1,0,0:0:0:0:
320,192,18368,1,0,0:0:0:0:
192,192,18445,1,0,0:0:0:0:
320,192,18521,1,0,0:0:0:0:
64,192,18597,1,2,0:0:0:0:
192,192,18597,1,0,0:0:0:0:
448,192,18673,1,0,0:0:0:0:
320,192,18749,1,0,0:0:0:0:
192,192,18825,1,0,0:0:0:0:
64,192,18901,1,2,0:0:0:0:
448,192,18901,1,0,0:0:0:0:
320,192,18978,1,0,0:0:0:0:
192,192,19054,1,0,0:0:0:0:
64,192,19054,1,0,0:0:0:0:
448,192,19130,1,2,0:0:0:0:
320,192,19130,1,0,0:0:0:0:
64,192,19206,1,2,0:0:0:0:
192,192,19206,1,0,0:0:0:0:
320,192,19358,1,2,0:0:0:0:
448,192,19358,1,0,0:0:0:0:
192,192,19511,1,2,0:0:0:0:
64,192,19511,1,0,0:0:0:0:
448,192,19587,1,0,0:0:0:0:
320,192,19663,1,0,0:0:0:0:
64,192,19739,1,0,0:0:0:0:
192,192,19815,1,2,0:0:0:0:
320,192,19815,1,0,0:0:0:0:
448,192,19891,1,0,0:0:0:0:
64,192,19967,1,0,0:0:0:0:
192,192,20044,1,0,0:0:0:0:
448,192,20120,1,2,0:0:0:0:
320,192,20120,1,0,0:0:0:0:
64,192,20196,1,0,0:0:0:0:
192,192,20272,1,0,0:0:0:0:
448,192,20348,1,0,0:0:0:0:
320,192,20424,1,2,0:0:0:0:
192,192,20424,1,0,0:0:0:0:
64,192,20500,1,0,0:0:0:0:
448,192,20577,1,0,0:0:0:0:
320,192,20653,1,0,0:0:0:0:
64,192,20729,1,6,0:0:0:0:
448,192,20729,1,4,0:0:0:0:
192,192,20729,1,0,0:0:0:0:
192,192,20881,1,6,0:0:0:0:
64,192,20881,1,4,0:0:0:0:
320,192,20881,1,0,0:0:0:0:
64,192,21033,1,6,0:0:0:0:
192,192,21033,1,4,0:0:0:0:
448,192,21033,1,0,0:0:0:0:
320,192,21110,1,0,0:0:0:0:
448,192,21186,1,0,0:0:0:0:
320,192,21262,1,0,0:0:0:0:
64,192,21338,1,2,0:0:0:0:
192,192,21338,1,0,0:0:0:0:
448,192,21414,1,0,0:0:0:0:
320,192,21490,1,0,0:0:0:0:
448,192,21566,1,0,0:0:0:0:
320,192,21643,1,0,0:0:0:0:
192,192,21719,1,0,0:0:0:0:
64,192,21795,1,0,0:0:0:0:
192,192,21871,1,0,0:0:0:0:
320,192,21947,1,6,0:0:0:0:
64,192,21947,1,4,0:0:0:0:
448,192,21947,1,0,0:0:0:0:
192,192,22023,1,0,0:0:0:0:
448,192,22099,1,0,0:0:0:0:
320,192,22176,1,0,0:0:0:0:
448,192,22252,1,8,0:0:0:0:
192,192,22252,1,2,0:0:0:0:
64,192,22252,1,0,0:0:0:0:
320,192,22328,1,0,0:0:0:0:
64,192,22404,1,0,0:0:0:0:
192,192,22480,1,0,0:0:0:0:
320,192,22556,1,2,0:0:0:0:
448,192,22556,1,0,0:0:0:0:
64,192,22632,1,0,0:0:0:0:
192,192,22709,1,0,0:0:0:0:
448,192,22785,1,0,0:0:0:0:
320,192,22861,1,8,0:0:0:0:
192,192,22861,1,2,0:0:0:0:
64,192,22861,1,0,0:0:0:0:
448,192,22937,1,0,0:0:0:0:
64,192,23013,1,0,0:0:0:0:
192,192,23089,1,0,0:0:0:0:
448,192,23165,1,2,0:0:0:0:
320,192,23165,1,0,0:0:0:0:
192,192,23242,1,0,0:0:0:0:
64,192,23318,1,0,0:0:0:0:
320,192,23394,1,0,0:0:0:0:
448,192,23470,1,10,0:0:0:0:
192,192,23470,1,8,0:0:0:0:
64,192,23470,1,0,0:0:0:0:
320,192,23546,1,0,0:0:0:0:
64,192,23622,1,0,0:0:0:0:
192,192,23698,1,0,0:0:0:0:
320,192,23775,1,2,0:0:0:0:
448,192,23775,1,0,0:0:0:0:
192,192,23851,1,0,0:0:0:0:
64,192,23927,1,0,0:0:0:0:
320,192,24003,1,0,0:0:0:0:
64,192,24079,1,10,0:0:0:0:
192,192,24079,1,8,0:0:0:0:
448,192,24079,1,0,0:0:0:0:
320,192,24155,1,0,0:0:0:0:
192,192,24231,1,0,0:0:0:0:
64,192,24308,1,0,0:0:0:0:
192,192,24384,1,2,0:0:0:0:
320,192,24384,1,0,0:0:0:0:
448,192,24460,1,0,0:0:0:0:
64,192,24536,1,0,0:0:0:0:
192,192,24612,1,0,0:0:0:0:
320,192,24688,1,8,0:0:0:0:
448,192,24688,1,2,0:0:0:0:
64,192,24688,1,0,0:0:0:0:
192,192,24764,1,0,0:0:0:0:
448,192,24841,1,0,0:0:0:0:
320,192,24917,1,0,0:0:0:0:
192,192,24993,1,2,0:0:0:0:
64,192,24993,1,0,0:0:0:0:
320,192,25069,1,0,0:0:0:0:
448,192,25145,1,0,0:0:0:0:
64,192,25221,1,0,0:0:0:0:
192,192,25297,1,8,0:0:0:0:
320,192,25297,1,2,0:0:0:0:
448,192,25297,1,0,0:0:0:0:
64,192,25374,1,0,0:0:0:0:
448,192,25450,1,0,0:0:0:0:
320,192,25526,1,0,0:0:0:0:
192,192,25602,1,2,0:0:0:0:
64,192,25602,1,0,0:0:0:0:
320,192,25678,5,0,0:0:0:0:
448,192,25754,1,0,0:0:0:0:
192,192,25830,1,0,0:0:0:0:
64,192,25907,1,10,0:0:0:0:
320,192,25907,1,8,0:0:0:0:
448,192,25907,1,0,0:0:0:0:
192,192,25983,1,0,0:0:0:0:
320,192,26059,1,0,0:0:0:0:
448,192,26135,1,0,0:0:0:0:
64,192,26211,1,2,0:0:0:0:
192,192,26211,1,0,0:0:0:0:
320,192,26211,1,0,0:0:0:0:
64,192,26363,1,2,0:0:0:0:
192,192,26363,1,0,0:0:0:0:
448,192,26363,1,0,0:0:0:0:
64,192,26516,1,2,0:0:0:80:wou.wav
320,192,26516,1,0,0:0:0:0:
192,192,26516,1,0,0:0:0:0:
448,192,26668,1,2,0:0:0:0:
320,192,26668,1,0,0:0:0:0:
192,192,26820,1,6,0:0:0:0:
64,192,26820,1,4,0:0:0:0:
448,192,26820,1,0,0:0:0:0:
64,192,27049,1,2,0:0:0:0:
320,192,27049,1,0,0:0:0:0:
448,192,27049,1,0,0:0:0:0:
64,192,27277,1,2,0:0:0:0:
192,192,27277,1,0,0:0:0:0:
320,192,27277,1,0,0:0:0:0:
64,192,27506,1,2,0:0:0:0:
192,192,27506,1,0,0:0:0:0:
320,192,27506,1,0,0:0:0:0:
448,192,27582,1,0,0:0:0:0:
320,192,27658,1,0,0:0:0:0:
64,192,27734,1,10,0:0:0:0:
448,192,27734,1,8,0:0:0:0:
192,192,27810,1,0,0:0:0:0:
448,192,27886,1,8,0:0:0:80:wou.wav
320,192,27886,1,2,0:0:0:0:
64,192,28039,1,6,0:0:0:0:
320,192,28039,1,4,0:0:0:0:
192,192,28039,1,0,0:0:0:0:
64,192,28267,1,2,0:0:0:0:
192,192,28267,1,0,0:0:0:0:
448,192,28267,1,0,0:0:0:0:
192,192,28495,1,2,0:0:0:0:
320,192,28495,1,0,0:0:0:0:
448,192,28495,1,0,0:0:0:0:
192,192,28724,1,2,0:0:0:0:
320,192,28724,1,0,0:0:0:0:
448,192,28724,1,0,0:0:0:0:
64,192,28800,1,0,0:0:0:0:
192,192,28876,1,2,0:0:0:0:
448,192,28952,1,10,0:0:0:0:
64,192,28952,1,8,0:0:0:0:
320,192,29028,1,0,0:0:0:0:
448,192,29105,1,8,0:0:0:80:wou.wav
192,192,29105,1,2,0:0:0:0:
320,192,29257,1,6,0:0:0:0:
448,192,29257,1,4,0:0:0:0:
64,192,29257,1,0,0:0:0:0:
192,192,29485,1,2,0:0:0:0:
320,192,29485,1,0,0:0:0:0:
448,192,29485,1,0,0:0:0:0:
64,192,29714,1,2,0:0:0:0:
192,192,29714,1,0,0:0:0:0:
448,192,29714,1,0,0:0:0:0:
64,192,29942,1,2,0:0:0:0:
320,192,29942,1,0,0:0:0:0:
448,192,29942,1,0,0:0:0:0:
448,192,30171,1,8,0:0:0:0:
64,192,30171,1,2,0:0:0:0:
320,192,30323,1,10,0:0:0:0:
192,192,30323,1,8,0:0:0:0:
448,192,30475,1,4,0:0:0:0:
192,192,30475,1,2,0:0:0:0:
64,192,30475,1,0,0:0:0:0:
320,192,30780,1,0,0:0:0:0:
64,192,31084,1,0,0:0:0:0:
448,192,31084,1,0,0:0:0:0:
192,192,31389,1,0,0:0:0:0:
320,192,31693,1,6,0:0:0:0:
192,192,31693,1,4,0:0:0:0:
64,192,31693,1,0,0:0:0:0:
448,192,31693,1,0,0:0:0:0:
192,192,31846,1,0,0:0:0:0:
320,192,31922,1,0,0:0:0:0:
448,192,31998,1,2,0:0:0:30:
64,192,31998,1,0,0:0:0:0:
320,192,32150,1,0,0:0:0:0:
192,192,32226,1,0,0:0:0:0:
64,192,32302,1,2,0:0:0:30:
448,192,32302,1,0,0:0:0:0:
192,192,32455,1,0,0:0:0:0:
320,192,32531,1,0,0:0:0:0:
448,192,32607,1,2,0:0:0:30:
192,192,32607,1,0,0:0:0:0:
320,192,32759,1,0,0:0:0:0:
192,192,32835,1,0,0:0:0:0:
64,192,32912,1,2,0:0:0:30:
320,192,32912,1,0,0:0:0:0:
448,192,33064,1,0,0:0:0:0:
320,192,33140,1,0,0:0:0:0:
192,192,33216,1,2,0:0:0:30:
64,192,33216,1,0,0:0:0:0:
192,192,33368,1,2,0:0:0:30:
64,192,33368,1,0,0:0:0:0:
320,192,33521,1,0,0:0:0:100:LR_Snare Drum.wav
448,192,33521,1,0,0:0:0:0:
192,192,33673,1,2,0:0:0:30:
64,192,33673,1,0,0:0:0:0:
192,192,33825,1,0,0:0:0:100:LR_Snare Drum.wav
320,192,33825,1,0,0:0:0:0:
192,192,33978,1,2,0:0:0:30:
320,192,33978,1,0,0:0:0:0:
64,192,34130,1,4,0:0:0:0:
320,192,34130,1,2,0:0:0:0:
448,192,34130,1,0,0:0:0:0:
192,192,34282,1,0,0:0:0:0:
320,192,34358,1,0,0:0:0:0:
448,192,34434,1,2,0:0:0:30:
64,192,34434,1,0,0:0:0:0:
320,192,34587,1,0,0:0:0:0:
192,192,34663,1,0,0:0:0:0:
64,192,34739,1,2,0:0:0:30:
448,192,34739,1,0,0:0:0:0:
192,192,34891,1,0,0:0:0:0:
320,192,34967,1,0,0:0:0:0:
448,192,35044,1,2,0:0:0:30:
192,192,35044,1,0,0:0:0:0:
320,192,35196,1,0,0:0:0:0:
192,192,35272,1,0,0:0:0:0:
64,192,35348,1,2,0:0:0:30:
320,192,35348,1,0,0:0:0:0:
64,192,35500,1,0,0:0:0:0:
192,192,35577,1,0,0:0:0:0:
320,192,35653,1,2,0:0:0:30:
448,192,35653,1,0,0:0:0:0:
320,192,35805,1,2,0:0:0:30:
448,192,35805,1,0,0:0:0:0:
192,192,35957,1,0,0:0:0:100:LR_Snare Drum.wav
320,192,35957,1,0,0:0:0:0:
64,192,36110,1,2,0:0:0:30:
192,192,36110,1,0,0:0:0:0:
320,192,36262,1,0,0:0:0:100:LR_Snare Drum.wav
448,192,36262,1,0,0:0:0:0:
320,192,36414,1,2,0:0:0:30:
448,192,36414,1,0,0:0:0:0:
192,192,36566,1,4,0:0:0:30:
64,192,36566,1,2,0:0:0:0:
448,192,36566,1,0,0:0:0:0:
320,192,36719,1,2,0:0:0:30:
64,192,36719,1,0,0:0:0:0:
192,192,36871,1,0,0:0:0:100:LR_Snare Drum.wav
448,192,36871,1,0,0:0:0:0:
320,192,37023,1,2,0:0:0:30:
448,192,37023,1,0,0:0:0:0:
192,192,37176,1,0,0:0:0:100:LR_Snare Drum.wav
64,192,37176,1,0,0:0:0:0:
320,192,37328,1,2,0:0:0:30:
448,192,37328,1,0,0:0:0:0:
64,192,37480,1,0,0:0:0:100:LR_Snare Drum.wav
320,192,37480,1,0,0:0:0:0:
64,192,37632,1,2,0:0:0:30:
448,192,37632,1,0,0:0:0:0:
192,192,37785,1,0,0:0:0:100:LR_Snare Drum.wav
448,192,37861,1,0,0:0:0:0:
192,192,37937,1,0,0:0:0:0:
320,192,38013,1,0,0:0:0:0:
448,192,38089,1,0,0:0:0:100:LR_Snare Drum.wav
192,192,38165,1,0,0:0:0:0:
64,192,38242,1,0,0:0:0:0:
448,192,38318,1,0,0:0:0:0:
320,192,38394,1,0,0:0:0:100:LR_Snare Drum.wav
192,192,38470,1,0,0:0:0:0:
64,192,38546,1,0,0:0:0:0:
448,192,38622,1,0,0:0:0:0:
320,192,38775,1,0,0:0:0:0:
64,192,39003,1,4,0:0:0:30:
192,192,39003,1,2,0:0:0:0:
448,192,39003,1,0,0:0:0:0:
320,192,39079,1,0,0:0:0:0:
192,192,39155,1,0,0:0:0:0:
320,192,39231,1,0,0:0:0:0:
192,192,39308,1,0,0:0:0:0:
448,192,39384,1,0,0:0:0:0:
320,192,39460,1,0,0:0:0:0:
192,192,39536,1,0,0:0:0:0:
64,192,39612,1,0,0:0:0:0:
192,192,39688,1,0,0:0:0:0:
64,192,39764,1,0,0:0:0:0:
448,192,39841,1,0,0:0:0:0:
320,192,39917,1,0,0:0:0:0:
192,192,39993,1,0,0:0:0:0:
64,192,40069,1,0,0:0:0:0:
320,192,40145,1,0,0:0:0:0:
448,192,40221,1,0,0:0:0:0:
320,192,40297,1,0,0:0:0:0:
192,192,40374,1,0,0:0:0:70:LR4_DrumCSNHS.wav
64,192,40374,1,0,0:0:0:0:
448,192,40450,1,0,0:0:0:70:LR_Drum Rpd x2.wav
320,192,40450,1,0,0:0:0:0:
64,192,40526,1,0,0:0:0:70:LR_Drum Rpd x2B.wav
192,192,40526,1,0,0:0:0:0:
448,192,40602,1,0,0:0:0:70:LR4_DrumCSNHS_A#.wav
64,192,40678,1,0,0:0:0:70:LR3_Snare DCM.wav
320,192,40678,1,0,0:0:0:0:
448,192,40754,1,0,0:0:0:70:LR3_Snare DCM.wav
192,192,40754,1,0,0:0:0:0:
320,192,40830,1,0,0:0:0:70:LR_Drum Rpd x2B.wav
64,192,40830,1,0,0:0:0:0:
192,192,40983,1,0,0:0:0:50:LR4_SnareBPDT.wav
448,192,40983,1,0,0:0:0:0:
320,192,41135,1,2,0:0:0:70:LR4_Snare DWRS.wav
448,192,41135,1,0,0:0:0:0:
64,192,41135,1,0,0:0:0:0:
192,192,41135,1,0,0:0:0:0:
192,192,41440,1,4,0:0:0:0:
64,192,41440,1,2,0:0:0:0:
448,192,41440,1,0,0:0:0:0:
320,192,41516,1,0,0:0:0:0:
192,192,41592,1,0,0:0:0:0:
64,192,41668,1,0,0:0:0:0:
448,192,41744,1,10,0:0:0:0:
192,192,41744,1,8,0:0:0:0:
320,192,41820,1,0,0:0:0:0:
448,192,41896,1,0,0:0:0:0:
64,192,41896,1,0,0:0:0:0:
192,192,41973,1,0,0:0:0:0:
320,192,41973,1,0,0:0:0:0:
448,192,42049,1,2,0:0:0:0:
64,192,42049,1,0,0:0:0:0:
192,192,42125,1,0,0:0:0:0:
320,192,42201,1,0,0:0:0:0:
448,192,42277,1,0,0:0:0:0:
64,192,42353,1,10,0:0:0:0:
192,192,42353,1,8,0:0:0:0:
448,192,42429,1,0,0:0:0:0:
320,192,42506,1,0,0:0:0:0:
192,192,42582,1,0,0:0:0:0:
64,192,42658,1,2,0:0:0:0:
448,192,42658,1,0,0:0:0:0:
320,192,42734,1,0,0:0:0:0:
192,192,42810,1,0,0:0:0:0:
64,192,42886,1,0,0:0:0:0:
320,192,42962,1,10,0:0:0:0:
448,192,42962,1,8,0:0:0:0:
64,192,43039,1,0,0:0:0:0:
448,192,43115,1,0,0:0:0:0:
320,192,43115,1,0,0:0:0:0:
192,192,43191,1,0,0:0:0:0:
64,192,43191,1,0,0:0:0:0:
448,192,43267,1,2,0:0:0:0:
320,192,43267,1,0,0:0:0:0:
192,192,43343,1,0,0:0:0:0:
64,192,43419,1,0,0:0:0:0:
448,192,43495,1,0,0:0:0:0:
320,192,43572,1,10,0:0:0:0:
192,192,43572,1,8,0:0:0:0:
64,192,43648,1,0,0:0:0:0:
192,192,43724,1,0,0:0:0:0:
448,192,43800,1,0,0:0:0:0:
320,192,43876,1,2,0:0:0:0:
64,192,43876,1,0,0:0:0:0:
192,192,43952,1,0,0:0:0:0:
320,192,44028,1,0,0:0:0:0:
448,192,44105,1,0,0:0:0:0:
64,192,44181,1,8,0:0:0:0:
192,192,44181,1,2,0:0:0:0:
448,192,44257,1,0,0:0:0:0:
320,192,44333,1,0,0:0:0:0:
64,192,44333,1,0,0:0:0:0:
192,192,44409,1,0,0:0:0:0:
448,192,44485,1,2,0:0:0:0:
320,192,44485,1,0,0:0:0:0:
192,192,44561,1,0,0:0:0:0:
64,192,44561,1,0,0:0:0:0:
320,192,44638,1,0,0:0:0:0:
448,192,44638,1,0,0:0:0:0:
192,192,44790,1,8,0:0:0:0:
320,192,44790,1,2,0:0:0:0:
64,192,44866,1,0,0:0:0:0:
448,192,44942,1,0,0:0:0:0:
192,192,45094,1,2,0:0:0:0:
64,192,45094,1,0,0:0:0:0:
448,192,45247,1,0,0:0:0:0:
320,192,45247,1,0,0:0:0:0:
320,192,45399,1,10,0:0:0:0:
192,192,45399,1,8,0:0:0:0:
64,192,45551,1,0,0:0:0:0:
448,192,45551,1,0,0:0:0:0:
320,192,45627,1,0,0:0:0:0:
64,192,45704,1,6,0:0:0:0:
448,192,45704,1,4,0:0:0:0:
192,192,45704,1,0,0:0:0:0:
64,192,45932,1,6,0:0:0:0:
192,192,45932,1,4,0:0:0:0:
320,192,45932,1,0,0:0:0:0:
64,192,46160,1,6,0:0:0:0:
448,192,46160,1,4,0:0:0:0:
192,192,46160,1,0,0:0:0:0:
192,192,46313,1,6,0:0:0:0:
320,192,46313,1,4,0:0:0:0:
448,192,46313,1,0,0:0:0:0:
320,192,46465,1,0,0:0:0:0:
448,192,46617,1,8,0:0:0:0:
64,192,46617,1,2,0:0:0:0:
192,192,46769,1,0,0:0:0:0:
64,192,46769,1,0,0:0:0:0:
320,192,46846,1,0,0:0:0:0:
448,192,46846,1,0,0:0:0:0:
192,192,46922,1,2,0:0:0:0:
64,192,46922,1,0,0:0:0:0:
320,192,47074,1,0,0:0:0:0:
448,192,47074,1,0,0:0:0:0:
64,192,47226,1,8,0:0:0:0:
448,192,47226,1,2,0:0:0:0:
192,192,47379,1,0,0:0:0:0:
320,192,47379,1,0,0:0:0:0:
448,192,47531,1,2,0:0:0:0:
320,192,47531,1,0,0:0:0:0:
192,192,47683,1,0,0:0:0:0:
448,192,47759,1,0,0:0:0:0:
320,192,47835,1,10,0:0:0:0:
64,192,47835,1,8,0:0:0:0:
192,192,47912,1,0,0:0:0:0:
448,192,47988,1,0,0:0:0:0:
64,192,47988,1,0,0:0:0:0:
192,192,48064,1,0,0:0:0:0:
320,192,48064,1,0,0:0:0:0:
64,192,48140,1,2,0:0:0:0:
448,192,48140,1,0,0:0:0:0:
192,192,48292,1,0,0:0:0:0:
64,192,48368,1,2,0:0:0:0:
448,192,48445,1,10,0:0:0:0:
320,192,48445,1,8,0:0:0:0:
192,192,48597,1,2,0:0:0:0:
320,192,48597,1,0,0:0:0:0:
64,192,48749,5,2,0:0:0:0:
192,192,48749,1,0,0:0:0:0:
192,192,48851,1,0,0:0:0:0:
320,192,48851,1,0,0:0:0:0:
320,192,48952,1,0,0:0:0:0:
448,192,48952,1,0,0:0:0:0:
192,192,49054,1,8,0:0:0:0:
64,192,49054,1,2,0:0:0:0:
320,192,49155,1,0,0:0:0:0:
448,192,49155,1,0,0:0:0:0:
64,192,49257,1,0,0:0:0:0:
192,192,49257,1,0,0:0:0:0:
320,192,49358,1,2,0:0:0:0:
448,192,49358,1,0,0:0:0:0:
192,192,49460,1,0,0:0:0:0:
320,192,49460,1,0,0:0:0:0:
64,192,49561,1,0,0:0:0:0:
192,192,49561,1,0,0:0:0:0:
320,192,49663,1,8,0:0:0:0:
448,192,49663,1,2,0:0:0:0:
64,192,49764,1,0,0:0:0:0:
192,192,49764,1,0,0:0:0:0:
320,192,49866,1,0,0:0:0:0:
448,192,49866,1,0,0:0:0:0:
64,192,49967,1,6,0:0:0:0:
192,192,49967,1,4,0:0:0:0:
192,192,50069,1,0,0:0:0:0:
320,192,50069,1,0,0:0:0:0:
448,192,50171,1,0,0:0:0:0:
320,192,50171,1,0,0:0:0:0:
64,192,50272,1,6,0:0:0:0:
192,192,50272,1,4,0:0:0:0:
320,192,50374,1,0,0:0:0:0:
448,192,50374,1,0,0:0:0:0:
64,192,50475,1,0,0:0:0:0:
192,192,50475,1,0,0:0:0:0:
320,192,50577,1,2,0:0:0:0:
448,192,50577,1,0,0:0:0:0:
64,192,50678,1,0,0:0:0:0:
192,192,50678,1,0,0:0:0:0:
320,192,50780,1,0,0:0:0:0:
192,192,50780,1,0,0:0:0:0:
320,192,50881,1,0,0:0:0:0:
448,192,50881,1,0,0:0:0:0:
64,192,50983,1,0,0:0:0:0:
192,192,50983,1,0,0:0:0:0:
448,192,51084,1,0,0:0:0:0:
320,192,51084,1,0,0:0:0:0:
192,192,51186,1,6,0:0:0:0:
64,192,51186,1,4,0:0:0:0:
448,192,51186,1,0,0:0:0:0:
320,192,51262,1,0,0:0:0:0:
64,192,51338,1,0,0:0:0:0:
192,192,51414,1,0,0:0:0:0:
448,192,51490,1,8,0:0:0:0:
320,192,51490,1,2,0:0:0:0:
64,192,51490,1,0,0:0:0:0:
192,192,51566,1,0,0:0:0:0:
320,192,51643,1,0,0:0:0:0:
448,192,51643,1,0,0:0:0:0:
192,192,51719,1,0,0:0:0:0:
64,192,51719,1,0,0:0:0:0:
320,192,51795,1,2,0:0:0:0:
448,192,51795,1,0,0:0:0:0:
64,192,51871,1,0,0:0:0:0:
192,192,51947,1,0,0:0:0:0:
320,192,52023,1,0,0:0:0:0:
64,192,52099,1,8,0:0:0:0:
192,192,52099,1,2,0:0:0:0:
448,192,52099,1,0,0:0:0:0:
320,192,52176,1,0,0:0:0:0:
448,192,52252,1,0,0:0:0:0:
64,192,52328,1,0,0:0:0:0:
192,192,52404,1,2,0:0:0:0:
320,192,52404,1,0,0:0:0:0:
448,192,52480,1,0,0:0:0:0:
64,192,52556,1,0,0:0:0:0:
192,192,52632,1,0,0:0:0:0:
320,192,52709,1,10,0:0:0:0:
448,192,52709,1,8,0:0:0:0:
64,192,52709,1,0,0:0:0:0:
192,192,52785,1,0,0:0:0:0:
448,192,52861,1,0,0:0:0:0:
320,192,52861,1,0,0:0:0:0:
64,192,52937,1,0,0:0:0:0:
192,192,52937,1,0,0:0:0:0:
320,192,53013,1,2,0:0:0:0:
448,192,53013,1,0,0:0:0:0:
64,192,53089,1,0,0:0:0:0:
192,192,53165,1,0,0:0:0:0:
320,192,53242,1,0,0:0:0:0:
192,192,53318,1,10,0:0:0:0:
64,192,53318,1,8,0:0:0:0:
448,192,53318,1,0,0:0:0:0:
320,192,53394,1,0,0:0:0:0:
64,192,53470,1,0,0:0:0:0:
192,192,53546,1,0,0:0:0:0:
320,192,53622,1,2,0:0:0:0:
448,192,53622,1,0,0:0:0:0:
192,192,53698,1,0,0:0:0:0:
64,192,53775,1,0,0:0:0:0:
448,192,53851,1,0,0:0:0:0:
320,192,53927,1,8,0:0:0:0:
192,192,53927,1,2,0:0:0:0:
64,192,53927,1,0,0:0:0:0:
448,192,54003,1,0,0:0:0:0:
192,192,54079,1,0,0:0:0:0:
320,192,54155,1,0,0:0:0:0:
64,192,54231,1,2,0:0:0:0:
448,192,54231,1,0,0:0:0:0:
192,192,54308,1,0,0:0:0:0:
320,192,54308,1,0,0:0:0:0:
64,192,54384,1,0,0:0:0:0:
448,192,54384,1,0,0:0:0:0:
320,192,54536,1,8,0:0:0:0:
192,192,54536,1,2,0:0:0:0:
448,192,54688,1,0,0:0:0:0:
320,192,54764,1,0,0:0:0:0:
192,192,54841,1,2,0:0:0:0:
64,192,54841,1,0,0:0:0:0:
448,192,54917,1,0,0:0:0:0:
320,192,54993,1,0,0:0:0:0:
192,192,55069,1,0,0:0:0:0:
448,192,55145,1,10,0:0:0:0:
64,192,55145,1,8,0:0:0:0:
320,192,55145,1,0,0:0:0:0:
192,192,55221,1,0,0:0:0:0:
448,192,55297,1,0,0:0:0:0:
64,192,55297,1,0,0:0:0:0:
320,192,55374,1,0,0:0:0:0:
192,192,55450,1,6,0:0:0:0:
64,192,55450,1,4,0:0:0:0:
448,192,55450,1,0,0:0:0:0:
320,192,55602,1,6,0:0:0:0:
192,192,55602,1,4,0:0:0:0:
448,192,55602,1,0,0:0:0:0:
192,192,55754,1,6,0:0:0:80:wou.wav
320,192,55754,1,4,0:0:0:0:
64,192,55754,1,0,0:0:0:0:
64,192,55907,1,6,0:0:0:0:
320,192,55907,1,4,0:0:0:0:
448,192,55907,1,0,0:0:0:0:
64,192,56059,1,6,0:0:0:0:
192,192,56059,1,4,0:0:0:0:
448,192,56059,1,0,0:0:0:0:
192,192,56211,1,0,0:0:0:50:wou.wav
320,192,56211,1,0,0:0:0:0:
64,192,56287,1,0,0:0:0:0:
448,192,56287,1,0,0:0:0:0:
192,192,56363,1,8,0:0:0:0:
320,192,56363,1,2,0:0:0:0:
64,192,56440,1,0,0:0:0:0:
448,192,56516,1,0,0:0:0:50:wou.wav
192,192,56592,1,0,0:0:0:0:
448,192,56668,1,2,0:0:0:0:
320,192,56668,1,0,0:0:0:0:
192,192,56744,1,0,0:0:0:0:
64,192,56744,1,0,0:0:0:0:
320,192,56820,1,0,0:0:0:50:wou.wav
448,192,56820,1,0,0:0:0:0:
192,192,56896,1,0,0:0:0:0:
64,192,56896,1,0,0:0:0:0:
320,192,56973,1,8,0:0:0:0:
448,192,56973,1,2,0:0:0:0:
64,192,57049,1,0,0:0:0:0:
192,192,57125,1,0,0:0:0:50:wou.wav
320,192,57201,1,0,0:0:0:0:
64,192,57277,1,2,0:0:0:0:
448,192,57277,1,0,0:0:0:0:
192,192,57353,5,0,0:0:0:0:
320,192,57353,1,0,0:0:0:0:
64,192,57429,1,0,0:0:0:50:wou.wav
448,192,57429,1,0,0:0:0:0:
192,192,57506,1,0,0:0:0:0:
320,192,57506,1,0,0:0:0:0:
64,192,57582,1,10,0:0:0:0:
192,192,57658,1,0,0:0:0:0:
320,192,57734,1,0,0:0:0:50:wou.wav
448,192,57810,1,0,0:0:0:0:
64,192,57886,1,2,0:0:0:0:
192,192,57886,1,0,0:0:0:0:
320,192,58039,1,0,0:0:0:50:wou.wav
448,192,58039,1,0,0:0:0:0:
192,192,58115,1,2,0:0:0:0:
64,192,58115,1,0,0:0:0:0:
320,192,58191,1,10,0:0:0:0:
448,192,58191,1,8,0:0:0:0:
64,192,58343,1,2,0:0:0:50:wou.wav
192,192,58343,1,0,0:0:0:0:
320,192,58419,1,0,0:0:0:0:
448,192,58419,1,0,0:0:0:0:
64,192,58495,5,2,0:0:0:0:
192,192,58495,1,0,0:0:0:0:
320,192,58572,5,0,0:0:0:0:
448,192,58648,1,0,0:0:0:50:wou.wav
64,192,58648,1,0,0:0:0:0:
192,192,58724,1,0,0:0:0:0:
320,192,58800,1,8,0:0:0:0:
448,192,58800,1,2,0:0:0:0:
192,192,58876,1,0,0:0:0:0:
64,192,58952,1,0,0:0:0:50:wou.wav
448,192,58952,1,0,0:0:0:0:
320,192,59028,1,0,0:0:0:0:
192,192,59105,1,2,0:0:0:0:
64,192,59105,1,0,0:0:0:0:
448,192,59181,1,0,0:0:0:0:
320,192,59257,1,0,0:0:0:0:
64,192,59257,1,0,0:0:0:0:
192,192,59333,1,0,0:0:0:0:
448,192,59409,1,8,0:0:0:0:
320,192,59409,1,2,0:0:0:0:
192,192,59485,1,0,0:0:0:0:
64,192,59561,1,0,0:0:0:50:wou.wav
448,192,59561,1,0,0:0:0:0:
320,192,59638,1,0,0:0:0:0:
64,192,59714,5,6,0:0:0:0:
192,192,59714,1,4,0:0:0:0:
320,192,59815,1,0,0:0:0:0:
448,192,59815,1,0,0:0:0:0:
192,192,59917,1,0,0:0:0:0:
64,192,59917,1,0,0:0:0:0:
320,192,60018,1,0,0:0:0:0:
448,192,60018,1,0,0:0:0:0:
320,192,60120,1,0,0:0:0:0:
192,192,60120,1,0,0:0:0:0:
64,192,60221,1,0,0:0:0:0:
192,192,60221,1,0,0:0:0:0:
448,192,60323,1,0,0:0:0:0:
320,192,60323,1,0,0:0:0:0:
64,192,60424,1,0,0:0:0:0:
192,192,60424,1,0,0:0:0:0:
448,192,60526,1,0,0:0:0:0:
320,192,60526,1,0,0:0:0:0:
64,192,60627,1,0,0:0:0:0:
192,192,60627,1,0,0:0:0:0:
192,192,60729,1,0,0:0:0:0:
320,192,60729,1,0,0:0:0:0:
320,192,60830,1,0,0:0:0:0:
448,192,60830,1,0,0:0:0:0:
64,192,60932,1,6,0:0:0:100:B6H_s.wav
192,192,60932,1,4,0:0:0:0:
448,192,60932,1,0,0:0:0:0:
320,192,61084,1,0,0:0:0:100:F#6H_Gb6H_s.wav
192,192,61237,1,0,0:0:0:100:B5H_s.wav
448,192,61389,1,0,0:0:0:100:B6H_s.wav
320,192,61541,1,0,0:0:0:100:F#6H_Gb6H_s.wav
192,192,61693,1,0,0:0:0:100:B5H_s.wav
448,192,61846,1,0,0:0:0:100:B6H_s.wav
320,192,61998,1,0,0:0:0:100:F#6H_Gb6H_s.wav
192,192,62150,1,0,0:0:0:100:B5H_s.wav
448,192,62302,1,0,0:0:0:100:B6H_s.wav
320,192,62455,1,0,0:0:0:100:F#6H_Gb6H_s.wav
192,192,62607,1,0,0:0:0:100:B5H_s.wav
448,192,62759,1,0,0:0:0:100:B6H_s.wav
320,192,62912,1,0,0:0:0:100:F#6H_Gb6H_s.wav
192,192,63064,1,0,0:0:0:100:B5H_s.wav
448,192,63216,1,0,0:0:0:100:B6H_s.wav
320,192,63368,1,0,0:0:0:100:F#6H_Gb6H_s.wav
192,192,63521,1,0,0:0:0:100:B5H_s.wav
448,192,63673,1,0,0:0:0:100:B6H_s.wav
320,192,63825,1,0,0:0:0:100:F#6H_Gb6H_s.wav
192,192,63978,1,0,0:0:0:100:B5H_s.wav
448,192,64130,1,0,0:0:0:100:B6H_s.wav
320,192,64282,1,0,0:0:0:100:F#6H_Gb6H_s.wav
192,192,64434,1,0,0:0:0:100:B5H_s.wav
448,192,64587,1,0,0:0:0:100:B6H_s.wav
320,192,64739,1,0,0:0:0:100:F#6H_Gb6H_s.wav
192,192,64891,1,0,0:0:0:100:B5H_s.wav
448,192,65044,1,0,0:0:0:100:B6H_s.wav
320,192,65196,1,0,0:0:0:100:F#6H_Gb6H_s.wav
192,192,65348,1,0,0:0:0:100:B5H_s.wav
448,192,65500,1,0,0:0:0:100:B6H_s.wav
320,192,65653,1,0,0:0:0:100:F#6H_Gb6H_s.wav
64,192,65805,1,0,0:0:0:100:B7H_s.wav
192,192,65957,1,0,0:0:0:100:F#7H_Gb7H_s.wav
448,192,66110,1,0,0:0:0:100:B6H_s.wav
64,192,66262,1,0,0:0:0:100:B7H_s.wav
192,192,66414,1,0,0:0:0:100:F#7H_Gb7H_s.wav
448,192,66566,1,0,0:0:0:100:B6H_s.wav
64,192,66719,1,0,0:0:0:100:B7H_s.wav
192,192,66871,1,0,0:0:0:100:F#7H_Gb7H_s.wav
448,192,67023,1,0,0:0:0:100:B6H_s.wav
64,192,67176,1,0,0:0:0:100:B7H_s.wav
192,192,67328,1,0,0:0:0:100:F#7H_Gb7H_s.wav
448,192,67480,1,0,0:0:0:100:B6H_s.wav
64,192,67632,1,0,0:0:0:100:B7H_s.wav
192,192,67785,1,0,0:0:0:100:F#7H_Gb7H_s.wav
448,192,67937,1,0,0:0:0:100:B6H_s.wav
64,192,68089,1,0,0:0:0:100:B7H_s.wav
192,192,68242,1,0,0:0:0:100:F#7H_Gb7H_s.wav
448,192,68394,1,0,0:0:0:100:B6H_s.wav
64,192,68546,1,0,0:0:0:100:B7H_s.wav
192,192,68698,1,0,0:0:0:100:F#7H_Gb7H_s.wav
448,192,68851,1,0,0:0:0:100:B6H_s.wav
64,192,69003,1,0,0:0:0:100:B7H_s.wav
192,192,69155,1,0,0:0:0:100:F#7H_Gb7H_s.wav
448,192,69308,1,0,0:0:0:100:B6H_s.wav
64,192,69460,1,0,0:0:0:100:B7H_s.wav
192,192,69612,1,0,0:0:0:100:F#7H_Gb7H_s.wav
448,192,69764,1,0,0:0:0:100:B6H_s.wav
320,192,69917,1,0,0:0:0:100:B7H_s.wav
64,192,70069,1,0,0:0:0:100:F#7H_Gb7H_s.wav
448,192,70221,1,0,0:0:0:100:B6H_s.wav
320,192,70221,1,0,0:0:0:0:
64,192,70374,1,0,0:0:0:100:B7H_s.wav
192,192,70374,1,0,0:0:0:0:
192,192,70526,1,0,0:0:0:100:F#7H_Gb7H_s.wav
320,192,70526,1,0,0:0:0:0:
448,192,70678,1,6,0:0:0:0:
320,192,70678,1,4,0:0:0:0:
64,192,70678,1,0,0:0:0:0:
192,192,70754,1,0,0:0:0:0:
448,192,70830,1,0,0:0:0:0:
320,192,70907,1,0,0:0:0:0:
64,192,70983,1,2,0:0:0:30:
192,192,70983,1,0,0:0:0:0:
320,192,71059,1,0,0:0:0:0:
192,192,71135,1,0,0:0:0:0:
448,192,71211,1,0,0:0:0:0:
64,192,71287,1,2,0:0:0:30:
320,192,71287,1,0,0:0:0:0:
192,192,71363,1,0,0:0:0:0:
320,192,71440,1,0,0:0:0:0:
448,192,71516,1,0,0:0:0:0:
320,192,71592,1,2,0:0:0:30:
192,192,71592,1,0,0:0:0:0:
64,192,71668,1,0,0:0:0:0:
448,192,71744,1,0,0:0:0:0:
64,192,71820,1,0,0:0:0:0:
192,192,71896,1,2,0:0:0:30:
320,192,71896,1,0,0:0:0:0:
448,192,71973,1,0,0:0:0:0:
64,192,72049,1,0,0:0:0:0:
192,192,72125,1,0,0:0:0:0:
320,192,72201,1,2,0:0:0:30:
448,192,72201,1,0,0:0:0:0:
192,192,72277,1,0,0:0:0:0:
64,192,72353,1,2,0:0:0:30:
320,192,72353,1,0,0:0:0:0:
448,192,72429,1,0,0:0:0:0:
192,192,72506,1,0,0:0:0:100:LR_Snare Drum.wav
64,192,72506,1,0,0:0:0:0:
320,192,72582,1,0,0:0:0:0:
448,192,72658,1,2,0:0:0:30:
192,192,72658,1,0,0:0:0:0:
64,192,72734,1,0,0:0:0:0:
320,192,72810,1,0,0:0:0:100:LR_Snare Drum.wav
448,192,72810,1,0,0:0:0:0:
192,192,72886,1,0,0:0:0:0:
64,192,72962,1,2,0:0:0:30:
320,192,72962,1,0,0:0:0:0:
448,192,73039,1,0,0:0:0:0:
320,192,73115,1,4,0:0:0:0:
64,192,73115,1,2,0:0:0:0:
192,192,73115,1,0,0:0:0:0:
448,192,73191,1,0,0:0:0:0:
192,192,73267,1,0,0:0:0:0:
64,192,73343,1,0,0:0:0:0:
320,192,73419,1,2,0:0:0:30:
448,192,73419,1,0,0:0:0:0:
192,192,73495,1,0,0:0:0:0:
64,192,73572,1,0,0:0:0:0:
448,192,73648,1,0,0:0:0:0:
320,192,73724,1,2,0:0:0:30:
192,192,73724,1,0,0:0:0:0:
64,192,73800,1,0,0:0:0:0:
448,192,73876,1,0,0:0:0:0:
320,192,73952,1,0,0:0:0:0:
192,192,74028,1,2,0:0:0:30:
64,192,74028,1,0,0:0:0:0:
448,192,74105,1,0,0:0:0:0:
320,192,74181,1,0,0:0:0:0:
192,192,74257,1,0,0:0:0:0:
64,192,74333,1,2,0:0:0:30:
448,192,74333,1,0,0:0:0:0:
192,192,74409,1,0,0:0:0:0:
320,192,74485,1,0,0:0:0:0:
448,192,74561,1,0,0:0:0:0:
64,192,74638,1,2,0:0:0:30:
192,192,74638,1,0,0:0:0:0:
320,192,74714,1,0,0:0:0:0:
448,192,74790,1,2,0:0:0:30:
192,192,74790,1,0,0:0:0:0:
64,192,74866,1,0,0:0:0:0:
192,192,74942,1,0,0:0:0:100:LR_Snare Drum.wav
320,192,74942,1,0,0:0:0:0:
448,192,75018,1,0,0:0:0:0:
320,192,75094,1,2,0:0:0:30:
64,192,75094,1,0,0:0:0:0:
192,192,75171,1,0,0:0:0:0:
64,192,75247,1,0,0:0:0:100:LR_Snare Drum.wav
448,192,75247,1,0,0:0:0:0:
320,192,75323,1,0,0:0:0:0:
192,192,75399,1,2,0:0:0:30:
448,192,75399,1,0,0:0:0:0:
64,192,75475,1,0,0:0:0:0:
448,192,75551,1,6,0:0:0:0:
320,192,75551,1,4,0:0:0:0:
192,192,75551,1,0,0:0:0:0:
64,192,75627,1,0,0:0:0:0:
192,192,75704,1,0,0:0:0:100:LR_Snare Drum.wav
320,192,75704,1,0,0:0:0:0:
448,192,75780,1,0,0:0:0:0:
320,192,75856,1,2,0:0:0:30:
64,192,75856,1,0,0:0:0:0:
192,192,75932,1,0,0:0:0:0:
448,192,76008,1,0,0:0:0:100:LR_Snare Drum.wav
64,192,76008,1,0,0:0:0:0:
320,192,76084,1,0,0:0:0:0:
192,192,76160,1,2,0:0:0:30:
448,192,76160,1,0,0:0:0:0:
64,192,76237,1,0,0:0:0:0:
192,192,76313,1,0,0:0:0:100:LR_Snare Drum.wav
320,192,76313,1,0,0:0:0:0:
448,192,76389,1,0,0:0:0:100:LR_Snare Drum.wav
64,192,76465,1,2,0:0:0:30:
320,192,76465,1,0,0:0:0:0:
192,192,76541,1,0,0:0:0:0:
320,192,76617,1,0,0:0:0:100:LR_Snare Drum.wav
448,192,76617,1,0,0:0:0:0:
192,192,76693,1,0,0:0:0:100:LR_Snare Drum.wav
64,192,76769,1,2,0:0:0:30:
448,192,76769,1,0,0:0:0:0:
192,192,76846,1,0,0:0:0:100:LR_Snare Drum.wav
320,192,76846,1,0,0:0:0:0:
64,192,76922,1,0,0:0:0:100:LR_Snare Drum.wav
448,192,76922,1,0,0:0:0:0:
192,192,76998,1,0,0:0:0:100:LR_Snare Drum.wav
320,192,76998,1,0,0:0:0:0:
448,192,77074,1,0,0:0:0:100:LR_Snare Drum.wav
64,192,77074,1,0,0:0:0:0:
320,192,77150,1,0,0:0:0:100:LR_Snare Drum.wav
192,192,77150,1,0,0:0:0:0:
448,192,77226,1,0,0:0:0:100:LR_Snare Drum.wav
192,192,77302,1,0,0:0:0:100:LR_Snare Drum.wav
64,192,77302,1,0,0:0:0:0:
448,192,77379,1,0,0:0:0:100:LR_Snare Drum.wav
320,192,77379,1,0,0:0:0:0:
64,192,77455,1,0,0:0:0:100:LR_Snare Drum.wav
192,192,77455,1,0,0:0:0:0:
320,192,77531,1,0,0:0:0:100:LR_Snare Drum.wav
448,192,77531,1,0,0:0:0:0:
192,192,77607,1,0,0:0:0:100:LR_Snare Drum.wav
64,192,77607,1,0,0:0:0:0:
448,192,77683,1,0,0:0:0:100:LR_Snare Drum.wav
320,192,77683,1,0,0:0:0:0:
64,192,77759,1,0,0:0:0:100:LR_Snare Drum.wav
192,192,77759,1,0,0:0:0:0:
320,192,77835,1,0,0:0:0:100:LR_Snare Drum.wav
448,192,77835,1,0,0:0:0:0:
64,192,77912,1,0,0:0:0:100:LR_Snare Drum.wav
192,192,77912,1,0,0:0:0:0:
448,192,77988,1,2,0:0:0:70:LR3_BassDrop.wav
320,192,77988,1,0,0:0:0:30:
64,192,77988,1,0,0:0:0:0:
64,192,79206,1,2,0:0:0:0:
192,192,79206,1,0,0:0:0:0:
320,192,79206,1,0,0:0:0:0:
448,192,79206,1,0,0:0:0:0:
64,192,79434,1,8,0:0:0:70:LR3_Snare DCM.wav
192,192,79434,1,0,0:0:0:0:
64,192,79663,1,8,0:0:0:70:LR3_Snare DCM.wav
192,192,79663,1,0,0:0:0:0:
448,192,79815,1,4,0:0:0:0:
64,192,79815,1,2,0:0:0:0:
320,192,79815,1,0,0:0:0:0:
192,192,79891,1,0,0:0:0:0:
320,192,79967,1,0,0:0:0:0:
448,192,80044,1,0,0:0:0:0:
64,192,80120,1,2,0:0:0:70:LR4_Snare DWRS.wav
320,192,80120,1,0,0:0:0:0:
192,192,80120,1,0,0:0:0:0:
64,192,80424,1,6,0:0:0:0:
192,192,80424,1,4,0:0:0:0:
448,192,80424,1,0,0:0:0:0:
320,192,80500,1,0,0:0:0:0:
192,192,80577,1,0,0:0:0:0:
64,192,80577,1,0,0:0:0:0:
320,192,80653,1,0,0:0:0:0:
448,192,80653,1,0,0:0:0:0:
192,192,80729,1,10,0:0:0:0:
64,192,80729,1,8,0:0:0:0:
320,192,80805,1,0,0:0:0:0:
448,192,80881,1,0,0:0:0:0:
64,192,80957,1,0,0:0:0:0:
192,192,81033,1,2,0:0:0:0:
320,192,81033,1,0,0:0:0:0:
448,192,81110,1,0,0:0:0:0:
64,192,81186,1,0,0:0:0:0:
320,192,81186,1,0,0:0:0:0:
192,192,81262,1,0,0:0:0:0:
320,192,81338,1,10,0:0:0:0:
448,192,81338,1,8,0:0:0:0:
64,192,81414,1,0,0:0:0:0:
192,192,81490,1,0,0:0:0:0:
448,192,81490,1,0,0:0:0:0:
320,192,81566,1,0,0:0:0:0:
192,192,81643,1,2,0:0:0:0:
64,192,81643,1,0,0:0:0:0:
320,192,81719,1,0,0:0:0:0:
448,192,81795,1,0,0:0:0:0:
64,192,81795,1,0,0:0:0:0:
192,192,81871,1,0,0:0:0:0:
320,192,81871,1,0,0:0:0:0:
64,192,81947,1,10,0:0:0:0:
448,192,81947,1,8,0:0:0:0:
192,192,82023,1,0,0:0:0:0:
320,192,82099,1,0,0:0:0:0:
448,192,82176,1,0,0:0:0:0:
320,192,82252,1,2,0:0:0:0:
192,192,82252,1,0,0:0:0:0:
64,192,82328,1,0,0:0:0:0:
448,192,82404,1,0,0:0:0:0:
192,192,82404,1,0,0:0:0:0:
320,192,82480,1,0,0:0:0:0:
192,192,82556,1,10,0:0:0:0:
64,192,82556,1,8,0:0:0:0:
448,192,82632,1,0,0:0:0:0:
320,192,82709,1,0,0:0:0:0:
64,192,82709,1,0,0:0:0:0:
192,192,82785,1,0,0:0:0:0:
320,192,82861,1,2,0:0:0:0:
448,192,82861,1,0,0:0:0:0:
192,192,82937,1,0,0:0:0:0:
64,192,83013,1,0,0:0:0:0:
448,192,83013,1,0,0:0:0:0:
320,192,83089,1,0,0:0:0:0:
192,192,83089,1,0,0:0:0:0:
64,192,83165,1,8,0:0:0:0:
448,192,83165,1,2,0:0:0:0:
320,192,83242,1,0,0:0:0:0:
192,192,83318,1,0,0:0:0:0:
64,192,83394,1,0,0:0:0:0:
192,192,83470,1,2,0:0:0:0:
320,192,83470,1,0,0:0:0:0:
448,192,83546,1,0,0:0:0:0:
64,192,83622,1,0,0:0:0:0:
192,192,83622,1,0,0:0:0:0:
320,192,83698,1,0,0:0:0:0:
64,192,83775,1,8,0:0:0:0:
448,192,83775,1,2,0:0:0:0:
192,192,83851,1,0,0:0:0:0:
320,192,83927,1,0,0:0:0:0:
448,192,83927,1,0,0:0:0:0:
192,192,84003,1,0,0:0:0:0:
64,192,84003,1,0,0:0:0:0:
448,192,84079,1,2,0:0:0:0:
320,192,84079,1,0,0:0:0:0:
192,192,84155,1,0,0:0:0:0:
64,192,84231,1,0,0:0:0:0:
320,192,84308,1,0,0:0:0:0:
448,192,84308,1,0,0:0:0:0:
64,192,84384,1,10,0:0:0:0:
192,192,84384,1,8,0:0:0:0:
320,192,84460,1,0,0:0:0:0:
448,192,84536,1,0,0:0:0:0:
192,192,84612,1,0,0:0:0:0:
320,192,84688,1,6,0:0:0:0:
448,192,84688,1,4,0:0:0:0:
64,192,84688,1,0,0:0:0:0:
64,192,84917,1,6,0:0:0:0:
192,192,84917,1,4,0:0:0:0:
320,192,84917,1,0,0:0:0:0:
192,192,85145,1,6,0:0:0:0:
320,192,85145,1,4,0:0:0:0:
448,192,85145,1,0,0:0:0:0:
64,192,85297,1,6,0:0:0:0:
192,192,85297,1,4,0:0:0:0:
320,192,85297,1,0,0:0:0:0:
448,192,85374,1,0,0:0:0:0:
64,192,85450,1,0,0:0:0:0:
192,192,85450,1,0,0:0:0:0:
320,192,85526,1,0,0:0:0:0:
448,192,85526,1,0,0:0:0:0:
192,192,85602,1,8,0:0:0:0:
64,192,85602,1,2,0:0:0:0:
448,192,85678,1,0,0:0:0:0:
320,192,85754,1,0,0:0:0:0:
192,192,85830,1,0,0:0:0:0:
64,192,85907,1,2,0:0:0:0:
448,192,85907,1,0,0:0:0:0:
320,192,85983,1,0,0:0:0:0:
192,192,86059,1,0,0:0:0:0:
448,192,86059,1,0,0:0:0:0:
64,192,86135,1,0,0:0:0:0:
192,192,86211,1,8,0:0:0:0:
320,192,86211,1,2,0:0:0:0:
448,192,86287,1,0,0:0:0:0:
64,192,86363,1,0,0:0:0:0:
192,192,86363,1,0,0:0:0:0:
320,192,86440,1,0,0:0:0:0:
448,192,86516,1,2,0:0:0:0:
64,192,86516,1,0,0:0:0:0:
192,192,86592,1,0,0:0:0:0:
448,192,86668,1,0,0:0:0:0:
320,192,86668,1,0,0:0:0:0:
192,192,86744,1,0,0:0:0:0:
64,192,86744,1,0,0:0:0:0:
448,192,86820,1,10,0:0:0:0:
320,192,86820,1,8,0:0:0:0:
192,192,86896,1,0,0:0:0:0:
64,192,86973,1,0,0:0:0:0:
448,192,87049,1,0,0:0:0:0:
64,192,87125,1,2,0:0:0:0:
192,192,87125,1,0,0:0:0:0:
320,192,87201,1,0,0:0:0:0:
192,192,87277,1,0,0:0:0:0:
448,192,87277,1,0,0:0:0:0:
64,192,87353,1,2,0:0:0:0:
320,192,87429,1,10,0:0:0:0:
448,192,87429,1,8,0:0:0:0:
320,192,87582,1,2,0:0:0:0:
192,192,87582,1,0,0:0:0:0:
448,192,87734,1,2,0:0:0:0:
64,192,87734,1,0,0:0:0:0:
320,192,87810,1,0,0:0:0:0:
192,192,87886,1,0,0:0:0:0:
64,192,87886,1,0,0:0:0:0:
448,192,87962,1,0,0:0:0:0:
320,192,88039,1,8,0:0:0:0:
192,192,88039,1,2,0:0:0:0:
64,192,88115,1,0,0:0:0:0:
448,192,88191,1,0,0:0:0:0:
192,192,88191,1,0,0:0:0:0:
320,192,88267,1,0,0:0:0:0:
448,192,88343,1,2,0:0:0:0:
64,192,88343,1,0,0:0:0:0:
192,192,88419,1,0,0:0:0:0:
320,192,88495,1,0,0:0:0:0:
64,192,88495,1,0,0:0:0:0:
448,192,88572,1,0,0:0:0:0:
192,192,88648,1,8,0:0:0:0:
320,192,88648,1,2,0:0:0:0:
64,192,88724,1,0,0:0:0:0:
448,192,88800,1,0,0:0:0:0:
192,192,88800,1,0,0:0:0:0:
320,192,88876,1,0,0:0:0:0:
64,192,88952,1,6,0:0:0:0:
448,192,88952,1,4,0:0:0:0:
192,192,88952,1,0,0:0:0:0:
64,192,89105,1,6,0:0:0:0:
192,192,89105,1,4,0:0:0:0:
320,192,89105,1,0,0:0:0:0:
192,192,89257,1,4,0:0:0:0:
320,192,89257,1,2,0:0:0:0:
448,192,89257,1,0,0:0:0:0:
64,192,89333,1,0,0:0:0:0:
448,192,89409,1,0,0:0:0:0:
192,192,89485,1,0,0:0:0:0:
320,192,89561,1,2,0:0:0:0:
64,192,89561,1,0,0:0:0:0:
448,192,89638,1,0,0:0:0:0:
320,192,89714,1,0,0:0:0:0:
192,192,89866,1,0,0:0:0:0:
448,192,90018,1,0,0:0:0:0:
192,192,90171,1,6,0:0:0:0:
64,192,90171,1,4,0:0:0:0:
320,192,90247,1,0,0:0:0:0:
448,192,90323,1,0,0:0:0:0:
64,192,90399,1,0,0:0:0:0:
192,192,90475,1,8,0:0:0:0:
320,192,90475,1,2,0:0:0:0:
64,192,90551,1,0,0:0:0:0:
448,192,90627,1,0,0:0:0:0:
64,192,90704,1,0,0:0:0:0:
192,192,90780,1,2,0:0:0:0:
320,192,90780,1,0,0:0:0:0:
448,192,90856,1,0,0:0:0:0:
192,192,90932,1,0,0:0:0:0:
64,192,90932,1,0,0:0:0:0:
320,192,91008,1,0,0:0:0:0:
192,192,91084,1,8,0:0:0:0:
448,192,91084,1,2,0:0:0:0:
64,192,91160,1,0,0:0:0:0:
320,192,91237,1,0,0:0:0:0:
448,192,91237,1,0,0:0:0:0:
192,192,91313,1,0,0:0:0:0:
64,192,91389,1,2,0:0:0:0:
320,192,91389,1,0,0:0:0:0:
448,192,91465,1,0,0:0:0:0:
192,192,91541,1,0,0:0:0:0:
64,192,91541,1,0,0:0:0:0:
320,192,91617,1,0,0:0:0:0:
448,192,91693,1,10,0:0:0:0:
64,192,91693,1,8,0:0:0:0:
192,192,91769,1,0,0:0:0:0:
320,192,91846,1,0,0:0:0:0:
448,192,91922,1,0,0:0:0:0:
192,192,91998,1,2,0:0:0:0:
320,192,91998,1,0,0:0:0:0:
64,192,92074,1,0,0:0:0:0:
448,192,92150,1,0,0:0:0:0:
192,192,92150,1,0,0:0:0:0:
320,192,92226,1,0,0:0:0:0:
192,192,92302,1,10,0:0:0:0:
64,192,92302,1,8,0:0:0:0:
320,192,92379,1,0,0:0:0:0:
64,192,92455,1,0,0:0:0:0:
448,192,92455,1,0,0:0:0:0:
192,192,92531,1,0,0:0:0:0:
320,192,92607,1,2,0:0:0:0:
448,192,92607,1,0,0:0:0:0:
64,192,92683,1,0,0:0:0:0:
192,192,92759,1,0,0:0:0:0:
320,192,92759,1,0,0:0:0:0:
448,192,92835,1,0,0:0:0:0:
64,192,92912,1,8,0:0:0:0:
320,192,92912,1,2,0:0:0:0:
448,192,92988,1,0,0:0:0:0:
64,192,93064,1,0,0:0:0:0:
192,192,93064,1,0,0:0:0:0:
320,192,93140,1,0,0:0:0:0:
192,192,93216,1,2,0:0:0:0:
448,192,93216,1,0,0:0:0:0:
64,192,93292,1,0,0:0:0:0:
320,192,93368,1,0,0:0:0:0:
448,192,93368,1,0,0:0:0:0:
192,192,93445,1,0,0:0:0:0:
320,192,93521,1,8,0:0:0:0:
64,192,93521,1,2,0:0:0:0:
448,192,93597,1,0,0:0:0:0:
320,192,93673,1,0,0:0:0:0:
192,192,93673,1,0,0:0:0:0:
64,192,93749,1,0,0:0:0:0:
192,192,93825,1,2,0:0:0:0:
448,192,93825,1,0,0:0:0:0:
320,192,93901,1,0,0:0:0:0:
64,192,93978,1,0,0:0:0:0:
448,192,93978,1,0,0:0:0:0:
320,192,94054,1,0,0:0:0:0:
192,192,94054,1,0,0:0:0:0:
64,192,94130,1,10,0:0:0:0:
448,192,94130,1,8,0:0:0:0:
320,192,94206,1,0,0:0:0:0:
64,192,94282,1,0,0:0:0:0:
192,192,94282,1,0,0:0:0:0:
448,192,94358,1,0,0:0:0:0:
192,192,94434,1,2,0:0:0:70:LR3_Snare DCM.wav
320,192,94434,1,0,0:0:0:0:
64,192,94587,1,6,0:0:0:0:
320,192,94587,1,4,0:0:0:0:
192,192,94587,1,0,0:0:0:0:
320,192,94739,1,6,0:0:0:0:
448,192,94739,1,4,0:0:0:0:
64,192,94739,1,0,0:0:0:0:
192,192,94891,1,6,0:0:0:0:
448,192,94891,1,4,0:0:0:0:
64,192,94891,1,0,0:0:0:0:
320,192,95044,1,6,0:0:0:0:
448,192,95044,1,4,0:0:0:0:
64,192,95120,1,0,0:0:0:0:
192,192,95120,1,0,0:0:0:0:
320,192,95196,1,0,0:0:0:0:
192,192,95272,1,0,0:0:0:0:
448,192,95272,1,0,0:0:0:0:
320,192,95348,1,8,0:0:0:0:
64,192,95348,1,2,0:0:0:0:
448,192,95424,1,0,0:0:0:0:
192,192,95500,1,0,0:0:0:0:
64,192,95577,1,0,0:0:0:0:
320,192,95577,1,0,0:0:0:0:
448,192,95653,1,2,0:0:0:0:
192,192,95653,1,0,0:0:0:0:
320,192,95729,1,0,0:0:0:0:
64,192,95805,1,0,0:0:0:0:
192,192,95805,1,0,0:0:0:0:
448,192,95881,1,0,0:0:0:0:
320,192,95881,1,0,0:0:0:0:
192,192,95957,1,8,0:0:0:0:
64,192,95957,1,2,0:0:0:0:
448,192,96033,1,0,0:0:0:0:
320,192,96110,1,0,0:0:0:0:
192,192,96186,1,0,0:0:0:0:
448,192,96262,1,2,0:0:0:0:
320,192,96262,1,0,0:0:0:0:
192,192,96338,1,0,0:0:0:0:
64,192,96338,1,0,0:0:0:0:
448,192,96414,1,0,0:0:0:0:
192,192,96490,1,0,0:0:0:0:
320,192,96490,1,0,0:0:0:0:
64,192,96566,1,10,0:0:0:0:
448,192,96566,1,8,0:0:0:0:
320,192,96643,1,0,0:0:0:0:
192,192,96719,1,0,0:0:0:0:
64,192,96795,1,0,0:0:0:0:
448,192,96871,1,2,0:0:0:0:
192,192,96871,1,0,0:0:0:0:
64,192,96947,1,0,0:0:0:0:
320,192,97023,1,0,0:0:0:0:
448,192,97023,1,0,0:0:0:0:
192,192,97099,1,2,0:0:0:0:
64,192,97099,1,0,0:0:0:0:
320,192,97176,1,10,0:0:0:0:
448,192,97176,1,8,0:0:0:0:
192,192,97252,1,0,0:0:0:0:
320,192,97328,1,2,0:0:0:0:
64,192,97328,1,0,0:0:0:0:
448,192,97404,1,0,0:0:0:0:
64,192,97480,5,2,0:0:0:0:
192,192,97480,1,0,0:0:0:0:
320,192,97556,1,0,0:0:0:100:LR_Snare Drum.wav
448,192,97632,1,0,0:0:0:100:LR_Snare Drum.wav
192,192,97632,1,0,0:0:0:0:
64,192,97709,1,0,0:0:0:100:LR_Snare Drum.wav
320,192,97785,1,8,0:0:0:0:
448,192,97785,1,2,0:0:0:0:
64,192,97861,1,0,0:0:0:100:LR_Snare Drum.wav
192,192,97937,1,0,0:0:0:100:LR_Snare Drum.wav
320,192,97937,1,0,0:0:0:0:
448,192,98013,1,0,0:0:0:100:LR_Snare Drum.wav
192,192,98089,1,2,0:0:0:0:
64,192,98089,1,0,0:0:0:0:
320,192,98165,1,0,0:0:0:100:LR_Snare Drum.wav
448,192,98242,1,0,0:0:0:100:LR_Snare Drum.wav
64,192,98242,1,0,0:0:0:0:
192,192,98318,1,0,0:0:0:100:LR_Snare Drum.wav
448,192,98394,1,8,0:0:0:0:
320,192,98394,1,2,0:0:0:0:
64,192,98470,1,0,0:0:0:100:LR_Snare Drum.wav
192,192,98546,1,0,0:0:0:100:LR_Snare Drum.wav
320,192,98546,1,0,0:0:0:0:
448,192,98622,1,0,0:0:0:100:LR_Snare Drum.wav
64,192,98698,1,6,0:0:0:0:
192,192,98698,1,4,0:0:0:0:
448,192,98775,1,0,0:0:0:100:LR_Snare Drum.wav
320,192,98775,1,0,0:0:0:0:
64,192,98851,1,6,0:0:0:0:
192,192,98851,1,4,0:0:0:0:
320,192,98927,1,0,0:0:0:100:LR_Snare Drum.wav
448,192,98927,1,0,0:0:0:0:
192,192,99003,1,6,0:0:0:0:
64,192,99003,1,4,0:0:0:0:
320,192,99079,1,0,0:0:0:100:LR_Snare Drum.wav
448,192,99079,1,0,0:0:0:0:
192,192,99155,1,0,0:0:0:100:LR_Snare Drum.wav
64,192,99155,1,0,0:0:0:0:
320,192,99231,1,0,0:0:0:100:LR_Snare Drum.wav
448,192,99231,1,0,0:0:0:0:
192,192,99308,1,2,0:0:0:0:
64,192,99308,1,0,0:0:0:0:
320,192,99384,1,0,0:0:0:0:
192,192,99460,1,0,0:0:0:0:
320,192,99536,1,0,0:0:0:0:
448,192,99612,1,2,0:0:0:70:LR4_Snare DWRS.wav
64,192,99612,1,0,0:0:0:0:
192,192,99612,1,0,0:0:0:0:
64,192,99917,1,6,0:0:0:0:
320,192,99917,1,4,0:0:0:0:
448,192,99917,1,0,0:0:0:0:
192,192,99993,1,0,0:0:0:0:
448,192,100069,1,0,0:0:0:0:
320,192,100145,1,0,0:0:0:0:
64,192,100221,1,8,0:0:0:0:
192,192,100221,1,2,0:0:0:0:
448,192,100221,1,0,0:0:0:0:
320,192,100297,1,0,0:0:0:0:
192,192,100374,1,0,0:0:0:0:
64,192,100450,1,0,0:0:0:0:
192,192,100526,1,2,0:0:0:0:
320,192,100526,1,0,0:0:0:0:
448,192,100602,1,0,0:0:0:0:
64,192,100678,1,0,0:0:0:0:
192,192,100754,1,0,0:0:0:0:
320,192,100830,1,8,0:0:0:0:
448,192,100830,1,2,0:0:0:0:
64,192,100830,1,0,0:0:0:0:
192,192,100907,1,0,0:0:0:0:
448,192,100983,1,0,0:0:0:0:
64,192,101059,1,0,0:0:0:0:
192,192,101135,1,2,0:0:0:0:
320,192,101135,1,0,0:0:0:0:
448,192,101211,1,0,0:0:0:0:
192,192,101287,1,0,0:0:0:0:
320,192,101363,1,0,0:0:0:0:
448,192,101440,1,8,0:0:0:0:
64,192,101440,1,2,0:0:0:0:
192,192,101440,1,0,0:0:0:0:
320,192,101516,1,0,0:0:0:0:
192,192,101592,1,0,0:0:0:0:
64,192,101668,1,0,0:0:0:0:
448,192,101744,1,2,0:0:0:0:
320,192,101744,1,0,0:0:0:0:
64,192,101820,1,0,0:0:0:0:
192,192,101896,1,0,0:0:0:0:
320,192,101973,1,0,0:0:0:0:
64,192,102049,1,8,0:0:0:0:
192,192,102049,1,2,0:0:0:0:
448,192,102049,1,0,0:0:0:0:
320,192,102125,1,0,0:0:0:0:
192,192,102201,1,0,0:0:0:0:
64,192,102277,1,0,0:0:0:0:
448,192,102353,1,2,0:0:0:0:
320,192,102353,1,0,0:0:0:0:
192,192,102429,1,0,0:0:0:0:
64,192,102506,1,0,0:0:0:0:
448,192,102582,1,0,0:0:0:0:
320,192,102658,1,10,0:0:0:0:
192,192,102658,1,8,0:0:0:0:
64,192,102658,1,0,0:0:0:0:
448,192,102734,1,0,0:0:0:0:
320,192,102810,1,0,0:0:0:0:
64,192,102886,1,0,0:0:0:0:
192,192,102962,1,2,0:0:0:0:
320,192,102962,1,0,0:0:0:0:
448,192,103039,1,0,0:0:0:0:
64,192,103115,1,0,0:0:0:0:
192,192,103191,1,0,0:0:0:0:
320,192,103267,1,10,0:0:0:0:
448,192,103267,1,8,0:0:0:0:
64,192,103267,1,0,0:0:0:0:
192,192,103343,1,0,0:0:0:0:
320,192,103419,1,0,0:0:0:0:
448,192,103495,1,0,0:0:0:0:
320,192,103572,1,2,0:0:0:0:
192,192,103572,1,0,0:0:0:0:
64,192,103648,1,0,0:0:0:0:
448,192,103724,1,0,0:0:0:0:
320,192,103800,1,0,0:0:0:0:
192,192,103876,1,8,0:0:0:0:
64,192,103876,1,2,0:0:0:0:
448,192,103876,1,0,0:0:0:0:
320,192,103952,1,0,0:0:0:0:
192,192,104028,1,0,0:0:0:0:
64,192,104105,1,0,0:0:0:0:
448,192,104181,1,4,0:0:0:0:
320,192,104181,1,2,0:0:0:0:
192,192,104181,1,0,0:0:0:0:
192,192,104409,1,6,0:0:0:0:
320,192,104409,1,4,0:0:0:0:
64,192,104409,1,0,0:0:0:0:
320,192,104638,1,6,0:0:0:0:
192,192,104638,1,4,0:0:0:0:
448,192,104638,1,0,0:0:0:0:
192,192,105094,1,10,0:0:0:0:
448,192,105094,1,4,0:0:0:0:
64,192,105094,1,0,0:0:0:0:
320,192,105171,1,0,0:0:0:0:
192,192,105247,1,0,0:0:0:0:
64,192,105323,1,0,0:0:0:0:
320,192,105399,1,2,0:0:0:0:
448,192,105399,1,0,0:0:0:0:
64,192,105475,1,0,0:0:0:0:
192,192,105551,1,0,0:0:0:0:
320,192,105627,1,0,0:0:0:0:
192,192,105704,1,10,0:0:0:0:
448,192,105704,1,8,0:0:0:0:
64,192,105704,1,0,0:0:0:0:
320,192,105780,1,0,0:0:0:0:
448,192,105856,1,0,0:0:0:0:
64,192,105932,1,0,0:0:0:0:
320,192,106008,1,2,0:0:0:0:
192,192,106008,1,0,0:0:0:0:
448,192,106084,1,0,0:0:0:0:
64,192,106160,1,0,0:0:0:0:
192,192,106237,1,0,0:0:0:0:
64,192,106313,1,8,0:0:0:0:
320,192,106313,1,2,0:0:0:0:
448,192,106313,1,0,0:0:0:0:
192,192,106389,1,0,0:0:0:0:
448,192,106465,1,0,0:0:0:0:
320,192,106541,1,0,0:0:0:0:
192,192,106617,1,2,0:0:0:0:
64,192,106617,1,0,0:0:0:0:
448,192,106693,1,0,0:0:0:0:
64,192,106769,1,0,0:0:0:0:
192,192,106769,1,0,0:0:0:0:
320,192,106846,1,2,0:0:0:0:
448,192,106846,1,0,0:0:0:0:
64,192,106922,1,8,0:0:0:0:
192,192,106922,1,2,0:0:0:0:
320,192,107074,1,2,0:0:0:0:
448,192,107074,1,0,0:0:0:0:
64,192,107226,1,2,0:0:0:0:
192,192,107226,1,0,0:0:0:0:
320,192,107302,1,0,0:0:0:0:
448,192,107379,1,0,0:0:0:0:
192,192,107455,1,0,0:0:0:0:
320,192,107531,1,10,0:0:0:0:
448,192,107531,1,8,0:0:0:0:
64,192,107531,1,0,0:0:0:0:
192,192,107607,1,0,0:0:0:0:
320,192,107683,1,0,0:0:0:0:
448,192,107759,1,0,0:0:0:0:
192,192,107835,1,2,0:0:0:0:
64,192,107835,1,0,0:0:0:0:
320,192,107912,1,0,0:0:0:0:
448,192,107988,1,0,0:0:0:0:
192,192,108064,1,0,0:0:0:0:
320,192,108140,1,10,0:0:0:0:
448,192,108140,1,8,0:0:0:0:
64,192,108140,1,0,0:0:0:0:
192,192,108216,1,0,0:0:0:0:
320,192,108292,1,0,0:0:0:0:
64,192,108368,1,0,0:0:0:0:
192,192,108445,1,6,0:0:0:0:
320,192,108445,1,4,0:0:0:0:
448,192,108445,1,0,0:0:0:0:
64,192,108597,1,6,0:0:0:0:
192,192,108597,1,4,0:0:0:0:
448,192,108597,1,0,0:0:0:0:
64,192,108749,1,4,0:0:0:0:
320,192,108749,1,2,0:0:0:0:
448,192,108749,1,0,0:0:0:0:
192,192,108825,1,0,0:0:0:0:
320,192,108901,1,0,0:0:0:0:
448,192,108978,1,0,0:0:0:0:
192,192,109054,1,2,0:0:0:0:
64,192,109054,1,0,0:0:0:0:
320,192,109130,1,0,0:0:0:0:
448,192,109206,1,0,0:0:0:0:
64,192,109206,1,0,0:0:0:0:
192,192,109282,1,0,0:0:0:0:
448,192,109358,1,0,0:0:0:0:
320,192,109358,1,0,0:0:0:0:
64,192,109434,1,0,0:0:0:0:
192,192,109511,1,0,0:0:0:0:
448,192,109511,1,0,0:0:0:0:
320,192,109587,1,0,0:0:0:0:
64,192,109663,1,6,0:0:0:0:
192,192,109663,1,4,0:0:0:0:
64,192,109967,1,14,0:0:0:0:
192,192,109967,1,8,0:0:0:0:
320,192,109967,1,0,0:0:0:0:
64,192,110196,1,6,0:0:0:0:
192,192,110196,1,4,0:0:0:0:
448,192,110196,1,0,0:0:0:0:
320,192,110424,1,14,0:0:0:0:
192,192,110424,1,8,0:0:0:0:
64,192,110424,1,0,0:0:0:0:
448,192,110577,1,6,0:0:0:0:
320,192,110577,1,4,0:0:0:0:
192,192,110577,1,0,0:0:0:0:
448,192,110729,1,14,0:0:0:0:
192,192,110729,1,8,0:0:0:0:
64,192,110729,1,0,0:0:0:0:
320,192,110881,1,2,0:0:0:0:
448,192,110881,1,0,0:0:0:0:
64,192,110881,1,0,0:0:0:0:
320,192,111033,1,6,0:0:0:0:
192,192,111033,1,4,0:0:0:0:
64,192,111033,1,0,0:0:0:0:
448,192,111186,1,12,0:0:0:0:
192,192,111186,1,2,0:0:0:0:
320,192,111186,1,0,0:0:0:0:
64,192,111338,1,2,0:0:0:0:
192,192,111376,1,2,0:0:0:0:
448,192,111414,1,2,0:0:0:0:
320,192,111452,1,2,0:0:0:0:
192,192,111490,1,6,0:0:0:0:
64,192,111490,1,4,0:0:0:0:
448,192,111490,1,0,0:0:0:0:
320,192,111719,1,14,0:0:0:0:
192,192,111719,1,8,0:0:0:0:
64,192,111719,1,0,0:0:0:0:
320,192,111947,1,14,0:0:0:0:
448,192,111947,1,8,0:0:0:0:
192,192,111947,1,0,0:0:0:0:
448,192,112099,1,6,0:0:0:0:
64,192,112099,1,4,0:0:0:0:
320,192,112176,1,0,0:0:0:0:
192,192,112252,1,0,0:0:0:0:
64,192,112252,1,0,0:0:0:0:
448,192,112328,1,0,0:0:0:0:
192,192,112404,1,14,0:0:0:0:
64,192,112404,1,8,0:0:0:0:
448,192,112632,1,6,0:0:0:0:
320,192,112632,1,4,0:0:0:0:
64,192,112632,1,0,0:0:0:0:
320,192,112861,1,12,0:0:0:0:
448,192,112861,1,2,0:0:0:0:
64,192,112861,1,0,0:0:0:0:
320,192,113013,1,6,0:0:0:0:
192,192,113013,1,4,0:0:0:0:
448,192,113165,1,14,0:0:0:0:
192,192,113165,1,8,0:0:0:0:
64,192,113165,1,0,0:0:0:0:
448,192,113318,1,2,0:0:0:0:
64,192,113318,1,0,0:0:0:0:
320,192,113318,1,0,0:0:0:0:
64,192,113470,1,14,0:0:0:0:
192,192,113470,1,8,0:0:0:0:
320,192,113470,1,0,0:0:0:0:
448,192,113622,1,12,0:0:0:0:
320,192,113622,1,2,0:0:0:0:
192,192,113622,1,0,0:0:0:0:
448,192,113775,1,2,0:0:0:0:
320,192,113813,1,2,0:0:0:0:
64,192,113851,1,2,0:0:0:0:
192,192,113889,1,2,0:0:0:0:
448,192,113927,1,6,0:0:0:0:
320,192,113927,1,4,0:0:0:0:
320,192,114003,1,2,0:0:0:0:
448,192,114003,1,0,0:0:0:0:
64,192,114079,1,2,0:0:0:0:
192,192,114079,1,0,0:0:0:0:
64,192,114155,1,2,0:0:0:0:
192,192,114155,1,0,0:0:0:0:
448,192,114231,1,6,0:0:0:0:
320,192,114231,1,4,0:0:0:0:
448,192,114308,1,2,0:0:0:0:
320,192,114308,1,0,0:0:0:0:
64,192,114384,1,2,0:0:0:0:
192,192,114384,1,0,0:0:0:0:
64,192,114460,1,2,0:0:0:0:
192,192,114460,1,0,0:0:0:0:
448,192,114536,1,4,0:0:0:0:
320,192,114536,1,2,0:0:0:0:
64,192,114612,1,0,0:0:0:0:
192,192,114688,1,0,0:0:0:0:
320,192,114764,1,0,0:0:0:0:
448,192,114841,1,10,0:0:0:0:
192,192,114841,1,8,0:0:0:0:
64,192,114917,1,0,0:0:0:0:
320,192,114993,1,0,0:0:0:0:
448,192,115069,1,0,0:0:0:0:
320,192,115145,1,2,0:0:0:0:
192,192,115145,1,0,0:0:0:0:
64,192,115221,1,0,0:0:0:0:
192,192,115297,1,0,0:0:0:0:
320,192,115374,1,0,0:0:0:0:
192,192,115450,1,10,0:0:0:0:
64,192,115450,1,8,0:0:0:0:
320,192,115526,1,0,0:0:0:0:
448,192,115602,1,0,0:0:0:0:
64,192,115602,1,0,0:0:0:0:
192,192,115678,1,0,0:0:0:0:
448,192,115754,1,6,0:0:0:0:
320,192,115754,1,4,0:0:0:0:
64,192,115754,1,0,0:0:0:0:
192,192,115830,1,0,0:0:0:0:
448,192,115907,1,0,0:0:0:0:
320,192,115983,1,0,0:0:0:0:
64,192,116059,1,10,0:0:0:0:
192,192,116059,1,8,0:0:0:0:
448,192,116135,1,0,0:0:0:0:
320,192,116211,1,0,0:0:0:0:
64,192,116287,1,0,0:0:0:0:
448,192,116363,1,2,0:0:0:0:
192,192,116363,1,0,0:0:0:0:
320,192,116440,1,0,0:0:0:0:
448,192,116516,1,0,0:0:0:0:
192,192,116592,1,2,0:0:0:0:
64,192,116592,1,0,0:0:0:0:
320,192,116668,1,10,0:0:0:0:
448,192,116668,1,8,0:0:0:0:
320,192,116820,1,2,0:0:0:0:
64,192,116820,1,0,0:0:0:0:
192,192,116820,1,0,0:0:0:0:
64,192,116973,1,6,0:0:0:0:
448,192,116973,1,4,0:0:0:0:
320,192,116973,1,0,0:0:0:0:
192,192,117049,1,0,0:0:0:0:
320,192,117125,1,0,0:0:0:0:
448,192,117125,1,0,0:0:0:0:
64,192,117201,1,0,0:0:0:0:
192,192,117277,1,10,0:0:0:0:
448,192,117277,1,8,0:0:0:0:
320,192,117353,1,0,0:0:0:0:
64,192,117429,1,0,0:0:0:0:
192,192,117429,1,0,0:0:0:0:
320,192,117506,1,0,0:0:0:0:
448,192,117582,1,10,0:0:0:0:
64,192,117582,1,8,0:0:0:0:
192,192,117658,1,0,0:0:0:0:
320,192,117734,1,0,0:0:0:0:
448,192,117734,1,0,0:0:0:0:
64,192,117810,1,0,0:0:0:0:
448,192,117886,1,10,0:0:0:0:
192,192,117886,1,8,0:0:0:0:
320,192,117962,1,0,0:0:0:0:
192,192,118039,1,0,0:0:0:0:
64,192,118039,1,0,0:0:0:0:
320,192,118115,1,0,0:0:0:0:
64,192,118191,1,10,0:0:0:0:
448,192,118191,1,8,0:0:0:0:
320,192,118267,1,0,0:0:0:0:
192,192,118267,1,0,0:0:0:0:
448,192,118343,1,10,0:0:0:0:
64,192,118343,1,8,0:0:0:0:
320,192,118419,1,0,0:0:0:0:
192,192,118419,1,0,0:0:0:0:
448,192,118495,1,10,0:0:0:0:
64,192,118495,1,8,0:0:0:0:
320,192,118572,1,0,0:0:0:0:
192,192,118572,1,0,0:0:0:0:
448,192,118648,1,0,0:0:0:0:
64,192,118648,1,0,0:0:0:0:
320,192,118724,1,0,0:0:0:0:
64,192,118800,1,2,0:0:0:0:
192,192,118800,1,0,0:0:0:0:
320,192,118876,1,0,0:0:0:0:
448,192,118876,1,0,0:0:0:0:
64,192,118952,1,0,0:0:0:0:
192,192,118952,1,0,0:0:0:0:
320,192,119028,1,0,0:0:0:0:
448,192,119028,1,0,0:0:0:0:
448,192,119105,1,2,0:0:0:70:LR4_Snare DWRS.wav
192,192,119105,1,0,0:0:0:0:
64,192,119105,1,0,0:0:0:0:
448,192,119409,1,6,0:0:0:0:
320,192,119409,1,4,0:0:0:0:
192,192,119409,1,0,0:0:0:0:
64,192,119409,1,0,0:0:0:0:
