osu file format v14

[General]
AudioFilename: audio.mp3
AudioLeadIn: 0
PreviewTime:80566
Countdown: 0
SampleSet: Soft
StackLeniency: 0.7
Mode: 0
LetterboxInBreaks: 0
WidescreenStoryboard: 0

[Editor]
DistanceSpacing: 0.9
BeatDivisor: 8
GridSize: 16
TimelineZoom: 2.5

[Metadata]
Title:Re_Construct
TitleUnicode:Re_Construct
Artist:Zekk
ArtistUnicode:Zekk
Creator:Acylica
Version:captin's Extra(#4)
Source:OverRapid
Tags:pdc pending cup 2020 pdc2020 mapping contest Dynamix acyl niva ancul reconstruct re construct pino -[Pino]- yf_bmp captin1 down electronic instrumental re:construct j core j-core hard renaissance jcore fa featured artist
BeatmapID:3136135
BeatmapSetID:1318329

[Difficulty]
HPDrainRate:5
CircleSize:4.2
OverallDifficulty:9
ApproachRate:9.6
SliderMultiplier:1.76
SliderTickRate:1

[Events]
//Background and Video events
0,0,"651d148d-6ea9-4795-80e1-b010ef205b69.png",0,0
//Break Periods
2,63726,69550
//Storyboard Layer 0 (Background)
//Storyboard Layer 1 (Fail)
//Storyboard Layer 2 (Pass)
//Storyboard Layer 3 (Foreground)
//Storyboard Layer 4 (Overlay)
//Storyboard Sound Samples

[TimingPoints]
1379,304.568527918782,4,2,31,70,1,0
1379,-66.6666666666667,4,2,31,70,0,0
1988,-100,4,2,31,60,0,0
2292,-100,4,2,31,70,0,0
2444,-100,4,2,31,80,0,0
7470,-100,4,2,32,60,0,0
8688,-100,4,2,32,60,0,0
9906,-100,4,2,32,60,0,0
11125,-100,4,2,32,60,0,0
12038,-57.1428571428571,4,2,31,70,0,0
12343,-100,4,2,31,70,0,0
20871,-100,4,2,32,70,0,0
21175,-66.6666666666667,4,2,32,70,0,0
21480,-66.6666666666667,4,2,31,70,0,0
22089,-80,4,2,31,80,0,0
26353,-66.6666666666667,4,2,32,70,0,0
26658,-50,4,2,32,70,0,0
26962,-40,4,2,31,90,0,1
27648,-40,4,2,31,80,0,0
27876,-66.6666666666667,4,2,32,80,0,0
28181,-40,4,2,31,90,0,1
28866,-40,4,2,31,80,0,0
29094,-66.6666666666667,4,2,32,80,0,0
29399,-40,4,2,31,100,0,1
30313,-66.6666666666667,4,2,32,80,0,0
30769,-133.333333333333,4,2,32,70,0,0
33510,-133.333333333333,4,2,31,60,0,0
33663,-133.333333333333,4,2,31,70,0,0
33815,-133.333333333333,4,2,31,60,0,0
33967,-133.333333333333,4,2,31,70,0,0
35947,-133.333333333333,4,2,31,60,0,0
36099,-133.333333333333,4,2,31,70,0,0
36252,-133.333333333333,4,2,31,60,0,0
36404,-133.333333333333,4,2,31,70,0,0
38612,-100,4,2,31,70,0,0
39297,-133.333333333333,4,2,31,60,0,0
39373,-133.333333333333,4,2,32,60,0,0
40363,-133.333333333333,4,2,32,70,0,0
41125,-133.333333333333,4,2,31,70,0,0
41277,-66.6666666666667,4,2,31,70,0,0
41505,-66.6666666666667,4,2,31,5,0,0
41582,-80,4,2,31,80,0,0
50719,-100,4,2,31,70,0,0
51023,-133.333333333333,4,2,31,60,0,0
51328,-80,4,2,31,80,0,0
60465,-80,4,2,31,70,0,0
60566,-100,4,2,31,70,0,0
60871,-133.333333333333,4,2,31,70,0,0
63510,-133.333333333333,4,2,31,5,0,0
70059,-133.333333333333,4,2,31,60,0,0
70363,-133.333333333333,4,2,31,70,0,0
70820,-100,4,2,31,60,0,0
75693,-100,4,2,31,50,0,0
76302,-100,4,2,31,60,0,0
76455,-80,4,2,31,60,0,0
76911,-80,4,2,31,70,0,0
77064,-66.6666666666667,4,2,31,70,0,0
77521,-66.6666666666667,4,2,31,80,0,0
77673,-57.1428571428571,4,2,31,80,0,0
78168,-57.1428571428571,4,2,31,20,0,0
78739,-57.1428571428571,4,2,31,30,0,0
78891,-57.1428571428571,4,2,31,40,0,0
79043,-57.1428571428571,4,2,31,50,0,0
79195,-57.1428571428571,4,2,31,60,0,0
79348,-100,4,2,31,70,0,0
80566,-66.6666666666667,4,2,31,100,0,1
89094,-66.6666666666667,4,2,31,80,0,1
89703,-100,4,2,31,60,0,0
90313,-66.6666666666667,4,2,31,90,0,1
93967,-66.6666666666667,4,2,31,100,0,1
95186,-66.6666666666667,4,2,31,80,0,1
96404,-66.6666666666667,4,2,31,90,0,1
97622,-66.6666666666667,4,2,31,100,0,1
98840,-66.6666666666667,4,2,31,90,0,1
99450,-66.6666666666667,4,2,31,80,0,1
100059,-80,4,2,31,70,0,0
104932,-133.333333333333,4,2,31,60,0,0
105160,-133.333333333333,4,2,31,5,0,0
105236,-80,4,2,31,60,0,0
109576,-80,4,2,31,70,0,0
109653,-80,4,2,31,80,0,0
109729,-80,4,2,31,90,0,0
109805,-40,4,2,31,90,0,1
110033,-40,4,2,0,90,0,1
110109,-40,4,2,31,90,0,1
110261,-40,4,2,0,90,0,1
110338,-40,4,2,31,90,0,1
110490,-40,4,2,0,90,0,1
110566,-50,4,2,31,80,0,1
110642,-50,4,2,0,80,0,1
110719,-50,4,2,31,80,0,1
110795,-50,4,2,0,80,0,1
110871,-50,4,2,31,80,0,1
110947,-50,4,2,0,80,0,1
111023,-50,4,2,31,80,0,1
111175,-50,4,2,31,90,0,1
111251,-50,4,2,0,90,0,1
111328,-50,4,2,31,90,0,1
111404,-50,4,2,0,90,0,1
111480,-50,4,2,31,90,0,1
111556,-50,4,2,0,90,0,1
111632,-66.6666666666667,4,2,32,80,0,1
111784,-66.6666666666667,4,2,0,80,0,1
111861,-66.6666666666667,4,2,32,80,0,1
112013,-66.6666666666667,4,2,0,80,0,1
112165,-66.6666666666667,4,2,32,80,0,1
112241,-66.6666666666667,4,2,31,80,0,0
114678,-66.6666666666667,4,2,31,90,0,0
115896,-66.6666666666667,4,2,31,95,0,0
116049,-57.1428571428571,4,2,31,95,0,0
117115,-57.1428571428571,4,2,31,100,0,0
117724,-66.6666666666667,4,2,31,100,0,0
118942,-66.6666666666667,4,2,31,90,0,0
119247,-66.6666666666667,4,2,31,80,0,0

[Colours]
Combo1 : 0,255,255
Combo2 : 128,128,255
Combo3 : 255,128,192
Combo4 : 255,94,55
Combo5 : 17,254,176
Combo6 : 0,128,255
Combo7 : 192,192,192

[HitObjects]
228,292,1379,6,0,L|155:281,1,66,8|0,2:3|2:0,2:0:0:0:
32,343,1531,1,0,1:0:0:0:
62,337,1607,1,0,1:0:0:0:
93,332,1683,1,0,1:0:0:0:
294,230,1835,1,0,1:0:0:0:
385,350,1988,6,8,L|391:290,1,44,8|8,2:3|2:3,2:3:0:0:
363,325,2140,2,8,L|369:265,1,44,8|8,2:3|2:3,2:3:0:0:
223,177,2292,5,0,1:0:0:0:
267,123,2368,1,0,1:0:0:0:
332,149,2444,1,4,1:3:0:0:
106,20,2597,22,0,P|111:61|117:130,1,88,4|0,3:1|2:0,2:0:0:0:
51,163,2825,1,2,2:0:0:0:
51,163,2901,2,0,P|34:136|27:109,1,44,2|0,2:0|2:0,2:0:0:0:
222,18,3054,2,0,L|211:75,1,44,2|0,2:0|2:0,2:0:0:0:
294,230,3206,2,0,B|393:205|338:163|444:148,1,176,2|2,2:0|2:0,2:0:0:0:
470,304,3663,1,0,2:0:0:0:
459,311,3739,1,0,2:0:0:0:
448,319,3815,6,0,P|434:275|433:220,1,88,0|2,2:0|2:0,2:0:0:0:
317,12,4120,2,0,P|330:53|333:97,1,88,2|0,2:0|2:0,2:0:0:0:
278,163,4348,1,2,2:0:0:0:
265,160,4424,1,2,2:0:0:0:
252,157,4500,1,2,2:0:0:0:
239,154,4576,2,0,L|183:163,1,44,4|0,3:2|2:0,2:0:0:0:
156,330,4881,2,0,L|100:321,1,44,4|0,3:2|2:0,2:0:0:0:
0,233,5033,6,0,P|32:199|73:203,1,88,4|2,3:1|2:0,2:0:0:0:
105,288,5338,1,0,2:0:0:0:
12,124,5490,1,2,2:0:0:0:
16,98,5566,1,2,2:0:0:0:
21,72,5642,1,2,2:0:0:0:
193,161,5795,69,2,2:0:0:0:
38,0,5947,1,2,2:0:0:0:
227,35,6099,1,2,2:0:0:0:
12,124,6252,6,0,P|20:167|25:223,1,88,4|0,3:1|2:0,2:0:0:0:
140,349,6480,1,2,2:0:0:0:
140,349,6556,2,0,B|118:310|118:310|130:263,1,88,2|2,2:0|2:0,2:0:0:0:
260,236,6785,1,2,2:0:0:0:
260,236,6861,2,0,L|311:228,1,44,0|2,2:0|2:0,2:0:0:0:
149,154,7013,2,0,L|200:162,1,44,2|0,2:0|2:0,2:0:0:0:
359,320,7165,1,0,2:0:0:0:
381,167,7318,1,0,2:0:0:0:
511,275,7470,5,12,1:0:0:0:
511,275,7546,1,0,1:0:0:0:
511,275,7622,1,2,1:2:0:0:
511,275,7698,1,0,1:0:0:0:
511,275,7774,70,0,L|460:269,1,44,8|0,1:0|1:0,1:0:0:0:
314,219,7927,2,0,P|304:195|297:167,1,44,2|0,1:2|1:0,1:0:0:0:
447,65,8079,2,0,L|440:117,1,44,8|0,1:0|1:0,1:0:0:0:
419,336,8231,5,2,1:2:0:0:
407,322,8307,1,0,1:0:0:0:
395,308,8384,2,0,L|329:317,1,44,8|0,1:0|1:0,1:0:0:0:
237,337,8536,2,0,P|248:307|254:283,1,44,2|0,1:2|1:0,1:0:0:0:
68,269,8688,6,0,B|104:294|104:294|153:284,1,88,12|2,1:0|1:2,1:0:0:0:
207,225,8917,1,0,1:0:0:0:
194,207,8993,2,0,L|212:115,1,88,8|2,1:0|1:2,1:0:0:0:
139,86,9221,1,0,1:0:0:0:
134,64,9297,70,0,L|86:52,1,44,8|0,1:0|1:0,1:0:0:0:
293,181,9450,1,2,1:2:0:0:
293,181,9526,1,0,1:0:0:0:
293,181,9602,2,0,L|341:169,1,44,8|0,1:0|1:0,1:0:0:0:
496,58,9754,2,0,P|473:41|452:31,1,44,2|0,1:2|1:0,1:0:0:0:
305,95,9906,37,14,1:0:0:0:
268,86,9983,1,0,1:0:0:0:
240,118,10059,5,2,1:2:0:0:
207,137,10135,1,0,1:0:0:0:
210,180,10211,5,8,1:0:0:0:
200,216,10287,1,0,1:0:0:0:
233,246,10363,5,2,1:2:0:0:
251,278,10439,1,0,1:0:0:0:
295,276,10516,53,8,1:0:0:0:
347,262,10592,1,0,1:0:0:0:
381,222,10668,1,2,1:2:0:0:
427,198,10744,1,0,1:0:0:0:
478,210,10820,1,2,1:2:0:0:
508,254,10896,1,2,1:2:0:0:
504,306,10972,1,2,1:2:0:0:
468,344,11049,1,2,1:2:0:0:
418,325,11125,54,0,L|412:378,1,44,0|2,1:0|2:0,1:0:0:0:
434,170,11353,6,0,L|428:223,1,44,0|2,1:0|2:0,1:0:0:0:
450,15,11582,6,0,L|444:68,1,44,0|2,1:0|2:0,1:0:0:0:
497,228,11734,37,0,1:0:0:0:
462,235,11810,1,0,1:0:0:0:
427,242,11886,1,8,1:3:0:0:
170,257,12038,86,0,B|284:271|221:317|338:352|338:352|322:324,1,231,12|0,2:0|2:0,2:0:0:0:
310,254,12343,38,0,L|326:141,1,88,4|2,3:1|2:0,2:0:0:0:
245,29,12571,1,2,2:0:0:0:
245,29,12648,2,0,B|231:71|231:71|252:112,1,88,0|0,3:0|2:0,2:0:0:0:
157,344,12952,6,0,L|173:231,1,88,0|0,2:0|2:0,2:0:0:0:
92,119,13181,1,2,2:0:0:0:
92,119,13257,2,0,B|78:161|78:161|99:202,1,88,0|0,3:0|2:0,2:0:0:0:
334,30,13561,5,0,3:0:0:0:
246,203,13714,1,0,2:0:0:0:
246,203,13790,1,2,2:0:0:0:
246,203,13866,2,0,B|262:217|262:217|253:298,1,88,0|0,3:0|2:0,2:0:0:0:
361,363,14094,1,2,2:0:0:0:
361,363,14170,69,0,3:0:0:0:
388,165,14323,2,0,L|327:158,1,44,0|2,2:0|2:0,2:0:0:0:
190,138,14475,1,0,3:0:0:0:
163,336,14627,1,0,2:0:0:0:
377,261,14780,6,0,P|421:253|478:250,1,88,0|0,3:0|2:0,2:0:0:0:
267,357,15008,1,2,2:0:0:0:
267,357,15084,1,0,3:0:0:0:
246,317,15160,1,2,2:0:0:0:
253,275,15236,1,0,2:0:0:0:
289,68,15389,6,0,P|334:60|390:57,1,88,0|0,3:0|2:0,2:0:0:0:
179,164,15617,1,2,2:0:0:0:
179,164,15693,1,0,3:0:0:0:
158,124,15769,1,2,2:0:0:0:
165,82,15846,1,0,2:0:0:0:
458,13,15998,69,0,3:0:0:0:
345,144,16150,1,0,2:0:0:0:
345,144,16226,2,0,P|345:186|351:243,1,88,2|2,2:0|2:0,2:0:0:0:
417,338,16455,2,0,P|423:314|427:274,1,44,0|2,2:0|2:0,2:0:0:0:
443,202,16607,1,0,3:0:0:0:
292,314,16759,5,0,1:0:0:0:
292,314,16835,2,0,L|236:301,1,44,0|0,3:0|2:0,2:0:0:0:
167,361,16988,1,0,1:0:0:0:
167,361,17064,2,0,L|111:348,1,44,0|0,3:0|2:0,2:0:0:0:
84,185,17216,6,0,P|56:220|57:273,1,88,4|0,3:2|2:0,2:0:0:0:
202,187,17444,1,2,2:0:0:0:
202,187,17521,2,0,L|189:84,1,88,0|0,3:0|2:0,2:0:0:0:
429,138,17825,70,0,P|457:103|456:50,1,88,0|0,3:0|2:0,2:0:0:0:
311,136,18054,1,2,2:0:0:0:
311,136,18130,2,0,L|324:239,1,88,0|0,3:0|2:0,2:0:0:0:
423,303,18434,5,0,3:0:0:0:
366,54,18587,1,0,2:0:0:0:
366,54,18663,1,2,2:0:0:0:
366,54,18739,2,0,L|256:37,1,88,0|0,3:0|2:0,2:0:0:0:
108,147,19043,6,0,P|76:118|77:66,1,88,0|0,3:0|2:0,2:0:0:0:
161,20,19272,1,0,3:0:0:0:
161,20,19348,2,0,L|170:74,1,44,0|2,3:0|2:0,2:0:0:0:
44,229,19500,2,0,L|53:283,1,44,0|2,3:0|2:0,2:0:0:0:
199,355,19653,69,0,3:0:0:0:
185,195,19805,1,2,2:0:0:0:
153,210,19881,1,2,2:0:0:0:
137,241,19957,1,0,3:0:0:0:
144,276,20033,2,0,L|235:267,1,88,2|2,2:0|2:0,2:0:0:0:
456,321,20262,6,0,P|456:345|448:370,1,44,0|0,3:0|2:0,2:0:0:0:
307,305,20414,2,0,P|307:281|315:256,1,44,2|0,2:0|2:0,2:0:0:0:
391,271,20566,1,0,3:0:0:0:
389,235,20642,1,0,2:0:0:0:
387,199,20719,1,0,2:0:0:0:
385,163,20795,1,0,2:0:0:0:
383,127,20871,38,0,L|445:136,1,44,8|0,1:0|2:0,2:0:0:0:
249,135,21023,2,0,L|311:144,1,44,8|0,1:0|2:0,2:0:0:0:
115,143,21175,22,0,B|167:150|167:150|218:217|163:283,1,198,4|0,1:2|2:0,2:0:0:0:
140,308,21480,1,0,3:0:0:0:
21,154,21632,53,2,2:0:0:0:
23,141,21708,1,2,2:0:0:0:
25,127,21785,1,2,2:0:0:0:
27,114,21861,1,2,2:0:0:0:
29,101,21937,1,2,2:0:0:0:
31,88,22013,1,2,2:0:0:0:
34,75,22089,54,0,B|57:56|57:56|146:66,1,110,4|0,3:1|2:0,2:0:0:0:
265,0,22318,2,0,P|235:21|218:47,1,55,2|8,2:0|1:0,2:0:0:0:
190,181,22470,2,0,P|201:150|205:121,1,55,2|0,2:0|2:0,2:0:0:0:
313,269,22622,1,2,2:0:0:0:
313,269,22698,6,0,B|290:250|290:250|201:260,1,110,0|0,3:0|2:0,2:0:0:0:
82,194,22927,2,0,P|112:215|129:241,1,55,2|8,2:0|1:0,2:0:0:0:
157,375,23079,2,0,P|146:344|142:315,1,55,2|0,2:0|2:0,2:0:0:0:
285,167,23231,1,2,2:0:0:0:
285,167,23307,6,0,B|332:172|332:172|345:169|345:169|411:177,1,110,0|0,3:0|2:0,2:0:0:0:
434,302,23536,2,0,P|412:283|392:250,1,55,2|8,2:0|1:0,2:0:0:0:
471,88,23688,2,0,P|476:123|471:157,1,55,2|0,2:0|2:0,2:0:0:0:
302,274,23840,1,2,2:0:0:0:
302,274,23917,70,0,B|254:268|254:268|242:272|242:272|176:264,1,110,0|0,3:0|2:0,2:0:0:0:
153,139,24145,2,0,P|175:158|195:191,1,55,2|8,2:0|1:0,2:0:0:0:
116,353,24297,2,0,P|111:318|116:284,1,55,2|0,2:0|2:0,2:0:0:0:
307,54,24526,5,2,3:2:0:0:
292,70,24602,1,2,2:0:0:0:
277,86,24678,2,2,L|202:78,1,55,2|0,2:0|2:0,2:0:0:0:
43,63,24830,5,8,1:0:0:0:
59,78,24906,1,2,2:0:0:0:
75,93,24983,2,2,L|67:168,1,55,2|0,2:0|2:0,2:0:0:0:
333,138,25135,69,2,3:2:0:0:
318,154,25211,1,2,2:0:0:0:
303,170,25287,2,2,L|228:162,1,55,2|0,2:0|2:0,2:0:0:0:
69,147,25439,5,8,1:0:0:0:
85,162,25516,1,2,2:0:0:0:
101,177,25592,2,2,L|93:252,1,55,2|0,2:0|2:0,2:0:0:0:
80,330,25744,5,0,3:0:0:0:
130,351,25820,1,2,2:0:0:0:
184,344,25896,1,2,2:0:0:0:
229,314,25972,1,2,2:0:0:0:
271,279,26049,1,8,1:0:0:0:
321,257,26125,1,0,2:1:0:0:
373,270,26201,1,0,2:1:0:0:
392,319,26277,1,0,2:1:0:0:
358,360,26353,70,0,B|335:334|335:334|337:291,1,66,8|0,1:0|2:0,2:0:0:0:
472,179,26505,2,0,B|495:205|495:205|493:248,1,66,8|0,1:0|2:0,2:0:0:0:
195,239,26658,6,0,B|166:206|166:206|168:152,1,88,8|0,1:0|2:0,2:0:0:0:
384,46,26810,2,0,B|412:78|412:78|410:132,1,88,8|0,1:0|2:0,2:0:0:0:
158,50,26962,22,2,B|222:63|222:63|243:92|243:92|318:104|318:104|285:68,1,220,6|0,3:1|2:0,1:0:0:0:
411,234,27191,2,2,B|347:221|347:221|326:192|326:192|251:180|251:180|284:216,1,220,2|0,3:1|2:0,1:0:0:0:
150,59,27419,2,2,B|214:72|214:72|235:101|235:101|310:113|310:113|277:77,1,220,2|0,1:0|2:0,1:0:0:0:
310,308,27648,5,2,3:1:0:0:
267,317,27724,1,0,2:0:0:0:
224,326,27800,1,0,2:0:0:0:
206,345,27876,6,0,L|198:269,1,66,8|0,1:0|2:0,2:0:0:0:
34,133,28028,2,0,L|42:209,1,66,8|0,1:0|2:0,2:0:0:0:
44,328,28181,6,2,B|135:259|65:251|151:191|151:191|140:239,1,220,6|0,3:1|2:0,1:0:0:0:
207,22,28409,2,2,B|221:135|263:78|272:183|272:183|236:149,1,220,2|0,3:1|2:0,1:0:0:0:
390,316,28637,2,2,B|284:271|312:336|217:291|217:291|264:277,1,220,2|0,3:1|2:0,1:0:0:0:
361,205,28866,53,0,3:0:0:0:
395,177,28942,1,0,2:0:0:0:
429,150,29018,1,0,3:0:0:0:
414,127,29094,6,0,L|483:135,1,66,8|0,1:0|2:0,2:0:0:0:
326,375,29247,2,0,L|257:367,1,66,8|0,1:0|2:0,2:0:0:0:
36,125,29399,6,2,B|70:172|73:231|73:231|111:184|186:190,1,220,6|0,3:1|2:0,1:0:0:0:
182,359,29627,1,6,3:1:0:0:
166,371,29703,2,0,B|134:325|134:325|151:260,1,110,0|0,2:0|2:0,2:0:0:0:
224,51,29856,6,0,B|271:89|271:89|231:253,1,220,6|0,3:1|2:0,2:0:0:0:
361,231,30084,1,6,3:1:0:0:
377,249,30160,2,0,P|341:300|290:298,1,110,0|0,2:0|2:0,2:0:0:0:
117,127,30313,54,0,L|200:116,1,66,8|0,1:0|2:0,2:0:0:0:
297,14,30465,2,0,L|380:3,1,66,8|0,1:0|2:0,2:0:0:0:
498,71,30617,53,12,1:0:0:0:
341,106,30769,6,0,L|258:117,1,66.0000000000002,2|0,2:0|2:0,2:0:0:0:
161,219,31074,2,0,L|78:230,1,66.0000000000002,2|0,2:0|2:0,2:0:0:0:
368,260,31379,5,4,2:0:0:0:
368,260,31531,2,0,L|285:271,1,66.0000000000002,2|0,2:0|2:0,2:0:0:0:
100,349,31835,70,0,P|68:312|74:263,1,99.0000000000003,4|0,1:0|2:0,2:0:0:0:
100,260,32140,2,0,L|89:192,1,66.0000000000002,0|0,1:0|2:0,2:0:0:0:
30,71,32368,1,0,2:0:0:0:
30,71,32444,2,0,P|19:109|17:144,1,66.0000000000002,0|0,1:0|2:0,2:0:0:0:
205,240,32749,2,0,P|200:272|192:304,1,66.0000000000002,0|0,1:0|2:0,2:0:0:0:
188,90,33054,6,0,P|191:56|199:25,1,66.0000000000002,0|0,1:0|2:0,2:0:0:0:
379,100,33358,1,0,1:0:0:0:
266,126,33510,1,0,3:0:0:0:
322,0,33663,1,0,1:0:0:0:
322,0,33815,1,0,3:0:0:0:
407,105,33967,6,0,L|414:155,1,33.0000000000001,0|0,1:0|2:0,2:0:0:0:
327,313,34120,1,0,3:0:0:0:
455,266,34272,70,0,B|379:258|417:219|339:212,1,132,4|0,1:0|1:0,2:0:0:0:
204,277,34729,1,0,2:0:0:0:
215,283,34805,1,0,2:0:0:0:
226,289,34881,2,0,P|232:322|237:361,1,66.0000000000002,0|0,1:0|2:0,2:0:0:0:
276,139,35186,2,0,P|270:106|265:67,1,66.0000000000002,0|0,1:0|2:0,2:0:0:0:
95,217,35490,6,0,P|101:250|106:289,1,66.0000000000002,0|0,1:0|2:0,2:0:0:0:
160,32,35795,1,0,1:0:0:0:
0,64,35947,1,0,3:0:0:0:
169,161,36099,1,0,1:0:0:0:
9,193,36252,1,0,3:0:0:0:
87,105,36404,6,0,P|79:141|77:164,1,33.0000000000001,0|0,1:0|2:0,2:0:0:0:
95,217,36556,1,0,3:0:0:0:
248,361,36708,70,0,P|277:323|269:267,1,99.0000000000003,4|0,1:0|2:0,2:0:0:0:
247,263,37013,2,0,L|182:277,1,66.0000000000002,0|0,1:0|1:0,2:0:0:0:
368,347,37318,2,0,L|433:333,1,66.0000000000002,0|0,1:0|1:0,2:0:0:0:
200,190,37622,1,0,1:0:0:0:
200,190,37774,1,0,1:0:0:0:
385,265,37927,5,0,1:0:0:0:
397,254,38003,1,0,1:0:0:0:
410,243,38079,1,0,1:0:0:0:
423,233,38155,2,0,L|411:145,1,66.0000000000002,0|0,1:0|1:0,1:0:0:0:
485,98,38384,2,0,L|478:139,1,33.0000000000001,0|0,1:0|1:0,1:0:0:0:
323,219,38536,5,0,1:0:0:0:
323,219,38612,2,0,L|248:210,1,44,0|0,1:0|2:0,1:0:0:0:
299,298,38764,2,0,P|286:315|279:336,2,44,0|0|0,1:0|2:0|1:0,1:0:0:0:
83,87,39145,69,0,2:0:0:0:
93,260,39297,2,0,L|97:295,5,33.0000000000001,0|0|0|0|0|0,1:0|3:0|1:0|3:0|3:0|3:0,3:0:0:0:
39,179,39754,2,0,L|2:172,3,33.0000012588501,0|0|0|0,1:0|3:0|3:0|3:0,3:0:0:0:
138,172,40059,2,0,L|169:161,3,33.0000000000001,0|0|0|0,1:0|3:0|3:0|3:0,3:0:0:0:
83,87,40363,5,0,1:0:0:0:
13,319,40516,1,0,1:0:0:0:
166,246,40668,1,0,1:0:0:0:
182,248,40744,1,0,1:0:0:0:
198,250,40820,1,0,1:0:0:0:
214,252,40896,1,0,1:0:0:0:
230,254,40972,1,0,1:0:0:0:
419,315,41125,2,0,P|393:323|377:330,1,33.0000000000001,0|0,3:0|2:0,2:0:0:0:
301,353,41277,6,0,B|302:240|362:283|360:169,1,198,12|0,2:0|2:0,2:0:0:0:
268,71,41582,70,0,B|307:34|307:34|377:50,1,110,6|2,3:1|2:0,2:0:0:0:
471,201,41886,1,8,1:0:0:0:
332,123,42038,1,0,2:0:0:0:
317,146,42115,1,0,2:0:0:0:
302,169,42191,2,0,P|312:223|319:288,1,110,2|0,2:1|2:0,2:0:0:0:
251,342,42419,1,2,2:1:0:0:
251,342,42495,2,0,P|236:318|230:288,1,55,8|0,1:0|2:0,2:0:0:0:
386,207,42648,6,2,B|433:216|433:216|439:226|439:226|494:236,2,110,2|0|0,2:1|3:0|2:0,2:1:0:0:
179,82,43104,1,8,1:0:0:0:
147,329,43257,1,0,2:0:0:0:
147,329,43333,1,0,2:0:0:0:
147,329,43409,6,0,B|109:291|109:291|117:226,1,110,2|0,2:1|2:0,2:0:0:0:
18,112,43637,1,2,2:1:0:0:
18,112,43714,2,0,L|28:200,1,55,8|0,1:0|2:0,2:0:0:0:
209,186,43866,2,0,L|199:274,1,55,2|0,2:1|2:0,2:0:0:0:
36,355,44018,70,2,P|76:307|149:324,1,110,2|0,3:1|2:0,2:1:0:0:
266,143,44247,2,2,B|259:189|259:189|247:201|247:201|239:258,1,110,2|0,1:0|2:0,2:1:0:0:
376,308,44475,2,2,P|345:352|291:358,1,110,2|0,1:0|3:0,2:1:0:0:
156,226,44703,1,2,2:0:0:0:
149,197,44780,1,2,2:0:0:0:
362,144,44932,2,0,L|377:78,1,55,8|0,1:0|2:0,2:0:0:0:
304,51,45084,1,2,2:1:0:0:
72,115,45236,5,0,3:0:0:0:
206,151,45389,1,2,2:1:0:0:
165,15,45541,1,8,1:0:0:0:
66,146,45693,5,0,2:0:0:0:
66,146,45769,1,0,2:0:0:0:
66,146,45846,2,0,P|32:134|10:130,1,55,6|0,3:1|2:0,2:0:0:0:
233,235,45998,2,0,P|199:247|177:251,1,55,2|4,1:0|3:2,2:0:0:0:
26,302,46150,2,0,P|52:307|78:317,1,55,6|0,2:0|1:0,2:0:0:0:
3,317,46302,2,0,P|29:322|55:332,1,55,2|0,3:2|2:0,2:0:0:0:
279,296,46455,70,2,L|292:186,1,110,4|0,3:1|2:0,2:1:0:0:
226,64,46683,2,2,B|198:110|198:110|222:165,1,110,2|0,2:0|2:0,2:1:0:0:
371,82,46911,1,2,2:0:0:0:
367,54,46988,1,2,2:0:0:0:
363,26,47064,1,0,3:0:0:0:
167,8,47216,5,2,2:0:0:0:
194,237,47368,1,8,1:0:0:0:
296,102,47521,1,2,2:1:0:0:
93,30,47673,6,2,L|78:154,1,110,2|0,3:2|2:0,2:1:0:0:
38,291,47901,2,2,P|4:254|5:194,1,110,2|0,2:0|2:0,2:1:0:0:
174,133,48130,1,2,2:0:0:0:
170,161,48206,1,2,2:0:0:0:
166,189,48282,1,0,3:0:0:0:
118,349,48434,69,0,1:0:0:0:
118,349,48510,1,0,1:0:0:0:
118,349,48587,2,0,L|182:338,1,55,8|0,1:0|2:0,2:0:0:0:
290,370,48739,2,0,L|354:359,1,55,2|0,3:1|2:0,2:0:0:0:
455,236,48891,37,2,3:0:0:0:
370,205,48993,2,0,P|350:239|344:281,1,73.3333333333333,2|2,2:0|2:0,2:0:0:0:
441,145,49196,5,10,1:0:0:0:
352,76,49297,2,0,P|325:98|313:136,1,73.3333333333333,2|2,2:0|2:0,2:0:0:0:
260,258,49500,6,0,B|265:296|265:296|261:301|261:301|267:350,2,73.3333333333333,2|2|2,3:0|2:0|2:0,2:0:0:0:
232,104,49805,2,0,B|237:66|237:66|233:61|233:61|239:12,2,73.3333333333333,8|2|2,1:0|2:0|2:0,2:0:0:0:
63,203,50109,5,2,3:0:0:0:
146,231,50211,1,2,2:0:0:0:
129,144,50313,1,2,2:0:0:0:
48,217,50414,54,0,P|37:255|40:300,1,73.3333333333333,8|2,1:0|2:0,2:0:0:0:
142,357,50617,1,2,2:0:0:0:
250,294,50719,6,0,P|234:259|231:228,1,58.6666666666667,2|2,3:0|2:0,2:0:0:0:
279,172,50922,1,2,2:0:0:0:
350,209,51023,6,0,P|380:195|397:192,1,44.0000000000001,8|2,1:0|2:0,2:0:0:0:
458,222,51226,1,2,2:0:0:0:
452,345,51328,22,0,B|431:318|431:318|439:233,1,110,6|0,3:1|2:0,2:0:0:0:
410,18,51632,2,0,P|467:20|491:64,1,110,8|2,1:2|2:0,2:0:0:0:
428,113,51861,1,2,2:0:0:0:
428,113,51937,2,0,L|364:106,1,55,2|0,3:1|2:0,2:0:0:0:
209,73,52089,1,0,2:0:0:0:
209,73,52165,2,2,B|234:56|249:37|249:37|309:54,1,110,2|0,2:1|2:0,2:1:0:0:
205,157,52394,6,2,B|158:150|158:150|148:153|148:153|94:144,2,110,2|0|0,2:1|3:0|2:0,2:1:0:0:
97,34,52851,1,8,1:2:0:0:
343,68,53003,1,2,2:0:0:0:
321,84,53079,1,2,2:0:0:0:
299,101,53155,2,0,P|305:162|304:211,1,110,2|0,3:1|2:0,2:0:0:0:
367,316,53384,1,2,2:1:0:0:
367,316,53460,2,0,P|369:281|377:254,1,55,8|0,1:2|2:0,2:0:0:0:
422,96,53612,2,0,P|430:118|437:155,1,55,2|0,2:1|2:0,2:0:0:0:
247,365,53764,6,2,B|221:313|221:313|246:268,1,110,2|0,3:1|2:0,2:1:0:0:
447,336,53993,2,2,P|392:338|337:345,1,110,2|0,2:0|2:0,2:1:0:0:
144,260,54221,2,2,P|89:258|35:251,1,110,0|0,2:0|3:0,2:1:0:0:
9,346,54450,1,2,2:0:0:0:
37,340,54526,1,2,2:0:0:0:
193,179,54678,2,0,P|171:173|138:168,1,55,8|0,3:2|2:0,2:0:0:0:
114,12,54830,1,2,2:1:0:0:
19,155,54983,70,2,B|109:136|109:136|134:107|134:107|221:88,1,220,0|8,3:0|1:2,2:1:0:0:
452,44,55439,1,2,2:0:0:0:
436,38,55516,1,2,2:0:0:0:
420,32,55592,6,0,P|406:67|400:102,1,55,4|2,3:2|2:0,2:0:0:0:
437,192,55744,2,0,P|465:179|492:172,1,55,4|2,3:2|2:0,2:0:0:0:
284,142,55896,2,0,P|311:150|336:162,1,55,0|2,3:0|2:0,2:0:0:0:
355,330,56049,2,0,P|369:295|375:260,1,55,4|2,3:2|2:0,2:0:0:0:
219,201,56201,5,4,3:1:0:0:
219,201,56277,1,2,2:0:0:0:
219,201,56353,2,0,L|100:214,1,110,2|8,2:0|1:0,2:0:0:0:
68,351,56582,2,0,B|30:314|30:314|38:249,1,110,2|0,2:0|2:0,2:0:0:0:
137,127,56810,2,0,L|125:64,1,55,2|0,3:2|2:0,2:0:0:0:
39,23,56962,1,0,2:0:0:0:
37,39,57038,1,2,2:0:0:0:
35,55,57115,1,8,1:0:0:0:
180,1,57267,1,2,2:0:0:0:
265,139,57419,69,0,3:0:0:0:
265,139,57495,1,0,2:0:0:0:
265,139,57571,2,0,P|268:194|279:256,1,110,2|8,2:0|1:0,2:0:0:0:
396,318,57800,2,0,B|344:311|344:311|324:326|289:335,1,110,2|0,2:0|2:0,2:0:0:0:
178,306,58028,2,0,P|181:273|194:248,1,55,2|0,3:2|2:0,2:0:0:0:
352,198,58181,1,0,3:0:0:0:
362,171,58257,1,2,3:2:0:0:
358,142,58333,1,8,1:0:0:0:
285,23,58485,1,2,2:0:0:0:
504,75,58637,37,2,3:0:0:0:
427,98,58739,1,2,2:0:0:0:
444,20,58840,1,2,2:0:0:0:
510,97,58942,6,0,P|502:136|498:176,1,73.3333333333333,8|2,1:0|2:0,2:0:0:0:
380,271,59145,1,2,2:0:0:0:
452,329,59247,6,0,P|456:292|463:256,1,73.3333333333333,2|2,3:0|2:0,2:0:0:0:
318,104,59450,1,2,2:0:0:0:
399,123,59551,6,0,P|362:129|327:137,1,73.3333333333333,8|2,1:0|2:0,2:0:0:0:
335,348,59754,1,2,2:0:0:0:
261,271,59856,54,0,B|269:240|269:240|267:233|267:233|275:195,2,73.3333333333333,2|2|2,3:1|2:0|2:0,2:0:0:0:
227,18,60160,2,0,B|235:49|235:49|233:56|233:56|241:94,2,73.3333333333333,2|2|2,2:1|2:0|2:0,2:0:0:0:
13,89,60465,5,2,2:1:0:0:
57,154,60566,2,0,P|80:141|121:127,1,58.6666666666667,2|2,2:0|2:0,2:0:0:0:
202,160,60769,5,2,2:1:0:0:
161,229,60871,2,0,P|140:217|103:204,1,44.0000000000001,2|2,2:0|2:0,2:0:0:0:
85,288,61074,5,4,3:1:0:0:
256,192,61150,12,0,63510,2:0:0:0:
96,328,70059,5,0,1:0:0:0:
87,300,70211,1,0,1:0:0:0:
192,251,70363,1,0,1:0:0:0:
304,363,70516,1,0,1:0:0:0:
409,314,70668,1,0,1:0:0:0:
366,163,70820,6,0,P|354:211|350:255,1,88,4|0,3:1|2:0,2:0:0:0:
423,328,71125,1,8,1:2:0:0:
291,380,71277,1,0,2:0:0:0:
285,359,71353,1,0,2:0:0:0:
285,338,71429,1,0,1:0:0:0:
458,223,71582,1,8,2:0:0:0:
426,116,71734,2,0,L|335:128,1,88,0|0,1:0|2:0,2:0:0:0:
172,69,72038,6,0,P|221:21|257:25,1,88,0|0,1:0|2:0,2:0:0:0:
341,142,72343,1,8,1:2:0:0:
247,194,72495,1,0,1:0:0:0:
249,172,72571,1,0,1:0:0:0:
251,149,72648,1,0,1:0:0:0:
253,127,72724,1,0,1:0:0:0:
255,105,72800,1,8,1:2:0:0:
81,41,72952,2,0,L|86:101,1,44,2|0,1:2|2:0,2:0:0:0:
10,220,73104,1,0,2:0:0:0:
242,220,73257,70,0,B|166:207|215:165|135:154,1,132,4|0,1:0|2:0,2:0:0:0:
103,182,73561,2,0,L|112:272,1,88,8|0,1:2|2:0,2:0:0:0:
42,314,73790,1,0,2:0:0:0:
48,333,73866,1,0,1:0:0:0:
196,254,74018,1,8,2:0:0:0:
196,254,74094,1,0,2:0:0:0:
196,254,74170,2,0,L|257:242,1,44,0|0,1:0|2:0,2:0:0:0:
315,345,74323,2,0,L|376:333,1,44,0|0,1:0|2:0,2:0:0:0:
464,213,74475,6,0,P|488:228|497:258,2,58.6666666666667,0|2|2,1:0|2:0|2:0,2:0:0:0:
376,218,74780,2,0,P|352:233|343:263,2,58.6666666666667,0|2|2,1:0|2:0|2:0,2:0:0:0:
478,34,75084,5,0,1:0:0:0:
478,34,75160,1,0,1:0:0:0:
478,34,75236,2,0,P|457:55|443:87,1,44,2|0,1:2|2:0,2:0:0:0:
324,38,75389,2,0,P|329:67|348:96,1,44,2|0,1:2|2:0,2:0:0:0:
248,181,75541,2,0,P|275:192|310:193,1,44,2|0,1:2|2:0,2:0:0:0:
471,220,75693,5,4,1:0:0:0:
471,220,75769,1,0,1:0:0:0:
471,220,75846,2,0,P|477:247|486:273,1,44,2|2,1:2|1:2,1:0:0:0:
335,373,75998,1,0,1:0:0:0:
335,373,76074,1,0,1:0:0:0:
335,373,76150,2,0,P|362:379|388:388,1,44,2|2,1:2|1:2,1:0:0:0:
353,157,76302,5,0,1:0:0:0:
353,157,76379,1,0,1:0:0:0:
353,157,76455,2,0,P|381:152|410:145,1,55,2|2,1:2|1:2,1:0:0:0:
217,293,76607,1,0,1:0:0:0:
217,293,76683,1,0,1:0:0:0:
217,293,76759,2,0,P|245:298|274:306,1,55,2|2,1:2|1:2,1:0:0:0:
277,104,76911,5,0,1:0:0:0:
287,91,76988,1,0,1:0:0:0:
297,78,77064,2,0,L|280:11,1,66,2|2,1:2|1:2,1:0:0:0:
113,248,77216,1,0,1:0:0:0:
123,261,77292,1,0,1:0:0:0:
133,274,77368,2,0,L|116:341,1,66,0|2,1:2|1:2,1:0:0:0:
97,29,77521,5,0,1:0:0:0:
117,39,77597,1,0,1:0:0:0:
137,49,77673,2,0,L|212:32,1,77.0000000000001,2|2,1:2|1:2,1:0:0:0:
1,340,77825,1,0,1:0:0:0:
21,330,77901,1,0,1:0:0:0:
41,320,77977,2,0,L|116:337,1,77.0000000000001,2|2,1:2|1:2,1:0:0:0:
272,197,78130,6,0,P|252:200|231:212,30,38.5000003671646,0|0|0|0|0|0|0|0|0|0|0|0|0|0|0|0|0|0|0|0|0|0|0|0|0|0|0|0|0|0|0,1:0|2:0|2:0|2:0|2:0|2:0|2:0|2:0|2:0|2:0|2:0|2:0|2:0|2:0|2:0|2:0|2:0|2:0|2:0|2:0|2:0|2:0|2:0|2:0|2:0|2:0|2:0|2:0|2:0|2:0|2:0,1:0:0:0:
239,122,79348,6,0,P|231:79|227:24,1,88,0|0,1:0|2:0,2:0:0:0:
156,106,79576,2,0,P|148:63|144:8,1,88,0|0,1:0|2:0,2:0:0:0:
64,6,79805,1,0,1:0:0:0:
320,100,79957,5,0,1:0:0:0:
341,96,80033,1,0,1:0:0:0:
362,93,80109,1,8,1:3:0:0:
457,285,80262,2,0,P|497:231|472:165,1,132,8|0,2:0|2:0,2:0:0:0:
437,27,80566,6,2,B|421:110|421:110|437:139|437:139|419:230,1,198,6|0,3:1|2:0,2:1:0:0:
362,349,80871,2,0,B|330:301|330:301|349:220,1,132,8|0,1:0|2:0,2:0:0:0:
302,168,81099,2,0,P|298:135|290:94,1,66,2|0,2:1|3:0,2:0:0:0:
116,142,81252,1,0,2:0:0:0:
116,142,81328,2,0,P|147:153|182:170,1,66,2|0,2:1|2:0,2:0:0:0:
248,27,81480,2,0,P|218:41|187:52,1,66,10|0,1:0|2:0,2:0:0:0:
15,96,81632,2,0,P|9:132|9:175,1,66,2|0,2:1|2:0,2:0:0:0:
162,354,81785,6,0,B|126:304|126:304|138:266|139:220,1,132,2|0,3:1|2:0,2:0:0:0:
69,201,82013,1,0,2:0:0:0:
67,217,82089,1,10,1:0:0:0:
239,323,82241,1,0,2:0:0:0:
239,323,82318,2,0,L|385:311,1,132,2|0,2:1|2:0,2:0:0:0:
436,361,82546,1,2,2:1:0:0:
237,238,82698,1,10,1:0:0:0:
363,143,82851,1,2,2:0:0:0:
490,303,83003,6,0,B|377:285|442:230|321:214,1,198,0|0,3:0|2:0,2:0:0:0:
283,41,83307,2,2,B|243:88|243:88|262:123|258:172,1,132,10|0,1:0|2:0,2:1:0:0:
208,268,83536,1,2,2:1:0:0:
180,260,83612,1,0,3:0:0:0:
18,172,83764,2,2,B|49:143|59:120|59:120|132:149,1,132,2|8,2:1|1:0,2:1:0:0:
133,338,84069,1,2,2:0:0:0:
133,338,84145,1,2,2:0:0:0:
133,338,84221,6,2,B|94:317|94:317|86:212,1,132,2|0,1:0|2:0,2:1:0:0:
213,166,84450,1,2,2:0:0:0:
213,166,84526,2,2,P|201:100|199:30,1,132,10|0,1:0|2:0,2:1:0:0:
40,89,84754,2,2,B|34:13|34:13|53:81,1,132,2|0,2:0|2:0,2:1:0:0:
120,144,84983,2,0,P|113:174|112:223,1,66,0|0,1:0|2:0,2:0:0:0:
296,190,85135,2,0,P|303:220|304:269,1,66,4|0,1:2|2:0,2:0:0:0:
187,353,85287,2,0,P|194:323|195:274,1,66,4|0,1:2|2:0,2:0:0:0:
329,116,85439,54,2,P|402:111|425:176,1,132,4|0,3:1|2:0,2:1:0:0:
509,237,85668,1,2,2:0:0:0:
509,237,85744,2,0,L|365:220,1,132,8|0,1:0|2:0,2:0:0:0:
314,273,85972,1,2,2:1:0:0:
451,363,86125,1,2,2:0:0:0:
446,335,86201,2,0,P|443:307|444:265,1,66,2|0,2:1|2:0,2:0:0:0:
252,154,86353,5,8,1:0:0:0:
246,193,86429,1,0,2:0:0:0:
240,232,86505,1,2,2:0:0:0:
234,271,86582,1,2,2:0:0:0:
228,310,86658,6,2,B|200:335|200:335|93:318,1,132,2|0,1:0|2:0,1:0:0:0:
0,154,86962,2,0,P|51:112|117:128,1,132,10|0,1:0|2:0,2:0:0:0:
266,72,87191,2,2,B|172:55|172:55|189:71|199:113,1,132,2|0,2:1|2:0,2:1:0:0:
157,195,87419,1,2,2:1:0:0:
91,29,87571,1,10,1:0:0:0:
327,127,87724,1,2,2:0:0:0:
191,124,87876,5,2,3:1:0:0:
193,143,87952,1,0,2:0:0:0:
195,162,88028,1,2,2:1:0:0:
197,181,88104,1,0,2:0:0:0:
159,209,88181,53,8,1:0:0:0:
195,237,88257,1,0,2:0:0:0:
239,250,88333,1,2,2:0:0:0:
285,250,88409,1,0,2:0:0:0:
328,233,88485,1,2,3:2:0:0:
368,211,88561,1,0,2:0:0:0:
413,204,88637,1,2,2:0:0:0:
458,212,88714,1,0,2:0:0:0:
490,244,88790,1,8,1:0:0:0:
497,289,88866,1,0,2:0:0:0:
478,331,88942,1,2,2:0:0:0:
434,346,89018,1,0,2:0:0:0:
392,326,89094,70,0,P|391:295|398:250,1,66,6|0,3:1|2:0,2:0:0:0:
484,54,89247,2,0,P|485:85|478:130,1,66,4|0,3:2|2:0,2:0:0:0:
363,176,89399,2,0,B|284:168|319:136|244:129,1,132,4|2,3:1|2:0,2:0:0:0:
191,192,89627,1,2,2:0:0:0:
191,192,89703,6,0,L|198:259,2,44,0|0|0,3:0|2:0|2:0,2:0:0:0:
47,357,90008,1,2,2:3:0:0:
29,257,90160,1,2,2:0:0:0:
206,63,90313,22,2,P|159:50|89:119,1,132,6|0,3:1|2:0,2:1:0:0:
163,298,90541,1,2,2:0:0:0:
163,298,90617,2,0,L|180:152,1,132,8|2,1:0|2:1,2:0:0:0:
314,37,90846,1,0,2:0:0:0:
323,21,90922,1,0,3:0:0:0:
330,66,90998,1,2,2:0:0:0:
337,111,91074,1,2,2:0:0:0:
450,277,91226,2,0,P|448:238|439:206,1,66,10|0,1:0|2:0,2:0:0:0:
272,190,91379,2,0,P|274:229|283:261,1,66,2|0,2:0|2:0,2:0:0:0:
482,347,91531,6,2,B|424:318|424:318|400:337|356:349,1,132,2|0,3:1|2:0,2:1:0:0:
209,306,91759,1,2,2:0:0:0:
209,306,91835,2,0,B|241:256|296:253|296:253|315:273,1,132,8|0,1:0|2:0,2:0:0:0:
388,219,92064,2,0,P|378:152|372:78,1,132,2|0,2:1|2:0,2:1:0:0:
456,70,92292,1,2,2:0:0:0:
272,190,92444,1,8,1:0:0:0:
226,34,92597,1,2,2:0:0:0:
435,51,92749,6,2,P|368:60|286:69,1,132,2|0,3:2|2:0,2:1:0:0:
145,26,92977,1,2,2:0:0:0:
145,26,93054,2,0,P|81:68|89:134,1,132,8|0,1:0|2:0,2:0:0:0:
158,188,93282,2,0,P|159:156|166:113,1,66,2|0,2:1|3:0,2:0:0:0:
16,257,93434,1,0,2:0:0:0:
28,240,93510,2,0,P|60:241|103:248,1,66,2|0,2:1|2:0,2:0:0:0:
185,341,93663,1,8,1:0:0:0:
230,333,93739,1,2,2:0:0:0:
275,325,93815,1,2,2:0:0:0:
320,317,93891,1,2,2:0:0:0:
365,310,93967,54,2,B|390:278|390:278|371:180,1,132,2|0,3:1|2:0,1:0:0:0:
485,63,94196,1,2,2:0:0:0:
485,63,94272,2,2,P|469:134|459:204,1,132,10|0,1:0|2:0,2:1:0:0:
293,221,94500,1,2,2:1:0:0:
284,192,94576,6,0,P|289:166|310:119,1,66,0|0,1:0|2:0,2:0:0:0:
478,277,94729,2,0,P|473:303|452:350,1,66,2|0,3:1|2:0,2:0:0:0:
220,272,94881,2,0,P|181:261|149:258,1,66,10|0,1:0|2:0,2:0:0:0:
239,304,95033,2,0,P|200:293|168:290,1,66,2|0,3:2|2:0,2:0:0:0:
38,338,95186,5,4,3:1:0:0:
37,304,95262,1,0,2:0:0:0:
49,273,95338,2,0,P|60:216|68:133,1,132,2|8,2:1|1:0,2:0:0:0:
166,43,95566,2,0,P|155:100|147:183,1,132,2|0,2:1|2:0,2:0:0:0:
21,74,95795,2,0,P|26:46|32:4,1,66,2|0,3:1|2:0,2:0:0:0:
229,138,95947,1,2,2:0:0:0:
229,138,96023,1,2,2:0:0:0:
229,138,96099,2,0,P|257:133|299:127,1,66,8|0,1:0|2:0,2:0:0:0:
442,67,96252,1,2,2:0:0:0:
405,52,96328,1,0,2:0:0:0:
368,23,96404,6,0,P|365:57|357:102,1,66,4|0,3:1|2:0,2:0:0:0:
304,207,96556,2,0,P|377:193|446:186,1,132,2|8,2:1|1:0,2:0:0:0:
250,293,96785,2,0,P|323:279|392:272,1,132,2|0,2:1|2:0,2:0:0:0:
501,353,97013,2,0,P|466:345|419:339,1,66,2|0,3:1|2:0,2:0:0:0:
158,353,97165,1,2,3:2:0:0:
158,353,97241,1,2,3:2:0:0:
158,353,97318,2,0,P|166:311|173:261,1,66,8|0,1:0|2:0,2:0:0:0:
103,107,97470,1,2,3:2:0:0:
97,145,97546,1,0,2:0:0:0:
70,173,97622,53,6,3:1:0:0:
106,181,97698,1,0,2:0:0:0:
144,183,97774,1,2,2:0:0:0:
180,174,97851,1,0,2:0:0:0:
213,155,97927,1,8,1:0:0:0:
247,139,98003,1,0,2:0:0:0:
284,133,98079,1,2,2:0:0:0:
322,135,98155,1,0,2:0:0:0:
357,149,98231,6,0,P|387:143|431:129,1,66,0|0,3:0|2:0,2:0:0:0:
209,32,98384,2,0,P|240:41|272:48,1,66,2|0,2:0|2:0,2:0:0:0:
288,222,98536,1,8,1:0:0:0:
282,270,98612,1,0,2:0:0:0:
307,312,98688,1,2,2:0:0:0:
352,329,98764,1,0,2:0:0:0:
399,316,98840,6,0,L|389:241,1,66,4|0,1:0|2:0,2:0:0:0:
412,67,98993,2,0,L|422:142,1,66,4|0,1:0|2:0,2:0:0:0:
211,257,99145,1,4,1:2:0:0:
211,257,99221,1,0,2:0:0:0:
211,257,99297,2,0,P|172:245|129:240,1,66,2|0,2:0|2:0,2:0:0:0:
12,173,99450,5,0,1:0:0:0:
19,141,99526,1,0,1:0:0:0:
41,116,99602,1,0,1:0:0:0:
71,104,99678,1,0,1:0:0:0:
103,107,99754,1,8,1:2:0:0:
233,156,99906,1,0,1:0:0:0:
134,315,100059,6,0,B|105:267|105:267|117:197,1,110,4|2,3:1|2:0,2:0:0:0:
22,30,100363,1,8,1:0:0:0:
213,65,100516,2,0,B|154:83|185:107|117:126,1,110,2|2,2:0|3:0,2:0:0:0:
39,125,100744,1,2,2:0:0:0:
42,107,100820,1,2,2:0:0:0:
233,156,100972,1,8,1:0:0:0:
260,151,101049,1,0,2:0:0:0:
287,147,101125,1,2,2:0:0:0:
314,142,101201,1,2,2:0:0:0:
341,138,101277,5,0,3:0:0:0:
508,53,101429,2,0,P|480:38|451:32,1,55,0|0,2:0|2:0,2:0:0:0:
369,55,101582,1,8,1:0:0:0:
415,222,101734,2,0,B|444:174|444:174|433:116,1,110,2|2,2:0|3:0,2:0:0:0:
277,56,101962,1,2,2:0:0:0:
281,76,102038,1,2,2:0:0:0:
334,254,102191,2,0,L|325:364,1,110,8|0,1:0|2:0,2:0:0:0:
65,263,102495,6,0,P|92:216|158:209,1,110,0|2,3:0|2:0,2:0:0:0:
242,322,102724,1,0,2:0:0:0:
238,349,102800,1,8,1:0:0:0:
187,269,102952,2,0,B|178:214|217:225|207:163,1,110,2|2,2:0|3:0,2:0:0:0:
139,128,103181,1,2,2:0:0:0:
115,125,103257,1,2,2:0:0:0:
232,25,103409,1,8,1:0:0:0:
272,21,103485,1,0,2:0:0:0:
309,38,103561,1,2,2:0:0:0:
333,71,103637,1,2,2:0:0:0:
338,111,103714,69,0,3:0:0:0:
295,300,103866,2,0,P|281:272|278:238,1,55,2|0,2:0|2:0,2:0:0:0:
417,119,104018,2,0,P|430:154|431:228,1,110,8|2,1:0|2:0,2:0:0:0:
226,358,104323,6,0,L|156:349,1,55,2|2,3:0|2:0,2:0:0:0:
22,193,104475,1,2,1:2:0:0:
17,235,104551,2,0,L|87:226,1,55,0|0,3:0|2:0,2:0:0:0:
221,70,104703,1,0,1:0:0:0:
226,112,104780,2,0,L|156:103,1,55,0|0,3:0|2:0,2:0:0:0:
65,94,104932,6,0,P|42:77|58:95,1,99.0000000000003,0|0,2:0|2:0,2:0:0:0:
95,115,105236,70,0,B|188:137|144:176|236:192,1,165,12|0,1:0|2:0,2:0:0:0:
314,153,105541,1,2,3:0:0:0:
309,119,105617,1,2,2:0:0:0:
303,82,105693,1,2,2:0:0:0:
490,186,105846,1,8,1:0:0:0:
489,226,105922,1,0,2:0:0:0:
466,260,105998,1,2,2:0:0:0:
429,275,106074,1,2,2:0:0:0:
389,267,106150,5,0,3:0:0:0:
418,96,106302,2,0,P|428:65|442:39,2,55,2|0|8,2:0|2:0|1:0,2:0:0:0:
301,252,106607,2,0,B|310:303|310:303|294:323|291:357,1,110,2|2,2:0|3:0,2:0:0:0:
421,372,106835,2,0,P|387:358|353:353,1,55,2|2,2:0|2:0,2:0:0:0:
233,191,106988,1,0,3:0:0:0:
233,191,107064,2,0,P|203:209|174:219,1,55,8|0,1:0|2:0,2:0:0:0:
206,351,107216,2,0,P|216:320|223:282,1,55,0|0,3:0|2:0,2:0:0:0:
102,186,107368,6,0,P|111:125|114:74,1,110,0|2,3:0|2:0,2:0:0:0:
40,57,107597,1,0,2:0:0:0:
34,30,107673,1,8,1:0:0:0:
196,114,107825,2,0,B|271:110|271:110|309:74,1,110,2|2,2:0|3:0,2:0:0:0:
368,28,108054,1,2,2:0:0:0:
366,49,108130,1,2,2:0:0:0:
453,257,108282,1,8,1:0:0:0:
485,232,108358,1,0,2:0:0:0:
502,195,108434,1,2,2:0:0:0:
498,154,108510,1,2,2:0:0:0:
476,120,108587,70,0,L|403:126,1,55,4|0,3:2|2:0,2:0:0:0:
208,3,108739,2,0,L|281:9,1,55,4|0,3:2|2:0,2:0:0:0:
356,245,108891,2,0,B|343:270|343:270|330:212|330:212|341:192|341:192|327:126,1,165,4|0,3:2|2:0,2:0:0:0:
246,84,109196,5,2,3:2:0:0:
209,91,109272,1,2,2:0:0:0:
177,108,109348,1,2,2:0:0:0:
150,133,109424,1,2,2:0:0:0:
164,184,109500,5,2,2:0:0:0:
109,191,109576,1,2,2:1:0:0:
56,180,109653,1,2,2:1:0:0:
8,154,109729,1,2,2:1:0:0:
62,112,109805,6,2,B|118:123|150:170|150:170|155:157|155:157|179:258|265:258|289:188|248:134,1,330,6|2,3:1|2:1,2:1:0:0:
324,1,110109,6,2,B|309:33|290:51|290:51|259:43|259:43|215:65|208:105|208:105|222:89|259:82,1,220,2|2,3:1|2:1,2:1:0:0:
330,139,110338,6,2,B|412:186|352:217|448:269|448:269|432:249|426:217,1,220,2|2,3:1|2:1,2:1:0:0:
501,209,110566,6,0,B|481:179|481:179|495:100,1,88,2|0,3:1|2:0,2:0:0:0:
320,253,110719,2,0,B|340:283|340:283|326:362,1,88,2|0,3:1|2:0,2:0:0:0:
411,106,110871,2,0,P|404:61|400:14,1,88,2|0,3:1|2:0,2:0:0:0:
252,302,111023,53,0,3:0:0:0:
252,302,111099,1,0,2:0:0:0:
252,302,111175,2,0,B|212:287|186:289|186:289|155:314,1,88,2|0,3:1|2:0,2:0:0:0:
156,126,111328,2,0,B|141:166|143:192|143:192|168:223,1,88,2|0,3:1|2:0,2:0:0:0:
5,288,111480,2,0,B|49:294|49:294|64:277|93:267,1,88,2|0,3:1|2:0,2:0:0:0:
241,172,111632,6,2,P|228:107|222:7,1,132,10|0,1:0|2:0,2:1:0:0:
63,151,111861,2,2,P|50:86|44:-14,1,132,10|0,1:0|2:0,2:1:0:0:
156,208,112089,2,2,P|149:175|146:125,1,66,2|0,1:0|2:0,2:1:0:0:
406,138,112241,37,4,3:1:0:0:
414,119,112318,1,0,2:0:0:0:
422,100,112394,2,0,B|394:83|394:83|332:95,1,66,2|0,2:0|2:0,2:0:0:0:
290,247,112546,2,0,B|332:237|357:205|357:205|380:221|432:224,1,132,8|0,1:0|2:0,2:0:0:0:
363,14,112774,6,0,P|294:48|293:123,1,132,2|0,3:2|2:0,2:0:0:0:
481,209,113003,2,0,L|489:123,1,66,2|0,3:2|2:0,2:0:0:0:
242,173,113155,1,2,3:2:0:0:
226,185,113231,1,0,2:0:0:0:
210,197,113307,2,0,L|202:283,1,66,0|0,2:0|2:0,2:0:0:0:
61,361,113460,6,0,L|53:275,1,66,2|0,3:2|2:0,2:0:0:0:
152,77,113612,2,0,L|144:163,1,66,2|0,3:2|2:0,2:0:0:0:
235,341,113764,1,8,3:1:0:0:
70,201,113917,70,0,L|43:205,4,16.5,0|0|0|0|0,1:0|1:0|1:0|1:0|1:0,1:0:0:0:
158,277,114069,5,2,1:0:0:0:
195,239,114145,1,0,1:0:0:0:
249,239,114221,1,0,1:0:0:0:
284,191,114297,5,2,1:0:0:0:
333,209,114373,1,0,1:0:0:0:
354,258,114450,1,0,1:0:0:0:
412,273,114526,70,0,L|405:344,1,66,0|0,1:0|1:0,1:0:0:0:
211,152,114678,69,4,3:1:0:0:
211,152,114754,1,0,2:0:0:0:
211,152,114830,2,0,P|228:92|239:11,1,132,2|8,2:1|1:0,2:0:0:0:
395,80,115059,1,2,2:1:0:0:
377,109,115135,2,0,P|322:94|292:81,1,66,0|0,2:0|2:0,2:0:0:0:
96,137,115287,6,0,B|21:149|21:149|111:155,1,132,2|0,3:1|2:0,2:0:0:0:
250,250,115516,1,2,2:1:0:0:
219,272,115592,2,0,P|208:300|199:346,1,66,8|0,1:0|2:0,2:0:0:0:
443,208,115744,2,0,P|454:180|463:134,1,66,2|2,2:0|2:1,2:0:0:0:
301,0,115896,53,4,3:2:0:0:
286,48,115972,1,0,2:0:0:0:
313,91,116049,2,0,B|303:181|353:153|346:237,1,154,2|8,2:1|1:0,2:0:0:0:
483,294,116277,1,2,2:1:0:0:
453,311,116353,2,0,P|440:346|431:388,1,77.0000000000001,0|0,2:0|2:0,2:0:0:0:
231,344,116505,6,0,B|309:352|309:352|334:321|381:311,1,154,2|0,3:1|2:0,2:0:0:0:
226,239,116734,1,0,3:0:0:0:
190,271,116810,2,0,P|158:280|113:286,1,77.0000000000001,8|0,1:0|2:0,2:0:0:0:
0,350,116962,2,0,P|32:353|78:365,1,77.0000000000001,0|2,1:0|2:1,2:0:0:0:
172,99,117115,5,4,1:0:0:0:
118,92,117191,1,0,1:0:0:0:
77,126,117267,1,2,1:0:0:0:
74,180,117343,1,0,1:0:0:0:
101,191,117419,5,8,1:0:0:0:
122,188,117495,1,2,1:2:0:0:
144,186,117571,1,0,1:0:0:0:
166,184,117648,1,0,1:0:0:0:
201,206,117724,54,0,P|192:244|190:289,1,66,2|0,3:2|1:0,1:0:0:0:
403,278,117876,1,2,1:2:0:0:
403,278,117952,2,0,P|412:316|414:361,1,66,2|8,1:0|1:0,1:0:0:0:
292,356,118104,1,2,1:2:0:0:
298,290,118181,1,2,1:0:0:0:
305,224,118257,1,2,1:0:0:0:
312,159,118333,6,0,P|305:126|305:82,1,66,6|0,3:1|1:0,1:0:0:0:
470,6,118485,2,0,P|477:39|477:83,1,66,0|0,3:0|1:0,1:0:0:0:
417,164,118637,5,8,1:0:0:0:
363,191,118714,1,0,1:0:0:0:
304,181,118790,1,2,1:2:0:0:
259,142,118866,1,0,1:0:0:0:
242,85,118942,5,0,1:0:0:0:
193,50,119018,1,0,1:0:0:0:
134,42,119094,1,2,1:0:0:0:
81,69,119170,1,0,1:0:0:0:
65,126,119247,5,8,1:0:0:0:
90,179,119323,1,0,1:0:0:0:
145,200,119399,1,0,1:0:0:0:
188,163,119475,1,0,1:0:0:0:
146,121,119551,5,4,1:0:0:0:
