osu file format v14

[General]
AudioFilename: audio.mp3
AudioLeadIn: 0
PreviewTime:80566
Countdown: 0
SampleSet: Soft
StackLeniency: 0.7
Mode: 0
LetterboxInBreaks: 0
WidescreenStoryboard: 0

[Editor]
Bookmarks: 2597,12343,31835,41582,61074,70820,80566,100059,109805,119551
DistanceSpacing: 1.5
BeatDivisor: 4
GridSize: 32
TimelineZoom: 3.899998

[Metadata]
Title:Re_Construct
TitleUnicode:Re_Construct
Artist:Zekk
ArtistUnicode:Zekk
Creator:Acylica
Version:AncuL's Extra(#2)
Source:OverRapid
Tags:pdc pending cup 2020 pdc2020 mapping contest Dynamix acyl niva ancul reconstruct re construct pino -[Pino]- yf_bmp captin1 down electronic instrumental re:construct j core j-core hard renaissance jcore fa featured artist
BeatmapID:2778366
BeatmapSetID:1318329

[Difficulty]
HPDrainRate:5
CircleSize:4.2
OverallDifficulty:9
ApproachRate:9.7
SliderMultiplier:2.2
SliderTickRate:1

[Events]
//Background and Video events
0,0,"autumn.png",0,0
//Break Periods
2,61274,69564
//Storyboard Layer 0 (Background)
//Storyboard Layer 1 (Fail)
//Storyboard Layer 2 (Pass)
//Storyboard Layer 3 (Foreground)
//Storyboard Layer 4 (Overlay)
//Storyboard Sound Samples

[TimingPoints]
1379,304.568527918782,4,2,5,60,1,0
1379,-71.4285714285714,4,2,5,60,0,0
2597,-133.333333333333,4,2,5,80,0,0
4576,-100,4,2,5,80,0,0
4881,-83.3333333333333,4,2,5,80,0,0
4995,-83.3333333333333,4,2,5,5,0,0
5033,-100,4,2,5,80,0,0
6861,-153.846153846154,4,2,5,80,0,0
7470,-133.333333333333,4,2,5,80,0,0
8840,-100,4,2,5,100,0,0
10211,-80,4,2,5,100,0,0
11125,-133.333333333333,4,2,5,100,0,0
12038,-76.9230769230769,4,2,5,100,0,0
12343,-100,4,2,5,100,0,0
20871,-76.9230769230769,4,2,5,100,0,0
21632,-133.333333333333,4,2,5,100,0,0
22089,-83.3333333333333,4,2,5,100,0,0
26353,-71.4285714285714,4,2,5,100,0,0
26620,-62.5,4,2,5,5,0,0
26658,-66.6666666666667,4,2,5,100,0,0
26962,-71.4285714285714,4,2,5,100,0,0
29475,-58.8235294117647,4,2,5,100,0,0
30427,-58.8235294117647,4,2,5,5,0,0
30465,-58.8235294117647,4,2,5,100,0,0
30617,-133.333333333333,4,2,5,100,0,0
31835,-133.333333333333,4,2,5,80,0,0
32292,-111.111111111111,4,2,5,80,0,0
32749,-133.333333333333,4,2,5,80,0,0
34881,-133.333333333333,4,2,5,80,0,0
35490,-100,4,2,5,80,0,0
36708,-111.111111111111,4,2,5,80,0,0
37165,-100,4,2,5,80,0,0
41125,-50,4,2,5,80,0,0
41239,-62.5,4,2,5,5,0,0
41277,-57.1428571428571,4,2,5,100,0,0
41582,-58.8235294117647,4,2,5,100,0,1
41696,-58.8235294117647,4,2,5,5,0,1
41734,-58.8235294117647,4,2,5,100,0,1
42115,-71.4285714285714,4,2,5,100,0,1
42419,-66.6666666666667,4,2,5,100,0,1
42648,-83.3333333333333,4,2,5,100,0,1
42800,-58.8235294117647,4,2,5,100,0,1
43409,-76.9230769230769,4,2,5,100,0,1
43637,-62.5,4,2,5,100,0,1
43980,-62.5,4,2,5,5,0,1
44018,-76.9230769230769,4,2,5,100,0,1
45046,-76.9230769230769,4,2,5,5,0,1
45084,-76.9230769230769,4,2,5,100,0,1
45236,-66.6666666666667,4,2,5,100,0,1
45351,-76.9230769230769,4,2,5,5,0,1
45389,-66.6666666666667,4,2,5,100,0,1
45503,-76.9230769230769,4,2,5,5,0,1
45541,-66.6666666666667,4,2,5,100,0,1
46074,-58.8235294117647,4,2,5,100,0,1
46302,-50,4,2,5,100,0,1
46683,-66.6666666666667,4,2,5,100,0,1
47368,-62.5,4,2,5,100,0,1
47483,-62.5,4,2,5,5,0,1
47521,-62.5,4,2,5,100,0,1
47635,-62.5,4,2,5,5,0,1
47673,-76.9230769230769,4,2,5,100,0,1
47901,-66.6666666666667,4,2,5,100,0,1
48587,-57.1428571428571,4,2,5,100,0,1
48993,-66.6666666666667,4,2,5,100,0,1
49196,-50,4,2,5,100,0,1
49602,-52.6315789473684,4,2,5,100,0,1
49906,-66.6666666666667,4,2,5,100,0,1
51328,-58.8235294117647,4,2,5,100,0,1
51442,-58.8235294117647,4,2,5,5,0,1
51480,-58.8235294117647,4,2,5,100,0,1
51937,-76.9230769230769,4,2,5,100,0,1
52165,-66.6666666666667,4,2,5,100,0,1
52394,-83.3333333333333,4,2,5,100,0,1
52546,-58.8235294117647,4,2,5,100,0,1
53384,-62.5,4,2,5,100,0,1
53764,-76.9230769230769,4,2,5,100,0,1
54221,-66.6666666666667,4,2,5,100,0,1
54678,-55.5555555555556,4,2,5,100,0,1
54792,-55.5555555555556,4,2,5,5,0,1
54830,-55.5555555555556,4,2,5,100,0,1
54983,-58.8235294117647,4,2,5,100,0,1
55592,-66.6666666666667,4,2,5,100,0,1
55858,-66.6666666666667,4,2,5,5,0,1
55896,-60.6060606060606,4,2,5,100,0,1
56505,-71.4285714285714,4,2,5,100,0,1
58739,-66.6666666666667,4,2,5,100,0,1
58942,-57.1428571428571,4,2,5,100,0,1
61074,-57.1428571428571,4,2,5,100,0,0
70820,-133.333333333333,4,2,5,80,0,0
71429,-125,4,2,5,80,0,0
75541,-83.3333333333333,4,2,5,80,0,0
75769,-83.3333333333333,4,2,5,100,0,0
75846,-100,4,2,5,100,0,0
76074,-66.6666666666667,4,2,5,100,0,0
76379,-50,4,2,5,100,0,0
76683,-40,4,2,5,100,0,0
76988,-33.3333333333333,4,2,5,100,0,0
77292,-28.5714285714286,4,2,5,100,0,0
77673,-25,4,2,5,100,0,0
78130,-133.333333333333,4,2,5,100,0,0
79348,-133.333333333333,4,2,5,80,0,0
80262,-52.6315789473684,4,2,5,80,0,0
80566,-52.6315789473684,4,2,5,100,0,1
80871,-58.8235294117647,4,2,5,100,0,1
81480,-50,4,2,5,100,0,1
81594,-50,4,2,5,5,0,1
81632,-50,4,2,5,100,0,1
81747,-50,4,2,5,5,0,1
81785,-76.9230769230769,4,2,5,100,0,1
81937,-133.333333333333,4,2,5,100,0,1
82089,-66.6666666666667,4,2,5,100,0,1
83003,-66.6666666666667,4,2,5,100,0,1
83307,-55.5555555555556,4,2,5,100,0,1
83498,-55.5555555555556,4,2,5,5,0,1
83536,-50,4,2,5,100,0,1
83726,-55.5555555555556,4,2,5,5,0,1
83764,-55.5555555555556,4,2,5,100,0,1
84221,-50,4,2,5,100,0,1
84526,-66.6666666666667,4,2,5,100,0,1
84983,-50,4,2,5,100,0,1
85097,-58.8235294117647,4,2,5,5,0,1
85135,-58.8235294117647,4,2,5,100,0,1
85249,-58.8235294117647,4,2,5,5,0,1
85287,-76.9230769230769,4,2,5,100,0,1
85401,-76.9230769230769,4,2,5,5,0,1
85439,-76.9230769230769,4,2,5,100,0,1
85972,-58.8235294117647,4,2,5,100,0,1
86201,-66.6666666666667,4,2,5,100,0,1
86658,-55.5555555555556,4,2,5,100,0,1
87381,-55.5555555555556,4,2,5,5,0,1
87419,-40,4,2,5,100,0,1
87571,-45.4545454545455,4,2,5,100,0,1
87724,-100,4,2,5,100,0,1
89094,-52.6315789473684,4,2,5,100,0,1
89208,-52.6315789473684,4,2,5,5,0,1
89247,-52.6315789473684,4,2,5,100,0,1
89361,-52.6315789473684,4,2,5,5,0,1
89399,-52.6315789473684,4,2,5,100,0,1
89703,-100,4,2,5,100,0,1
90617,-58.8235294117647,4,2,5,100,0,1
90922,-76.9230769230769,4,2,5,100,0,1
91226,-50,4,2,5,100,0,1
91340,-50,4,2,5,5,0,1
91379,-50,4,2,5,100,0,1
91493,-50,4,2,5,5,0,1
91531,-76.9230769230769,4,2,5,100,0,1
91835,-62.5,4,2,5,100,0,1
92064,-50,4,2,5,100,0,1
92749,-62.5,4,2,5,100,0,1
93282,-76.9230769230769,4,2,5,100,0,1
93967,-53.763440860215,4,2,5,100,0,1
94272,-58.8235294117647,4,2,5,100,0,1
94729,-50,4,2,5,100,0,1
94843,-50,4,2,5,5,0,1
94881,-50,4,2,5,100,0,1
94995,-50,4,2,5,5,0,1
95033,-50,4,2,5,100,0,1
95490,-66.6666666666667,4,2,5,100,0,1
96023,-58.8235294117647,4,2,5,100,0,1
98840,-76.9230769230769,4,2,5,100,0,1
98993,-52.6315789473684,4,2,5,100,0,1
99145,-55.5555555555556,4,2,5,100,0,1
99526,-133.333333333333,4,2,5,100,0,1
100059,-133.333333333333,4,2,5,100,0,0
100363,-100,4,2,5,90,0,0
100820,-66.6666666666667,4,2,5,90,0,0
101277,-100,4,2,5,90,0,0
101582,-76.9230769230769,4,2,5,90,0,0
102038,-62.5,4,2,5,90,0,0
102495,-100,4,2,5,90,0,0
103257,-66.6666666666667,4,2,5,90,0,0
103714,-58.8235294117647,4,2,5,90,0,0
104018,-83.3333333333333,4,2,5,90,0,0
104323,-66.6666666666667,4,2,5,90,0,0
104551,-58.8235294117647,4,2,5,90,0,0
105389,-76.9230769230769,4,2,5,90,0,0
105693,-62.5,4,2,5,90,0,0
106150,-100,4,2,5,90,0,0
106302,-76.9230769230769,4,2,5,90,0,0
108130,-62.5,4,2,5,90,0,0
108587,-50,4,2,5,90,0,0
108701,-50,4,2,5,5,0,0
108739,-50,4,2,5,90,0,0
108853,-50,4,2,5,5,0,0
108891,-55.5555555555556,4,2,5,90,0,0
109805,-45.4545454545455,4,2,5,100,0,1
110300,-45.4545454545455,4,2,5,5,0,1
110338,-45.4545454545455,4,2,5,100,0,1
112241,-100,4,2,5,100,0,1
112394,-58.8235294117647,4,2,5,100,0,1
112546,-52.6315789473684,4,2,5,100,0,1
113117,-52.6315789473684,4,2,5,5,0,1
113155,-45.4545454545455,4,2,5,100,0,1
113612,-66.6666666666667,4,2,5,100,0,1
113764,-45.4545454545455,4,2,5,100,0,1
114526,-55.5555555555556,4,2,5,100,0,1
115059,-62.5,4,2,5,100,0,1
118333,-52.6315789473684,4,2,5,100,0,1
118447,-52.6315789473684,4,2,5,5,0,1
118485,-62.5,4,2,5,100,0,1
118637,-50,4,2,5,100,0,1
119551,-50,4,2,5,100,0,0

[Colours]
Combo1 : 248,209,107
Combo2 : 193,136,181
Combo3 : 135,167,203
Combo4 : 255,147,38

[HitObjects]
256,96,1379,54,0,L|246:16,1,76.9999976501466,0|0,1:0|0:0,0:0:0:0:
290,170,1531,1,0,3:0:0:0:
272,185,1607,1,0,3:0:0:0:
250,179,1683,1,0,3:0:0:0:
246,13,1835,1,8,3:0:0:0:
170,244,1988,37,8,3:0:0:0:
134,235,2064,1,0,3:0:0:0:
108,253,2140,1,8,3:0:0:0:
77,242,2216,1,0,3:0:0:0:
146,316,2292,2,0,B|171:371|171:371|155:388,2,76.9999976501466,8|8|0,0:0|0:0|1:0,0:0:0:0:
10,54,2597,6,0,P|37:88|75:83,1,82.5000031471254,4|0,1:2|0:0,0:0:0:0:
72,85,2825,1,2,0:0:0:0:
71,85,2901,2,0,P|93:52|78:15,1,82.5000031471254,2|0,0:0|0:0,0:0:0:0:
277,50,3206,2,0,B|332:26|397:21|397:21|419:32|419:32|513:12|513:12|406:44|387:102|387:102|354:119|315:125|315:125|373:114|405:152|388:179|481:160|463:105,1,660.000025177003,2|0,0:0|0:0,0:0:0:0:
290,307,4576,2,0,B|342:276|324:207|324:207|264:222,1,165,0|0,1:0|0:0,0:0:0:0:
176,278,4881,38,0,B|151:261|151:261|81:269,1,98.9999969787599,0|0,1:0|0:0,0:0:0:0:
14,247,5033,6,0,B|92:266|92:266|135:334|135:334|313:387|313:387|446:323|446:323|365:267|365:267|278:338|149:309,1,797.5,4|0,1:2|0:0,0:0:0:0:
359,138,6252,38,0,B|328:220|289:254|186:278|108:238|108:167|149:126|201:128,1,385,4|0,1:2|0:0,0:0:0:0:
224,195,6861,2,0,B|252:201|274:180|284:142|248:109|201:99|159:112|132:155,1,214.49999018097,2|0,0:0|0:0,0:0:0:0:
209,41,7470,6,0,L|211:0,3,41.2500015735627,0|0|0|0,3:0|0:0|0:0|0:0,0:0:0:0:
321,66,7774,2,0,L|276:79,1,41.2500015735627,0|0,3:0|0:0,0:0:0:0:
127,70,7927,2,0,L|87:58,1,41.2500015735627
106,160,8079,2,0,L|151:143,1,41.2500015735627,0|0,3:0|0:0,0:0:0:0:
263,152,8231,2,0,L|301:166,1,41.2500015735627
415,87,8384,1,0,3:0:0:0:
435,83,8460,1,0,0:0:0:0:
455,79,8536,1,0,3:0:0:0:
475,76,8612,1,0,3:0:0:0:
495,73,8688,37,4,1:2:0:0:
500,81,8764,1,0,0:0:0:0:
505,90,8840,1,0,3:0:0:0:
511,99,8917,2,0,L|450:114,1,55,2|0,0:0|0:0,0:0:0:0:
396,184,9069,1,0,3:0:0:0:
396,184,9145,1,0,3:0:0:0:
396,184,9221,1,0,3:0:0:0:
396,184,9297,5,0,3:0:0:0:
398,202,9373,1,0,3:0:0:0:
378,225,9450,1,0,3:0:0:0:
340,236,9526,1,0,3:0:0:0:
306,226,9602,1,0,3:0:0:0:
269,213,9678,1,0,3:0:0:0:
227,226,9754,1,0,3:0:0:0:
210,270,9830,1,0,3:0:0:0:
231,310,9906,38,0,P|243:338|240:364,1,55,4|0,1:2|3:0,0:0:0:0:
131,384,10059,2,0,P|151:366|160:340,1,55,0|0,3:0|3:0,3:0:0:0:
184,158,10211,6,0,P|161:132|129:120,1,68.75,0|0,3:0|3:0,3:0:0:0:
79,53,10364,2,0,P|109:38|143:41,1,68.75,0|0,3:0|3:0,3:0:0:0:
320,101,10516,1,0,3:0:0:0:
365,148,10592,1,0,3:0:0:0:
428,156,10668,1,0,3:0:0:0:
479,135,10744,1,0,3:0:0:0:
505,97,10820,1,0,3:0:0:0:
512,60,10896,1,0,3:0:0:0:
504,32,10972,1,0,3:0:0:0:
476,13,11049,1,0,3:0:0:0:
448,17,11125,38,0,B|396:37|396:37|429:58|460:48,2,123.750004720688,0|8|8,1:0|0:0|0:0,0:0:0:0:
483,241,11734,1,8,0:0:0:0:
480,266,11810,1,8,0:0:0:0:
461,282,11886,1,2,0:0:0:0:
413,221,12038,6,2,P|396:191|362:166,1,71.4999967269899,0|0,0:0|0:0,0:0:0:0:
274,347,12191,2,2,P|249:371|210:386,1,71.4999967269899,0|0,0:0|0:0,0:0:0:0:
18,288,12343,1,4,1:2:0:0:
103,233,12495,37,0,0:0:0:0:
103,233,12571,1,2,0:0:0:0:
0,140,12724,2,0,L|59:152,1,55,2|0,0:0|0:0,0:0:0:0:
67,144,12876,2,0,L|126:156,1,55
211,251,13028,2,0,B|216:282|216:282|202:306,2,55,0|0|2,0:0|0:0|0:0,0:0:0:0:
209,130,13333,1,2,0:0:0:0:
214,102,13409,1,0,0:0:0:0:
237,77,13485,1,2,0:0:0:0:
242,49,13561,1,0,0:0:0:0:
375,252,13714,5,0,0:0:0:0:
375,251,13790,2,0,B|422:260|422:260|435:268|435:268|488:278,2,110,2|2|2,0:0|0:0|0:0,0:0:0:0:
344,370,14247,1,0,0:0:0:0:
358,354,14323,1,0,0:0:0:0:
379,347,14399,1,2,0:0:0:0:
328,174,14551,2,0,L|270:189,2,55,2|0|2,0:0|0:0|0:0,0:0:0:0:
336,178,14780,1,0,0:0:0:0:
512,79,14932,37,0,0:0:0:0:
512,79,15008,2,0,P|490:46|422:46,1,110,2|0,0:0|0:0,0:0:0:0:
316,74,15236,2,0,P|298:46|309:3,1,55,2|0,0:0|0:0,0:0:0:0:
383,106,15389,1,0,0:0:0:0:
187,0,15541,1,0,0:0:0:0:
187,0,15617,2,0,B|157:51|157:51|188:99,1,110,2|0,0:0|0:0,0:0:0:0:
145,182,15846,2,0,L|128:249,1,55,2|0,0:0|0:0,0:0:0:0:
225,164,15998,1,0,0:0:0:0:
112,384,16150,5,0,0:0:0:0:
112,384,16226,1,2,0:0:0:0:
223,327,16379,1,2,0:0:0:0:
256,340,16455,1,0,0:0:0:0:
267,372,16531,1,2,0:0:0:0:
297,384,16607,1,0,1:0:0:0:
461,244,16759,1,0,0:0:0:0:
480,237,16835,2,0,B|526:269|526:269|507:325,1,110,0|0,1:0|0:0,0:0:0:0:
508,320,17064,2,0,L|447:329,1,55,0|0,1:0|0:0,0:0:0:0:
293,223,17216,1,4,1:2:0:0:
129,322,17368,37,0,0:0:0:0:
129,322,17444,1,2,0:0:0:0:
189,139,17597,2,0,L|181:193,1,55,2|0,0:0|0:0,0:0:0:0:
187,204,17749,2,0,L|179:258,1,55,2|0,0:0|0:0,0:0:0:0:
55,379,17901,1,0,0:0:0:0:
27,382,17977,1,0,0:0:0:0:
10,366,18054,1,2,0:0:0:0:
20,341,18130,2,0,L|131:321,1,110
187,377,18358,1,2,0:0:0:0:
187,377,18434,1,0,0:0:0:0:
91,125,18587,5,0,0:0:0:0:
91,125,18664,2,0,P|66:113|38:112,1,55,2|0,0:0|0:0,0:0:0:0:
180,0,18815,2,0,P|126:1|96:45,1,110,2|0,0:0|0:0,0:0:0:0:
169,167,19043,2,0,L|179:103,1,55,2|0,0:0|0:0,0:0:0:0:
177,112,19196,2,0,L|236:119,1,55,2|0,0:0|0:0,0:0:0:0:
382,65,19348,2,0,L|436:72,1,55,2|0,0:0|0:0,0:0:0:0:
434,70,19501,2,0,L|442:15,1,55,2|0,0:0|0:0,0:0:0:0:
304,0,19653,38,0,B|285:60|322:49|302:111,1,110
335,183,19881,2,0,L|318:245,1,55,2|0,0:0|0:0,0:0:0:0:
421,269,20033,1,2,0:0:0:0:
448,270,20109,1,0,0:0:0:0:
473,259,20185,1,2,0:0:0:0:
487,236,20261,1,0,0:0:0:0:
253,183,20414,5,0,0:0:0:0:
253,183,20490,2,0,L|139:199,1,110,2|0,0:0|0:0,0:0:0:0:
81,145,20719,2,0,P|97:114|101:90,1,55,2|0,0:0|0:0,0:0:0:0:
217,310,20871,38,0,B|269:312|269:312|287:294|287:294|247:291,1,107.249995090485,0|0,1:0|0:0,0:0:0:0:
209,299,21023,2,0,B|132:291|132:291|152:298|162:313,1,107.249995090485,0|0,1:0|0:0,0:0:0:0:
195,387,21175,2,0,B|205:301|205:301|247:264|247:264|258:189,1,214.49999018097,4|0,1:2|0:0,0:0:0:0:
275,0,21480,1,0,1:0:0:0:
264,121,21632,5,0,0:0:0:0:
264,121,21708,2,0,L|266:73,1,41.2500015735627,2|0,0:0|0:0,0:0:0:0:
198,31,21861,2,0,P|181:20|150:16,1,41.2500015735627,2|0,0:0|0:0,0:0:0:0:
344,39,22013,1,2,0:0:0:0:
344,39,22089,38,0,P|414:26|455:68,1,131.99999597168,0|0,1:0|0:0,0:0:0:0:
457,162,22318,1,0,0:0:0:0:
450,149,22394,2,0,P|412:141|384:138,1,65.9999979858399,10|0,0:0|0:0,0:0:0:0:
255,271,22546,2,0,B|213:290|213:290|170:262|187:213,2,131.99999597168,2|0|0,0:0|1:0|0:0,0:0:0:0:
261,267,22927,2,0,P|299:275|327:278,1,65.9999979858399,2|8,0:0|0:0,0:0:0:0:
425,366,23079,1,2,0:0:0:0:
464,384,23155,1,0,0:0:0:0:
502,365,23231,1,2,0:0:0:0:
507,328,23307,1,0,1:0:0:0:
376,154,23460,5,0,0:0:0:0:
376,154,23536,2,0,B|380:183|380:183|387:191|387:191|391:223,1,65.9999979858399,2|8,0:0|0:0,0:0:0:0:
344,318,23688,2,0,P|298:363|235:357,1,131.99999597168,2|0,0:0|0:0,0:0:0:0:
101,289,23917,2,0,B|148:293|190:278|190:278|167:290|158:310,1,131.99999597168,0|0,1:0|0:0,0:0:0:0:
64,370,24145,2,0,P|25:374|-11:386,1,65.9999979858399,2|8,0:0|0:0,0:0:0:0:
110,206,24297,2,0,P|149:202|185:190,1,65.9999979858399,2|0,0:0|0:0,0:0:0:0:
95,291,24450,1,2,0:0:0:0:
95,291,24526,1,0,1:0:0:0:
128,56,24678,37,0,0:0:0:0:
128,56,24754,2,0,B|111:88|111:88|135:117,1,65.9999979858399,2|8,0:0|0:0,0:0:0:0:
247,151,24906,2,0,B|263:79|224:95|236:23,2,131.99999597168,2|2|0,0:0|0:0|0:0,0:0:0:0:
236,163,25287,1,0,0:0:0:0:
230,174,25363,2,0,L|222:245,1,65.9999979858399,2|8,0:0|0:0,0:0:0:0:
322,30,25516,2,0,P|348:10|386:2,2,65.9999979858399,2|0|2,0:0|0:0|0:0,0:0:0:0:
314,45,25744,1,0,1:0:0:0:
458,132,25896,5,0,0:0:0:0:
457,126,25972,2,0,B|480:103|480:103|524:114,1,65.9999979858399,2|8,0:0|0:0,0:0:0:0:
369,175,26125,2,0,B|381:201|411:211|411:211|427:290,1,131.99999597168,2|0,0:0|0:0,0:0:0:0:
286,375,26353,38,0,P|284:337|261:307,1,76.9999976501466,2|0,1:2|0:0,0:0:0:0:
99,281,26505,2,0,P|66:327|65:384,1,115.49999647522,0|0,1:0|0:0,0:0:0:0:
65,384,26658,6,0,B|101:379|101:379|117:371|117:371|148:367,1,82.5000031471254,6|0,1:2|0:0,0:0:0:0:
256,309,26810,2,0,B|251:274|251:274|243:258|243:258|240:229,1,82.5000031471254,2|0,1:2|0:0,0:0:0:0:
350,77,26962,38,0,B|375:54|375:54|437:87|416:157,1,153.999995300293,0|0,1:2|0:0,0:0:0:0:
138,221,27191,2,0,B|105:224|105:224|74:161|132:117,1,153.999995300293,0|0,1:0|0:0,0:0:0:0:
395,229,27419,2,0,B|425:245|425:245|413:314|340:316,1,153.999995300293,0|0,1:0|0:0,0:0:0:0:
191,72,27648,2,0,B|177:41|177:41|228:-7|288:33,1,153.999995300293,0|0,1:0|0:0,0:0:0:0:
264,318,27876,2,0,B|258:351|258:351|220:361|181:308,1,76.9999976501466,8|0,0:0|0:0,0:0:0:0:
160,286,28028,1,8,0:0:0:0:
165,285,28181,6,0,P|231:318|277:382,1,153.999995300293,0|0,1:0|0:0,0:0:0:0:
412,159,28409,2,0,P|379:93|379:14,1,153.999995300293,0|0,1:0|0:0,0:0:0:0:
139,115,28638,2,0,P|129:187|82:251,1,153.999995300293,0|0,1:0|0:0,0:0:0:0:
334,312,28866,2,0,P|386:259|431:248,1,76.9999976501466,0|0,1:0|0:0,0:0:0:0:
292,37,29018,1,0,1:0:0:0:
292,37,29095,2,0,P|220:49|184:36,1,76.9999976501466,8|0,0:0|0:0,0:0:0:0:
147,7,29247,2,0,P|170:38|203:55,1,76.9999976501466,8|0,2:0|0:0,0:0:0:0:
414,172,29399,37,0,1:0:0:0:
433,181,29475,2,0,B|461:180|469:161|469:161|455:133|455:133|432:125|404:148,1,93.500001783371,2|0,0:0|0:0,0:0:0:0:
157,275,29627,5,0,1:0:0:0:
135,279,29703,2,0,B|114:296|119:316|119:316|146:331|146:331|170:324|179:288,1,93.500001783371,2|0,0:0|0:0,0:0:0:0:
305,40,29856,37,0,1:0:0:0:
319,24,29932,2,0,B|328:-1|312:-14|312:-14|281:-10|281:-10|266:8|280:42,1,93.500001783371,2|0,0:0|0:0,0:0:0:0:
323,318,30084,5,0,1:0:0:0:
321,339,30160,2,0,B|331:365|352:367|352:367|375:344|375:344|375:319|343:301,1,93.500001783371,2|0,0:0|0:0,0:0:0:0:
135,86,30313,38,0,B|113:69|95:80|95:80|90:111|90:111|104:146|155:139,1,140.250002675057,8|0,0:0|0:0,0:0:0:0:
148,134,30465,2,0,B|195:138|195:138|201:143|201:143|262:145,1,93.500001783371,8|0,0:0|0:0,0:0:0:0:
412,0,30617,6,0,B|479:-8|528:42|505:85|458:70|450:31,2,165.000006294251,4|0|0,1:2|0:0|0:0,0:0:0:0:
500,140,31531,2,0,P|462:105|381:100,1,123.750004720688,2|0,0:0|0:0,0:0:0:0:
399,116,31835,38,0,B|390:166|426:189|427:177|471:200|464:262,1,165.000006294251,6|0,1:2|0:0,0:0:0:0:
258,349,32292,2,0,B|285:306|289:243|243:204|177:241|177:296|192:348,1,247.4999924469,2|0,0:0|0:0,0:0:0:0:
276,358,32749,2,0,B|373:235|373:34|279:-79|154:6|86:194|175:358,1,742.500028324128,2|0,0:0|1:0,0:0:0:0:
19,301,34272,2,0,B|67:291|96:325|77:334|108:363|164:356,1,165.000006294251,4|0,1:2|0:0,0:0:0:0:
237,193,34881,6,0,P|280:169|315:164,1,82.5000031471254
512,70,35186,2,0,B|456:87|424:36|424:36|444:1,1,123.750004720688,2|0,0:0|0:0,0:0:0:0:
434,17,35490,2,0,P|421:112|400:187,1,165,2|0,0:0|0:0,0:0:0:0:
323,131,35795,2,0,P|331:71|344:24,1,110,2|0,0:0|0:0,0:0:0:0:
350,21,36099,1,2,0:0:0:0:
423,241,36252,2,0,B|445:253|445:253|491:239|496:190,1,110,0|2,0:0|0:0,0:0:0:0:
495,192,36556,2,0,L|440:196,1,55,0|0,1:0|0:0,0:0:0:0:
287,237,36708,38,0,B|349:237|365:296|348:287|363:344|433:349,1,197.99999395752,4|0,1:2|0:0,0:0:0:0:
274,372,37165,2,0,P|214:334|56:312,1,220,2|0,0:0|0:0,0:0:0:0:
66,314,37622,2,0,P|118:292|136:241,1,110
90,89,37927,6,0,L|82:25,1,55,2|0,0:0|0:0,0:0:0:0:
160,18,38079,1,0,0:0:0:0:
160,18,38155,2,0,L|167:73,1,55,0|0,3:0|0:0,0:0:0:0:
242,118,38307,1,0,3:0:0:0:
274,132,38384,1,0,3:0:0:0:
305,124,38460,1,0,3:0:0:0:
322,105,38536,37,0,3:0:0:0:
324,84,38612,2,0,L|336:30,1,55,0|0,3:0|0:0,0:0:0:0:
377,157,38764,2,0,L|430:171,1,55,0|0,3:0|0:0,0:0:0:0:
355,20,38917,2,0,L|420:35,1,55,0|0,3:0|0:0,0:0:0:0:
477,95,39069,1,0,3:0:0:0:
477,95,39145,1,4,1:2:0:0:
236,290,40515,6,0,L|245:233,1,55
242,298,40668,2,0,L|233:352,1,55,0|0,3:0|0:0,0:0:0:0:
124,369,40820,1,0,3:0:0:0:
99,353,40896,1,0,3:0:0:0:
107,320,40972,2,0,L|164:309,1,55,0|0,3:0|0:0,0:0:0:0:
346,245,41125,38,0,B|398:266|445:263|445:263|405:277|379:316,1,165,2|0,0:0|0:0,0:0:0:0:
321,317,41277,1,8,0:1:0:0:
250,0,41582,22,0,B|200:18|200:18|182:65|224:97,1,140.250002675057,6|0,1:0|0:0,0:0:0:0:
230,95,41734,2,0,B|284:75|284:75|349:105|349:105|404:87,2,187.000003566742,2|8|2,0:1|0:0|0:0,0:0:0:0:
55,171,42115,1,2,0:0:0:0:
55,171,42191,2,0,B|41:151|41:151|93:171,1,76.9999976501466,2|0,1:2|0:0,0:0:0:0:
163,332,42343,1,0,0:0:0:0:
116,384,42419,2,0,B|113:323|152:304|152:324|189:297|183:245,1,165.000006294251,2|0,0:0|0:0,0:0:0:0:
89,273,42648,6,2,L|20:281,1,65.9999979858399,2|0,0:1|0:0,0:1:0:0:
240,374,42800,2,2,B|385:385|385:385|423:352|420:313|379:280|379:280|266:287,1,374.000007133484,2|8,1:0|0:0,0:1:0:0:
67,105,43257,1,2,0:0:0:0:
41,71,43333,1,2,0:0:0:0:
67,41,43409,2,0,B|105:49|105:49|110:46|110:46|154:57,1,71.4999967269899,0|0,1:0|0:0,0:0:0:0:
315,92,43561,1,0,0:0:0:0:
273,33,43637,2,0,B|298:8|298:8|360:27|349:90|349:90|311:98,1,176,2|0,0:0|0:0,0:0:0:0:
203,178,43866,38,2,B|162:165|162:165|145:183|145:183|157:203|157:203|199:203,1,132,2|0,0:1|0:0,0:1:0:0:
215,193,44018,6,0,L|294:203,1,71.4999967269899,2|2,1:0|0:0,0:0:0:0:
359,373,44170,1,0,0:0:0:0:
343,371,44247,2,0,P|325:321|399:291,1,142.99999345398,2|0,0:0|0:0,0:0:0:0:
475,254,44475,2,0,B|533:251|536:189|536:189|514:222|477:224,1,142.99999345398,2|0,0:0|1:0,0:0:0:0:
468,357,44703,1,2,0:0:0:0:
468,357,44780,1,2,0:0:0:0:
229,275,44932,38,0,B|186:278|141:290|141:290|126:318,1,107.249995090485,8|0,0:0|0:0,0:0:0:0:
133,318,45084,2,0,P|137:358|154:387,1,71.4999967269899,2|0,0:0|0:0,0:0:0:0:
122,216,45236,6,2,B|72:217|11:204|11:204|-12:177,1,123.750004720688,2|0,1:0|0:0,0:1:0:0:
0,190,45389,2,2,B|-5:175|-5:175|13:121|40:74,1,123.750004720688,2|0,0:1|0:0,0:1:0:0:
114,68,45541,38,0,P|155:65|201:55,1,82.5000031471254,10|0,0:0|0:0,0:0:0:0:
325,39,45693,1,0,0:0:0:0:
358,24,45769,1,0,0:0:0:0:
328,0,45846,1,2,1:0:0:0:
219,134,45998,5,0,0:0:0:0:
247,132,46074,2,0,B|282:129|313:152|313:152|330:187|330:187|363:212|406:215,1,187.000003566742,2|0,1:0|0:0,0:0:0:0:
498,151,46302,2,0,B|514:143|514:143|484:110|484:110|443:134,1,110,2|0,1:0|0:0,0:0:0:0:
405,209,46455,1,4,1:2:0:0:
68,334,46607,37,0,0:0:0:0:
1,287,46683,2,0,B|60:241|107:290|107:290|78:332,1,165.000006294251,2|0,0:0|0:0,0:0:0:0:
190,379,46911,1,2,0:0:0:0:
232,384,46988,1,2,0:0:0:0:
255,366,47064,1,2,1:2:0:0:
224,176,47216,1,0,0:0:0:0:
255,366,47368,6,2,B|272:263|272:263|247:251,1,132,10|0,0:1|0:0,0:1:0:0:
224,176,47521,2,2,B|199:239|199:239|260:267,1,132,2|0,0:1|0:0,0:1:0:0:
315,314,47673,38,0,P|350:305|387:303,1,71.4999967269899,2|0,1:2|0:0,0:0:0:0:
512,144,47825,1,0,0:0:0:0:
512,144,47901,2,0,B|465:134|438:173|454:179|422:213|365:197,1,165.000006294251,2|0,0:3|0:0,0:0:0:0:
333,66,48130,1,2,0:0:0:0:
359,38,48206,1,2,0:0:0:0:
341,0,48282,1,2,0:0:0:0:
157,20,48434,1,0,0:0:0:0:
341,0,48587,6,2,B|233:33|233:33|215:71,1,144.375001376867,10|0,0:1|0:0,0:1:0:0:
157,20,48739,2,2,B|61:-18|61:-18|14:6|14:6|58:9,1,192.500001835823,10|0,0:1|1:0,0:1:0:0:
253,139,48993,38,0,B|265:190|265:190|233:181|234:148,1,110.000004196167,2|0,0:0|0:0,0:0:0:0:
234,147,49196,2,0,B|305:159|305:159|309:166|309:166|377:177,2,146.666666666667,8|0|0,0:0|0:0|0:0,0:0:0:0:
14,302,49500,5,0,1:0:0:0:
33,188,49602,2,0,B|-14:215|-14:215|9:311,1,139.333329612732,2|0,0:0|0:0,0:0:0:0:
161,360,49804,37,8,0:0:0:0:
94,299,49906,2,0,B|94:346|94:346|156:365,1,110.000004196167,2|0,0:0|0:0,0:0:0:0:
282,306,50109,5,0,1:0:0:0:
258,198,50211,1,2,0:1:0:0:
361,229,50313,1,2,0:0:0:0:
207,266,50414,37,4,1:2:0:0:
370,223,50516,1,2,0:1:0:0:
236,121,50617,2,0,B|243:71|243:71|242:59|242:59|253:-1,1,110.000004196167,2|0,0:2|1:0,0:0:0:0:
477,384,51328,6,0,B|446:370|446:370|446:304|513:298,1,140.250002675057,6|0,1:0|0:0,0:0:0:0:
509,299,51480,2,0,P|413:294|335:239,1,187.000003566742,2|8,0:1|0:0,0:0:0:0:
463,49,51785,1,2,0:0:0:0:
481,55,51861,1,2,0:0:0:0:
492,71,51937,2,0,P|479:118|458:131,1,71.4999967269899,0|0,1:0|0:0,0:0:0:0:
305,43,52089,37,0,0:0:0:0:
236,9,52165,2,0,B|348:29|348:29|368:49|357:79,1,165.000006294251,2|0,0:0|0:0,0:0:0:0:
249,123,52394,2,0,L|184:114,1,65.9999979858399,2|0,0:1|0:0,0:0:0:0:
193,253,52546,2,2,B|189:278|175:293|175:293|317:271|317:271|350:242|335:204|304:196|304:196|188:215,1,374.000007133484,2|8,1:0|0:0,0:1:0:0:
87,54,53003,5,2,0:0:0:0:
65,26,53079,1,2,0:0:0:0:
89,0,53155,1,0,1:0:0:0:
79,182,53307,1,0,0:0:0:0:
15,147,53384,2,0,B|56:128|56:128|133:152|121:225,1,176,2|0,0:0|0:0,0:0:0:0:
19,345,53612,38,2,B|-12:341|-12:341|-22:312|-22:312|49:333,1,132,2|2,0:1|0:0,0:1:0:0:
56,350,53764,6,0,L|127:367,1,71.4999967269899,2|0,1:0|0:0,0:0:0:0:
328,174,53917,1,0,0:0:0:0:
333,177,53993,2,0,B|287:178|254:157|254:157|252:192|234:213,1,142.99999345398,2|0,0:0|0:0,0:0:0:0:
338,348,54221,2,0,B|405:400|470:353|440:295|397:288,1,165.000006294251,2|0,0:0|1:0,0:0:0:0:
349,259,54450,1,0,0:0:0:0:
349,259,54526,1,2,0:0:0:0:
496,226,54678,38,2,B|427:238|427:238|419:248|419:248|352:261,1,148.49999546814,2|0,0:1|0:0,1:0:0:0:
349,259,54830,2,2,B|338:206|338:206|332:200|332:200|324:162,1,98.9999969787599,2|0,0:1|0:0,1:0:0:0:
443,92,54983,2,2,B|505:98|505:98|482:116|482:116|391:106|391:106|353:70|361:24|409:8|409:8|473:15,1,374.000007133484,2|8,1:1|0:0,1:0:0:0:
217,22,55439,1,2,0:0:0:0:
195,33,55516,1,2,0:0:0:0:
210,57,55592,6,0,P|218:102|198:147,1,82.5000031471254,0|0,1:0|0:0,0:0:0:0:
15,55,55744,2,0,P|45:20|114:34,1,123.750004720688,0|0,1:0|0:0,0:0:0:0:
114,34,55896,38,0,B|107:71|107:71|96:86|96:86|91:120,1,90.7500008654595,0|0,1:0|0:0,0:0:0:0:
10,257,56049,2,0,B|-7:319|52:347|52:347|34:321|39:278,1,181.500001730919,0|4,1:0|1:2,0:0:0:0:
58,194,56277,5,0,0:0:0:0:
58,194,56353,1,2,0:0:0:0:
199,382,56505,1,8,0:0:0:0:
199,382,56582,2,0,B|181:346|181:346|193:308,1,76.9999976501466,2|0,0:0|0:0,0:0:0:0:
329,262,56734,1,0,0:0:0:0:
362,277,56810,2,0,B|371:312|352:349|304:360|304:360|269:341,1,153.999995300293,2|0,1:2|0:0,0:0:0:0:
179,300,57038,1,0,0:0:0:0:
179,300,57115,2,0,P|191:253|198:217,1,76.9999976501466,10|0,0:0|0:0,0:0:0:0:
247,20,57267,2,0,B|203:34|203:34|231:56|231:56|300:36,1,153.999995300293,2|0,0:0|1:0,0:0:0:0:
378,16,57495,37,0,0:0:0:0:
378,16,57571,1,2,0:0:0:0:
174,126,57724,1,8,0:0:0:0:
174,126,57800,2,0,L|265:142,1,76.9999976501466,2|0,0:0|0:0,0:0:0:0:
469,89,57952,1,0,0:0:0:0:
480,61,58028,2,0,B|435:57|422:101|422:101|459:127|462:168,1,153.999995300293,2|0,1:2|0:0,0:0:0:0:
372,294,58257,1,0,1:0:0:0:
448,270,58333,2,0,B|457:308|457:308|438:340,1,76.9999976501466,10|0,0:0|0:0,0:0:0:0:
312,376,58485,2,0,B|288:330|288:330|310:269|369:287,1,153.999995300293,0|0,1:0|1:0,0:0:0:0:
372,294,58739,6,0,B|356:344|356:344|333:320|351:292,1,110.000004196167,2|2,0:0|0:1,0:3:0:0:
250,129,58942,2,0,P|260:72|280:1,2,128.333334557215,10|2|2,0:0|0:0|0:1,0:0:0:0:
123,266,59247,37,2,1:0:0:0:
280,223,59348,1,0,0:0:0:0:
217,289,59450,1,2,0:1:0:0:
0,190,59551,5,10,0:1:0:0:
32,7,59653,1,2,0:1:0:0:
155,137,59754,1,2,0:0:0:0:
234,23,59856,37,6,1:2:0:0:
125,5,59957,1,2,0:1:0:0:
58,82,60059,1,2,0:1:0:0:
79,175,60160,1,2,0:1:0:0:
154,219,60262,1,2,0:0:0:0:
188,290,60363,1,2,0:0:0:0:
157,358,60465,1,2,0:1:0:0:
88,383,60566,1,2,0:0:0:0:
34,356,60668,1,2,0:0:0:0:
16,310,60769,1,2,0:0:0:0:
33,280,60871,1,2,0:0:0:0:
57,272,60972,1,2,0:1:0:0:
72,281,61074,1,4,1:2:0:0:
235,383,70059,37,8,0:3:0:0:
199,369,70211,1,8,0:3:0:0:
146,305,70363,1,4,0:3:0:0:
155,192,70516,1,0,1:0:0:0:
276,97,70668,1,0,1:0:0:0:
2,49,70820,38,0,B|55:45|87:75|61:83|98:111|148:107,1,165.000006294251,4|0,1:2|3:0,0:0:0:0:
156,100,71277,1,0,0:0:0:0:
248,8,71429,2,0,L|341:22,1,88,0|0,1:0|0:0,0:0:0:0:
453,128,71734,2,0,L|443:176,3,44,0|0|0|0,3:0|0:0|0:0|0:0,0:0:0:0:
461,123,72038,6,0,L|455:79,1,44,0|0,1:0|0:0,0:0:0:0:
312,166,72191,2,0,L|317:209,1,44
260,161,72343,2,0,L|310:158,1,44,0|0,3:0|0:0,0:0:0:0:
444,265,72495,2,0,L|494:262,3,44,0|0|0|0,1:0|0:0|0:0|0:0,0:0:0:0:
434,275,72800,2,0,L|383:277,1,44,0|0,1:0|0:0,0:0:0:0:
165,282,72952,1,0,3:0:0:0:
192,261,73028,1,0,0:0:0:0:
235,261,73104,1,0,1:0:0:0:
280,294,73181,1,0,3:0:0:0:
284,341,73257,38,0,L|274:388,1,44,4|0,1:2|0:0,0:0:0:0:
158,286,73409,2,0,L|166:233,1,44
43,158,73561,2,0,L|-9:150,1,44,0|0,3:0|0:0,0:0:0:0:
39,207,73714,2,0,L|46:164,1,44
137,1,73866,5,0,1:0:0:0:
158,0,73942,1,0,0:0:0:0:
180,0,74018,1,0,0:0:0:0:
202,0,74094,1,0,0:0:0:0:
224,0,74171,1,0,3:0:0:0:
236,26,74247,1,0,0:0:0:0:
229,58,74323,1,0,0:0:0:0:
205,80,74399,1,0,0:0:0:0:
173,84,74475,38,0,L|123:77,1,44,0|0,1:0|3:0,0:0:0:0:
254,174,74627,2,0,L|304:181,1,44,0|0,3:0|0:0,0:0:0:0:
309,130,74780,2,0,L|301:180,1,44,0|0,3:0|0:0,0:0:0:0:
136,234,74932,2,0,L|128:284,1,44,0|0,1:0|3:0,0:0:0:0:
86,176,75084,2,0,L|33:170,1,44,0|0,3:0|0:0,0:0:0:0:
87,354,75236,2,0,L|138:363,1,44,0|0,1:0|0:0,0:0:0:0:
210,301,75389,1,0,3:0:0:0:
229,296,75465,1,0,3:0:0:0:
251,303,75541,2,0,P|271:350|352:358,1,131.99999597168,0|4,1:0|1:2,0:0:0:0:
479,373,75769,21,2,3:2:0:0:
467,366,75846,2,0,P|488:373|469:384,2,55,8|0|0,0:0|0:0|0:0,0:0:0:0:
512,275,76073,5,2,3:2:0:0:
496,274,76150,2,0,P|523:262|502:283,2,82.5000031471254,8|0|0,0:0|0:0|0:0,0:0:0:0:
492,150,76379,37,2,3:2:0:0:
474,159,76456,2,0,P|502:131|486:167,2,110,8|0|0,0:0|0:0|0:0,0:0:0:0:
419,43,76683,5,2,3:2:0:0:
402,76,76760,2,0,P|410:27|420:75,2,137.5,8|0|0,0:0|0:0|0:0,0:0:0:0:
273,9,76988,37,2,3:2:0:0:
281,60,77064,2,0,P|262:6|296:53,2,165.000006294251,8|0|0,0:0|0:0|0:0,0:0:0:0:
126,40,77292,5,2,3:2:0:0:
161,96,77368,2,0,P|121:44|172:86,2,192.500001835823,8|0|0,0:0|0:0|0:0,0:0:0:0:
28,161,77597,37,2,3:2:0:0:
82,208,77674,2,0,P|20:164|90:193,2,220,8|0|0,0:0|0:0|0:0,0:0:0:0:
0,324,77901,5,2,3:2:0:0:
86,336,77977,2,0,P|11:329|85:319,2,220,8|0|0,0:0|0:0|1:0,0:0:0:0:
120,219,79348,22,0,B|133:233|133:233|172:231|181:188,1,82.5000031471254,0|0,1:0|0:0,0:0:0:0:
189,200,79576,2,0,P|193:243|231:258,1,82.5000031471254,8|0,0:0|0:0,0:0:0:0:
291,216,79805,2,0,L|339:208,1,41.2500015735627,8|0,0:0|0:0,0:0:0:0:
462,303,79957,1,0,1:0:0:0:
462,303,80033,1,0,3:0:0:0:
462,303,80109,1,0,3:0:0:0:
427,148,80262,38,2,B|407:109|359:97|359:97|451:81|512:146|499:228,1,313.499991628647,10|0,0:1|0:0,1:0:0:0:
422,379,80566,22,2,B|389:367|379:329|379:329|374:336|374:336|206:316,1,208.999994419098,6|0,1:0|0:0,1:0:0:0:
134,349,80795,1,0,0:0:0:0:
128,358,80871,2,0,B|132:399|190:402|227:358|218:310|190:277,1,187.000003566742,10|0,0:0|0:0,0:0:0:0:
94,192,81099,2,0,B|47:199|64:221|7:229,1,93.500001783371,2|0,0:0|1:0,0:0:0:0:
162,77,81252,1,2,0:0:0:0:
162,77,81328,1,2,0:0:0:0:
2,40,81480,6,2,B|80:55|80:55|87:61|87:61|162:77,1,165,10|0,0:1|0:0,1:0:0:0:
161,76,81632,2,2,B|236:60|236:60|243:54|243:54|319:35,1,165,2|0,0:1|0:0,1:0:0:0:
408,37,81785,38,0,P|393:69|390:105,1,71.4999967269899,2|0,1:2|0:0,0:0:0:0:
463,230,81937,2,0,L|505:219,1,41.2500015735627,2|0,0:0|0:0,0:0:0:0:
385,115,82089,2,0,B|342:34|256:74|267:123|320:132,1,165.000006294251,8|2,0:0|0:0,0:0:0:0:
338,325,82318,1,0,0:0:0:0:
381,265,82394,2,0,B|401:296|401:296|386:313|386:313|281:290,1,165.000006294251,2|0,1:0|0:0,0:0:0:0:
279,292,82698,5,10,0:1:0:0:
166,4,82851,1,2,0:0:0:0:
31,185,83003,2,0,B|-29:226|15:301|58:300|82:247,1,165.000006294251,2|0,1:2|0:0,0:0:0:0:
152,150,83231,37,0,0:0:0:0:
225,174,83307,2,2,B|268:123|254:67|206:63|189:17|189:17|187:52|161:74,1,247.4999924469,10|0,0:1|0:0,1:0:0:0:
152,150,83536,2,2,B|160:222|160:222|164:229|164:229|174:322|174:322|168:355|139:366|115:349|117:319|139:308,1,275,2|0,0:1|0:0,1:0:0:0:
147,329,83764,2,2,B|199:321|235:281|235:281|237:336|274:368,1,197.99999395752,2|8,0:1|0:0,1:0:0:0:
454,123,83993,5,0,0:0:0:0:
484,117,84069,1,2,0:0:0:0:
511,154,84145,1,2,0:0:0:0:
471,203,84221,2,0,B|406:217|377:154|392:157|367:91|298:93,1,220,2|0,1:0|0:0,0:0:0:0:
379,26,84450,1,0,0:0:0:0:
394,17,84526,2,0,P|398:57|376:90,1,82.5000031471254,10|0,0:0|0:0,0:0:0:0:
312,189,84678,2,0,P|272:176|231:170,1,82.5000031471254
0,25,84830,1,0,1:0:0:0:
12,184,84983,38,0,B|20:167|20:167|13:109|13:109|6:99|6:99|-3:47|-3:47|1:24,1,165,2|2,0:1|0:0,1:0:0:0:
0,24,85135,2,0,B|28:20|28:20|40:23|40:23|85:16|85:16|96:9|96:9|135:0,1,140.250002675057,2|0,0:1|0:0,1:0:0:0:
136,0,85287,2,2,B|145:50|145:50|141:58|141:58|151:110,1,107.249995090485,0|0,1:0|0:0,1:0:0:0:
131,159,85439,6,0,P|162:98|231:96,1,142.99999345398,6|0,1:2|0:0,0:0:0:0:
147,167,85668,1,0,0:0:0:0:
147,167,85744,2,0,P|149:212|136:246,1,71.4999967269899,10|0,0:0|0:0,0:0:0:0:
43,340,85896,1,0,0:0:0:0:
21,262,85972,2,0,B|-4:256|-24:237|-24:237|-8:268|-30:300|9:344|47:339,1,187.000003566742,2|0,0:1|0:0,0:0:0:0:
50,331,86201,2,2,P|92:317|131:313,1,82.5000031471254,2|0,0:1|0:0,0:1:0:0:
321,369,86353,37,8,0:0:0:0:
301,384,86429,1,0,0:0:0:0:
259,384,86505,1,2,0:0:0:0:
223,339,86582,1,2,0:0:0:0:
234,265,86658,2,0,B|232:217|232:217|261:175|261:175|268:223|268:223|240:267,1,197.99999395752,2|0,1:0|0:0,0:0:0:0:
264,170,86962,1,10,0:0:0:0:
476,382,87115,5,2,0:0:0:0:
512,315,87191,2,0,B|494:268|494:268|365:201|365:201|340:140,1,247.4999924469,2|0,0:1|0:0,0:0:0:0:
371,87,87419,38,0,B|362:54|362:54|397:45|397:45|407:78|407:78|376:88,1,137.5,2|0,0:1|0:0,0:0:0:0:
169,278,87571,6,0,B|197:314|197:314|158:322|158:322|168:276,1,121.000003692627,2|0,1:0|0:0,0:0:0:0:
29,31,87724,38,0,P|19:5|15:-30,1,55,2|0,1:2|0:0,0:0:0:0:
0,171,87876,5,2,1:2:0:0:
35,119,87952,1,0,0:0:0:0:
95,103,88028,1,2,0:0:0:0:
99,156,88104,1,0,0:0:0:0:
133,196,88181,1,10,0:0:0:0:
169,166,88257,1,0,0:0:0:0:
210,156,88333,1,2,0:0:0:0:
230,178,88409,1,0,0:0:0:0:
254,190,88485,1,0,1:2:0:0:
270,180,88561,1,0,0:0:0:0:
285,176,88637,1,2,0:0:0:0:
298,184,88714,1,0,0:0:0:0:
315,180,88790,37,10,0:0:0:0:
349,218,88866,1,2,0:0:0:0:
410,224,88942,1,2,0:0:0:0:
456,171,89018,1,2,0:0:0:0:
438,90,89094,6,0,B|349:72|349:72|365:85|377:103|377:103|407:101,1,156.749995814324,2|0,1:0|0:0,0:0:0:0:
440,99,89247,2,0,B|478:124|515:102|515:102|532:101|532:101|468:91,1,156.749995814324,0|0,1:0|0:0,0:0:0:0:
454,0,89399,2,0,B|424:97|424:97|453:213|453:213|432:304,1,313.499991628647,4|0,1:2|0:0,0:0:0:0:
486,341,89703,37,0,1:0:0:0:
448,319,89780,2,0,B|472:304|503:304|503:304|517:320|517:320|485:336,1,110,2|0,0:0|0:0,0:0:0:0:
408,384,90008,2,0,B|345:374|372:348|308:338,2,110,2|2|6,0:0|0:0|1:0,0:0:0:0:
121,71,90541,5,0,0:0:0:0:
95,0,90617,2,0,P|98:93|130:190,1,187.000003566742,8|0,0:0|0:0,0:0:0:0:
4,252,90846,1,0,0:0:0:0:
0,246,90922,2,0,P|32:232|68:232,1,71.4999967269899,2|0,0:0|0:0,0:0:0:0:
252,314,91074,1,2,0:0:0:0:
126,330,91226,38,2,B|168:374|168:374|207:349|207:349|211:343|211:343|251:316,1,165,10|0,0:1|0:0,0:1:0:0:
251,316,91379,2,2,B|292:287|292:287|295:281|295:281|334:256|334:256|376:302,1,165,2|0,0:1|0:0,0:1:0:0:
421,369,91531,6,0,B|386:389|386:389|342:367,1,71.4999967269899,2|0,1:0|0:0,0:0:0:0:
332,214,91683,1,0,0:0:0:0:
332,214,91759,1,0,0:0:0:0:
379,307,91835,2,0,B|377:245|419:216|412:233|450:203|440:141,1,176,10|0,0:0|0:0,0:0:0:0:
483,86,92064,2,0,B|466:65|476:34|476:34|505:44|512:74,1,110,2|2,0:2|1:0,0:0:0:0:
476,23,92292,37,2,0:0:0:0:
245,209,92444,1,10,0:0:0:0:
14,0,92597,1,2,0:0:0:0:
264,131,92749,6,0,B|306:147|324:183|324:183|302:137|307:79,1,176,0|0,1:0|0:0,0:0:0:0:
237,12,92977,2,0,B|240:69|183:97|184:61|163:173,1,176,2|0,0:1|0:0,0:0:0:0:
190,280,93206,1,0,0:0:0:0:
263,294,93282,2,0,P|224:280|192:274,1,71.4999967269899,2|0,0:0|1:0,0:0:0:0:
0,249,93434,37,2,0:1:0:0:
48,222,93510,1,2,0:1:0:0:
95,252,93587,1,2,0:0:0:0:
90,277,93663,1,8,0:0:0:0:
66,290,93739,1,0,0:0:0:0:
42,333,93815,1,2,0:0:0:0:
84,383,93891,1,2,0:0:0:0:
146,374,93967,6,0,P|208:326|334:314,1,204.600006399994,2|0,1:0|0:0,0:0:0:0:
403,348,94196,1,0,0:0:0:0:
306,381,94272,2,0,B|251:339|279:274|279:274|289:303|325:321,1,187.000003566742,10|0,0:0|0:0,0:0:0:0:
403,348,94500,2,0,B|443:337|443:337|455:338|455:338|493:329,1,93.500001783371,2|0,0:1|1:0,0:0:0:0:
503,0,94729,38,0,B|467:24|467:24|451:144,1,165,2|0,1:0|0:0,0:0:0:0:
416,205,94881,2,0,B|381:185|381:185|370:100|370:100|335:75,1,165,2|0,1:0|0:0,0:0:0:0:
339,70,95033,2,0,B|257:96|257:96|212:15|212:15|230:36|250:40,1,220,2|4,1:0|1:2,0:0:0:0:
255,115,95262,5,2,0:0:0:0:
255,115,95338,1,2,0:0:0:0:
0,55,95490,1,8,0:0:0:0:
0,55,95566,2,0,P|45:59|72:88,1,82.5000031471254,2|0,0:1|0:0,0:0:0:0:
248,254,95719,1,0,0:0:0:0:
248,254,95795,2,0,P|213:225|173:226,1,82.5000031471254,2|0,1:0|0:0,0:0:0:0:
70,84,95947,1,0,0:0:0:0:
6,130,96023,2,0,B|-18:153|-25:188|-4:226|58:242|101:200,1,187.000003566742,2|0,0:1|0:0,0:0:0:0:
190,303,96252,2,0,B|179:362|179:362|149:378,2,93.500001783371,2|2|0,0:0|0:0|1:0,0:0:0:0:
177,224,96480,37,0,0:0:0:0:
177,224,96556,1,2,0:1:0:0:
488,176,96709,1,8,0:0:0:0:
488,176,96785,2,0,P|475:131|442:96,1,93.500001783371,2|0,0:1|0:0,0:0:0:0:
323,228,96937,1,0,0:0:0:0:
378,267,97013,2,0,P|426:225|436:108,1,187.000003566742,2|0,1:1|0:0,0:0:0:0:
443,9,97241,2,0,B|384:-1|384:-1|401:8|409:20,1,93.500001783371,2|8,1:0|0:0,0:0:0:0:
356,75,97394,1,2,0:2:0:0:
315,82,97470,1,2,1:2:0:0:
268,58,97546,1,2,0:2:0:0:
235,0,97622,5,2,1:0:0:0:
255,64,97698,1,0,3:0:0:0:
225,112,97774,1,0,3:0:0:0:
176,123,97851,1,0,3:0:0:0:
130,106,97927,1,8,3:2:0:0:
88,99,98003,1,0,3:0:0:0:
35,116,98079,1,0,3:0:0:0:
9,162,98155,1,0,3:0:0:0:
21,208,98231,1,0,1:0:0:0:
53,229,98307,1,0,3:0:0:0:
84,231,98384,1,0,3:0:0:0:
107,222,98460,1,0,3:0:0:0:
129,206,98536,1,8,3:2:0:0:
168,199,98612,1,0,3:0:0:0:
218,211,98688,1,0,3:0:0:0:
247,259,98764,1,0,3:0:0:0:
305,281,98840,38,0,P|338:272|361:235,1,71.4999967269899,4|0,1:0|0:0,0:0:0:0:
372,163,98993,2,0,P|381:205|360:270,1,104.499997209549,4|0,1:0|0:0,0:0:0:0:
173,381,99145,2,0,B|120:373|120:373|103:358|106:331|130:327|130:327|213:339|213:339|220:345|220:345|310:357,1,296.99999093628,4|0,1:2|0:0,0:0:0:0:
378,380,99450,5,0,3:0:0:0:
382,384,99526,2,0,L|389:337,1,41.2500015735627,0|0,3:0|0:0,0:0:0:0:
512,257,99678,1,0,3:0:0:0:
465,186,99754,2,0,B|472:139|487:157|495:111,2,82.5000031471254,6|0|0,0:0|0:0|1:0,0:0:0:0:
282,6,100287,21,0,0:0:0:0:
282,6,100363,2,0,P|300:35|303:62,1,55,10|0,0:0|0:0,0:0:0:0:
194,157,100516,2,0,P|176:129|207:154,1,110,2|0,0:0|0:0,0:0:0:0:
238,221,100744,1,2,0:0:0:0:
303,183,100820,2,0,P|242:148|232:217,1,165.000006294251,2|8,0:0|0:0,0:0:0:0:
46,371,101125,1,0,0:0:0:0:
20,378,101201,1,0,0:0:0:0:
0,363,101277,38,0,P|-2:317|56:333,1,110,0|0,1:0|0:0,0:0:0:0:
187,339,101505,1,0,0:0:0:0:
190,347,101582,2,0,P|176:364|177:336,1,71.4999967269899,10|0,0:0|0:0,0:0:0:0:
263,313,101734,2,0,P|248:370|177:345,1,142.99999345398,2|0,0:0|1:0,0:0:0:0:
89,223,101962,1,2,0:0:0:0:
141,170,102038,2,0,P|165:189|83:230,2,176,2|8|2,0:0|0:0|0:0,0:0:0:0:
98,106,102419,1,2,0:0:0:0:
98,106,102495,6,0,B|52:125|23:99|57:79|98:90,1,110,0|0,1:0|0:0,0:0:0:0:
175,91,102724,1,0,0:0:0:0:
175,91,102800,1,10,0:0:0:0:
456,29,102952,2,0,P|419:9|400:67,1,110,2|0,0:0|1:0,0:0:0:0:
364,134,103181,1,2,0:0:0:0:
433,170,103257,2,0,P|434:103|361:128,1,165.000006294251,2|8,0:0|0:0,0:0:0:0:
263,65,103485,1,0,0:0:0:0:
254,53,103561,1,2,0:0:0:0:
270,33,103637,1,2,0:0:0:0:
259,2,103714,38,0,B|254:120|282:82|276:190,1,187.000003566742,2|0,1:0|0:0,0:0:0:0:
291,224,103942,1,0,0:0:0:0:
284,154,104018,6,0,B|287:235|267:209|271:283,1,131.99999597168,10|0,0:0|0:0,0:0:0:0:
495,388,104323,38,0,B|517:357|517:357|498:311,1,82.5000031471254,4|0,1:2|0:0,0:0:0:0:
361,246,104475,1,0,0:0:0:0:
361,246,104551,2,0,B|368:205|368:205|376:194|376:194|382:150,1,93.500001783371,4|0,1:2|0:0,0:0:0:0:
424,337,104703,1,0,0:0:0:0:
430,346,104780,2,0,B|359:339|359:339|313:312|313:312|251:306,1,187.000003566742,4|2,1:2|0:1,0:0:0:0:
266,317,105160,5,0,0:0:0:0:
266,317,105236,2,0,P|221:351|169:335,1,93.500001783371,14|0,0:2|0:0,0:0:0:0:
104,219,105389,2,0,P|128:180|162:243,1,142.99999345398,2|0,0:0|1:0,0:0:0:0:
75,316,105617,1,2,0:0:0:0:
22,358,105693,2,0,P|5:292|79:312,1,176,2|8,0:0|0:0,0:0:0:0:
285,212,105998,1,2,0:0:0:0:
309,220,106074,1,2,0:0:0:0:
334,215,106150,38,0,P|358:191|366:160,1,55,0|0,1:0|0:0,0:0:0:0:
370,21,106302,2,0,B|385:53|374:89|331:114|262:115|231:49,1,214.49999018097,2|0,0:1|0:0,0:0:0:0:
234,42,106607,1,0,0:0:0:0:
0,44,106759,5,0,1:0:0:0:
29,29,106835,1,2,0:0:0:0:
58,2,106911,1,0,0:0:0:0:
67,41,106988,1,0,1:0:0:0:
95,73,107064,1,8,0:0:0:0:
103,304,107216,1,0,1:0:0:0:
32,126,107368,38,0,P|76:159|118:234,1,142.99999345398,2|0,1:2|0:0,0:0:0:0:
118,234,107597,2,0,P|164:180|229:151,1,142.99999345398,2|0,0:0|0:0,0:0:0:0:
286,31,107825,2,0,P|246:-6|222:60,1,142.99999345398,2|0,0:0|1:0,0:0:0:0:
294,120,108054,1,2,0:0:0:0:
356,147,108130,2,0,P|361:74|295:109,2,176,2|8|0,0:0|0:0|0:0,0:0:0:0:
224,176,108510,5,0,0:0:0:0:
224,176,108587,2,0,B|199:230|199:230|215:265|215:265|218:224|235:202,1,165,0|0,1:0|0:0,0:0:0:0:
224,176,108739,2,0,B|251:131|251:131|234:88|234:88|208:124|208:124|215:158,1,165,0|0,1:0|0:0,0:0:0:0:
120,212,108891,2,0,B|87:269|21:296|-49:258|-58:186|-12:135|30:122,1,296.99999093628,4|0,1:2|0:0,0:0:0:0:
27,48,109196,37,0,0:0:0:0:
40,36,109272,1,0,0:0:0:0:
31,21,109348,1,2,0:0:0:0:
12,25,109424,1,2,0:0:0:0:
1,62,109500,1,2,0:0:0:0:
15,103,109576,1,2,0:0:0:0:
62,131,109653,1,2,3:2:0:0:
124,114,109729,1,2,3:2:0:0:
167,50,109805,22,2,B|198:19|249:12|317:29|317:29|319:38|319:38|515:65,1,363.000011077881,6|0,1:0|0:0,0:1:0:0:
512,192,110109,2,2,B|500:250|402:243|402:243|396:237|396:237|242:219,1,302.500009231568,14|0,0:1|0:0,0:1:0:0:
223,206,110338,2,2,B|181:124|235:69|312:86|315:184,1,242.000007385254,6|0,1:0|0:0,0:1:0:0:
353,326,110566,6,2,B|350:375|309:383|284:358|304:312,1,121.000003692627,6|0,1:0|0:0,0:1:0:0:
369,65,110719,2,2,B|374:16|416:11|439:38|414:82,1,121.000003692627,6|0,1:0|0:0,0:1:0:0:
347,251,110871,2,2,B|304:272|259:257|242:207|253:212|239:164|196:143|147:162,1,242.000007385254,6|0,1:0|1:0,0:1:0:0:
0,351,111175,38,0,B|-23:371|15:402|59:386|81:351,1,121.000003692627,6|0,1:0|0:0,0:0:0:0:
172,233,111328,1,10,0:0:0:0:
39,44,111480,2,0,L|33:10,5,30.2500009231568,2|0|0|0|0|0,1:2|0:0|0:0|0:0|0:0|0:0,0:0:0:0:
173,33,111632,6,2,L|53:52,1,121.000003692627,4|0,1:2|0:0,0:1:0:0:
277,197,111861,2,2,L|157:216,1,121.000003692627,4|0,1:2|0:0,0:1:0:0:
376,366,112089,2,2,L|256:385,1,121.000003692627,4|0,1:2|0:0,0:1:0:0:
198,344,112241,38,0,L|255:335,1,55,0|0,1:2|0:0,0:0:0:0:
459,369,112394,2,0,P|476:334|467:281,1,93.500001783371,2|0,0:0|0:0,0:0:0:0:
362,87,112546,6,2,B|320:87|308:21|364:-6|430:12|455:91,1,208.999994419098,14|0,0:0|0:0,0:1:0:0:
512,212,112774,2,2,P|432:171|309:173,1,208.999994419098,6|0,1:2|0:0,0:1:0:0:
149,274,113003,38,2,B|126:291|130:312|130:312|193:324|233:267,1,156.749995814324,4|0,1:2|0:0,0:1:0:0:
222,267,113155,2,2,B|230:209|230:209|233:203|233:203|241:148,1,121.000003692627,4|0,1:2|0:0,0:1:0:0:
19,7,113307,2,2,B|11:65|11:65|8:71|8:71|0:126,1,121.000003692627,4|0,1:2|0:0,0:1:0:0:
120,140,113460,5,0,1:0:0:0:
153,2,113612,2,0,P|179:23|188:71,1,82.5000031471254,0|0,1:0|0:0,0:0:0:0:
2,258,113764,38,2,L|124:237,1,121.000003692627,12|0,0:0|0:0,0:1:0:0:
333,213,113917,2,0,L|327:177,5,30.2500009231568,2|0|0|0|0|0,1:2|0:0|0:0|0:0|0:0|0:0,0:0:0:0:
249,215,114069,5,2,1:0:0:0:
256,224,114145,1,0,1:0:0:0:
251,234,114221,1,0,1:0:0:0:
315,287,114297,37,2,1:0:0:0:
316,297,114373,1,0,1:0:0:0:
307,303,114449,1,0,1:0:0:0:
229,329,114526,6,0,B|209:324|209:324|155:345|155:345|136:340,2,98.9999969787599,2|2|12,1:0|1:2|0:0,0:0:0:0:
293,380,114754,37,0,0:0:0:0:
293,380,114830,1,2,0:1:0:0:
325,130,114983,1,0,1:0:0:0:
328,118,115059,2,0,P|369:102|412:98,2,88,2|0|0,0:1|0:0|0:0,0:0:0:0:
441,20,115287,2,0,P|382:84|295:71,1,176,2|0,1:0|0:0,0:0:0:0:
132,28,115516,1,2,0:1:0:0:
213,38,115592,2,0,B|188:-29|110:-15|110:-15|133:5|137:28,1,176,0|0,1:0|0:0,0:0:0:0:
65,69,115820,2,0,P|45:43|53:74,1,88,2|4,0:0|1:2,0:0:0:0:
219,144,115972,5,0,0:0:0:0:
219,144,116049,2,0,P|176:153|140:177,1,88,2|0,0:1|0:0,0:0:0:0:
6,282,116201,1,0,1:0:0:0:
79,245,116277,2,0,B|96:309|96:309|81:325,2,88,2|0|0,0:1|0:0|0:0,0:0:0:0:
0,190,116505,2,0,B|46:179|81:223|61:230|100:267|153:256,1,176,2|0,1:0|0:0,0:0:0:0:
321,286,116734,1,0,1:0:0:0:
295,363,116810,38,0,B|284:320|284:320|311:279,1,88,10|0,0:1|0:0,0:0:0:0:
423,300,116962,2,0,B|434:343|434:343|410:379,1,88,2|0,1:2|0:0,0:0:0:0:
238,216,117115,5,0,1:0:0:0:
226,188,117191,1,0,3:0:0:0:
228,154,117267,1,2,3:1:0:0:
259,115,117343,1,0,3:0:0:0:
311,102,117419,1,0,1:0:0:0:
356,119,117495,1,2,3:1:0:0:
391,153,117571,1,0,3:0:0:0:
443,164,117648,1,0,3:0:0:0:
490,135,117724,1,2,1:0:0:0:
512,89,117800,1,0,3:0:0:0:
499,35,117876,1,0,3:0:0:0:
457,0,117952,1,2,3:2:0:0:
432,78,118028,37,0,1:0:0:0:
432,78,118104,1,2,3:1:0:0:
432,78,118181,1,2,3:1:0:0:
432,78,118257,1,2,3:2:0:0:
432,78,118333,6,0,B|393:86|393:86|320:38|320:38|288:43,1,156.749995814324,0|0,1:0|0:0,0:0:0:0:
312,53,118485,2,0,B|339:88|339:88|319:127,1,88,0|0,1:0|0:0,0:0:0:0:
135,301,118637,38,0,B|116:261|116:261|152:148|152:148|236:240|236:240|230:285,1,330,4|0,1:0|0:0,0:0:0:0:
207,364,118942,1,0,1:0:0:0:
207,364,119018,1,0,3:0:0:0:
207,364,119094,1,0,3:0:0:0:
207,364,119170,1,0,3:0:0:0:
207,364,119247,5,14,0:0:0:0:
150,334,119323,1,2,0:0:0:0:
112,285,119399,1,2,0:0:0:0:
59,320,119475,1,2,0:0:0:0:
1,339,119551,1,0,1:0:0:0:
