osu file format v14

[General]
AudioFilename: audio.mp3
AudioLeadIn: 0
PreviewTime: 41403
Countdown: 0
SampleSet: Normal
StackLeniency: 0.7
Mode: 1
LetterboxInBreaks: 0
WidescreenStoryboard: 1

[Editor]
Bookmarks: 13459,18332,96301,97519,98738,99956
DistanceSpacing: 1
BeatDivisor: 4
GridSize: 32
TimelineZoom: 1.699999

[Metadata]
Title:Re:Construct
TitleUnicode:Re:Construct
Artist:Zekk
ArtistUnicode:Zekk
Creator:Tsuki_yura
Version:Re:Nagi's Inner Oni
Source:OverRapid
Tags:
BeatmapID:2197566
BeatmapSetID:1049652

[Difficulty]
HPDrainRate:5
CircleSize:5
OverallDifficulty:5.5
ApproachRate:5
SliderMultiplier:1.4
SliderTickRate:1

[Events]
//Background and Video events
0,0,"BG.jpg",0,0
//Break Periods
//Storyboard Layer 0 (Background)
//Storyboard Layer 1 (Fail)
//Storyboard Layer 2 (Pass)
//Storyboard Layer 3 (Foreground)
//Storyboard Layer 4 (Overlay)
//Storyboard Sound Samples

[TimingPoints]
58,304.568527918782,4,1,0,100,1,0
42697,-100,4,1,0,100,0,1
62189,-100,4,1,0,100,0,0
81682,-100,4,1,0,100,0,1
101174,-100,4,1,0,100,0,0
110920,-90.9090909090909,4,1,0,100,0,0

[HitObjects]
274,213,2494,5,0,0:0:0:0:
376,198,2646,1,0,0:0:0:0:
343,214,2722,1,0,0:0:0:0:
343,214,2799,1,0,0:0:0:0:
286,203,2951,1,8,0:0:0:0:
286,203,3103,1,0,0:0:0:0:
286,203,3179,1,0,0:0:0:0:
286,203,3255,1,0,0:0:0:0:
286,203,3408,1,8,0:0:0:0:
287,188,3484,1,8,0:0:0:0:
276,173,3560,1,0,0:0:0:0:
276,180,3712,1,4,0:0:0:0:
378,182,3865,1,0,0:0:0:0:
378,182,3941,1,8,0:0:0:0:
378,182,4017,1,0,0:0:0:0:
378,182,4093,1,0,0:0:0:0:
378,182,4169,1,8,0:0:0:0:
378,182,4245,1,0,0:0:0:0:
378,182,4321,1,8,0:0:0:0:
371,191,4474,1,0,0:0:0:0:
371,191,4626,1,0,0:0:0:0:
374,191,4778,1,8,0:0:0:0:
386,186,4931,1,0,0:0:0:0:
386,186,5083,1,8,0:0:0:0:
390,189,5235,1,0,0:0:0:0:
390,189,5311,1,8,0:0:0:0:
390,187,5464,1,0,0:0:0:0:
388,188,5540,1,8,0:0:0:0:
288,202,5692,1,4,0:0:0:0:
288,202,5997,1,12,0:0:0:0:
288,202,6149,1,4,0:0:0:0:
318,188,6301,1,0,0:0:0:0:
318,188,6377,1,8,0:0:0:0:
318,188,6453,1,0,0:0:0:0:
355,200,6530,1,0,0:0:0:0:
355,200,6606,1,0,0:0:0:0:
365,197,6758,1,8,0:0:0:0:
365,197,6834,1,0,0:0:0:0:
376,193,6986,1,8,0:0:0:0:
376,193,7063,1,0,0:0:0:0:
376,193,7215,1,8,0:0:0:0:
251,182,7367,1,4,0:0:0:0:
359,194,7519,1,8,0:0:0:0:
359,194,7596,1,8,0:0:0:0:
325,220,7672,1,0,0:0:0:0:
325,220,7824,1,0,0:0:0:0:
325,220,7900,1,8,0:0:0:0:
385,257,7976,1,0,0:0:0:0:
376,258,8052,1,0,0:0:0:0:
375,258,8129,1,8,0:0:0:0:
372,259,8281,1,8,0:0:0:0:
372,259,8433,1,0,0:0:0:0:
359,194,8585,1,4,0:0:0:0:
352,234,8738,1,8,0:0:0:0:
352,234,8814,1,0,0:0:0:0:
352,234,8890,1,8,0:0:0:0:
357,206,8966,1,0,0:0:0:0:
357,206,9042,1,0,0:0:0:0:
357,206,9118,1,0,0:0:0:0:
385,182,9195,1,8,0:0:0:0:
385,182,9271,1,0,0:0:0:0:
385,182,9347,1,8,0:0:0:0:
385,182,9423,1,8,0:0:0:0:
385,182,9499,1,0,0:0:0:0:
385,182,9575,1,0,0:0:0:0:
385,182,9651,1,8,0:0:0:0:
385,182,9728,1,8,0:0:0:0:
385,149,9804,1,0,0:0:0:0:
392,164,9956,1,8,0:0:0:0:
392,164,10032,1,0,0:0:0:0:
392,164,10108,1,0,0:0:0:0:
398,175,10184,1,8,0:0:0:0:
395,159,10261,1,0,0:0:0:0:
394,159,10337,1,8,0:0:0:0:
392,160,10413,1,8,0:0:0:0:
394,165,10489,1,8,0:0:0:0:
394,165,10565,1,0,0:0:0:0:
394,165,10641,1,8,0:0:0:0:
391,165,10718,1,8,0:0:0:0:
392,164,10794,1,0,0:0:0:0:
392,164,10870,1,8,0:0:0:0:
392,164,10946,1,8,0:0:0:0:
426,187,11022,1,8,0:0:0:0:
379,197,11098,1,0,0:0:0:0:
379,197,11174,1,0,0:0:0:0:
379,197,11250,1,8,0:0:0:0:
379,197,11327,1,0,0:0:0:0:
379,197,11403,1,0,0:0:0:0:
366,198,11479,1,8,0:0:0:0:
346,186,11555,1,0,0:0:0:0:
387,177,11631,1,0,0:0:0:0:
395,150,11707,1,0,0:0:0:0:
395,150,11783,1,0,0:0:0:0:
395,150,11860,1,0,0:0:0:0:
395,150,11936,1,8,0:0:0:0:
395,150,12012,1,0,0:0:0:0:
395,150,12088,1,8,0:0:0:0:
395,150,12164,1,8,0:0:0:0:
395,150,12240,1,8,0:0:0:0:
291,185,12393,1,8,0:0:0:0:
434,240,12469,1,8,0:0:0:0:
425,248,12545,1,8,0:0:0:0:
448,253,12621,1,0,0:0:0:0:
436,260,12697,1,8,0:0:0:0:
431,259,12773,1,8,0:0:0:0:
425,199,12849,1,0,0:0:0:0:
432,213,13002,1,8,0:0:0:0:
419,213,13078,1,0,0:0:0:0:
421,219,13154,1,0,0:0:0:0:
420,219,13230,1,8,0:0:0:0:
418,219,13306,1,0,0:0:0:0:
418,219,13382,1,0,0:0:0:0:
435,265,13459,1,0,0:0:0:0:
374,201,13611,1,0,0:0:0:0:
374,201,13687,1,0,0:0:0:0:
374,201,13763,1,0,0:0:0:0:
374,201,13839,1,8,0:0:0:0:
374,201,13992,1,8,0:0:0:0:
363,193,14068,1,0,0:0:0:0:
384,218,14220,1,0,0:0:0:0:
384,218,14296,1,8,0:0:0:0:
384,218,14372,1,0,0:0:0:0:
384,218,14448,1,0,0:0:0:0:
384,218,14525,1,8,0:0:0:0:
371,220,14601,1,8,0:0:0:0:
384,218,14677,1,0,0:0:0:0:
373,222,14829,1,0,0:0:0:0:
373,222,14905,1,8,0:0:0:0:
373,222,14981,1,0,0:0:0:0:
373,222,15058,1,8,0:0:0:0:
373,222,15210,1,8,0:0:0:0:
373,222,15286,1,0,0:0:0:0:
342,225,15362,1,0,0:0:0:0:
342,225,15438,1,0,0:0:0:0:
342,225,15514,1,8,0:0:0:0:
342,225,15667,1,0,0:0:0:0:
342,225,15743,1,8,0:0:0:0:
339,180,15895,1,0,0:0:0:0:
319,182,16047,1,0,0:0:0:0:
319,182,16123,1,0,0:0:0:0:
319,182,16200,1,0,0:0:0:0:
319,182,16276,1,8,0:0:0:0:
319,182,16352,1,0,0:0:0:0:
319,182,16428,1,8,0:0:0:0:
319,182,16504,1,0,0:0:0:0:
300,198,16656,1,8,0:0:0:0:
300,198,16733,1,0,0:0:0:0:
310,203,16809,1,0,0:0:0:0:
308,211,16885,1,0,0:0:0:0:
305,208,16961,1,0,0:0:0:0:
305,208,17037,1,8,0:0:0:0:
305,208,17113,1,0,0:0:0:0:
290,218,17266,1,0,0:0:0:0:
276,215,17342,1,0,0:0:0:0:
276,220,17418,1,0,0:0:0:0:
276,220,17494,1,8,0:0:0:0:
276,220,17570,1,0,0:0:0:0:
276,213,17722,1,0,0:0:0:0:
276,213,17875,1,8,0:0:0:0:
276,213,17951,1,0,0:0:0:0:
276,213,18103,1,8,0:0:0:0:
276,213,18179,1,0,0:0:0:0:
301,216,18332,1,4,0:0:0:0:
348,252,18484,1,0,0:0:0:0:
318,207,18560,1,8,0:0:0:0:
227,158,18712,1,8,0:0:0:0:
368,233,18788,1,8,0:0:0:0:
216,150,18941,1,0,0:0:0:0:
216,150,19017,1,0,0:0:0:0:
216,150,19093,1,0,0:0:0:0:
216,150,19169,1,8,0:0:0:0:
216,150,19321,1,8,0:0:0:0:
216,150,19398,1,8,0:0:0:0:
212,186,19550,1,0,0:0:0:0:
214,191,19702,1,0,0:0:0:0:
214,191,19778,1,8,0:0:0:0:
214,191,19931,1,8,0:0:0:0:
214,191,20007,1,8,0:0:0:0:
157,146,20159,1,0,0:0:0:0:
157,146,20311,1,0,0:0:0:0:
157,146,20387,1,0,0:0:0:0:
286,172,20464,1,0,0:0:0:0:
145,152,20616,1,0,0:0:0:0:
144,148,20768,1,0,0:0:0:0:
191,184,20920,1,0,0:0:0:0:
235,192,20997,1,8,0:0:0:0:
335,181,21073,1,0,0:0:0:0:
155,198,21225,1,8,0:0:0:0:
163,199,21301,1,8,0:0:0:0:
228,197,21377,1,0,0:0:0:0:
206,175,21530,1,0,0:0:0:0:
228,197,21606,1,8,0:0:0:0:
185,161,21758,1,8,0:0:0:0:
178,171,21834,1,8,0:0:0:0:
274,165,21986,1,4,0:0:0:0:
274,165,22139,1,4,0:0:0:0:
274,165,22291,1,4,0:0:0:0:
278,161,22596,1,0,0:0:0:0:
423,198,23205,1,4,0:0:0:0:
394,261,23509,1,8,0:0:0:0:
395,256,23585,1,0,0:0:0:0:
395,255,23662,1,0,0:0:0:0:
395,254,23814,1,0,0:0:0:0:
395,254,23890,1,0,0:0:0:0:
395,254,23966,1,0,0:0:0:0:
395,254,24118,1,8,0:0:0:0:
395,254,24195,1,0,0:0:0:0:
395,254,24271,1,0,0:0:0:0:
430,277,24423,1,0,0:0:0:0:
430,277,24575,1,0,0:0:0:0:
474,251,24651,1,0,0:0:0:0:
430,277,24728,1,8,0:0:0:0:
430,277,24804,1,0,0:0:0:0:
430,277,24880,1,0,0:0:0:0:
474,251,24956,1,8,0:0:0:0:
474,251,25032,1,0,0:0:0:0:
468,252,25184,1,0,0:0:0:0:
468,251,25261,1,0,0:0:0:0:
460,253,25337,1,8,0:0:0:0:
456,253,25489,1,0,0:0:0:0:
361,213,25565,1,8,0:0:0:0:
491,288,25641,1,0,0:0:0:0:
365,215,25794,1,0,0:0:0:0:
447,257,25946,1,8,0:0:0:0:
447,257,26022,1,0,0:0:0:0:
447,255,26098,1,0,0:0:0:0:
448,258,26250,1,0,0:0:0:0:
446,258,26403,1,0,0:0:0:0:
446,258,26479,1,0,0:0:0:0:
192,258,26555,1,8,0:0:0:0:
356,222,26707,1,0,0:0:0:0:
359,224,26783,1,8,0:0:0:0:
376,238,26860,1,0,0:0:0:0:
388,247,27012,1,0,0:0:0:0:
382,244,27088,1,0,0:0:0:0:
382,244,27164,1,8,0:0:0:0:
382,243,27240,1,0,0:0:0:0:
382,245,27316,1,8,0:0:0:0:
399,256,27469,1,12,0:0:0:0:
401,258,27621,1,12,0:0:0:0:
403,270,27773,1,4,0:0:0:0:
401,267,27926,1,4,0:0:0:0:
420,237,28078,1,8,0:0:0:0:
417,237,28154,1,8,0:0:0:0:
349,246,28306,1,8,0:0:0:0:
349,246,28382,1,8,0:0:0:0:
412,255,28535,1,8,0:0:0:0:
412,255,28611,1,8,0:0:0:0:
390,222,28763,1,0,0:0:0:0:
406,244,28839,1,0,0:0:0:0:
406,244,28915,1,8,0:0:0:0:
394,236,28992,1,0,0:0:0:0:
365,224,29144,1,12,0:0:0:0:
330,218,29296,1,8,0:0:0:0:
330,218,29372,1,8,0:0:0:0:
330,218,29525,1,8,0:0:0:0:
330,218,29601,1,8,0:0:0:0:
323,227,29753,1,8,0:0:0:0:
324,227,29829,1,8,0:0:0:0:
321,265,29981,1,0,0:0:0:0:
321,265,30058,1,0,0:0:0:0:
321,265,30134,1,8,0:0:0:0:
349,274,30210,1,0,0:0:0:0:
316,282,30362,1,8,0:0:0:0:
332,273,30514,1,8,0:0:0:0:
332,272,30590,1,8,0:0:0:0:
332,269,30743,1,0,0:0:0:0:
332,269,30819,1,0,0:0:0:0:
330,268,30971,1,8,0:0:0:0:
330,268,31047,1,8,0:0:0:0:
341,271,31200,1,0,0:0:0:0:
337,270,31276,1,0,0:0:0:0:
342,260,31428,1,8,0:0:0:0:
342,262,31504,1,0,0:0:0:0:
342,262,31580,1,8,0:0:0:0:
373,222,31733,1,4,0:0:0:0:
323,266,32037,1,0,0:0:0:0:
323,266,32189,1,0,0:0:0:0:
323,266,32342,1,8,0:0:0:0:
354,270,32646,1,0,0:0:0:0:
352,253,32951,1,4,0:0:0:0:
316,243,33255,1,0,0:0:0:0:
316,243,33560,1,0,0:0:0:0:
291,219,33865,1,0,0:0:0:0:
291,219,34169,1,0,0:0:0:0:
291,219,34474,1,8,0:0:0:0:
291,219,34626,1,0,0:0:0:0:
291,219,34778,1,8,0:0:0:0:
291,219,34931,1,0,0:0:0:0:
288,229,35083,1,8,0:0:0:0:
368,238,35235,1,4,0:0:0:0:
368,238,35387,1,4,0:0:0:0:
314,215,35692,1,8,0:0:0:0:
312,224,35997,1,0,0:0:0:0:
286,215,36301,1,8,0:0:0:0:
301,233,36606,1,8,0:0:0:0:
289,220,36910,1,8,0:0:0:0:
289,220,37063,1,0,0:0:0:0:
289,220,37215,1,8,0:0:0:0:
289,220,37367,1,0,0:0:0:0:
289,220,37519,1,0,0:0:0:0:
289,220,37672,1,8,0:0:0:0:
289,220,37824,1,4,0:0:0:0:
328,204,38129,1,0,0:0:0:0:
321,213,38433,1,0,0:0:0:0:
310,220,38738,1,0,0:0:0:0:
228,273,39042,1,0,0:0:0:0:
255,283,39195,1,8,0:0:0:0:
255,283,39271,1,8,0:0:0:0:
258,289,39423,1,8,0:0:0:0:
258,289,39499,1,8,0:0:0:0:
254,289,39575,1,8,0:0:0:0:
272,292,39651,1,0,0:0:0:0:
269,291,39728,1,0,0:0:0:0:
259,289,39804,1,8,0:0:0:0:
258,290,39880,1,0,0:0:0:0:
306,295,39956,1,0,0:0:0:0:
297,304,40032,1,8,0:0:0:0:
305,289,40261,1,4,0:0:0:0:
298,297,40565,1,0,0:0:0:0:
296,297,40641,1,0,0:0:0:0:
291,297,40717,1,0,0:0:0:0:
291,297,40794,1,0,0:0:0:0:
300,306,40870,1,8,0:0:0:0:
300,306,40946,1,8,0:0:0:0:
297,304,41022,1,8,0:0:0:0:
300,306,41098,1,0,0:0:0:0:
294,305,41174,1,0,0:0:0:0:
294,304,41250,1,0,0:0:0:0:
274,277,41327,1,8,0:0:0:0:
274,277,41403,1,0,0:0:0:0:
286,287,41479,1,0,0:0:0:0:
412,289,41631,1,0,0:0:0:0:
412,289,41707,1,0,0:0:0:0:
412,289,41783,1,8,0:0:0:0:
247,228,41860,1,0,0:0:0:0:
247,228,41936,1,8,0:0:0:0:
328,242,42088,1,8,0:0:0:0:
325,247,42240,1,0,0:0:0:0:
325,247,42393,1,12,0:0:0:0:
351,235,42697,1,4,0:0:0:0:
351,235,42849,1,0,0:0:0:0:
351,235,43002,1,8,0:0:0:0:
351,235,43154,1,0,0:0:0:0:
351,235,43230,1,0,0:0:0:0:
351,235,43306,1,8,0:0:0:0:
353,191,43459,1,0,0:0:0:0:
353,191,43535,1,8,0:0:0:0:
353,191,43687,1,0,0:0:0:0:
353,191,43763,1,8,0:0:0:0:
358,188,43915,1,0,0:0:0:0:
358,188,44068,1,0,0:0:0:0:
358,188,44144,1,0,0:0:0:0:
358,188,44220,1,8,0:0:0:0:
358,188,44296,1,0,0:0:0:0:
358,188,44448,1,0,0:0:0:0:
330,173,44525,1,8,0:0:0:0:
314,151,44601,1,8,0:0:0:0:
330,173,44677,1,0,0:0:0:0:
330,173,44753,1,8,0:0:0:0:
250,80,44905,1,0,0:0:0:0:
330,173,44981,1,8,0:0:0:0:
274,150,45134,1,0,0:0:0:0:
322,173,45286,1,0,0:0:0:0:
322,173,45362,1,8,0:0:0:0:
325,173,45514,1,0,0:0:0:0:
322,173,45590,1,0,0:0:0:0:
339,175,45743,1,0,0:0:0:0:
341,179,45819,1,0,0:0:0:0:
340,179,45895,1,8,0:0:0:0:
341,168,46047,1,0,0:0:0:0:
341,168,46200,1,8,0:0:0:0:
381,209,46352,1,0,0:0:0:0:
381,209,46504,1,8,0:0:0:0:
381,209,46656,1,0,0:0:0:0:
381,209,46733,1,0,0:0:0:0:
381,209,46809,1,8,0:0:0:0:
381,209,46885,1,0,0:0:0:0:
381,209,46961,1,12,0:0:0:0:
381,209,47189,1,12,0:0:0:0:
309,176,47418,1,12,0:0:0:0:
398,189,47570,1,4,0:0:0:0:
374,185,47722,1,0,0:0:0:0:
374,185,47799,1,8,0:0:0:0:
374,185,47951,1,0,0:0:0:0:
374,185,48027,1,8,0:0:0:0:
376,168,48103,1,8,0:0:0:0:
351,267,48179,1,0,0:0:0:0:
351,267,48332,1,0,0:0:0:0:
351,267,48484,1,8,0:0:0:0:
351,267,48636,1,8,0:0:0:0:
351,267,48788,1,8,0:0:0:0:
351,267,48865,1,8,0:0:0:0:
351,267,48941,1,0,0:0:0:0:
351,267,49017,1,8,0:0:0:0:
351,267,49169,1,0,0:0:0:0:
351,267,49245,1,8,0:0:0:0:
321,213,49321,1,8,0:0:0:0:
321,213,49398,1,0,0:0:0:0:
321,213,49550,1,8,0:0:0:0:
321,213,49626,1,0,0:0:0:0:
321,213,49702,1,8,0:0:0:0:
298,184,49854,1,8,0:0:0:0:
257,229,50007,1,0,0:0:0:0:
349,223,50108,1,0,0:0:0:0:
343,223,50210,1,0,0:0:0:0:
343,223,50311,1,8,0:0:0:0:
343,223,50413,1,0,0:0:0:0:
343,223,50514,1,0,0:0:0:0:
343,219,50616,1,8,0:0:0:0:
343,219,50717,1,0,0:0:0:0:
343,219,50819,1,8,0:0:0:0:
343,219,50920,1,0,0:0:0:0:
343,219,51022,1,0,0:0:0:0:
343,219,51123,1,8,0:0:0:0:
343,223,51225,1,4,0:0:0:0:
343,223,51377,1,4,0:0:0:0:
343,223,51530,1,4,0:0:0:0:
296,210,51631,1,8,0:0:0:0:
296,210,51733,1,0,0:0:0:0:
296,210,51834,1,8,0:0:0:0:
296,210,51936,1,0,0:0:0:0:
296,210,52037,1,0,0:0:0:0:
296,210,52139,1,8,0:0:0:0:
296,210,52240,1,0,0:0:0:0:
296,210,52342,1,8,0:0:0:0:
296,210,52443,1,0,0:0:0:0:
264,143,52596,1,0,0:0:0:0:
264,143,52672,1,0,0:0:0:0:
264,143,52748,1,8,0:0:0:0:
264,143,52824,1,0,0:0:0:0:
264,143,52900,1,8,0:0:0:0:
264,143,52976,1,8,0:0:0:0:
304,131,53052,1,8,0:0:0:0:
304,131,53205,1,8,0:0:0:0:
304,131,53281,1,0,0:0:0:0:
304,131,53433,1,0,0:0:0:0:
304,131,53509,1,8,0:0:0:0:
323,183,53662,1,0,0:0:0:0:
323,183,53814,1,0,0:0:0:0:
323,183,53890,1,0,0:0:0:0:
323,183,53966,1,8,0:0:0:0:
323,183,54118,1,0,0:0:0:0:
323,183,54271,1,8,0:0:0:0:
323,183,54347,1,8,0:0:0:0:
323,183,54423,1,0,0:0:0:0:
323,183,54499,1,8,0:0:0:0:
323,183,54651,1,0,0:0:0:0:
323,183,54728,1,8,0:0:0:0:
307,189,54880,1,8,0:0:0:0:
307,189,55032,1,0,0:0:0:0:
306,188,55108,1,8,0:0:0:0:
306,188,55261,1,0,0:0:0:0:
306,188,55337,1,8,0:0:0:0:
281,173,55489,1,0,0:0:0:0:
281,173,55565,1,0,0:0:0:0:
281,173,55641,1,8,0:0:0:0:
281,173,55794,1,8,0:0:0:0:
277,155,55946,1,8,0:0:0:0:
295,150,56098,1,0,0:0:0:0:
295,151,56250,1,0,0:0:0:0:
295,151,56327,1,0,0:0:0:0:
295,151,56403,1,8,0:0:0:0:
271,135,56555,1,8,0:0:0:0:
271,135,56631,1,8,0:0:0:0:
271,135,56707,1,0,0:0:0:0:
263,123,56783,1,8,0:0:0:0:
263,123,56860,1,0,0:0:0:0:
263,123,56936,1,8,0:0:0:0:
263,123,57012,1,0,0:0:0:0:
263,123,57088,1,8,0:0:0:0:
258,123,57164,1,0,0:0:0:0:
256,123,57240,1,8,0:0:0:0:
277,162,57316,1,0,0:0:0:0:
277,162,57393,1,0,0:0:0:0:
265,171,57469,1,8,0:0:0:0:
268,186,57621,1,8,0:0:0:0:
269,202,57773,1,0,0:0:0:0:
269,202,57849,1,0,0:0:0:0:
269,202,57926,1,8,0:0:0:0:
255,209,58078,1,0,0:0:0:0:
255,209,58154,1,8,0:0:0:0:
255,209,58306,1,0,0:0:0:0:
255,209,58382,1,8,0:0:0:0:
268,186,58535,1,0,0:0:0:0:
268,186,58611,1,0,0:0:0:0:
224,142,58687,1,8,0:0:0:0:
292,195,58839,1,0,0:0:0:0:
296,192,58915,1,8,0:0:0:0:
316,222,59068,1,0,0:0:0:0:
316,222,59144,1,8,0:0:0:0:
324,227,59296,1,8,0:0:0:0:
324,227,59372,1,0,0:0:0:0:
324,227,59525,1,0,0:0:0:0:
321,227,59601,1,8,0:0:0:0:
292,229,59753,1,0,0:0:0:0:
292,229,59829,1,0,0:0:0:0:
292,229,59905,1,0,0:0:0:0:
292,229,59981,1,0,0:0:0:0:
292,229,60058,1,8,0:0:0:0:
292,229,60134,1,8,0:0:0:0:
292,229,60210,1,8,0:0:0:0:
292,229,60286,1,8,0:0:0:0:
292,229,60362,1,0,0:0:0:0:
292,229,60438,1,0,0:0:0:0:
292,229,60514,1,8,0:0:0:0:
292,229,60590,1,8,0:0:0:0:
321,244,60667,1,0,0:0:0:0:
323,239,60717,1,0,0:0:0:0:
323,238,60768,1,0,0:0:0:0:
395,266,60819,1,8,0:0:0:0:
401,248,60895,1,8,0:0:0:0:
401,248,60971,1,0,0:0:0:0:
360,220,61073,1,8,0:0:0:0:
367,215,61174,1,0,0:0:0:0:
367,215,61276,1,8,0:0:0:0:
367,215,61377,1,0,0:0:0:0:
367,215,61479,1,0,0:0:0:0:
432,228,61580,1,8,0:0:0:0:
443,244,61682,1,0,0:0:0:0:
443,244,61783,1,0,0:0:0:0:
443,244,61885,1,8,0:0:0:0:
443,244,61986,1,8,0:0:0:0:
443,244,62088,1,0,0:0:0:0:
443,244,62189,1,8,0:0:0:0:
463,244,62342,1,0,0:0:0:0:
465,230,62494,1,0,0:0:0:0:
328,163,62646,1,8,0:0:0:0:
328,163,62951,1,0,0:0:0:0:
361,171,63103,1,8,0:0:0:0:
361,171,63255,1,0,0:0:0:0:
361,171,63408,1,0,0:0:0:0:
488,173,63560,1,8,0:0:0:0:
488,173,63865,1,0,0:0:0:0:
488,173,64017,1,8,0:0:0:0:
488,173,64169,1,0,0:0:0:0:
477,200,64321,1,0,0:0:0:0:
477,200,64474,1,8,0:0:0:0:
393,169,64626,1,0,0:0:0:0:
419,186,64931,1,8,0:0:0:0:
419,186,65235,1,0,0:0:0:0:
419,186,65387,1,8,0:0:0:0:
419,186,65540,1,0,0:0:0:0:
400,146,65844,1,8,0:0:0:0:
403,157,66149,1,0,0:0:0:0:
403,157,66301,1,8,0:0:0:0:
403,157,66453,1,8,0:0:0:0:
403,157,66606,1,0,0:0:0:0:
420,166,66758,1,8,0:0:0:0:
443,152,67063,1,8,0:0:0:0:
443,152,67215,1,0,0:0:0:0:
443,152,67367,1,0,0:0:0:0:
444,174,67519,1,8,0:0:0:0:
445,175,67672,1,0,0:0:0:0:
459,164,67976,1,8,0:0:0:0:
465,178,68129,1,0,0:0:0:0:
462,179,68281,1,0,0:0:0:0:
462,179,68433,1,8,0:0:0:0:
462,179,68738,1,0,0:0:0:0:
462,179,68890,1,8,0:0:0:0:
452,178,69042,1,0,0:0:0:0:
454,184,69195,1,0,0:0:0:0:
454,184,69347,1,8,0:0:0:0:
452,185,69499,1,0,0:0:0:0:
470,178,69804,1,8,0:0:0:0:
470,178,70108,1,0,0:0:0:0:
470,178,70261,1,8,0:0:0:0:
470,172,70413,1,0,0:0:0:0:
470,172,70565,1,0,0:0:0:0:
479,173,70717,1,8,0:0:0:0:
495,170,71022,1,0,0:0:0:0:
495,174,71174,1,8,0:0:0:0:
495,174,71327,1,8,0:0:0:0:
495,174,71479,1,0,0:0:0:0:
495,174,71631,1,8,0:0:0:0:
485,157,71936,1,4,0:0:0:0:
484,179,72240,1,8,0:0:0:0:
488,197,72545,1,0,0:0:0:0:
397,153,72697,1,0,0:0:0:0:
397,153,72849,1,8,0:0:0:0:
486,201,72926,1,8,0:0:0:0:
488,200,73078,1,8,0:0:0:0:
488,200,73154,1,0,0:0:0:0:
501,208,73306,1,0,0:0:0:0:
501,208,73459,1,8,0:0:0:0:
316,213,73611,1,8,0:0:0:0:
319,216,73687,1,8,0:0:0:0:
319,216,73763,1,0,0:0:0:0:
192,120,73839,1,0,0:0:0:0:
192,120,73915,1,0,0:0:0:0:
192,120,74068,1,8,0:0:0:0:
142,194,74220,1,0,0:0:0:0:
142,194,74372,1,4,0:0:0:0:
209,197,74525,1,0,0:0:0:0:
209,197,74601,1,0,0:0:0:0:
209,197,74677,1,8,0:0:0:0:
218,187,74829,1,0,0:0:0:0:
218,187,74905,1,0,0:0:0:0:
218,187,74981,1,0,0:0:0:0:
304,197,75134,1,0,0:0:0:0:
304,197,75210,1,0,0:0:0:0:
304,197,75286,1,8,0:0:0:0:
304,197,75362,1,0,0:0:0:0:
304,197,75438,1,0,0:0:0:0:
271,185,75590,1,0,0:0:0:0:
265,198,75667,1,0,0:0:0:0:
268,190,75743,1,8,0:0:0:0:
268,190,75895,1,8,0:0:0:0:
268,190,75971,1,0,0:0:0:0:
268,190,76047,1,0,0:0:0:0:
268,190,76200,1,0,0:0:0:0:
268,190,76276,1,8,0:0:0:0:
268,190,76352,1,0,0:0:0:0:
268,190,76428,1,0,0:0:0:0:
268,190,76504,1,8,0:0:0:0:
265,198,76656,1,0,0:0:0:0:
237,200,76809,1,4,0:0:0:0:
272,197,76961,1,0,0:0:0:0:
272,197,77037,1,0,0:0:0:0:
272,197,77113,1,8,0:0:0:0:
272,197,77189,1,0,0:0:0:0:
272,197,77266,1,8,0:0:0:0:
246,146,77342,1,0,0:0:0:0:
321,171,77418,1,0,0:0:0:0:
312,177,77494,1,8,0:0:0:0:
312,177,77570,1,0,0:0:0:0:
312,177,77646,1,0,0:0:0:0:
312,177,77722,1,8,0:0:0:0:
312,177,77799,1,0,0:0:0:0:
312,177,77875,1,8,0:0:0:0:
312,177,77951,1,8,0:0:0:0:
272,197,78027,1,8,0:0:0:0:
321,234,78179,1,8,0:0:0:0:
321,234,78255,1,8,0:0:0:0:
326,231,78332,1,8,0:0:0:0:
326,231,78408,1,0,0:0:0:0:
326,231,78484,1,8,0:0:0:0:
326,231,78560,1,8,0:0:0:0:
291,235,78636,1,0,0:0:0:0:
291,235,78712,1,0,0:0:0:0:
291,235,78788,1,8,0:0:0:0:
291,235,78865,1,8,0:0:0:0:
294,226,78941,1,0,0:0:0:0:
294,226,79017,1,8,0:0:0:0:
294,226,79093,1,8,0:0:0:0:
294,226,79169,1,8,0:0:0:0:
343,273,79245,1,0,0:0:0:0:
256,192,79550,8,0,80159,0:0:0:0:
236,242,80464,5,0,0:0:0:0:
248,238,80692,1,8,0:0:0:0:
248,238,80920,1,8,0:0:0:0:
243,218,81073,1,0,0:0:0:0:
247,224,81149,1,0,0:0:0:0:
255,217,81225,1,8,0:0:0:0:
463,274,81377,1,8,0:0:0:0:
301,185,81682,1,4,0:0:0:0:
324,226,81834,1,0,0:0:0:0:
319,236,81910,1,0,0:0:0:0:
319,236,81986,1,8,0:0:0:0:
319,236,82139,1,0,0:0:0:0:
319,238,82215,1,8,0:0:0:0:
319,238,82291,1,0,0:0:0:0:
319,238,82367,1,0,0:0:0:0:
319,238,82443,1,8,0:0:0:0:
347,203,82596,1,8,0:0:0:0:
319,238,82748,1,8,0:0:0:0:
384,172,82900,1,0,0:0:0:0:
384,172,83052,1,0,0:0:0:0:
384,172,83129,1,0,0:0:0:0:
384,172,83205,1,8,0:0:0:0:
384,172,83357,1,0,0:0:0:0:
384,172,83509,1,12,0:0:0:0:
384,172,83662,1,12,0:0:0:0:
384,172,83814,1,4,0:0:0:0:
384,172,83966,1,12,0:0:0:0:
370,216,84118,1,0,0:0:0:0:
370,216,84271,1,0,0:0:0:0:
370,216,84347,1,0,0:0:0:0:
370,216,84423,1,8,0:0:0:0:
370,216,84575,1,0,0:0:0:0:
313,154,84651,1,8,0:0:0:0:
313,154,84804,1,0,0:0:0:0:
313,154,84880,1,8,0:0:0:0:
313,154,85032,1,8,0:0:0:0:
313,154,85184,1,0,0:0:0:0:
323,150,85261,1,0,0:0:0:0:
323,150,85337,1,8,0:0:0:0:
323,149,85489,1,0,0:0:0:0:
325,154,85565,1,0,0:0:0:0:
330,154,85641,1,8,0:0:0:0:
297,140,85794,1,0,0:0:0:0:
320,134,85870,1,8,0:0:0:0:
323,145,85946,1,4,0:0:0:0:
322,140,86174,1,4,0:0:0:0:
322,140,86403,1,4,0:0:0:0:
379,125,86555,1,0,0:0:0:0:
379,125,86707,1,0,0:0:0:0:
379,125,86783,1,0,0:0:0:0:
379,125,86860,1,8,0:0:0:0:
379,125,87012,1,0,0:0:0:0:
379,125,87088,1,8,0:0:0:0:
400,113,87240,1,0,0:0:0:0:
400,113,87316,1,8,0:0:0:0:
379,125,87469,1,8,0:0:0:0:
401,113,87545,1,0,0:0:0:0:
401,113,87621,1,8,0:0:0:0:
401,113,87697,1,8,0:0:0:0:
401,113,87773,1,8,0:0:0:0:
401,113,87926,1,0,0:0:0:0:
338,150,88002,1,0,0:0:0:0:
338,150,88078,1,8,0:0:0:0:
337,109,88230,1,0,0:0:0:0:
337,109,88306,1,8,0:0:0:0:
337,109,88459,1,8,0:0:0:0:
337,109,88535,1,0,0:0:0:0:
379,184,88611,1,8,0:0:0:0:
379,184,88687,1,8,0:0:0:0:
407,231,88839,1,0,0:0:0:0:
446,162,88992,1,8,0:0:0:0:
446,162,89068,1,0,0:0:0:0:
446,162,89144,1,0,0:0:0:0:
438,162,89220,1,8,0:0:0:0:
434,162,89296,1,8,0:0:0:0:
435,162,89372,1,0,0:0:0:0:
362,246,89448,1,8,0:0:0:0:
362,246,89525,1,0,0:0:0:0:
379,241,89601,1,0,0:0:0:0:
379,241,89677,1,8,0:0:0:0:
379,241,89753,1,8,0:0:0:0:
379,241,89829,1,0,0:0:0:0:
379,241,89905,1,0,0:0:0:0:
220,95,89981,1,0,0:0:0:0:
379,241,90058,1,8,0:0:0:0:
365,251,90210,1,4,0:0:0:0:
365,251,90362,1,4,0:0:0:0:
365,251,90514,1,4,0:0:0:0:
437,186,90819,1,0,0:0:0:0:
444,193,90895,1,0,0:0:0:0:
444,193,90971,1,8,0:0:0:0:
444,193,91123,1,8,0:0:0:0:
444,193,91276,1,8,0:0:0:0:
462,182,91428,1,4,0:0:0:0:
465,173,91656,1,0,0:0:0:0:
465,173,91732,1,8,0:0:0:0:
465,173,91885,1,0,0:0:0:0:
343,201,92037,1,0,0:0:0:0:
343,201,92113,1,0,0:0:0:0:
343,201,92189,1,8,0:0:0:0:
343,201,92342,1,8,0:0:0:0:
343,201,92494,1,8,0:0:0:0:
378,169,92646,1,8,0:0:0:0:
378,169,92799,1,0,0:0:0:0:
378,169,92875,1,0,0:0:0:0:
378,169,92951,1,8,0:0:0:0:
378,169,93103,1,0,0:0:0:0:
336,149,93255,1,12,0:0:0:0:
336,149,93408,1,12,0:0:0:0:
336,149,93560,1,4,0:0:0:0:
336,149,93712,1,12,0:0:0:0:
330,150,93865,1,0,0:0:0:0:
333,156,94017,1,0,0:0:0:0:
333,157,94093,1,0,0:0:0:0:
337,156,94169,1,8,0:0:0:0:
357,156,94245,1,0,0:0:0:0:
337,156,94321,1,0,0:0:0:0:
357,156,94398,1,8,0:0:0:0:
372,157,94474,1,0,0:0:0:0:
386,158,94626,1,8,0:0:0:0:
386,158,94702,1,0,0:0:0:0:
386,158,94854,1,0,0:0:0:0:
386,158,94931,1,8,0:0:0:0:
411,131,95007,1,8,0:0:0:0:
425,138,95083,1,8,0:0:0:0:
425,138,95235,1,0,0:0:0:0:
415,136,95311,1,0,0:0:0:0:
415,136,95387,1,8,0:0:0:0:
415,136,95540,1,0,0:0:0:0:
418,137,95616,1,8,0:0:0:0:
415,136,95768,1,0,0:0:0:0:
415,136,95844,1,8,0:0:0:0:
415,136,95997,1,0,0:0:0:0:
285,215,96149,1,0,0:0:0:0:
255,297,96301,1,0,0:0:0:0:
255,297,96377,1,8,0:0:0:0:
255,297,96453,1,8,0:0:0:0:
255,297,96530,1,0,0:0:0:0:
255,297,96606,1,0,0:0:0:0:
255,297,96682,1,8,0:0:0:0:
265,277,96758,1,0,0:0:0:0:
266,277,96834,1,0,0:0:0:0:
266,277,96910,1,8,0:0:0:0:
266,277,96986,1,0,0:0:0:0:
266,277,97063,1,8,0:0:0:0:
266,277,97139,1,8,0:0:0:0:
266,277,97215,1,0,0:0:0:0:
342,259,97291,1,0,0:0:0:0:
342,259,97367,1,8,0:0:0:0:
342,259,97443,1,8,0:0:0:0:
352,258,97519,1,0,0:0:0:0:
352,218,97596,1,0,0:0:0:0:
352,218,97672,1,8,0:0:0:0:
352,218,97748,1,0,0:0:0:0:
352,218,97824,1,0,0:0:0:0:
360,215,97900,1,8,0:0:0:0:
372,206,97976,1,0,0:0:0:0:
372,206,98052,1,0,0:0:0:0:
372,206,98129,1,8,0:0:0:0:
372,206,98205,1,0,0:0:0:0:
372,206,98281,1,0,0:0:0:0:
372,206,98357,1,8,0:0:0:0:
372,206,98433,1,0,0:0:0:0:
372,206,98509,1,8,0:0:0:0:
372,206,98585,1,8,0:0:0:0:
394,208,98662,1,8,0:0:0:0:
397,207,98738,1,8,0:0:0:0:
397,207,98814,1,0,0:0:0:0:
397,207,98890,1,0,0:0:0:0:
397,207,98966,1,0,0:0:0:0:
405,171,99042,1,8,0:0:0:0:
405,171,99118,1,8,0:0:0:0:
405,171,99195,1,8,0:0:0:0:
405,171,99271,1,8,0:0:0:0:
436,179,99347,1,8,0:0:0:0:
436,179,99423,1,8,0:0:0:0:
436,179,99499,1,0,0:0:0:0:
436,179,99575,1,0,0:0:0:0:
436,179,99651,1,8,0:0:0:0:
436,179,99728,1,0,0:0:0:0:
462,165,99804,1,8,0:0:0:0:
462,165,99880,1,8,0:0:0:0:
474,161,99956,1,4,0:0:0:0:
472,166,100108,1,4,0:0:0:0:
470,164,100261,1,4,0:0:0:0:
482,183,100565,1,0,0:0:0:0:
481,183,100641,1,8,0:0:0:0:
483,186,100870,1,12,0:0:0:0:
510,155,101174,1,4,0:0:0:0:
450,162,101327,1,0,0:0:0:0:
441,166,101403,1,0,0:0:0:0:
440,166,101479,1,8,0:0:0:0:
439,166,101631,1,0,0:0:0:0:
466,164,101783,1,0,0:0:0:0:
466,164,101860,1,8,0:0:0:0:
466,164,102012,1,8,0:0:0:0:
466,164,102088,1,0,0:0:0:0:
466,164,102240,1,8,0:0:0:0:
480,165,102393,1,0,0:0:0:0:
480,165,102469,1,0,0:0:0:0:
480,165,102621,1,0,0:0:0:0:
480,165,102697,1,8,0:0:0:0:
485,163,102849,1,0,0:0:0:0:
345,188,103002,1,0,0:0:0:0:
345,188,103078,1,8,0:0:0:0:
345,188,103154,1,8,0:0:0:0:
363,204,103306,1,8,0:0:0:0:
363,204,103459,1,0,0:0:0:0:
363,204,103611,1,0,0:0:0:0:
363,204,103763,1,0,0:0:0:0:
363,204,103839,1,0,0:0:0:0:
363,204,103915,1,8,0:0:0:0:
363,204,104068,1,0,0:0:0:0:
377,196,104220,1,0,0:0:0:0:
348,209,104296,1,8,0:0:0:0:
368,196,104372,1,8,0:0:0:0:
368,196,104525,1,8,0:0:0:0:
368,196,104677,1,0,0:0:0:0:
378,206,104753,1,8,0:0:0:0:
392,207,104829,1,0,0:0:0:0:
392,215,104981,1,0,0:0:0:0:
392,216,105058,1,0,0:0:0:0:
392,216,105134,1,8,0:0:0:0:
392,216,105286,1,0,0:0:0:0:
405,236,105438,1,8,0:0:0:0:
405,236,105590,1,0,0:0:0:0:
400,239,105667,1,8,0:0:0:0:
400,239,105819,1,0,0:0:0:0:
399,239,105895,1,8,0:0:0:0:
399,252,106352,1,12,0:0:0:0:
399,252,106504,1,0,0:0:0:0:
439,251,106656,1,0,0:0:0:0:
410,284,106733,1,8,0:0:0:0:
410,284,106809,1,8,0:0:0:0:
439,251,106961,1,8,0:0:0:0:
422,278,107037,1,0,0:0:0:0:
439,251,107113,1,0,0:0:0:0:
422,278,107189,1,0,0:0:0:0:
422,278,107266,1,8,0:0:0:0:
434,211,107418,1,0,0:0:0:0:
487,264,107570,1,8,0:0:0:0:
483,168,107722,1,0,0:0:0:0:
483,168,107799,1,0,0:0:0:0:
409,182,107875,1,8,0:0:0:0:
409,182,107951,1,8,0:0:0:0:
409,182,108027,1,8,0:0:0:0:
415,181,108179,1,8,0:0:0:0:
415,181,108332,1,0,0:0:0:0:
472,235,108484,1,0,0:0:0:0:
454,260,108636,1,0,0:0:0:0:
454,260,108712,1,0,0:0:0:0:
454,260,108788,1,8,0:0:0:0:
454,260,108865,1,0,0:0:0:0:
461,266,109017,1,0,0:0:0:0:
505,271,109093,1,0,0:0:0:0:
505,271,109169,1,8,0:0:0:0:
505,271,109245,1,8,0:0:0:0:
505,271,109398,1,8,0:0:0:0:
505,271,109550,1,0,0:0:0:0:
347,206,109702,1,4,0:0:0:0:
347,206,109854,1,4,0:0:0:0:
347,206,110007,1,4,0:0:0:0:
368,217,110311,1,0,0:0:0:0:
368,217,110387,1,0,0:0:0:0:
370,217,110464,1,8,0:0:0:0:
370,217,110540,1,8,0:0:0:0:
370,217,110616,1,8,0:0:0:0:
414,223,110692,1,8,0:0:0:0:
370,217,110768,1,0,0:0:0:0:
414,223,110844,1,8,0:0:0:0:
421,172,110920,1,4,0:0:0:0:
418,184,111225,1,4,0:0:0:0:
418,184,111453,1,4,0:0:0:0:
431,199,111682,1,4,0:0:0:0:
431,199,111834,1,4,0:0:0:0:
263,238,112291,1,4,0:0:0:0:
263,238,112443,1,4,0:0:0:0:
423,210,112596,1,8,0:0:0:0:
350,211,112748,1,4,0:0:0:0:
334,215,112976,1,4,0:0:0:0:
327,222,113205,1,4,0:0:0:0:
379,229,113357,1,0,0:0:0:0:
379,229,113433,1,8,0:0:0:0:
394,233,113509,1,0,0:0:0:0:
394,233,113585,1,0,0:0:0:0:
383,231,113662,1,8,0:0:0:0:
394,233,113738,1,0,0:0:0:0:
394,233,113814,1,0,0:0:0:0:
276,216,113890,1,8,0:0:0:0:
276,216,113966,1,0,0:0:0:0:
276,216,114042,1,0,0:0:0:0:
276,216,114118,1,8,0:0:0:0:
312,200,114195,1,0,0:0:0:0:
312,200,114271,1,8,0:0:0:0:
312,200,114423,1,8,0:0:0:0:
323,189,114575,1,0,0:0:0:0:
345,220,114651,1,0,0:0:0:0:
345,220,114728,1,8,0:0:0:0:
375,171,114804,1,0,0:0:0:0:
356,217,114880,1,8,0:0:0:0:
399,207,115032,1,8,0:0:0:0:
326,177,115108,1,8,0:0:0:0:
399,207,115184,1,0,0:0:0:0:
426,206,115261,1,0,0:0:0:0:
426,206,115337,1,0,0:0:0:0:
423,209,115413,1,0,0:0:0:0:
423,215,115489,1,8,0:0:0:0:
423,215,115565,1,0,0:0:0:0:
423,215,115641,1,0,0:0:0:0:
423,215,115717,1,8,0:0:0:0:
509,212,115794,1,0,0:0:0:0:
184,86,115870,1,8,0:0:0:0:
184,86,115946,1,8,0:0:0:0:
190,157,116098,1,0,0:0:0:0:
190,157,116174,1,8,0:0:0:0:
190,157,116327,1,0,0:0:0:0:
190,157,116403,1,8,0:0:0:0:
232,128,116555,1,0,0:0:0:0:
232,128,116631,1,8,0:0:0:0:
232,128,116707,1,8,0:0:0:0:
232,128,116860,1,8,0:0:0:0:
232,128,116936,1,8,0:0:0:0:
232,128,117012,1,0,0:0:0:0:
274,133,117088,1,8,0:0:0:0:
247,149,117164,1,0,0:0:0:0:
247,149,117240,1,0,0:0:0:0:
247,149,117316,1,8,0:0:0:0:
297,133,117469,1,0,0:0:0:0:
297,133,117545,1,8,0:0:0:0:
349,126,117621,1,0,0:0:0:0:
345,131,117773,1,0,0:0:0:0:
345,131,117849,1,8,0:0:0:0:
403,166,118002,1,0,0:0:0:0:
377,158,118078,1,8,0:0:0:0:
375,152,118154,1,8,0:0:0:0:
375,152,118230,1,0,0:0:0:0:
314,167,118306,1,8,0:0:0:0:
314,167,118382,1,8,0:0:0:0:
314,167,118459,1,0,0:0:0:0:
323,171,118535,1,0,0:0:0:0:
336,182,118611,1,8,0:0:0:0:
336,182,118687,1,0,0:0:0:0:
324,142,118763,1,0,0:0:0:0:
324,145,118839,1,8,0:0:0:0:
332,153,118915,1,0,0:0:0:0:
347,139,118992,1,0,0:0:0:0:
347,139,119068,1,8,0:0:0:0:
347,139,119220,1,8,0:0:0:0:
345,139,119296,1,8,0:0:0:0:
345,139,119372,1,0,0:0:0:0:
375,157,119448,1,0,0:0:0:0:
308,143,119525,1,0,0:0:0:0:
308,143,119601,1,0,0:0:0:0:
311,142,119677,1,0,0:0:0:0:
312,142,119753,1,8,0:0:0:0:
272,169,119829,1,8,0:0:0:0:
312,142,119905,1,8,0:0:0:0:
279,168,119981,1,8,0:0:0:0:
350,127,120058,1,0,0:0:0:0:
350,128,120134,1,0,0:0:0:0:
350,128,120210,1,0,0:0:0:0:
350,128,120362,1,12,0:0:0:0:
256,192,120667,8,0,130413,0:0:0:0:
