osu file format v14

[General]
AudioFilename: audio.mp3
AudioLeadIn: 0
PreviewTime: 41403
Countdown: 0
SampleSet: Normal
StackLeniency: 0.7
Mode: 1
LetterboxInBreaks: 0
WidescreenStoryboard: 0

[Editor]
Bookmarks: 13459,18332,96301,97519,98738,99956
DistanceSpacing: 1
BeatDivisor: 4
GridSize: 32
TimelineZoom: 3.599998

[Metadata]
Title:Re:Construct
TitleUnicode:Re:Construct
Artist:Zekk
ArtistUnicode:Zekk
Creator:Tsuki_yura
Version:Re:Future Inner Oni
Source:OverRapid
Tags:
BeatmapID:2193794
BeatmapSetID:1049652

[Difficulty]
HPDrainRate:5
CircleSize:5
OverallDifficulty:6
ApproachRate:5
SliderMultiplier:1.4
SliderTickRate:1

[Events]
//Background and Video events
0,0,"BG.jpg",0,0
//Break Periods
2,62389,70736
//Storyboard Layer 0 (Background)
//Storyboard Layer 1 (Fail)
//Storyboard Layer 2 (Pass)
//Storyboard Layer 3 (Foreground)
//Storyboard Layer 4 (Overlay)
//Storyboard Sound Samples

[TimingPoints]
58,304.568527918782,4,1,0,100,1,0
42697,-100,4,1,0,100,0,1
62189,-100,4,1,0,100,0,0
81682,-100,4,1,0,100,0,1
101174,-100,4,1,0,100,0,0

[HitObjects]
256,192,2494,5,0,0:0:0:0:
256,192,2646,1,8,0:0:0:0:
256,192,2722,1,0,0:0:0:0:
256,192,2799,1,0,0:0:0:0:
256,192,2951,1,0,0:0:0:0:
256,192,3103,1,0,0:0:0:0:
256,192,3179,1,8,0:0:0:0:
256,192,3255,1,0,0:0:0:0:
256,192,3332,1,0,0:0:0:0:
256,192,3408,1,8,0:0:0:0:
256,192,3484,1,0,0:0:0:0:
256,192,3560,1,8,0:0:0:0:
256,192,3712,1,4,0:0:0:0:
256,192,5692,1,4,0:0:0:0:
256,192,5997,1,4,0:0:0:0:
256,192,6149,1,4,0:0:0:0:
256,192,7367,1,4,0:0:0:0:
256,192,7976,1,4,0:0:0:0:
256,192,8585,1,0,0:0:0:0:
256,192,8662,1,0,0:0:0:0:
256,192,8738,1,8,0:0:0:0:
256,192,8814,1,0,0:0:0:0:
256,192,8890,1,8,0:0:0:0:
256,192,8966,1,8,0:0:0:0:
256,192,9042,1,8,0:0:0:0:
256,192,9118,1,0,0:0:0:0:
256,192,9195,1,0,0:0:0:0:
256,192,9271,1,8,0:0:0:0:
256,192,9348,1,0,0:0:0:0:
256,192,9424,1,0,0:0:0:0:
256,192,9500,1,8,0:0:0:0:
256,192,9576,1,0,0:0:0:0:
256,192,9652,1,8,0:0:0:0:
256,192,9728,1,0,0:0:0:0:
256,192,9804,1,8,0:0:0:0:
256,192,9880,1,8,0:0:0:0:
256,192,9956,1,0,0:0:0:0:
256,192,10033,1,0,0:0:0:0:
256,192,10109,1,0,0:0:0:0:
256,192,10185,1,8,0:0:0:0:
256,192,10261,1,0,0:0:0:0:
256,192,10337,1,0,0:0:0:0:
256,192,10413,1,8,0:0:0:0:
256,192,10489,1,0,0:0:0:0:
256,192,10566,1,0,0:0:0:0:
256,192,10641,1,0,0:0:0:0:
256,192,10717,1,8,0:0:0:0:
256,192,10794,1,0,0:0:0:0:
256,192,10870,1,0,0:0:0:0:
256,192,10946,1,0,0:0:0:0:
256,192,11022,1,8,0:0:0:0:
256,192,11098,1,8,0:0:0:0:
256,192,11174,1,8,0:0:0:0:
256,192,11251,1,0,0:0:0:0:
256,192,11327,1,8,0:0:0:0:
256,192,11404,1,0,0:0:0:0:
256,192,11480,1,8,0:0:0:0:
256,192,11556,1,0,0:0:0:0:
256,192,11632,1,8,0:0:0:0:
256,192,11708,1,8,0:0:0:0:
256,192,11784,1,0,0:0:0:0:
256,192,11860,1,0,0:0:0:0:
256,192,11937,1,8,0:0:0:0:
256,192,12012,1,0,0:0:0:0:
256,192,12089,1,0,0:0:0:0:
256,192,12165,1,0,0:0:0:0:
256,192,12241,1,8,0:0:0:0:
256,192,12317,1,0,0:0:0:0:
256,192,12393,1,0,0:0:0:0:
256,192,12469,1,8,0:0:0:0:
256,192,12545,1,0,0:0:0:0:
256,192,12622,1,0,0:0:0:0:
256,192,12697,1,8,0:0:0:0:
256,192,12774,1,0,0:0:0:0:
256,192,12850,1,8,0:0:0:0:
256,192,12926,1,8,0:0:0:0:
256,192,13002,1,0,0:0:0:0:
256,192,13154,1,12,0:0:0:0:
256,192,13459,5,0,0:0:0:0:
256,192,13535,1,0,0:0:0:0:
256,192,13611,1,8,0:0:0:0:
256,192,13687,1,0,0:0:0:0:
256,192,13763,1,8,0:0:0:0:
256,192,13839,1,0,0:0:0:0:
256,192,13915,1,8,0:0:0:0:
256,192,13992,1,8,0:0:0:0:
256,192,14068,1,0,0:0:0:0:
256,192,14144,1,0,0:0:0:0:
256,192,14220,1,8,0:0:0:0:
256,192,14296,1,0,0:0:0:0:
256,192,14372,1,8,0:0:0:0:
256,192,14448,1,0,0:0:0:0:
256,192,14525,1,8,0:0:0:0:
256,192,14601,1,8,0:0:0:0:
256,192,14677,1,0,0:0:0:0:
256,192,14753,1,0,0:0:0:0:
256,192,14829,1,8,0:0:0:0:
256,192,14905,1,0,0:0:0:0:
256,192,14981,1,8,0:0:0:0:
256,192,15057,1,8,0:0:0:0:
256,192,15133,1,0,0:0:0:0:
256,192,15209,1,0,0:0:0:0:
256,192,15286,1,8,0:0:0:0:
256,192,15362,1,0,0:0:0:0:
256,192,15438,1,8,0:0:0:0:
256,192,15514,1,0,0:0:0:0:
256,192,15590,1,0,0:0:0:0:
256,192,15666,1,0,0:0:0:0:
256,192,15742,1,8,0:0:0:0:
256,192,15819,1,8,0:0:0:0:
256,192,15895,1,8,0:0:0:0:
256,192,15971,1,0,0:0:0:0:
256,192,16047,1,8,0:0:0:0:
256,192,16123,1,0,0:0:0:0:
256,192,16199,1,0,0:0:0:0:
256,192,16276,1,8,0:0:0:0:
256,192,16351,1,0,0:0:0:0:
256,192,16427,1,0,0:0:0:0:
256,192,16503,1,8,0:0:0:0:
256,192,16580,1,8,0:0:0:0:
256,192,16656,1,8,0:0:0:0:
256,192,16732,1,0,0:0:0:0:
256,192,16808,1,8,0:0:0:0:
256,192,16884,1,0,0:0:0:0:
256,192,16960,1,0,0:0:0:0:
256,192,17036,1,0,0:0:0:0:
256,192,17113,1,8,0:0:0:0:
256,192,17189,1,0,0:0:0:0:
256,192,17265,1,8,0:0:0:0:
256,192,17342,1,0,0:0:0:0:
256,192,17418,1,8,0:0:0:0:
256,192,17494,1,8,0:0:0:0:
256,192,17570,1,8,0:0:0:0:
256,192,17646,1,0,0:0:0:0:
256,192,17722,1,8,0:0:0:0:
256,192,17798,1,0,0:0:0:0:
256,192,17875,1,0,0:0:0:0:
256,192,17951,1,8,0:0:0:0:
256,192,18027,1,0,0:0:0:0:
256,192,18103,1,0,0:0:0:0:
256,192,18179,1,8,0:0:0:0:
256,192,18255,1,8,0:0:0:0:
256,192,18332,1,8,0:0:0:0:
256,192,18408,1,0,0:0:0:0:
256,192,18484,1,8,0:0:0:0:
256,192,18560,1,0,0:0:0:0:
256,192,18636,1,0,0:0:0:0:
256,192,18712,1,0,0:0:0:0:
256,192,18788,1,8,0:0:0:0:
256,192,18864,1,0,0:0:0:0:
256,192,18941,1,8,0:0:0:0:
256,192,19016,1,0,0:0:0:0:
256,192,19092,1,0,0:0:0:0:
256,192,19169,1,8,0:0:0:0:
256,192,19245,1,0,0:0:0:0:
256,192,19321,1,0,0:0:0:0:
256,192,19397,1,0,0:0:0:0:
256,192,19473,1,8,0:0:0:0:
256,192,19549,1,8,0:0:0:0:
256,192,19625,1,0,0:0:0:0:
256,192,19702,1,8,0:0:0:0:
256,192,19778,1,0,0:0:0:0:
256,192,19854,1,8,0:0:0:0:
256,192,19931,1,0,0:0:0:0:
256,192,20007,1,0,0:0:0:0:
256,192,20083,1,8,0:0:0:0:
256,192,20159,1,8,0:0:0:0:
256,192,20235,1,0,0:0:0:0:
256,192,20311,1,8,0:0:0:0:
256,192,20387,1,0,0:0:0:0:
256,192,20464,1,8,0:0:0:0:
256,192,20540,1,0,0:0:0:0:
256,192,20616,1,8,0:0:0:0:
256,192,20692,1,8,0:0:0:0:
256,192,20768,1,8,0:0:0:0:
256,192,20844,1,0,0:0:0:0:
256,192,20920,1,0,0:0:0:0:
256,192,20997,1,0,0:0:0:0:
256,192,21073,1,8,0:0:0:0:
256,192,21149,1,0,0:0:0:0:
256,192,21225,1,0,0:0:0:0:
256,192,21301,1,8,0:0:0:0:
256,192,21377,1,8,0:0:0:0:
256,192,21453,1,0,0:0:0:0:
256,192,21530,1,0,0:0:0:0:
256,192,21606,1,0,0:0:0:0:
256,192,21682,1,8,0:0:0:0:
256,192,21758,1,0,0:0:0:0:
256,192,21834,1,8,0:0:0:0:
256,192,21986,1,0,0:0:0:0:
256,192,22139,1,0,0:0:0:0:
256,192,22291,1,0,0:0:0:0:
256,192,22596,1,0,0:0:0:0:
256,192,22672,1,0,0:0:0:0:
256,192,22748,1,8,0:0:0:0:
256,192,22824,1,0,0:0:0:0:
256,192,22900,1,0,0:0:0:0:
256,160,22976,1,0,0:0:0:0:
256,160,23052,1,8,0:0:0:0:
256,192,23205,1,0,0:0:0:0:
256,192,23281,1,0,0:0:0:0:
256,192,23357,1,0,0:0:0:0:
256,192,23509,1,8,0:0:0:0:
256,192,23814,1,0,0:0:0:0:
256,192,23890,1,0,0:0:0:0:
256,192,23966,1,0,0:0:0:0:
256,192,24118,1,8,0:0:0:0:
256,192,24423,1,0,0:0:0:0:
256,192,24499,1,0,0:0:0:0:
256,192,24575,1,0,0:0:0:0:
256,192,24728,1,8,0:0:0:0:
256,192,25032,1,0,0:0:0:0:
256,192,25108,1,0,0:0:0:0:
256,192,25184,1,0,0:0:0:0:
256,192,25337,1,8,0:0:0:0:
256,192,25641,1,0,0:0:0:0:
256,192,25717,1,0,0:0:0:0:
256,192,25793,1,0,0:0:0:0:
256,192,25946,1,8,0:0:0:0:
256,192,26250,1,0,0:0:0:0:
256,192,26326,1,0,0:0:0:0:
256,192,26402,1,0,0:0:0:0:
256,192,26555,1,8,0:0:0:0:
256,192,26860,1,0,0:0:0:0:
256,192,26936,1,0,0:0:0:0:
256,192,27012,1,0,0:0:0:0:
256,192,27164,1,8,0:0:0:0:
256,192,27469,1,8,0:0:0:0:
256,192,27545,1,8,0:0:0:0:
256,192,27621,1,0,0:0:0:0:
256,192,27773,1,8,0:0:0:0:
256,192,28078,1,8,0:0:0:0:
256,192,28154,1,0,0:0:0:0:
256,192,28230,1,0,0:0:0:0:
256,192,28306,1,8,0:0:0:0:
256,192,28382,1,0,0:0:0:0:
256,192,28459,1,0,0:0:0:0:
256,192,28535,1,8,0:0:0:0:
256,192,28611,1,0,0:0:0:0:
256,192,28687,1,0,0:0:0:0:
256,192,28763,1,8,0:0:0:0:
256,192,28839,1,0,0:0:0:0:
256,192,28915,1,0,0:0:0:0:
256,192,28992,1,8,0:0:0:0:
256,192,29144,1,0,0:0:0:0:
256,192,29296,1,0,0:0:0:0:
256,192,29372,1,8,0:0:0:0:
256,192,29448,1,8,0:0:0:0:
256,192,29525,1,0,0:0:0:0:
256,192,29601,1,8,0:0:0:0:
256,192,29677,1,8,0:0:0:0:
256,192,29753,1,0,0:0:0:0:
256,192,29829,1,8,0:0:0:0:
256,192,29905,1,8,0:0:0:0:
256,192,29981,1,0,0:0:0:0:
256,192,30058,1,8,0:0:0:0:
256,192,30134,1,8,0:0:0:0:
256,192,30210,1,0,0:0:0:0:
256,192,30362,1,8,0:0:0:0:
256,192,30514,1,0,0:0:0:0:
256,192,30590,1,8,0:0:0:0:
256,192,30667,1,8,0:0:0:0:
256,192,30743,1,0,0:0:0:0:
256,192,30819,1,0,0:0:0:0:
256,192,30895,1,8,0:0:0:0:
256,192,30971,1,8,0:0:0:0:
256,192,31047,1,0,0:0:0:0:
256,192,31123,1,0,0:0:0:0:
256,192,31200,1,8,0:0:0:0:
256,192,31276,1,8,0:0:0:0:
256,192,31352,1,0,0:0:0:0:
256,192,31428,1,8,0:0:0:0:
256,192,31504,1,0,0:0:0:0:
256,192,31580,1,8,0:0:0:0:
256,192,31733,12,0,32646,0:0:0:0:
256,192,32951,5,0,0:0:0:0:
256,192,33255,1,0,0:0:0:0:
256,192,33560,1,0,0:0:0:0:
256,192,33865,1,0,0:0:0:0:
256,192,34169,1,0,0:0:0:0:
256,192,34474,1,0,0:0:0:0:
256,192,34778,1,0,0:0:0:0:
256,192,35083,1,0,0:0:0:0:
256,192,35235,1,0,0:0:0:0:
256,192,35387,1,8,0:0:0:0:
256,192,35692,1,0,0:0:0:0:
256,192,35997,1,0,0:0:0:0:
256,192,36301,1,0,0:0:0:0:
256,192,36606,1,0,0:0:0:0:
256,192,36910,1,0,0:0:0:0:
256,192,37215,1,0,0:0:0:0:
256,192,37519,1,0,0:0:0:0:
256,192,37672,1,0,0:0:0:0:
256,192,37824,1,8,0:0:0:0:
256,192,38129,1,0,0:0:0:0:
256,192,38433,1,0,0:0:0:0:
256,192,38738,1,0,0:0:0:0:
256,192,39042,1,8,0:0:0:0:
256,192,39118,1,0,0:0:0:0:
256,192,39195,1,8,0:0:0:0:
256,192,39270,1,0,0:0:0:0:
256,192,39347,1,0,0:0:0:0:
256,192,39423,1,8,0:0:0:0:
256,192,39499,1,0,0:0:0:0:
256,192,39575,1,8,0:0:0:0:
256,192,39651,1,8,0:0:0:0:
256,192,39728,1,8,0:0:0:0:
256,192,39804,1,0,0:0:0:0:
256,192,39880,1,0,0:0:0:0:
256,192,39956,1,8,0:0:0:0:
256,192,40032,1,0,0:0:0:0:
256,192,40108,1,0,0:0:0:0:
256,192,40261,12,0,41327,0:0:0:0:
256,192,41479,5,0,0:0:0:0:
256,192,41555,1,0,0:0:0:0:
256,192,41631,1,8,0:0:0:0:
256,192,41707,1,0,0:0:0:0:
256,192,41783,1,8,0:0:0:0:
256,192,41860,1,8,0:0:0:0:
256,192,41936,1,0,0:0:0:0:
256,192,42012,1,0,0:0:0:0:
256,192,42088,1,8,0:0:0:0:
256,192,42240,1,0,0:0:0:0:
256,192,42393,1,12,0:0:0:0:
256,192,42697,1,12,0:0:0:0:
256,192,42849,1,0,0:0:0:0:
256,192,43002,1,8,0:0:0:0:
256,192,43078,1,0,0:0:0:0:
256,192,43154,1,0,0:0:0:0:
256,192,43306,1,8,0:0:0:0:
256,192,43459,1,0,0:0:0:0:
256,192,43535,1,0,0:0:0:0:
256,192,43611,1,8,0:0:0:0:
256,192,43763,1,0,0:0:0:0:
256,192,43839,1,0,0:0:0:0:
256,192,43915,1,8,0:0:0:0:
256,192,43992,1,0,0:0:0:0:
256,192,44068,1,0,0:0:0:0:
256,192,44144,1,0,0:0:0:0:
256,192,44220,1,8,0:0:0:0:
256,192,44372,1,0,0:0:0:0:
256,192,44525,1,8,0:0:0:0:
256,192,44677,1,0,0:0:0:0:
256,192,44753,1,0,0:0:0:0:
256,192,44829,1,8,0:0:0:0:
256,192,44981,1,0,0:0:0:0:
256,192,45134,1,8,0:0:0:0:
256,192,45286,1,0,0:0:0:0:
256,192,45362,1,8,0:0:0:0:
256,192,45438,1,0,0:0:0:0:
256,192,45514,1,8,0:0:0:0:
256,192,45590,1,0,0:0:0:0:
256,192,45743,1,8,0:0:0:0:
256,192,45819,1,0,0:0:0:0:
256,192,45895,1,0,0:0:0:0:
256,192,46047,1,8,0:0:0:0:
256,192,46200,1,0,0:0:0:0:
256,192,46352,1,8,0:0:0:0:
256,192,46428,1,0,0:0:0:0:
256,192,46504,1,8,0:0:0:0:
256,192,46656,1,0,0:0:0:0:
256,192,46809,1,0,0:0:0:0:
256,192,46961,1,8,0:0:0:0:
256,192,47037,1,8,0:0:0:0:
256,192,47113,1,8,0:0:0:0:
256,192,47189,1,0,0:0:0:0:
256,192,47266,1,0,0:0:0:0:
256,192,47418,1,0,0:0:0:0:
256,192,47570,1,0,0:0:0:0:
256,192,47646,1,8,0:0:0:0:
256,192,47722,1,8,0:0:0:0:
256,192,47799,1,0,0:0:0:0:
256,192,47875,1,8,0:0:0:0:
256,192,47951,1,8,0:0:0:0:
256,192,48027,1,0,0:0:0:0:
256,192,48179,1,8,0:0:0:0:
256,192,48332,1,0,0:0:0:0:
256,192,48484,1,8,0:0:0:0:
256,192,48560,1,0,0:0:0:0:
256,192,48636,1,8,0:0:0:0:
256,192,48788,1,8,0:0:0:0:
256,192,48865,1,0,0:0:0:0:
256,192,48941,1,0,0:0:0:0:
256,192,49017,1,8,0:0:0:0:
256,192,49093,1,0,0:0:0:0:
256,192,49169,1,0,0:0:0:0:
256,192,49245,1,8,0:0:0:0:
256,192,49398,1,0,0:0:0:0:
256,192,49550,1,0,0:0:0:0:
256,192,49702,1,8,0:0:0:0:
256,192,49778,1,0,0:0:0:0:
256,192,49854,1,0,0:0:0:0:
256,192,50007,1,8,0:0:0:0:
256,192,50108,1,0,0:0:0:0:
256,192,50210,1,0,0:0:0:0:
256,192,50311,1,8,0:0:0:0:
256,192,50413,1,0,0:0:0:0:
256,192,50514,1,8,0:0:0:0:
256,192,50616,1,0,0:0:0:0:
256,192,50717,1,0,0:0:0:0:
256,192,50818,1,0,0:0:0:0:
256,192,50920,1,8,0:0:0:0:
256,192,51022,1,0,0:0:0:0:
256,192,51123,1,0,0:0:0:0:
256,192,51225,1,8,0:0:0:0:
256,192,51326,1,0,0:0:0:0:
256,192,51428,1,8,0:0:0:0:
256,192,51529,1,0,0:0:0:0:
256,192,51631,1,0,0:0:0:0:
256,192,51733,1,8,0:0:0:0:
256,192,51834,1,8,0:0:0:0:
256,192,51936,1,0,0:0:0:0:
256,192,52037,1,0,0:0:0:0:
256,192,52139,1,0,0:0:0:0:
256,192,52443,1,12,0:0:0:0:
256,192,52595,1,0,0:0:0:0:
256,192,52748,1,8,0:0:0:0:
256,192,52824,1,8,0:0:0:0:
256,192,52900,1,0,0:0:0:0:
256,192,53052,1,8,0:0:0:0:
256,192,53205,1,0,0:0:0:0:
256,192,53281,1,0,0:0:0:0:
256,192,53357,1,8,0:0:0:0:
256,192,53509,1,0,0:0:0:0:
256,192,53585,1,0,0:0:0:0:
256,192,53661,1,8,0:0:0:0:
256,192,53738,1,0,0:0:0:0:
256,192,53814,1,0,0:0:0:0:
256,192,53890,1,0,0:0:0:0:
256,192,53966,1,8,0:0:0:0:
256,192,54118,1,0,0:0:0:0:
256,192,54271,1,8,0:0:0:0:
256,192,54423,1,0,0:0:0:0:
256,192,54499,1,0,0:0:0:0:
256,192,54575,1,8,0:0:0:0:
256,192,54727,1,0,0:0:0:0:
256,192,54880,1,0,0:0:0:0:
256,192,55032,1,0,0:0:0:0:
256,192,55108,1,8,0:0:0:0:
256,192,55184,1,0,0:0:0:0:
256,192,55260,1,8,0:0:0:0:
256,192,55336,1,0,0:0:0:0:
256,192,55489,1,8,0:0:0:0:
256,192,55641,1,0,0:0:0:0:
256,192,55794,1,8,0:0:0:0:
256,192,55946,1,0,0:0:0:0:
256,192,56022,1,0,0:0:0:0:
256,192,56098,1,8,0:0:0:0:
256,192,56174,1,0,0:0:0:0:
256,192,56250,1,0,0:0:0:0:
256,192,56403,1,0,0:0:0:0:
256,192,56555,1,8,0:0:0:0:
256,192,56631,1,0,0:0:0:0:
256,192,56707,1,0,0:0:0:0:
256,192,56860,1,0,0:0:0:0:
256,192,57012,1,8,0:0:0:0:
256,192,57164,1,0,0:0:0:0:
256,192,57240,1,8,0:0:0:0:
256,192,57316,1,0,0:0:0:0:
256,192,57393,1,0,0:0:0:0:
256,192,57469,1,8,0:0:0:0:
256,192,57545,1,0,0:0:0:0:
256,192,57621,1,0,0:0:0:0:
256,192,57697,1,0,0:0:0:0:
256,192,57773,1,8,0:0:0:0:
256,192,57849,1,0,0:0:0:0:
256,192,57926,1,0,0:0:0:0:
256,192,58002,1,0,0:0:0:0:
256,192,58078,1,8,0:0:0:0:
256,192,58154,1,0,0:0:0:0:
256,192,58230,1,0,0:0:0:0:
256,192,58306,1,0,0:0:0:0:
256,192,58382,1,8,0:0:0:0:
256,192,58459,1,0,0:0:0:0:
256,192,58535,1,0,0:0:0:0:
256,192,58611,1,0,0:0:0:0:
256,192,58687,1,8,0:0:0:0:
256,192,58763,1,0,0:0:0:0:
256,192,58839,1,0,0:0:0:0:
256,192,58915,1,0,0:0:0:0:
256,192,58992,1,8,0:0:0:0:
256,192,59068,1,0,0:0:0:0:
256,192,59144,1,0,0:0:0:0:
256,192,59220,1,0,0:0:0:0:
256,192,59296,1,8,0:0:0:0:
256,192,59372,1,0,0:0:0:0:
256,192,59448,1,0,0:0:0:0:
256,192,59525,1,0,0:0:0:0:
256,192,59601,1,8,0:0:0:0:
256,192,59677,1,0,0:0:0:0:
256,192,59753,1,0,0:0:0:0:
256,192,59829,1,0,0:0:0:0:
256,192,59905,1,8,0:0:0:0:
256,192,59981,1,0,0:0:0:0:
256,192,60058,1,0,0:0:0:0:
256,192,60134,1,0,0:0:0:0:
256,192,60210,1,8,0:0:0:0:
256,192,60286,1,0,0:0:0:0:
256,192,60362,1,0,0:0:0:0:
256,192,60438,1,0,0:0:0:0:
256,192,60514,1,8,0:0:0:0:
256,192,60590,1,0,0:0:0:0:
256,192,60666,1,0,0:0:0:0:
256,192,60742,1,0,0:0:0:0:
256,192,60819,1,8,0:0:0:0:
256,192,60895,1,0,0:0:0:0:
256,192,60971,1,8,0:0:0:0:
256,192,61073,1,8,0:0:0:0:
256,192,61174,1,8,0:0:0:0:
256,192,61276,1,0,0:0:0:0:
256,192,61377,1,0,0:0:0:0:
256,192,61479,1,0,0:0:0:0:
256,192,61580,1,8,0:0:0:0:
256,192,61682,1,8,0:0:0:0:
256,192,61783,1,8,0:0:0:0:
256,192,61885,1,0,0:0:0:0:
256,192,61986,1,0,0:0:0:0:
256,192,62088,1,0,0:0:0:0:
256,192,62189,1,12,0:0:0:0:
256,192,71936,5,0,0:0:0:0:
256,192,72240,1,0,0:0:0:0:
256,192,72545,1,0,0:0:0:0:
256,192,72849,1,8,0:0:0:0:
256,192,73154,1,0,0:0:0:0:
256,192,73459,1,0,0:0:0:0:
256,192,73763,1,0,0:0:0:0:
256,192,74068,1,8,0:0:0:0:
256,192,74372,1,0,0:0:0:0:
256,192,74677,1,0,0:0:0:0:
256,192,74981,1,0,0:0:0:0:
256,192,75286,1,8,0:0:0:0:
256,192,75590,1,0,0:0:0:0:
256,192,75895,1,0,0:0:0:0:
256,192,76200,1,0,0:0:0:0:
256,192,76504,1,8,0:0:0:0:
256,192,76809,1,0,0:0:0:0:
256,192,76885,1,0,0:0:0:0:
256,192,76961,1,8,0:0:0:0:
256,192,77037,1,0,0:0:0:0:
256,192,77113,1,8,0:0:0:0:
256,192,77189,1,0,0:0:0:0:
256,192,77265,1,8,0:0:0:0:
256,192,77341,1,8,0:0:0:0:
256,192,77417,1,0,0:0:0:0:
256,192,77493,1,0,0:0:0:0:
256,192,77570,1,8,0:0:0:0:
256,192,77646,1,0,0:0:0:0:
256,192,77722,1,0,0:0:0:0:
256,192,77798,1,0,0:0:0:0:
256,192,77874,1,8,0:0:0:0:
256,192,77951,1,8,0:0:0:0:
256,192,78027,1,8,0:0:0:0:
256,192,78103,1,0,0:0:0:0:
256,192,78179,1,8,0:0:0:0:
256,192,78255,1,0,0:0:0:0:
256,192,78331,1,8,0:0:0:0:
256,192,78407,1,0,0:0:0:0:
256,192,78483,1,0,0:0:0:0:
256,192,78560,1,8,0:0:0:0:
256,192,78635,1,8,0:0:0:0:
256,192,78712,1,0,0:0:0:0:
256,192,78788,1,0,0:0:0:0:
256,192,78865,1,0,0:0:0:0:
256,192,78940,1,8,0:0:0:0:
256,192,79017,1,0,0:0:0:0:
256,192,79093,1,8,0:0:0:0:
256,192,79245,12,0,80311,0:0:0:0:
256,192,80464,5,0,0:0:0:0:
256,192,80667,1,0,0:0:0:0:
256,192,80870,1,0,0:0:0:0:
256,192,81073,1,8,0:0:0:0:
256,192,81149,1,0,0:0:0:0:
256,192,81225,1,8,0:0:0:0:
256,192,81377,1,0,0:0:0:0:
256,192,81682,1,12,0:0:0:0:
256,192,81834,1,0,0:0:0:0:
256,192,81986,1,8,0:0:0:0:
256,192,82063,1,0,0:0:0:0:
256,192,82139,1,0,0:0:0:0:
256,192,82291,1,0,0:0:0:0:
256,192,82443,1,8,0:0:0:0:
256,192,82519,1,8,0:0:0:0:
256,192,82596,1,8,0:0:0:0:
256,192,82672,1,0,0:0:0:0:
256,192,82748,1,0,0:0:0:0:
256,192,82900,1,8,0:0:0:0:
256,192,83052,1,0,0:0:0:0:
256,192,83129,1,0,0:0:0:0:
256,192,83205,1,8,0:0:0:0:
256,192,83281,1,0,0:0:0:0:
256,192,83357,1,0,0:0:0:0:
256,192,83509,1,12,0:0:0:0:
256,192,83662,1,4,0:0:0:0:
256,192,83814,1,12,0:0:0:0:
256,192,83966,1,4,0:0:0:0:
256,192,84118,1,8,0:0:0:0:
256,192,84195,1,0,0:0:0:0:
256,192,84271,1,0,0:0:0:0:
256,192,84423,1,8,0:0:0:0:
256,192,84575,1,0,0:0:0:0:
256,192,84651,1,0,0:0:0:0:
256,192,84728,1,8,0:0:0:0:
256,192,84804,1,8,0:0:0:0:
256,192,84880,1,0,0:0:0:0:
256,192,85032,1,8,0:0:0:0:
256,192,85108,1,0,0:0:0:0:
256,192,85184,1,0,0:0:0:0:
256,192,85337,1,8,0:0:0:0:
256,192,85489,1,0,0:0:0:0:
256,192,85565,1,8,0:0:0:0:
256,192,85641,1,8,0:0:0:0:
256,192,85717,1,0,0:0:0:0:
256,192,85794,1,0,0:0:0:0:
256,192,85946,1,8,0:0:0:0:
256,192,86098,1,0,0:0:0:0:
256,192,86250,1,8,0:0:0:0:
256,192,86327,1,0,0:0:0:0:
256,192,86403,1,8,0:0:0:0:
256,192,86479,1,0,0:0:0:0:
256,192,86555,1,0,0:0:0:0:
256,192,86707,1,0,0:0:0:0:
256,192,86860,1,8,0:0:0:0:
256,192,87012,1,0,0:0:0:0:
256,192,87164,1,8,0:0:0:0:
256,192,87240,1,0,0:0:0:0:
256,192,87316,1,0,0:0:0:0:
256,192,87393,1,0,0:0:0:0:
256,192,87469,1,8,0:0:0:0:
256,192,87621,1,0,0:0:0:0:
256,192,87773,1,8,0:0:0:0:
256,192,87849,1,8,0:0:0:0:
256,192,87926,1,0,0:0:0:0:
256,192,88078,1,8,0:0:0:0:
256,192,88230,1,0,0:0:0:0:
256,192,88306,1,0,0:0:0:0:
256,192,88382,1,8,0:0:0:0:
256,192,88459,1,0,0:0:0:0:
256,192,88535,1,0,0:0:0:0:
256,192,88687,1,8,0:0:0:0:
256,192,88839,1,0,0:0:0:0:
256,192,88992,1,8,0:0:0:0:
256,192,89068,1,8,0:0:0:0:
256,192,89144,1,0,0:0:0:0:
256,192,89220,1,0,0:0:0:0:
256,192,89296,1,8,0:0:0:0:
256,192,89372,1,0,0:0:0:0:
256,192,89448,1,8,0:0:0:0:
256,192,89525,1,8,0:0:0:0:
256,192,89601,1,0,0:0:0:0:
256,192,89677,1,0,0:0:0:0:
256,192,89753,1,8,0:0:0:0:
256,192,89829,1,0,0:0:0:0:
256,192,89905,1,8,0:0:0:0:
256,192,89981,1,0,0:0:0:0:
256,192,90057,1,0,0:0:0:0:
256,192,90210,1,8,0:0:0:0:
256,192,90362,1,8,0:0:0:0:
256,192,90514,1,8,0:0:0:0:
256,192,90819,12,0,91276,0:0:0:0:
256,192,91428,5,12,0:0:0:0:
256,192,91580,1,0,0:0:0:0:
256,192,91733,1,8,0:0:0:0:
256,192,91809,1,8,0:0:0:0:
256,192,91885,1,0,0:0:0:0:
256,192,92037,1,8,0:0:0:0:
256,192,92189,1,0,0:0:0:0:
256,192,92266,1,8,0:0:0:0:
256,192,92342,1,0,0:0:0:0:
256,192,92418,1,0,0:0:0:0:
256,192,92494,1,8,0:0:0:0:
256,192,92646,1,8,0:0:0:0:
256,192,92799,1,0,0:0:0:0:
256,192,92875,1,8,0:0:0:0:
256,192,92951,1,8,0:0:0:0:
256,192,93027,1,0,0:0:0:0:
256,192,93103,1,0,0:0:0:0:
256,192,93255,1,12,0:0:0:0:
256,192,93408,1,4,0:0:0:0:
256,192,93560,1,12,0:0:0:0:
256,192,93712,1,4,0:0:0:0:
256,192,93865,1,8,0:0:0:0:
256,192,93941,1,0,0:0:0:0:
256,192,94017,1,0,0:0:0:0:
256,192,94169,1,8,0:0:0:0:
256,192,94321,1,0,0:0:0:0:
256,192,94397,1,0,0:0:0:0:
256,192,94474,1,8,0:0:0:0:
256,192,94550,1,0,0:0:0:0:
256,192,94626,1,0,0:0:0:0:
256,192,94778,1,8,0:0:0:0:
256,192,94854,1,0,0:0:0:0:
256,192,94930,1,0,0:0:0:0:
256,192,95083,1,8,0:0:0:0:
256,192,95235,1,0,0:0:0:0:
256,192,95311,1,8,0:0:0:0:
256,192,95387,1,8,0:0:0:0:
256,192,95463,1,8,0:0:0:0:
256,192,95540,1,0,0:0:0:0:
256,192,95692,1,8,0:0:0:0:
256,192,95844,1,0,0:0:0:0:
256,192,95997,1,8,0:0:0:0:
256,192,96073,1,0,0:0:0:0:
256,192,96149,1,8,0:0:0:0:
256,192,96301,1,8,0:0:0:0:
256,192,96377,1,0,0:0:0:0:
256,192,96453,1,0,0:0:0:0:
256,192,96530,1,0,0:0:0:0:
256,192,96606,1,8,0:0:0:0:
256,192,96682,1,0,0:0:0:0:
256,192,96758,1,8,0:0:0:0:
256,192,96834,1,8,0:0:0:0:
256,192,96910,1,8,0:0:0:0:
256,192,96986,1,0,0:0:0:0:
256,192,97062,1,8,0:0:0:0:
256,192,97139,1,0,0:0:0:0:
256,192,97215,1,8,0:0:0:0:
256,192,97291,1,0,0:0:0:0:
256,192,97367,1,0,0:0:0:0:
256,192,97443,1,8,0:0:0:0:
256,192,97519,1,8,0:0:0:0:
256,192,97595,1,0,0:0:0:0:
256,192,97672,1,8,0:0:0:0:
256,192,97748,1,0,0:0:0:0:
256,192,97824,1,0,0:0:0:0:
256,192,97900,1,0,0:0:0:0:
256,192,97976,1,8,0:0:0:0:
256,192,98052,1,0,0:0:0:0:
256,192,98129,1,8,0:0:0:0:
256,192,98205,1,0,0:0:0:0:
256,192,98281,1,8,0:0:0:0:
256,192,98357,1,8,0:0:0:0:
256,192,98433,1,0,0:0:0:0:
256,192,98509,1,8,0:0:0:0:
256,192,98585,1,0,0:0:0:0:
256,192,98662,1,8,0:0:0:0:
256,192,98738,1,8,0:0:0:0:
256,192,98814,1,0,0:0:0:0:
256,192,98890,1,0,0:0:0:0:
256,192,98966,1,8,0:0:0:0:
256,192,99042,1,0,0:0:0:0:
256,192,99118,1,0,0:0:0:0:
256,192,99195,1,8,0:0:0:0:
256,192,99271,1,0,0:0:0:0:
256,192,99347,1,8,0:0:0:0:
256,192,99423,1,0,0:0:0:0:
256,192,99499,1,8,0:0:0:0:
256,192,99575,1,8,0:0:0:0:
256,192,99651,1,8,0:0:0:0:
256,192,99727,1,0,0:0:0:0:
256,192,99803,1,0,0:0:0:0:
256,192,99879,1,0,0:0:0:0:
256,192,99955,1,8,0:0:0:0:
256,192,100032,1,0,0:0:0:0:
256,192,100108,1,8,0:0:0:0:
256,192,100184,1,0,0:0:0:0:
256,192,100260,1,8,0:0:0:0:
256,192,100336,1,0,0:0:0:0:
256,192,100413,1,0,0:0:0:0:
256,192,100489,1,0,0:0:0:0:
256,192,100565,1,8,0:0:0:0:
256,192,100641,1,8,0:0:0:0:
256,192,100717,1,8,0:0:0:0:
256,192,100794,1,0,0:0:0:0:
256,192,100870,1,8,0:0:0:0:
256,192,100946,1,0,0:0:0:0:
256,192,101022,1,0,0:0:0:0:
256,192,101174,1,8,0:0:0:0:
256,192,101250,1,0,0:0:0:0:
256,192,101327,1,0,0:0:0:0:
256,192,101479,1,8,0:0:0:0:
256,192,101631,1,0,0:0:0:0:
256,192,101783,1,8,0:0:0:0:
256,192,101860,1,0,0:0:0:0:
256,192,101936,1,8,0:0:0:0:
256,192,102088,1,0,0:0:0:0:
256,192,102240,1,8,0:0:0:0:
256,192,102316,1,8,0:0:0:0:
256,192,102393,1,0,0:0:0:0:
256,192,102545,1,8,0:0:0:0:
256,192,102621,1,0,0:0:0:0:
256,192,102697,1,0,0:0:0:0:
256,192,102773,1,8,0:0:0:0:
256,192,102849,1,0,0:0:0:0:
256,192,103002,1,8,0:0:0:0:
256,192,103154,1,0,0:0:0:0:
256,192,103306,1,0,0:0:0:0:
256,192,103459,1,8,0:0:0:0:
256,192,103535,1,8,0:0:0:0:
256,192,103611,1,8,0:0:0:0:
256,192,103687,1,0,0:0:0:0:
256,192,103763,1,0,0:0:0:0:
256,192,103915,1,8,0:0:0:0:
256,192,104068,1,0,0:0:0:0:
256,192,104220,1,8,0:0:0:0:
256,192,104296,1,0,0:0:0:0:
256,192,104372,1,8,0:0:0:0:
256,192,104525,1,0,0:0:0:0:
256,192,104677,1,8,0:0:0:0:
256,192,104753,1,8,0:0:0:0:
256,192,104829,1,0,0:0:0:0:
256,192,104905,1,8,0:0:0:0:
256,192,104981,1,0,0:0:0:0:
256,192,105134,1,0,0:0:0:0:
256,192,105438,1,4,0:0:0:0:
256,192,105667,1,4,0:0:0:0:
256,192,105895,1,4,0:0:0:0:
256,192,106352,1,12,0:0:0:0:
256,192,106504,1,0,0:0:0:0:
256,192,106580,1,0,0:0:0:0:
256,192,106656,1,8,0:0:0:0:
256,192,106809,1,8,0:0:0:0:
256,192,106961,1,0,0:0:0:0:
256,192,107113,1,8,0:0:0:0:
256,192,107189,1,0,0:0:0:0:
256,192,107266,1,8,0:0:0:0:
256,192,107418,1,0,0:0:0:0:
256,192,107570,1,8,0:0:0:0:
256,192,107646,1,0,0:0:0:0:
256,192,107722,1,8,0:0:0:0:
256,192,107799,1,0,0:0:0:0:
256,192,107875,1,0,0:0:0:0:
256,192,108027,1,8,0:0:0:0:
256,192,108179,1,0,0:0:0:0:
256,192,108332,1,8,0:0:0:0:
256,192,108484,1,8,0:0:0:0:
256,192,108560,1,0,0:0:0:0:
256,192,108636,1,0,0:0:0:0:
256,192,108788,1,8,0:0:0:0:
256,192,108941,1,0,0:0:0:0:
256,192,109093,1,0,0:0:0:0:
256,192,109245,1,8,0:0:0:0:
256,192,109321,1,8,0:0:0:0:
256,192,109398,1,8,0:0:0:0:
256,192,109474,1,0,0:0:0:0:
256,192,109550,1,0,0:0:0:0:
256,192,109702,5,8,0:0:0:0:
256,192,109854,5,8,0:0:0:0:
256,192,110007,1,8,0:0:0:0:
256,192,110311,1,8,0:0:0:0:
256,192,110362,1,0,0:0:0:0:
256,192,110413,1,0,0:0:0:0:
256,192,110464,1,8,0:0:0:0:
256,192,110540,1,8,0:0:0:0:
256,192,110616,1,0,0:0:0:0:
256,192,110692,1,0,0:0:0:0:
256,192,110768,1,8,0:0:0:0:
256,192,110920,1,4,0:0:0:0:
256,192,111225,1,4,0:0:0:0:
256,192,111453,1,4,0:0:0:0:
256,192,111682,1,4,0:0:0:0:
256,192,111834,1,4,0:0:0:0:
256,192,111986,1,4,0:0:0:0:
256,192,112291,1,4,0:0:0:0:
256,192,112443,1,4,0:0:0:0:
256,192,112748,1,4,0:0:0:0:
256,192,112976,1,4,0:0:0:0:
256,192,113205,1,4,0:0:0:0:
256,192,113357,1,8,0:0:0:0:
256,192,113433,1,8,0:0:0:0:
256,192,113509,1,0,0:0:0:0:
256,192,113585,1,0,0:0:0:0:
256,192,113662,1,8,0:0:0:0:
256,192,113738,1,0,0:0:0:0:
256,192,113814,1,0,0:0:0:0:
256,192,113890,1,8,0:0:0:0:
256,192,113966,1,0,0:0:0:0:
256,192,114042,1,0,0:0:0:0:
256,192,114118,1,8,0:0:0:0:
256,192,114195,1,0,0:0:0:0:
256,192,114271,1,8,0:0:0:0:
256,192,114347,1,0,0:0:0:0:
256,192,114423,1,8,0:0:0:0:
256,192,114499,1,0,0:0:0:0:
256,192,114575,1,0,0:0:0:0:
256,192,114651,1,0,0:0:0:0:
256,192,114728,1,8,0:0:0:0:
256,192,114804,1,0,0:0:0:0:
256,192,114880,1,8,0:0:0:0:
256,192,114956,1,0,0:0:0:0:
256,192,115032,1,8,0:0:0:0:
256,192,115083,1,8,0:0:0:0:
256,192,115134,1,8,0:0:0:0:
256,192,115184,1,8,0:0:0:0:
256,192,115261,1,0,0:0:0:0:
256,192,115337,1,0,0:0:0:0:
256,192,115489,1,8,0:0:0:0:
256,192,115641,1,0,0:0:0:0:
256,192,115794,1,8,0:0:0:0:
256,192,115870,1,8,0:0:0:0:
256,192,115946,1,0,0:0:0:0:
256,192,116022,1,0,0:0:0:0:
256,192,116098,1,8,0:0:0:0:
256,192,116174,1,0,0:0:0:0:
256,192,116250,1,0,0:0:0:0:
256,192,116327,1,0,0:0:0:0:
256,192,116403,1,8,0:0:0:0:
256,192,116479,1,0,0:0:0:0:
256,192,116555,1,8,0:0:0:0:
256,192,116631,1,0,0:0:0:0:
256,192,116707,1,8,0:0:0:0:
256,192,116783,1,8,0:0:0:0:
256,192,116859,1,0,0:0:0:0:
256,192,116935,1,0,0:0:0:0:
256,192,117011,1,8,0:0:0:0:
256,192,117087,1,0,0:0:0:0:
256,192,117163,1,8,0:0:0:0:
256,192,117240,1,0,0:0:0:0:
256,192,117316,1,8,0:0:0:0:
256,192,117392,1,8,0:0:0:0:
256,192,117468,1,8,0:0:0:0:
256,192,117544,1,0,0:0:0:0:
256,192,117621,1,8,0:0:0:0:
256,192,117697,1,0,0:0:0:0:
256,192,117773,1,0,0:0:0:0:
256,192,117849,1,8,0:0:0:0:
256,192,117926,1,8,0:0:0:0:
256,192,118001,1,0,0:0:0:0:
256,192,118078,1,8,0:0:0:0:
256,192,118154,1,0,0:0:0:0:
256,192,118230,1,8,0:0:0:0:
256,192,118306,1,0,0:0:0:0:
256,192,118382,1,8,0:0:0:0:
256,192,118458,1,0,0:0:0:0:
256,192,118535,1,8,0:0:0:0:
256,192,118611,1,8,0:0:0:0:
256,192,118687,1,0,0:0:0:0:
256,192,118763,1,8,0:0:0:0:
256,192,118839,1,8,0:0:0:0:
256,192,118915,1,0,0:0:0:0:
256,192,118991,1,0,0:0:0:0:
256,192,119068,1,0,0:0:0:0:
256,192,119144,1,8,0:0:0:0:
256,192,119220,1,8,0:0:0:0:
256,192,119296,1,8,0:0:0:0:
256,192,119372,1,0,0:0:0:0:
256,192,119448,1,8,0:0:0:0:
256,192,119524,1,0,0:0:0:0:
256,192,119600,1,0,0:0:0:0:
256,192,119676,1,8,0:0:0:0:
256,192,119752,1,0,0:0:0:0:
256,192,119829,1,8,0:0:0:0:
256,192,119904,1,0,0:0:0:0:
256,192,119981,1,0,0:0:0:0:
256,192,120057,1,8,0:0:0:0:
256,192,120133,1,0,0:0:0:0:
256,192,120209,1,0,0:0:0:0:
256,192,120285,1,0,0:0:0:0:
256,192,120362,1,8,0:0:0:0:
256,192,120438,1,0,0:0:0:0:
256,192,120514,1,0,0:0:0:0:
256,192,120667,12,0,130413,0:0:0:0:
