osu file format v14

[General]
AudioFilename: audio.mp3
AudioLeadIn: 0
PreviewTime: 72387
Countdown: 0
SampleSet: Normal
StackLeniency: 0.7
Mode: 1
LetterboxInBreaks: 0
WidescreenStoryboard: 0

[Editor]
Bookmarks: 49411,120926
DistanceSpacing: 0.1
BeatDivisor: 4
GridSize: 32
TimelineZoom: 2.4

[Metadata]
Title:Palpitation
TitleUnicode:Palpitation
Artist:Zekk
ArtistUnicode:Zekk
Creator:yuzu__rinrin
Version:Oni
Source:crossbeats REV. SUNRISE
Tags:Pettsu yyyyyyyyyyypetu CAPCOM
BeatmapID:1669985
BeatmapSetID:761071

[Difficulty]
HPDrainRate:6
CircleSize:2
OverallDifficulty:7
ApproachRate:10
SliderMultiplier:1.4
SliderTickRate:1

[Events]
//Background and Video events
0,0,"Konachan.com - 263080 sample.jpg",0,-80
//Break Periods
//Storyboard Layer 0 (Background)
//Storyboard Layer 1 (Fail)
//Storyboard Layer 2 (Pass)
//Storyboard Layer 3 (Foreground)
//Storyboard Sound Samples

[TimingPoints]
2170,303.030303030303,4,1,0,60,1,0
11866,-100,4,1,0,70,0,0
39745,-100,4,1,0,60,0,0
40048,-105.263157894737,4,1,0,60,0,0
40351,-111.111111111111,4,1,0,60,0,0
40654,-117.647058823529,4,1,0,60,0,0
40730,-119.047619047619,4,1,0,60,0,0
40806,-120.481927710843,4,1,0,60,0,0
40882,-121.951219512195,4,1,0,60,0,0
40957,-123.456790123457,4,1,0,60,0,0
41563,-100,4,1,0,60,0,0
51866,-100,4,1,0,70,0,0
60579,-105.263157894737,4,1,0,60,0,0
60806,-111.111111111111,4,1,0,60,0,0
61033,-117.647058823529,4,1,0,60,0,0
61260,-125,4,1,0,60,0,0
61563,-133.333333333333,4,1,0,60,0,0
65806,-117.647058823529,4,1,0,60,0,0
66033,-111.111111111111,4,1,0,60,0,0
66260,-105.263157894737,4,1,0,60,0,0
66412,-100,4,1,0,70,0,0
72473,-100,4,1,0,90,0,1
79745,-100,4,1,0,80,0,0
84594,-100,4,1,0,90,0,1
91866,-100,4,1,0,80,0,0
101563,-100,4,1,0,80,0,1
120957,-100,4,1,0,80,0,0
121109,-100,4,1,0,30,0,0

[HitObjects]
256,192,2170,5,0,0:0:0:0:
256,192,2624,1,4,0:0:0:0:
256,192,4291,1,0,0:0:0:0:
256,192,4745,1,0,0:0:0:0:
256,192,5048,1,4,0:0:0:0:
256,192,7018,1,0,0:0:0:0:
256,192,7473,1,4,0:0:0:0:
256,192,9139,1,0,0:0:0:0:
256,192,9594,1,0,0:0:0:0:
256,192,9897,1,4,0:0:0:0:
256,192,10654,1,0,0:0:0:0:
256,192,10957,1,8,0:0:0:0:
256,192,11109,1,8,0:0:0:0:
256,192,11185,1,8,0:0:0:0:
256,192,11260,1,0,0:0:0:0:
256,192,11563,1,8,0:0:0:0:
256,192,11866,1,0,0:0:0:0:
256,192,12170,1,0,0:0:0:0:
256,192,12321,1,8,0:0:0:0:
256,192,12473,1,0,0:0:0:0:
256,192,12548,1,8,0:0:0:0:
256,192,12700,1,8,0:0:0:0:
256,192,12776,1,0,0:0:0:0:
256,192,12927,1,8,0:0:0:0:
256,192,13079,1,0,0:0:0:0:
256,192,13382,1,0,0:0:0:0:
256,192,13533,1,8,0:0:0:0:
256,192,13685,1,0,0:0:0:0:
256,192,13760,1,0,0:0:0:0:
256,192,13836,1,0,0:0:0:0:
256,192,13988,1,8,0:0:0:0:
256,192,14139,1,8,0:0:0:0:
256,192,14291,1,0,0:0:0:0:
256,192,14594,1,0,0:0:0:0:
256,192,14745,1,8,0:0:0:0:
256,192,14897,1,0,0:0:0:0:
256,192,14973,1,8,0:0:0:0:
256,192,15124,1,8,0:0:0:0:
256,192,15200,1,0,0:0:0:0:
256,192,15351,1,8,0:0:0:0:
256,192,15503,1,0,0:0:0:0:
256,192,15806,1,0,0:0:0:0:
256,192,15957,1,8,0:0:0:0:
256,192,16109,1,0,0:0:0:0:
256,192,16336,1,0,0:0:0:0:
256,192,16412,1,8,0:0:0:0:
256,192,16563,1,0,0:0:0:0:
256,192,16715,1,12,0:0:0:0:
256,192,16866,1,0,0:0:0:0:
256,192,17018,1,0,0:0:0:0:
256,192,17170,1,0,0:0:0:0:
256,192,17321,1,8,0:0:0:0:
256,192,17473,1,0,0:0:0:0:
256,192,17624,1,8,0:0:0:0:
256,192,17700,1,8,0:0:0:0:
256,192,17776,1,0,0:0:0:0:
256,192,17927,1,8,0:0:0:0:
256,192,18079,1,0,0:0:0:0:
256,192,18230,1,0,0:0:0:0:
256,192,18382,1,0,0:0:0:0:
256,192,18533,1,8,0:0:0:0:
256,192,18685,1,0,0:0:0:0:
256,192,18836,1,8,0:0:0:0:
256,192,18988,1,8,0:0:0:0:
256,192,19139,1,0,0:0:0:0:
256,192,19215,1,0,0:0:0:0:
256,192,19291,1,0,0:0:0:0:
256,192,19366,1,0,0:0:0:0:
256,192,19442,1,8,0:0:0:0:
256,192,19594,1,0,0:0:0:0:
256,192,19745,1,8,0:0:0:0:
256,192,19821,1,8,0:0:0:0:
256,192,19897,1,8,0:0:0:0:
256,192,19973,1,8,0:0:0:0:
256,192,20048,1,8,0:0:0:0:
256,192,20124,1,8,0:0:0:0:
256,192,20200,1,8,0:0:0:0:
256,192,20276,1,8,0:0:0:0:
256,192,20351,1,0,0:0:0:0:
256,192,20957,2,0,L|416:256,1,140
256,192,21563,1,0,0:0:0:0:
256,192,22170,1,0,0:0:0:0:
256,192,22473,1,12,0:0:0:0:
256,192,22776,1,4,0:0:0:0:
256,192,23003,1,0,0:0:0:0:
256,192,23079,1,8,0:0:0:0:
256,192,23230,1,0,0:0:0:0:
256,192,23306,1,0,0:0:0:0:
256,192,23382,1,8,0:0:0:0:
256,192,23685,1,0,0:0:0:0:
256,192,24291,1,0,0:0:0:0:
256,192,24594,1,8,0:0:0:0:
256,192,24897,1,8,0:0:0:0:
256,192,24973,1,8,0:0:0:0:
256,192,25048,1,8,0:0:0:0:
256,192,25200,1,0,0:0:0:0:
256,192,25427,1,0,0:0:0:0:
256,192,25503,1,8,0:0:0:0:
256,192,25654,1,0,0:0:0:0:
256,192,25730,1,0,0:0:0:0:
256,192,25806,1,8,0:0:0:0:
262,189,26109,1,8,0:0:0:0:
265,185,26210,1,8,0:0:0:0:
260,182,26311,1,8,0:0:0:0:
256,192,26412,1,0,0:0:0:0:
265,199,26715,1,0,0:0:0:0:
268,202,26816,1,0,0:0:0:0:
272,205,26917,1,0,0:0:0:0:
280,199,27018,1,8,0:0:0:0:
256,192,27321,1,0,0:0:0:0:
256,192,27624,1,0,0:0:0:0:
256,192,27851,1,0,0:0:0:0:
256,192,27927,1,8,0:0:0:0:
256,192,28079,1,0,0:0:0:0:
256,192,28230,1,8,0:0:0:0:
256,192,28306,1,8,0:0:0:0:
256,192,28382,1,0,0:0:0:0:
256,192,28533,1,0,0:0:0:0:
256,192,28988,1,0,0:0:0:0:
256,192,29291,1,0,0:0:0:0:
256,192,29442,1,8,0:0:0:0:
256,192,29594,1,0,0:0:0:0:
256,192,29669,1,0,0:0:0:0:
256,192,29745,1,8,0:0:0:0:
256,192,29897,1,8,0:0:0:0:
256,192,30048,1,0,0:0:0:0:
256,192,30276,1,0,0:0:0:0:
256,192,30503,1,0,0:0:0:0:
256,192,30730,1,0,0:0:0:0:
256,192,30957,1,8,0:0:0:0:
256,192,31033,1,8,0:0:0:0:
256,192,31109,1,8,0:0:0:0:
256,192,31260,12,0,32321,0:0:0:0:
256,192,32473,5,0,0:0:0:0:
256,192,32776,1,8,0:0:0:0:
256,192,32927,1,0,0:0:0:0:
256,192,33003,1,0,0:0:0:0:
256,192,33079,1,8,0:0:0:0:
256,192,33230,1,0,0:0:0:0:
256,192,33382,1,8,0:0:0:0:
256,192,33533,1,8,0:0:0:0:
256,192,33836,1,8,0:0:0:0:
256,192,33988,1,8,0:0:0:0:
256,192,34291,1,0,0:0:0:0:
256,192,34366,1,0,0:0:0:0:
256,192,34442,1,0,0:0:0:0:
256,192,34594,1,8,0:0:0:0:
256,192,34897,5,0,0:0:0:0:
256,192,35200,1,8,0:0:0:0:
256,192,35351,1,0,0:0:0:0:
256,192,35427,1,0,0:0:0:0:
256,192,35503,1,8,0:0:0:0:
256,192,35654,1,0,0:0:0:0:
256,192,35806,1,8,0:0:0:0:
256,192,35957,1,8,0:0:0:0:
256,192,36260,1,8,0:0:0:0:
256,192,36412,1,8,0:0:0:0:
256,192,36715,1,8,0:0:0:0:
256,192,36791,1,8,0:0:0:0:
256,192,36866,1,0,0:0:0:0:
256,192,37018,1,8,0:0:0:0:
256,192,37321,1,0,0:0:0:0:
256,192,37473,1,0,0:0:0:0:
256,192,37548,1,0,0:0:0:0:
256,192,37624,1,8,0:0:0:0:
256,192,37776,1,0,0:0:0:0:
256,192,37927,1,8,0:0:0:0:
256,192,38079,1,8,0:0:0:0:
256,192,38154,1,8,0:0:0:0:
256,192,38230,1,0,0:0:0:0:
256,192,38382,1,8,0:0:0:0:
256,192,38533,1,0,0:0:0:0:
256,192,38685,1,0,0:0:0:0:
256,192,38836,1,8,0:0:0:0:
256,192,38988,1,0,0:0:0:0:
256,192,39063,1,0,0:0:0:0:
256,192,39139,1,0,0:0:0:0:
256,192,39291,1,8,0:0:0:0:
256,192,39366,1,8,0:0:0:0:
256,192,39442,1,8,0:0:0:0:
256,192,39594,1,8,0:0:0:0:
256,192,39745,1,0,0:0:0:0:
256,192,40048,1,0,0:0:0:0:
256,192,40351,1,0,0:0:0:0:
256,192,40654,1,0,0:0:0:0:
256,192,40730,1,0,0:0:0:0:
256,192,40806,1,0,0:0:0:0:
256,192,40882,1,0,0:0:0:0:
256,192,40957,1,0,0:0:0:0:
256,192,41563,1,8,0:0:0:0:
266,195,41791,1,8,0:0:0:0:
275,198,42018,1,8,0:0:0:0:
256,192,42169,1,0,0:0:0:0:
256,192,42473,1,0,0:0:0:0:
256,192,42624,1,8,0:0:0:0:
256,192,42776,1,0,0:0:0:0:
256,192,42927,1,0,0:0:0:0:
256,192,43079,1,8,0:0:0:0:
256,192,43154,1,8,0:0:0:0:
256,192,43306,1,8,0:0:0:0:
256,192,43382,1,0,0:0:0:0:
256,192,43685,1,0,0:0:0:0:
256,192,43836,1,8,0:0:0:0:
256,192,43988,1,0,0:0:0:0:
256,192,44139,1,0,0:0:0:0:
256,192,44291,1,8,0:0:0:0:
256,192,44366,1,8,0:0:0:0:
256,192,44442,1,0,0:0:0:0:
256,192,44518,1,0,0:0:0:0:
256,192,44594,1,0,0:0:0:0:
256,192,44897,1,0,0:0:0:0:
256,192,45048,1,8,0:0:0:0:
256,192,45200,1,0,0:0:0:0:
256,192,45351,1,0,0:0:0:0:
256,192,45503,1,0,0:0:0:0:
256,192,45579,1,8,0:0:0:0:
256,192,45730,1,8,0:0:0:0:
256,192,45806,1,0,0:0:0:0:
256,192,46109,1,0,0:0:0:0:
256,192,46260,1,8,0:0:0:0:
256,192,46412,1,0,0:0:0:0:
256,192,46563,1,0,0:0:0:0:
256,192,46715,1,8,0:0:0:0:
256,192,46791,1,8,0:0:0:0:
256,192,46866,1,0,0:0:0:0:
256,192,46942,1,0,0:0:0:0:
256,192,47018,1,0,0:0:0:0:
256,192,47321,1,0,0:0:0:0:
256,192,47473,1,8,0:0:0:0:
256,192,47624,1,0,0:0:0:0:
256,192,47776,1,0,0:0:0:0:
256,192,47927,1,8,0:0:0:0:
256,192,48003,1,8,0:0:0:0:
256,192,48154,1,8,0:0:0:0:
256,192,48230,1,0,0:0:0:0:
256,192,48533,1,0,0:0:0:0:
256,192,48685,1,8,0:0:0:0:
256,192,48836,1,0,0:0:0:0:
256,192,48988,1,0,0:0:0:0:
256,192,49139,1,8,0:0:0:0:
256,192,49215,1,8,0:0:0:0:
256,192,49291,1,0,0:0:0:0:
256,192,49366,1,0,0:0:0:0:
256,192,49442,1,0,0:0:0:0:
256,192,49669,1,0,0:0:0:0:
256,192,49897,1,0,0:0:0:0:
256,192,50124,1,0,0:0:0:0:
256,192,50351,1,8,0:0:0:0:
256,192,50654,1,0,0:0:0:0:
256,192,50730,1,0,0:0:0:0:
256,192,50806,1,0,0:0:0:0:
256,192,50957,1,0,0:0:0:0:
256,192,51033,1,0,0:0:0:0:
256,192,51109,1,0,0:0:0:0:
256,192,51260,1,0,0:0:0:0:
256,192,51335,1,0,0:0:0:0:
256,192,51411,1,0,0:0:0:0:
256,192,51487,1,0,0:0:0:0:
256,192,51563,1,8,0:0:0:0:
256,192,51866,1,0,0:0:0:0:
256,192,52169,1,0,0:0:0:0:
256,192,52321,1,8,0:0:0:0:
256,192,52473,1,0,0:0:0:0:
256,192,52624,1,0,0:0:0:0:
256,192,52776,1,8,0:0:0:0:
256,192,52851,1,8,0:0:0:0:
256,192,53003,1,8,0:0:0:0:
256,192,53079,1,0,0:0:0:0:
256,192,53382,1,0,0:0:0:0:
256,192,53533,1,8,0:0:0:0:
256,192,53685,1,0,0:0:0:0:
256,192,53836,1,0,0:0:0:0:
256,192,53988,1,8,0:0:0:0:
256,192,54063,1,8,0:0:0:0:
256,192,54139,1,0,0:0:0:0:
256,192,54215,1,0,0:0:0:0:
256,192,54291,1,0,0:0:0:0:
256,192,54594,1,0,0:0:0:0:
256,192,54745,1,8,0:0:0:0:
256,192,54897,1,0,0:0:0:0:
256,192,55048,1,0,0:0:0:0:
256,192,55200,1,0,0:0:0:0:
256,192,55276,1,8,0:0:0:0:
256,192,55427,1,8,0:0:0:0:
256,192,55503,1,0,0:0:0:0:
256,192,55806,1,0,0:0:0:0:
256,192,55957,1,8,0:0:0:0:
256,192,56109,1,0,0:0:0:0:
256,192,56185,1,8,0:0:0:0:
256,192,56336,1,0,0:0:0:0:
256,192,56412,1,8,0:0:0:0:
256,192,56563,1,8,0:0:0:0:
256,192,56639,1,8,0:0:0:0:
256,192,56715,1,0,0:0:0:0:
256,192,57018,1,0,0:0:0:0:
256,192,57169,1,8,0:0:0:0:
256,192,57321,1,0,0:0:0:0:
256,192,57473,1,0,0:0:0:0:
256,192,57624,1,8,0:0:0:0:
256,192,57700,1,8,0:0:0:0:
256,192,57851,1,8,0:0:0:0:
256,192,57927,1,0,0:0:0:0:
256,192,58230,1,0,0:0:0:0:
256,192,58382,1,8,0:0:0:0:
256,192,58533,1,0,0:0:0:0:
256,192,58685,1,0,0:0:0:0:
256,192,58836,1,8,0:0:0:0:
256,192,58912,1,8,0:0:0:0:
256,192,58988,1,0,0:0:0:0:
256,192,59063,1,0,0:0:0:0:
256,192,59139,1,0,0:0:0:0:
256,192,59442,1,0,0:0:0:0:
256,192,59745,1,0,0:0:0:0:
256,192,60048,1,0,0:0:0:0:
256,192,60124,1,0,0:0:0:0:
256,192,60200,1,0,0:0:0:0:
256,192,60276,1,0,0:0:0:0:
256,192,60351,1,8,0:0:0:0:
256,192,60579,1,8,0:0:0:0:
256,192,60806,1,8,0:0:0:0:
256,192,61033,1,8,0:0:0:0:
256,192,61260,1,12,0:0:0:0:
256,192,61563,1,4,0:0:0:0:
256,192,62776,1,8,0:0:0:0:
256,192,63988,1,8,0:0:0:0:
256,192,64594,1,0,0:0:0:0:
256,192,65200,1,8,0:0:0:0:
256,192,65806,1,8,0:0:0:0:
256,192,66033,1,8,0:0:0:0:
256,192,66260,1,8,0:0:0:0:
256,192,66412,1,0,0:0:0:0:
256,192,66563,1,0,0:0:0:0:
256,192,66715,1,0,0:0:0:0:
256,192,66866,1,0,0:0:0:0:
256,192,67018,1,8,0:0:0:0:
256,192,67170,1,0,0:0:0:0:
256,192,67321,1,8,0:0:0:0:
256,192,67397,1,8,0:0:0:0:
256,192,67473,1,0,0:0:0:0:
256,192,67624,1,8,0:0:0:0:
256,192,67776,1,0,0:0:0:0:
256,192,67927,1,0,0:0:0:0:
256,192,68079,1,0,0:0:0:0:
256,192,68230,1,8,0:0:0:0:
256,192,68382,1,0,0:0:0:0:
256,192,68533,1,8,0:0:0:0:
256,192,68685,1,8,0:0:0:0:
256,192,68836,1,0,0:0:0:0:
256,192,68912,1,0,0:0:0:0:
256,192,68988,1,0,0:0:0:0:
256,192,69063,1,0,0:0:0:0:
256,192,69139,1,8,0:0:0:0:
256,192,69291,1,0,0:0:0:0:
256,192,69442,1,8,0:0:0:0:
256,192,69518,1,8,0:0:0:0:
256,192,69594,1,8,0:0:0:0:
259,191,69670,1,8,0:0:0:0:
256,192,69745,1,8,0:0:0:0:
256,192,69821,1,8,0:0:0:0:
256,192,69897,1,8,0:0:0:0:
259,191,69973,1,8,0:0:0:0:
256,192,70048,1,0,0:0:0:0:
256,192,70654,1,8,0:0:0:0:
256,192,70957,1,8,0:0:0:0:
256,192,71260,1,0,0:0:0:0:
256,192,71488,1,8,0:0:0:0:
256,192,71715,1,8,0:0:0:0:
256,192,71942,1,0,0:0:0:0:
256,192,72170,1,12,0:0:0:0:
256,192,72473,1,4,0:0:0:0:
256,192,72700,1,8,0:0:0:0:
256,192,72776,1,0,0:0:0:0:
256,192,72927,1,8,0:0:0:0:
256,192,73079,1,0,0:0:0:0:
256,192,73154,1,8,0:0:0:0:
256,192,73306,1,8,0:0:0:0:
256,192,73382,1,0,0:0:0:0:
256,192,73533,1,8,0:0:0:0:
256,192,73685,1,0,0:0:0:0:
256,192,73988,1,0,0:0:0:0:
256,192,74139,1,8,0:0:0:0:
256,192,74291,1,0,0:0:0:0:
256,192,74366,1,0,0:0:0:0:
256,192,74518,1,8,0:0:0:0:
256,192,74594,1,0,0:0:0:0:
256,192,74745,1,8,0:0:0:0:
256,192,74897,1,0,0:0:0:0:
256,192,75200,1,0,0:0:0:0:
256,192,75351,1,8,0:0:0:0:
256,192,75503,1,8,0:0:0:0:
256,192,75579,1,8,0:0:0:0:
256,192,75730,1,8,0:0:0:0:
256,192,75806,1,0,0:0:0:0:
256,192,75957,1,8,0:0:0:0:
256,192,76109,1,0,0:0:0:0:
371,182,76336,1,8,0:0:0:0:
256,192,76412,1,0,0:0:0:0:
256,192,76563,1,8,0:0:0:0:
256,192,76715,1,0,0:0:0:0:
256,192,76791,1,0,0:0:0:0:
256,192,76866,1,0,0:0:0:0:
324,156,77018,1,0,0:0:0:0:
332,181,77170,1,8,0:0:0:0:
282,122,77321,1,0,0:0:0:0:
205,133,77473,1,0,0:0:0:0:
256,192,77624,1,12,0:0:0:0:
256,192,77927,1,0,0:0:0:0:
256,192,78003,1,8,0:0:0:0:
256,192,78154,1,8,0:0:0:0:
256,192,78230,1,0,0:0:0:0:
256,192,78382,1,8,0:0:0:0:
256,192,78533,1,0,0:0:0:0:
256,192,78836,1,0,0:0:0:0:
256,192,78988,1,8,0:0:0:0:
256,192,79139,1,0,0:0:0:0:
256,192,79215,1,0,0:0:0:0:
256,192,79366,1,8,0:0:0:0:
256,192,79442,1,0,0:0:0:0:
256,192,79594,1,8,0:0:0:0:
256,192,79745,1,0,0:0:0:0:
256,192,80200,1,0,0:0:0:0:
256,192,80351,1,8,0:0:0:0:
256,192,80654,1,8,0:0:0:0:
256,192,80806,1,0,0:0:0:0:
256,192,80957,1,0,0:0:0:0:
294,195,81033,1,0,0:0:0:0:
294,195,81109,1,0,0:0:0:0:
256,192,81260,1,0,0:0:0:0:
241,267,81412,1,0,0:0:0:0:
256,192,81563,1,8,0:0:0:0:
256,192,81866,1,8,0:0:0:0:
256,192,81942,1,8,0:0:0:0:
256,192,82018,1,8,0:0:0:0:
256,192,82170,1,0,0:0:0:0:
256,192,82473,1,8,0:0:0:0:
293,186,82548,1,8,0:0:0:0:
256,192,82624,1,0,0:0:0:0:
256,192,82927,1,8,0:0:0:0:
293,186,83003,1,8,0:0:0:0:
256,192,83079,1,0,0:0:0:0:
256,192,83382,1,8,0:0:0:0:
284,191,83457,1,8,0:0:0:0:
256,192,83533,1,0,0:0:0:0:
256,192,83836,1,8,0:0:0:0:
293,186,83912,1,8,0:0:0:0:
256,192,83988,1,0,0:0:0:0:
256,192,84215,1,0,0:0:0:0:
256,192,84291,1,8,0:0:0:0:
256,192,84594,1,4,0:0:0:0:
256,192,84821,1,8,0:0:0:0:
256,192,84897,1,0,0:0:0:0:
256,192,85048,1,8,0:0:0:0:
256,192,85200,1,0,0:0:0:0:
256,192,85276,1,8,0:0:0:0:
256,192,85427,1,8,0:0:0:0:
256,192,85503,1,0,0:0:0:0:
256,192,85654,1,8,0:0:0:0:
256,192,85806,1,0,0:0:0:0:
256,192,86109,1,0,0:0:0:0:
256,192,86260,1,8,0:0:0:0:
256,192,86412,1,0,0:0:0:0:
256,192,86488,1,0,0:0:0:0:
256,192,86639,1,8,0:0:0:0:
256,192,86715,1,0,0:0:0:0:
256,192,86866,1,8,0:0:0:0:
256,192,87018,1,0,0:0:0:0:
256,192,87321,1,0,0:0:0:0:
256,192,87473,1,8,0:0:0:0:
256,192,87624,1,8,0:0:0:0:
256,192,87700,1,8,0:0:0:0:
256,192,87851,1,8,0:0:0:0:
256,192,87927,1,0,0:0:0:0:
256,192,88079,1,8,0:0:0:0:
256,192,88230,1,0,0:0:0:0:
256,192,88533,1,0,0:0:0:0:
256,192,88685,1,8,0:0:0:0:
256,192,88836,1,0,0:0:0:0:
256,192,88912,1,8,0:0:0:0:
256,192,89063,1,8,0:0:0:0:
256,192,89139,1,0,0:0:0:0:
256,192,89291,1,8,0:0:0:0:
256,192,89442,1,0,0:0:0:0:
256,192,89594,1,0,0:0:0:0:
256,192,89670,1,0,0:0:0:0:
256,192,89745,1,8,0:0:0:0:
256,192,89897,1,0,0:0:0:0:
256,192,90048,1,8,0:0:0:0:
256,192,90124,1,8,0:0:0:0:
256,192,90276,1,8,0:0:0:0:
256,192,90351,1,0,0:0:0:0:
256,192,90503,1,8,0:0:0:0:
256,192,90654,1,0,0:0:0:0:
256,192,91260,12,0,91715,0:0:0:0:
0,128,91866,5,4,0:0:0:0:
256,192,93079,1,8,0:0:0:0:
256,192,94291,1,12,0:0:0:0:
256,192,94897,1,0,0:0:0:0:
256,192,95503,1,12,0:0:0:0:
256,192,95806,1,12,0:0:0:0:
256,192,96109,1,12,0:0:0:0:
256,192,96336,1,12,0:0:0:0:
256,192,96563,1,12,0:0:0:0:
256,192,96715,1,0,0:0:0:0:
256,192,96866,1,0,0:0:0:0:
256,192,97018,1,0,0:0:0:0:
256,192,97170,1,0,0:0:0:0:
256,192,97321,1,8,0:0:0:0:
256,192,97473,1,0,0:0:0:0:
256,192,97624,1,0,0:0:0:0:
256,192,97700,1,0,0:0:0:0:
256,192,97776,1,0,0:0:0:0:
256,192,97927,1,8,0:0:0:0:
256,192,98079,1,0,0:0:0:0:
256,192,98230,1,0,0:0:0:0:
256,192,98382,1,0,0:0:0:0:
256,192,98533,1,8,0:0:0:0:
256,192,98685,1,0,0:0:0:0:
256,192,98836,1,8,0:0:0:0:
256,192,98988,1,8,0:0:0:0:
256,192,99139,1,0,0:0:0:0:
256,192,99215,1,0,0:0:0:0:
256,192,99291,1,0,0:0:0:0:
256,192,99366,1,0,0:0:0:0:
256,192,99442,1,8,0:0:0:0:
256,192,99594,1,0,0:0:0:0:
256,192,99745,1,8,0:0:0:0:
256,192,99821,1,8,0:0:0:0:
256,192,99897,1,8,0:0:0:0:
256,192,99973,1,8,0:0:0:0:
256,192,100048,1,8,0:0:0:0:
256,192,100124,1,8,0:0:0:0:
256,192,100200,1,8,0:0:0:0:
256,192,100276,1,8,0:0:0:0:
256,192,100351,1,0,0:0:0:0:
256,192,100957,1,8,0:0:0:0:
256,192,101563,1,4,0:0:0:0:
256,192,101866,1,8,0:0:0:0:
256,192,102018,1,8,0:0:0:0:
256,192,102170,1,0,0:0:0:0:
256,192,102321,1,0,0:0:0:0:
256,192,102397,1,0,0:0:0:0:
256,192,102473,1,8,0:0:0:0:
256,192,102624,1,8,0:0:0:0:
256,192,102776,1,8,0:0:0:0:
256,192,102927,1,8,0:0:0:0:
256,192,103079,1,0,0:0:0:0:
256,192,103230,1,8,0:0:0:0:
256,192,103382,1,0,0:0:0:0:
256,192,103457,1,0,0:0:0:0:
256,192,103533,1,0,0:0:0:0:
256,192,103609,1,0,0:0:0:0:
256,192,103685,1,8,0:0:0:0:
256,192,103988,1,0,0:0:0:0:
256,192,104139,1,8,0:0:0:0:
256,192,104291,1,8,0:0:0:0:
256,192,104442,1,0,0:0:0:0:
256,192,104594,1,12,0:0:0:0:
256,192,104897,1,8,0:0:0:0:
256,192,105048,1,8,0:0:0:0:
256,192,105124,1,8,0:0:0:0:
256,192,105200,1,0,0:0:0:0:
256,192,105351,1,0,0:0:0:0:
256,192,105503,1,0,0:0:0:0:
256,192,105654,1,0,0:0:0:0:
256,192,105806,1,12,0:0:0:0:
256,192,106412,1,0,0:0:0:0:
256,192,106563,1,8,0:0:0:0:
256,192,106639,1,8,0:0:0:0:
256,192,106715,1,0,0:0:0:0:
256,192,106866,1,8,0:0:0:0:
256,192,107018,1,0,0:0:0:0:
256,192,107094,1,8,0:0:0:0:
256,192,107245,1,8,0:0:0:0:
256,192,107321,1,0,0:0:0:0:
256,192,107473,1,8,0:0:0:0:
256,192,107624,1,0,0:0:0:0:
256,192,107927,1,0,0:0:0:0:
256,192,108079,1,8,0:0:0:0:
256,192,108154,1,8,0:0:0:0:
256,192,108230,1,0,0:0:0:0:
256,192,108382,1,8,0:0:0:0:
256,192,108533,1,0,0:0:0:0:
256,192,108609,1,0,0:0:0:0:
256,192,108685,1,8,0:0:0:0:
256,192,108760,1,8,0:0:0:0:
256,192,108836,1,0,0:0:0:0:
256,192,109139,1,0,0:0:0:0:
256,192,109291,1,8,0:0:0:0:
256,192,109442,1,8,0:0:0:0:
256,192,109594,1,0,0:0:0:0:
256,192,109745,1,12,0:0:0:0:
256,192,109897,1,12,0:0:0:0:
256,192,110048,1,4,0:0:0:0:
256,192,110200,1,8,0:0:0:0:
256,192,110276,1,0,0:0:0:0:
256,192,110351,1,8,0:0:0:0:
256,192,110503,1,8,0:0:0:0:
256,192,110654,12,0,111109,0:0:0:0:
256,192,111260,5,4,0:0:0:0:
256,192,111563,1,8,0:0:0:0:
256,192,111791,1,0,0:0:0:0:
256,192,112018,1,0,0:0:0:0:
256,192,112170,1,8,0:0:0:0:
256,192,112321,1,8,0:0:0:0:
256,192,112473,1,0,0:0:0:0:
256,192,112776,1,8,0:0:0:0:
256,192,112927,1,0,0:0:0:0:
256,192,113079,1,0,0:0:0:0:
256,192,113154,1,0,0:0:0:0:
256,192,113230,1,0,0:0:0:0:
256,192,113306,1,0,0:0:0:0:
256,192,113382,1,8,0:0:0:0:
256,192,113685,1,0,0:0:0:0:
256,192,113836,1,8,0:0:0:0:
256,192,113988,1,8,0:0:0:0:
256,192,114139,1,0,0:0:0:0:
256,192,114291,1,12,0:0:0:0:
256,192,114594,1,8,0:0:0:0:
256,192,114745,1,8,0:0:0:0:
256,192,114821,1,8,0:0:0:0:
256,192,114897,1,0,0:0:0:0:
256,192,115048,1,0,0:0:0:0:
256,192,115200,1,0,0:0:0:0:
256,192,115351,1,0,0:0:0:0:
256,192,115503,1,12,0:0:0:0:
256,192,116109,1,0,0:0:0:0:
256,192,116260,1,8,0:0:0:0:
256,192,116336,1,8,0:0:0:0:
256,192,116412,1,0,0:0:0:0:
256,192,116563,1,8,0:0:0:0:
256,192,116715,1,0,0:0:0:0:
256,192,116791,1,8,0:0:0:0:
256,192,116942,1,8,0:0:0:0:
256,192,117018,1,0,0:0:0:0:
256,192,117170,1,8,0:0:0:0:
256,192,117321,1,0,0:0:0:0:
256,192,117473,1,0,0:0:0:0:
256,192,117548,1,8,0:0:0:0:
256,192,117624,1,0,0:0:0:0:
256,192,117776,1,8,0:0:0:0:
256,192,117927,1,8,0:0:0:0:
256,192,118003,1,8,0:0:0:0:
256,192,118079,1,0,0:0:0:0:
256,192,118154,1,0,0:0:0:0:
256,192,118230,1,8,0:0:0:0:
256,192,118382,1,8,0:0:0:0:
256,192,118533,1,0,0:0:0:0:
256,192,118609,1,0,0:0:0:0:
256,192,118685,1,0,0:0:0:0:
256,192,118760,1,0,0:0:0:0:
256,192,118836,1,8,0:0:0:0:
256,192,118988,1,8,0:0:0:0:
256,192,119139,1,0,0:0:0:0:
256,192,119215,1,0,0:0:0:0:
256,192,119291,1,8,0:0:0:0:
256,192,119442,1,0,0:0:0:0:
256,192,119518,1,0,0:0:0:0:
256,192,119594,1,8,0:0:0:0:
256,192,119670,1,8,0:0:0:0:
256,192,119745,1,0,0:0:0:0:
256,192,119973,1,0,0:0:0:0:
256,192,120200,1,0,0:0:0:0:
256,192,120427,1,0,0:0:0:0:
256,192,120654,1,0,0:0:0:0:
256,192,120957,1,0,0:0:0:0:
256,192,121109,12,0,123382,0:0:0:0:
