osu file format v14

[General]
AudioFilename: audio.ogg
AudioLeadIn: 0
PreviewTime: 69299
Countdown: 0
SampleSet: Normal
StackLeniency: 0.7
Mode: 3
LetterboxInBreaks: 0
SpecialStyle: 0
WidescreenStoryboard: 1

[Editor]
Bookmarks: 24144,46733,58027,114497,125792,137086
DistanceSpacing: 3.1
BeatDivisor: 4
GridSize: 16
TimelineZoom: 3.099999

[Metadata]
Title:Opal (Cut Ver.)
TitleUnicode:Opal (Cut Ver.)
Artist:Zekk
ArtistUnicode:Zekk
Creator:AHHHHHHHHHHHHHH
Version:Croco's Insane
Source:
Tags:roasted chicken unluckycroco WAVES wavforme 3rd third anniversary C94 electronic instrumental future bass Minhyuk Choi 최민혁 WAV-018 fa featured artist comiket comic market コミックマーケット コミケット 夏コミ2018 summer natsu なつ
BeatmapID:2582127
BeatmapSetID:1227902

[Difficulty]
HPDrainRate:8.5
CircleSize:4
OverallDifficulty:8
ApproachRate:5
SliderMultiplier:1.4
SliderTickRate:1

[Events]
//Background and Video events
0,0,"000.png",0,0
//Break Periods
//Storyboard Layer 0 (Background)
//Storyboard Layer 1 (Fail)
//Storyboard Layer 2 (Pass)
//Storyboard Layer 3 (Foreground)
//Storyboard Layer 4 (Overlay)
//Storyboard Sound Samples
Sample,66674,0,"clap.wav",100
Sample,66850,0,"clap.wav",100
Sample,67027,0,"clap.wav",100
Sample,67203,0,"clap.wav",100
Sample,67380,0,"clap.wav",100
Sample,67556,0,"clap.wav",100
Sample,67733,0,"clap.wav",100

[TimingPoints]
145,352.941176470588,4,1,1,100,1,0
43997,-100,4,1,1,95,0,0
44086,-100,4,1,1,90,0,0
44174,-100,4,1,1,85,0,0
44262,-100,4,1,1,80,0,0
44350,-100,4,1,1,75,0,0
44439,-100,4,1,1,70,0,0
44527,-100,4,1,1,65,0,0
44615,-100,4,1,1,60,0,0
44703,-100,4,1,1,55,0,0
44792,-100,4,1,1,50,0,0
44880,-100,4,1,1,45,0,0
44968,-100,4,1,1,40,0,0
45056,-100,4,1,1,35,0,0
45144,-100,4,1,1,30,0,0
45233,-100,4,1,1,25,0,0
45321,-100,4,1,1,100,0,0
46821,-100,4,1,1,20,0,0
52380,-100,4,1,1,40,0,0
57321,-100,4,1,1,50,0,0
57409,-100,4,1,1,55,0,0
57497,-100,4,1,1,60,0,0
57586,-100,4,1,1,65,0,0
57762,-100,4,1,1,75,0,0
57850,-100,4,1,1,80,0,0
57939,-100,4,1,1,90,0,0
58027,-100,4,1,1,100,0,0
70027,-100,4,1,1,100,0,1
91203,-100,4,1,1,100,0,0
114674,-100,4,1,1,20,0,0
116439,-100,4,1,1,60,0,0
117321,-100,4,1,1,55,0,0
117409,-100,4,1,1,50,0,0
117497,-100,4,1,1,45,0,0
117586,-100,4,1,1,40,0,0
117674,-100,4,1,1,35,0,0
117762,-100,4,1,1,30,0,0
117850,-100,4,1,1,25,0,0
119086,-100,4,1,1,60,0,0
120144,-100,4,1,1,30,0,0
120497,-100,4,1,1,50,0,0
120850,-100,4,1,1,30,0,0
121203,-100,4,1,1,40,0,0
121556,-100,4,1,1,35,0,0
121909,-100,4,1,1,40,0,0
124380,-100,4,1,1,45,0,0
124733,-100,4,1,1,50,0,0
124909,-100,4,1,1,30,0,0
124997,-100,4,1,1,40,0,0
125086,-100,4,1,1,50,0,0
125174,-100,4,1,1,55,0,0
125262,-100,4,1,1,60,0,0
125350,-100,4,1,1,65,0,0
125439,-100,4,1,1,70,0,0
125527,-100,4,1,1,75,0,0
125615,-100,4,1,1,80,0,0
125703,-100,4,1,1,90,0,0
125792,-100,4,1,1,100,0,0

[HitObjects]
64,192,1556,5,4,0:0:0:0:
320,192,1556,1,2,0:0:0:0:
448,192,1556,1,0,0:0:0:100:clap.wav
192,192,1644,1,0,0:0:0:0:
320,192,1733,1,0,0:0:0:0:
64,192,1909,1,0,0:0:0:100:clap.wav
448,192,1909,1,0,0:0:0:0:
192,192,2086,1,0,0:0:0:0:
448,192,2174,1,0,0:0:0:0:
64,192,2262,1,0,0:0:0:100:clap.wav
320,192,2262,1,0,0:0:0:0:
192,192,2350,1,0,0:0:0:0:
320,192,2439,1,2,0:0:0:0:
448,192,2439,1,0,0:0:0:0:
192,192,2527,1,0,0:0:0:0:
64,192,2615,1,0,0:0:0:100:clap.wav
448,192,2615,1,0,0:0:0:0:
320,192,2703,1,0,0:0:0:0:
192,192,2792,1,0,0:0:0:0:
448,192,2880,1,0,0:0:0:0:
64,192,2968,1,2,0:0:0:0:
192,192,2968,1,0,0:0:0:100:clap.wav
320,192,3056,1,0,0:0:0:0:
64,192,3144,1,0,0:0:0:0:
192,192,3233,1,0,0:0:0:0:
320,192,3321,1,2,0:0:0:0:
448,192,3321,1,0,0:0:0:100:clap.wav
64,192,3409,1,0,0:0:0:0:
192,192,3497,1,0,0:0:0:0:
320,192,3586,1,0,0:0:0:0:
64,192,3674,1,0,0:0:0:100:clap.wav
448,192,3674,1,0,0:0:0:0:
192,192,3762,1,0,0:0:0:0:
320,192,3850,1,0,0:0:0:0:
448,192,3850,1,0,0:0:0:0:
192,192,3939,1,0,0:0:0:0:
64,192,4027,1,0,0:0:0:100:clap.wav
448,192,4027,1,0,0:0:0:0:
320,192,4115,1,0,0:0:0:0:
192,192,4203,1,0,0:0:0:0:
448,192,4292,1,0,0:0:0:0:
64,192,4380,1,2,0:0:0:0:
192,192,4380,1,0,0:0:0:100:clap.wav
320,192,4468,1,0,0:0:0:0:
448,192,4556,1,0,0:0:0:0:
192,192,4644,1,0,0:0:0:0:
64,192,4733,1,0,0:0:0:100:clap.wav
320,192,4733,1,0,0:0:0:0:
448,192,4821,1,0,0:0:0:0:
192,192,4909,1,0,0:0:0:0:
320,192,4997,1,0,0:0:0:0:
64,192,5086,1,0,0:0:0:100:clap.wav
448,192,5086,1,0,0:0:0:0:
320,192,5174,1,0,0:0:0:0:
64,192,5262,1,2,0:0:0:0:
192,192,5262,1,0,0:0:0:0:
320,192,5350,1,0,0:0:0:0:
64,192,5439,1,0,0:0:0:100:clap.wav
448,192,5439,1,0,0:0:0:0:
192,192,5527,1,0,0:0:0:0:
320,192,5615,1,0,0:0:0:0:
64,192,5703,1,0,0:0:0:0:
320,192,5792,1,2,0:0:0:0:
448,192,5792,1,0,0:0:0:100:clap.wav
192,192,5880,1,0,0:0:0:0:
448,192,5968,128,0,6144:0:0:0:0:
320,192,6056,128,0,6233:0:0:0:0:
64,192,6144,1,2,0:0:0:0:
192,192,6144,1,0,0:0:0:100:clap.wav
448,192,6233,128,0,6365:0:0:0:0:
64,192,6321,1,0,0:0:0:0:
192,192,6409,128,0,6542:0:0:0:0:
320,192,6497,128,2,6630:0:0:0:0:
448,192,6497,1,0,0:0:0:100:clap.wav
64,192,6586,128,0,6674:0:0:0:0:
192,192,6674,128,0,6762:0:0:0:0:
320,192,6762,1,2,0:0:0:0:
448,192,6762,1,0,0:0:0:0:
64,192,6850,128,0,6894:0:0:0:100:clap.wav
192,192,6850,1,0,0:0:0:0:
448,192,6939,128,0,6983:0:0:0:0:
192,192,7027,128,2,7071:0:0:0:0:
320,192,7027,1,0,0:0:0:0:
64,192,7115,1,0,0:0:0:0:
320,192,7203,1,2,0:0:0:0:
448,192,7203,1,0,0:0:0:100:clap.wav
192,192,7292,1,0,0:0:0:0:
320,192,7380,1,0,0:0:0:0:
64,192,7468,1,0,0:0:0:0:
192,192,7556,1,0,0:0:0:100:clap.wav
448,192,7556,1,0,0:0:0:0:
320,192,7644,1,0,0:0:0:0:
64,192,7733,1,0,0:0:0:0:
448,192,7821,1,0,0:0:0:0:
64,192,7909,1,0,0:0:0:100:clap.wav
320,192,7909,1,0,0:0:0:0:
192,192,7997,1,0,0:0:0:0:
320,192,8086,1,2,0:0:0:0:
448,192,8086,1,0,0:0:0:0:
192,192,8174,1,0,0:0:0:0:
64,192,8262,1,0,0:0:0:100:clap.wav
320,192,8262,1,0,0:0:0:0:
448,192,8350,1,0,0:0:0:0:
192,192,8439,1,0,0:0:0:0:
64,192,8527,1,0,0:0:0:0:
320,192,8615,1,2,0:0:0:0:
448,192,8615,1,0,0:0:0:100:clap.wav
192,192,8703,1,0,0:0:0:0:
64,192,8792,1,0,0:0:0:0:
320,192,8880,1,0,0:0:0:0:
64,192,8968,1,2,0:0:0:0:
192,192,8968,1,0,0:0:0:100:clap.wav
320,192,9056,1,0,0:0:0:0:
448,192,9144,1,0,0:0:0:0:
192,192,9233,1,0,0:0:0:0:
64,192,9321,1,0,0:0:0:100:clap.wav
448,192,9321,1,0,0:0:0:0:
320,192,9409,1,0,0:0:0:0:
64,192,9497,1,0,0:0:0:0:
192,192,9497,1,0,0:0:0:0:
320,192,9586,1,0,0:0:0:0:
64,192,9674,1,0,0:0:0:100:clap.wav
448,192,9674,1,0,0:0:0:0:
192,192,9762,1,0,0:0:0:0:
320,192,9850,1,0,0:0:0:0:
448,192,9939,1,0,0:0:0:0:
64,192,10027,1,2,0:0:0:0:
192,192,10027,1,0,0:0:0:100:clap.wav
448,192,10115,1,0,0:0:0:0:
320,192,10203,1,0,0:0:0:0:
192,192,10292,1,0,0:0:0:0:
64,192,10380,1,0,0:0:0:100:clap.wav
320,192,10380,1,0,0:0:0:0:
448,192,10468,1,0,0:0:0:0:
192,192,10556,1,0,0:0:0:0:
320,192,10644,1,0,0:0:0:0:
64,192,10733,1,0,0:0:0:100:clap.wav
448,192,10733,1,0,0:0:0:0:
192,192,10821,1,0,0:0:0:0:
320,192,10909,1,2,0:0:0:0:
448,192,10909,1,0,0:0:0:0:
192,192,10997,1,0,0:0:0:0:
64,192,11086,1,0,0:0:0:100:clap.wav
448,192,11086,1,0,0:0:0:0:
320,192,11174,1,0,0:0:0:0:
192,192,11262,1,0,0:0:0:0:
448,192,11350,1,0,0:0:0:0:
64,192,11439,1,2,0:0:0:0:
320,192,11439,1,0,0:0:0:100:clap.wav
192,192,11527,1,0,0:0:0:0:
448,192,11615,128,0,11792:0:0:0:0:
320,192,11703,128,0,11880:0:0:0:0:
64,192,11792,1,2,0:0:0:0:
192,192,11792,1,0,0:0:0:100:clap.wav
448,192,11880,128,0,11968:0:0:0:0:
192,192,11968,1,0,0:0:0:0:
320,192,12056,128,0,12144:0:0:0:0:
64,192,12144,1,2,0:0:0:0:
448,192,12144,1,0,0:0:0:0:
192,192,12321,1,2,0:0:0:0:
320,192,12321,1,0,0:0:0:0:
64,192,12497,1,2,0:0:0:0:
448,192,12497,1,0,0:0:0:0:
64,192,12674,1,2,0:0:0:0:
192,192,12674,1,0,0:0:0:0:
64,192,12850,1,4,0:0:0:0:
320,192,12850,1,2,0:0:0:0:
448,192,12850,1,0,0:0:0:100:clap.wav
192,192,12939,1,0,0:0:0:0:
320,192,13027,1,0,0:0:0:0:
64,192,13203,1,0,0:0:0:100:clap.wav
448,192,13203,1,0,0:0:0:0:
192,192,13292,1,0,0:0:0:0:
320,192,13380,1,0,0:0:0:0:
64,192,13468,1,0,0:0:0:0:
192,192,13556,1,0,0:0:0:100:clap.wav
448,192,13556,1,0,0:0:0:0:
320,192,13733,1,2,0:0:0:0:
448,192,13733,1,0,0:0:0:0:
64,192,13909,1,0,0:0:0:100:clap.wav
320,192,13909,1,0,0:0:0:0:
448,192,13997,1,0,0:0:0:0:
192,192,14086,1,0,0:0:0:0:
320,192,14174,1,0,0:0:0:0:
64,192,14262,1,2,0:0:0:0:
192,192,14262,1,0,0:0:0:100:clap.wav
448,192,14350,1,0,0:0:0:0:
64,192,14439,1,0,0:0:0:0:
192,192,14527,1,0,0:0:0:0:
320,192,14615,1,2,0:0:0:0:
448,192,14615,1,0,0:0:0:100:clap.wav
192,192,14792,1,0,0:0:0:0:
320,192,14880,1,0,0:0:0:0:
64,192,14968,1,0,0:0:0:100:clap.wav
448,192,14968,1,0,0:0:0:0:
192,192,15056,1,0,0:0:0:0:
320,192,15144,1,0,0:0:0:0:
448,192,15144,1,0,0:0:0:0:
192,192,15233,1,0,0:0:0:0:
64,192,15321,1,0,0:0:0:100:clap.wav
448,192,15321,1,0,0:0:0:0:
320,192,15409,1,0,0:0:0:0:
192,192,15497,1,0,0:0:0:0:
448,192,15586,1,0,0:0:0:0:
64,192,15674,1,2,0:0:0:0:
192,192,15674,1,0,0:0:0:100:clap.wav
320,192,15762,1,0,0:0:0:0:
448,192,15850,1,0,0:0:0:0:
192,192,15939,1,0,0:0:0:0:
64,192,16027,1,0,0:0:0:100:clap.wav
448,192,16027,1,0,0:0:0:0:
320,192,16115,1,0,0:0:0:0:
192,192,16203,1,0,0:0:0:0:
448,192,16292,1,0,0:0:0:0:
64,192,16380,1,0,0:0:0:100:clap.wav
320,192,16380,1,0,0:0:0:0:
192,192,16468,1,0,0:0:0:0:
320,192,16556,1,2,0:0:0:0:
448,192,16556,1,0,0:0:0:0:
64,192,16644,1,0,0:0:0:0:
192,192,16733,1,0,0:0:0:100:clap.wav
448,192,16733,1,0,0:0:0:0:
320,192,16821,1,0,0:0:0:0:
64,192,16909,1,0,0:0:0:0:
192,192,16997,1,0,0:0:0:0:
320,192,17086,1,2,0:0:0:0:
448,192,17086,1,0,0:0:0:100:clap.wav
64,192,17174,1,0,0:0:0:0:
448,192,17262,128,0,17439:0:0:0:0:
320,192,17350,128,0,17527:0:0:0:0:
64,192,17439,1,2,0:0:0:0:
192,192,17439,1,0,0:0:0:100:clap.wav
448,192,17527,128,0,17659:0:0:0:0:
192,192,17615,1,0,0:0:0:0:
64,192,17703,128,0,17836:0:0:0:0:
448,192,17792,1,0,0:0:0:100:clap.wav
320,192,17792,128,2,17924:0:0:0:0:
192,192,17880,128,0,17968:0:0:0:0:
448,192,17968,128,0,18056:0:0:0:0:
64,192,18056,1,2,0:0:0:0:
192,192,18056,1,0,0:0:0:0:
320,192,18144,128,0,18189:0:0:0:100:clap.wav
448,192,18144,1,0,0:0:0:0:
64,192,18233,128,0,18277:0:0:0:0:
320,192,18321,1,0,0:0:0:0:
192,192,18321,128,2,18365:0:0:0:0:
448,192,18409,1,0,0:0:0:0:
64,192,18497,1,2,0:0:0:0:
192,192,18497,1,0,0:0:0:100:clap.wav
448,192,18674,1,0,0:0:0:0:
192,192,18762,1,0,0:0:0:0:
320,192,18850,1,2,0:0:0:0:
448,192,18850,1,0,0:0:0:100:clap.wav
64,192,19027,1,0,0:0:0:0:
320,192,19115,1,0,0:0:0:0:
64,192,19203,1,2,0:0:0:0:
192,192,19203,1,0,0:0:0:100:clap.wav
192,192,19380,1,0,0:0:0:0:
448,192,19380,1,0,0:0:0:0:
320,192,19556,1,2,0:0:0:0:
448,192,19556,1,0,0:0:0:100:clap.wav
64,192,19733,1,0,0:0:0:0:
192,192,19821,1,0,0:0:0:0:
320,192,19909,1,2,0:0:0:0:
448,192,19909,1,0,0:0:0:100:clap.wav
192,192,20086,1,0,0:0:0:0:
320,192,20174,1,0,0:0:0:0:
64,192,20262,1,2,0:0:0:0:
192,192,20262,1,0,0:0:0:100:clap.wav
448,192,20439,1,0,0:0:0:0:
64,192,20527,1,0,0:0:0:0:
320,192,20615,1,2,0:0:0:0:
448,192,20615,1,0,0:0:0:100:clap.wav
64,192,20792,1,0,0:0:0:0:
320,192,20792,1,0,0:0:0:0:
64,192,20968,1,2,0:0:0:0:
192,192,20968,1,0,0:0:0:100:clap.wav
320,192,21144,1,0,0:0:0:0:
192,192,21233,1,0,0:0:0:0:
320,192,21321,1,2,0:0:0:0:
448,192,21321,1,0,0:0:0:100:clap.wav
64,192,21409,1,0,0:0:0:0:
192,192,21497,1,2,0:0:0:0:
320,192,21586,1,2,0:0:0:0:
192,192,21674,1,2,0:0:0:0:
448,192,21674,1,0,0:0:0:100:clap.wav
64,192,21762,1,0,0:0:0:0:
320,192,21850,1,2,0:0:0:0:
192,192,21939,1,2,0:0:0:0:
64,192,22027,1,2,0:0:0:0:
320,192,22027,1,0,0:0:0:100:clap.wav
448,192,22115,1,0,0:0:0:0:
64,192,22203,1,2,0:0:0:0:
192,192,22203,1,0,0:0:0:0:
320,192,22292,1,2,0:0:0:0:
192,192,22380,1,2,0:0:0:0:
448,192,22380,1,0,0:0:0:100:clap.wav
64,192,22468,1,2,0:0:0:0:
320,192,22556,1,2,0:0:0:0:
192,192,22644,1,2,0:0:0:0:
64,192,22733,1,2,0:0:0:0:
448,192,22733,1,0,0:0:0:0:
192,192,22909,1,2,0:0:0:0:
320,192,22909,1,0,0:0:0:0:
320,192,23086,1,8,0:0:0:0:
448,192,23086,1,0,0:0:0:0:
64,192,23262,1,2,0:0:0:0:
192,192,23262,1,0,0:0:0:0:
64,192,23439,1,2,0:0:0:0:
448,192,23439,1,0,0:0:0:0:
192,192,23615,1,2,0:0:0:0:
320,192,23615,1,0,0:0:0:0:
320,192,23792,1,8,0:0:0:0:
448,192,23792,128,0,24144:0:0:0:0:
64,192,24144,128,2,25556:0:0:0:0:
192,192,24144,1,4,0:0:0:0:
320,192,24144,1,0,0:0:0:0:
320,192,25556,128,0,26968:0:0:0:0:
448,192,26262,1,0,0:0:0:0:
192,192,26439,1,0,0:0:0:0:
64,192,26527,1,0,0:0:0:0:
192,192,26703,1,0,0:0:0:0:
64,192,26880,1,0,0:0:0:0:
448,192,26968,128,0,28380:0:0:0:0:
192,192,27056,1,0,0:0:0:0:
64,192,27144,1,0,0:0:0:0:
320,192,27233,1,0,0:0:0:0:
192,192,27321,1,0,0:0:0:0:
64,192,27409,1,0,0:0:0:0:
320,192,27497,1,0,0:0:0:0:
192,192,27586,1,0,0:0:0:0:
64,192,28380,128,0,29792:0:0:0:0:
192,192,28733,128,0,28821:0:0:0:0:
448,192,28821,128,0,28909:0:0:0:0:
320,192,28909,128,0,28997:0:0:0:0:
448,192,28997,128,0,29086:0:0:0:0:
192,192,29086,128,0,29174:0:0:0:0:
320,192,29174,128,0,29262:0:0:0:0:
448,192,29262,128,0,29350:0:0:0:0:
192,192,29350,128,0,29439:0:0:0:0:
320,192,29439,128,0,29527:0:0:0:0:
192,192,29527,128,0,29615:0:0:0:0:
448,192,29615,128,0,29703:0:0:0:0:
320,192,29703,128,0,29792:0:0:0:0:
192,192,29792,128,0,32615:0:0:0:0:
320,192,31821,1,0,0:0:0:0:
64,192,31909,1,0,0:0:0:0:
448,192,32086,1,0,0:0:0:0:
320,192,32174,1,0,0:0:0:0:
64,192,32350,1,0,0:0:0:0:
320,192,32527,1,0,0:0:0:0:
448,192,32615,128,0,34027:0:0:0:0:
64,192,32703,1,0,0:0:0:0:
320,192,32792,1,0,0:0:0:0:
64,192,32968,1,0,0:0:0:0:
320,192,33056,1,0,0:0:0:0:
64,192,34027,128,0,35439:0:0:0:0:
320,192,34115,1,0,0:0:0:0:
192,192,34292,1,0,0:0:0:0:
320,192,34380,1,0,0:0:0:0:
448,192,34556,1,0,0:0:0:0:
320,192,34733,1,0,0:0:0:0:
448,192,34909,1,0,0:0:0:0:
192,192,35086,128,0,35439:0:0:0:0:
320,192,35262,1,0,0:0:0:0:
320,192,35439,1,2,0:0:0:0:
448,192,35439,128,0,38262:0:0:0:0:
320,192,37556,1,0,0:0:0:0:
64,192,37733,1,0,0:0:0:0:
192,192,37821,1,0,0:0:0:0:
320,192,37997,1,0,0:0:0:0:
192,192,38174,1,0,0:0:0:0:
64,192,38262,128,0,39674:0:0:0:0:
320,192,38350,1,0,0:0:0:0:
448,192,38439,1,0,0:0:0:0:
192,192,38527,1,0,0:0:0:0:
320,192,38615,1,0,0:0:0:0:
448,192,38703,1,0,0:0:0:0:
192,192,38792,1,0,0:0:0:0:
448,192,38968,1,0,0:0:0:0:
320,192,39674,128,0,41086:0:0:0:0:
448,192,40027,128,0,40115:0:0:0:0:
64,192,40115,128,0,40203:0:0:0:0:
192,192,40203,128,0,40292:0:0:0:0:
448,192,40292,128,0,40380:0:0:0:0:
192,192,40380,128,0,40468:0:0:0:0:
64,192,40468,128,0,40556:0:0:0:0:
448,192,40556,128,0,40644:0:0:0:0:
192,192,40644,128,0,40733:0:0:0:0:
64,192,40733,128,0,40821:0:0:0:0:
192,192,40821,128,0,40909:0:0:0:0:
448,192,40909,128,0,40997:0:0:0:0:
64,192,40997,128,0,41086:0:0:0:0:
192,192,41086,128,0,42497:0:0:0:0:
320,192,42497,1,0,0:0:0:0:
448,192,42674,1,0,0:0:0:0:
64,192,42850,1,0,0:0:0:0:
192,192,43027,1,0,0:0:0:0:
320,192,43203,1,0,0:0:0:0:
448,192,43380,1,0,0:0:0:0:
64,192,43556,1,0,0:0:0:0:
192,192,43733,1,0,0:0:0:0:
320,192,43909,1,0,0:0:0:0:
64,192,43997,1,0,0:0:0:0:
448,192,44086,1,0,0:0:0:0:
192,192,44174,1,0,0:0:0:0:
320,192,44262,1,0,0:0:0:0:
64,192,44350,1,0,0:0:0:0:
448,192,44439,1,0,0:0:0:0:
192,192,44527,1,0,0:0:0:0:
320,192,44615,1,0,0:0:0:0:
64,192,44703,1,0,0:0:0:0:
448,192,44792,1,0,0:0:0:0:
192,192,44880,1,0,0:0:0:0:
320,192,44968,1,0,0:0:0:0:
64,192,45056,1,0,0:0:0:0:
448,192,45144,1,0,0:0:0:0:
192,192,45233,1,0,0:0:0:0:
320,192,45321,1,2,0:0:0:0:
448,192,45321,1,0,0:0:0:0:
64,192,45497,1,8,0:0:0:0:
192,192,45497,1,0,0:0:0:0:
64,192,45762,1,8,0:0:0:0:
192,192,45762,1,0,0:0:0:0:
320,192,45850,1,8,0:0:0:0:
448,192,45850,1,0,0:0:0:0:
192,192,45939,1,0,0:0:0:0:
64,192,46027,1,8,0:0:0:0:
320,192,46027,1,0,0:0:0:0:
448,192,46027,1,0,0:0:0:0:
192,192,46203,1,2,0:0:0:0:
448,192,46203,1,0,0:0:0:0:
192,192,46380,1,2,0:0:0:0:
320,192,46380,1,0,0:0:0:0:
64,192,46556,1,2,0:0:0:0:
320,192,46556,1,0,0:0:0:0:
64,192,46733,1,2,0:0:0:0:
192,192,46733,1,4,0:0:0:0:
448,192,46733,1,0,0:0:0:0:
448,192,47439,1,0,0:0:0:0:
192,192,48144,1,0,0:0:0:0:
64,192,49556,128,0,50968:0:0:0:0:
448,192,49556,1,0,0:0:0:0:
192,192,49733,1,0,0:0:0:0:
320,192,49909,1,0,0:0:0:0:
448,192,50086,1,0,0:0:0:0:
192,192,50262,1,0,0:0:0:0:
320,192,50439,1,0,0:0:0:0:
448,192,50615,1,0,0:0:0:0:
192,192,50792,1,0,0:0:0:0:
320,192,50968,1,0,0:0:0:0:
448,192,50968,128,0,52380:0:0:0:0:
192,192,51144,1,0,0:0:0:0:
64,192,51321,1,0,0:0:0:0:
320,192,51497,1,0,0:0:0:0:
192,192,51674,1,0,0:0:0:0:
64,192,51850,1,0,0:0:0:0:
320,192,52027,1,0,0:0:0:0:
192,192,52203,1,0,0:0:0:0:
64,192,52380,1,0,0:0:0:0:
320,192,52380,1,0,0:0:0:0:
192,192,52468,1,0,0:0:0:0:
448,192,52556,1,0,0:0:0:0:
64,192,52644,1,0,0:0:0:0:
320,192,52733,1,0,0:0:0:100:clap.wav
192,192,52821,1,0,0:0:0:0:
64,192,52909,1,0,0:0:0:0:
448,192,52997,1,0,0:0:0:0:
320,192,53086,1,0,0:0:0:0:
192,192,53174,1,0,0:0:0:0:
448,192,53262,1,0,0:0:0:0:
320,192,53350,1,0,0:0:0:0:
64,192,53439,1,0,0:0:0:100:clap.wav
192,192,53527,1,0,0:0:0:0:
320,192,53615,1,0,0:0:0:0:
64,192,53703,1,0,0:0:0:0:
192,192,53792,1,0,0:0:0:0:
320,192,53792,1,0,0:0:0:0:
448,192,53880,1,0,0:0:0:0:
64,192,53968,1,0,0:0:0:0:
192,192,54056,1,0,0:0:0:0:
448,192,54144,1,0,0:0:0:100:clap.wav
320,192,54233,1,0,0:0:0:0:
64,192,54321,1,0,0:0:0:0:
448,192,54409,1,0,0:0:0:0:
192,192,54497,1,0,0:0:0:0:
64,192,54586,1,0,0:0:0:0:
448,192,54674,1,0,0:0:0:0:
320,192,54762,1,0,0:0:0:0:
64,192,54850,1,0,0:0:0:100:clap.wav
192,192,54939,1,0,0:0:0:0:
448,192,55027,1,0,0:0:0:0:
320,192,55071,1,0,0:0:0:0:
192,192,55115,1,0,0:0:0:0:
64,192,55159,1,0,0:0:0:0:
320,192,55203,1,0,0:0:0:0:
448,192,55203,1,0,0:0:0:0:
192,192,55292,1,0,0:0:0:0:
64,192,55380,1,0,0:0:0:0:
320,192,55468,1,0,0:0:0:0:
192,192,55556,1,0,0:0:0:100:clap.wav
448,192,55644,1,0,0:0:0:0:
64,192,55733,1,0,0:0:0:0:
320,192,55821,1,0,0:0:0:0:
448,192,55909,1,0,0:0:0:0:
192,192,55997,1,0,0:0:0:0:
320,192,56086,1,0,0:0:0:0:
64,192,56174,1,0,0:0:0:0:
448,192,56262,1,0,0:0:0:100:clap.wav
192,192,56350,1,0,0:0:0:0:
64,192,56439,1,0,0:0:0:0:
448,192,56527,1,0,0:0:0:0:
192,192,56615,1,0,0:0:0:0:
320,192,56615,1,0,0:0:0:0:
64,192,56703,1,0,0:0:0:0:
448,192,56792,1,0,0:0:0:0:
320,192,56880,1,0,0:0:0:0:
64,192,56968,1,0,0:0:0:100:clap.wav
192,192,57056,1,0,0:0:0:0:
320,192,57144,1,0,0:0:0:0:
64,192,57233,1,0,0:0:0:0:
448,192,57321,128,0,57939:0:0:0:0:
192,192,57409,1,0,0:0:0:0:
320,192,57497,1,0,0:0:0:0:
64,192,57586,1,0,0:0:0:0:
192,192,57674,1,0,0:0:0:100:clap.wav
64,192,57762,1,0,0:0:0:0:
320,192,57850,1,0,0:0:0:0:
192,192,57939,1,0,0:0:0:0:
64,192,58027,1,2,0:0:0:0:
320,192,58027,1,4,0:0:0:0:
448,192,58027,1,0,0:0:0:0:
192,192,58203,1,0,0:0:0:0:
320,192,58292,1,0,0:0:0:0:
448,192,58380,1,0,0:0:0:100:clap.wav
192,192,58468,1,0,0:0:0:0:
64,192,58556,1,0,0:0:0:0:
320,192,58644,1,0,0:0:0:0:
192,192,58733,1,0,0:0:0:0:
64,192,58821,1,0,0:0:0:0:
448,192,58909,1,0,0:0:0:0:
320,192,58997,1,0,0:0:0:0:
64,192,59086,1,0,0:0:0:100:clap.wav
192,192,59174,1,0,0:0:0:0:
448,192,59262,1,0,0:0:0:0:
64,192,59350,1,0,0:0:0:0:
320,192,59439,1,0,0:0:0:0:
448,192,59527,1,0,0:0:0:0:
192,192,59615,1,0,0:0:0:0:
320,192,59703,1,0,0:0:0:0:
448,192,59792,1,0,0:0:0:100:clap.wav
192,192,59880,1,0,0:0:0:0:
64,192,59968,1,0,0:0:0:0:
448,192,60056,1,0,0:0:0:0:
320,192,60144,1,0,0:0:0:0:
192,192,60233,1,0,0:0:0:0:
64,192,60321,1,0,0:0:0:100:clap.wav
320,192,60409,1,0,0:0:0:0:
448,192,60497,1,0,0:0:0:0:
192,192,60586,1,0,0:0:0:0:
320,192,60674,1,0,0:0:0:0:
64,192,60762,1,0,0:0:0:0:
192,192,60850,128,0,60939:0:0:0:0:
448,192,60939,1,0,0:0:0:0:
64,192,61027,128,0,61115:0:0:0:0:
192,192,61115,128,0,61203:0:0:0:0:
448,192,61203,1,0,0:0:0:100:clap.wav
320,192,61292,128,0,61380:0:0:0:0:
64,192,61380,1,0,0:0:0:0:
448,192,61468,128,0,61556:0:0:0:0:
192,192,61556,128,0,61644:0:0:0:0:
64,192,61644,128,0,61733:0:0:0:0:
320,192,61733,128,0,61821:0:0:0:0:
192,192,61821,1,0,0:0:0:0:
64,192,61909,128,0,61997:0:0:0:100:clap.wav
320,192,61997,128,0,62086:0:0:0:0:
448,192,62086,128,0,62174:0:0:0:0:
192,192,62174,128,0,62262:0:0:0:0:
320,192,62262,128,0,62394:0:0:0:0:
64,192,62350,1,0,0:0:0:0:
192,192,62439,128,0,62571:0:0:0:0:
320,192,62527,128,0,62659:0:0:0:0:
448,192,62615,1,0,0:0:0:100:clap.wav
192,192,62703,128,0,62836:0:0:0:0:
64,192,62792,1,0,0:0:0:0:
448,192,62880,128,0,63012:0:0:0:0:
320,192,62968,128,0,63100:0:0:0:0:
192,192,63056,128,0,63189:0:0:0:0:
64,192,63144,128,0,63277:0:0:0:100:clap.wav
320,192,63233,1,0,0:0:0:0:
448,192,63321,128,0,63453:0:0:0:0:
192,192,63409,128,0,63542:0:0:0:0:
320,192,63497,128,0,63630:0:0:0:0:
448,192,63586,1,0,0:0:0:0:
64,192,63674,128,2,63850:0:0:0:0:
192,192,63674,1,0,0:0:0:0:
320,192,63762,1,0,0:0:0:0:
448,192,63850,128,0,64027:0:0:0:100:clap.wav
192,192,63939,128,0,64115:0:0:0:0:
320,192,64027,1,0,0:0:0:100:clap.wav
448,192,64115,128,0,64292:0:0:0:0:
64,192,64203,1,0,0:0:0:100:clap.wav
192,192,64292,128,0,64468:0:0:0:0:
320,192,64380,128,0,64556:0:0:0:100:clap.wav
64,192,64468,128,0,64644:0:0:0:0:
448,192,64556,1,0,0:0:0:100:clap.wav
192,192,64644,1,0,0:0:0:0:
448,192,64733,128,0,64909:0:0:0:100:clap.wav
320,192,64821,128,0,64997:0:0:0:0:
192,192,64909,128,0,65086:0:0:0:100:clap.wav
64,192,64997,128,0,65086:0:0:0:0:
320,192,65086,1,0,0:0:0:100:clap.wav
448,192,65086,1,0,0:0:0:0:
192,192,65174,1,0,0:0:0:0:
64,192,65262,1,0,0:0:0:100:clap.wav
448,192,65262,1,0,0:0:0:0:
320,192,65350,1,0,0:0:0:0:
64,192,65439,1,0,0:0:0:100:clap.wav
192,192,65439,1,0,0:0:0:0:
320,192,65527,1,0,0:0:0:0:
64,192,65615,1,0,0:0:0:100:clap.wav
448,192,65615,1,0,0:0:0:0:
192,192,65703,1,0,0:0:0:0:
320,192,65792,1,0,0:0:0:100:clap.wav
448,192,65792,1,0,0:0:0:0:
64,192,65880,1,0,0:0:0:0:
192,192,65968,1,0,0:0:0:100:clap.wav
320,192,65968,1,0,0:0:0:0:
448,192,66056,1,0,0:0:0:0:
64,192,66144,1,0,0:0:0:100:clap.wav
192,192,66144,1,0,0:0:0:0:
320,192,66233,1,0,0:0:0:0:
192,192,66321,1,0,0:0:0:100:clap.wav
448,192,66321,1,0,0:0:0:0:
64,192,66409,1,0,0:0:0:0:
320,192,66497,1,2,0:0:0:0:
448,192,66497,1,0,0:0:0:100:clap.wav
192,192,66586,1,2,0:0:0:0:
320,192,66674,1,2,0:0:0:0:
192,192,66762,1,2,0:0:0:0:
320,192,66850,1,2,0:0:0:0:
64,192,66939,1,2,0:0:0:0:
320,192,67027,1,2,0:0:0:0:
64,192,67115,1,2,0:0:0:0:
448,192,67203,1,2,0:0:0:0:
192,192,67292,1,2,0:0:0:0:
448,192,67380,1,2,0:0:0:0:
192,192,67468,1,2,0:0:0:0:
448,192,67556,1,2,0:0:0:0:
64,192,67644,1,2,0:0:0:0:
448,192,67733,1,2,0:0:0:0:
64,192,67821,1,0,0:0:0:0:
320,192,67909,1,2,0:0:0:0:
448,192,67909,1,0,0:0:0:0:
448,192,68262,1,0,0:0:0:0:
320,192,68439,1,0,0:0:0:0:
64,192,68615,1,0,0:0:0:0:
192,192,68615,1,0,0:0:0:0:
320,192,68792,1,0,0:0:0:0:
448,192,68792,1,0,0:0:0:0:
64,192,68968,128,8,69321:0:0:0:0:
192,192,68968,128,0,69233:0:0:0:0:
320,192,68968,128,0,69144:0:0:0:0:
320,192,69321,1,2,0:0:0:0:
448,192,69321,1,0,0:0:0:0:
192,192,69497,128,0,69586:0:0:0:0:
320,192,69586,1,0,0:0:0:0:
192,192,69674,128,0,69762:0:0:0:0:
320,192,69762,1,0,0:0:0:0:
64,192,69850,1,2,0:0:0:0:
448,192,69850,1,0,0:0:0:0:
192,192,69939,1,0,0:0:0:0:
64,192,70027,1,4,0:0:0:0:
320,192,70027,128,8,70203:0:0:0:0:
448,192,70027,128,0,70115:0:0:0:0:
192,192,70115,128,0,70292:0:0:0:0:
64,192,70203,128,0,70380:0:0:0:0:
448,192,70292,128,0,70380:0:0:0:0:
192,192,70380,1,2,0:0:0:0:
320,192,70380,1,0,0:0:0:0:
448,192,70468,128,0,70556:0:0:0:0:
192,192,70556,128,0,70644:0:0:0:0:
64,192,70644,128,0,70733:0:0:0:0:
320,192,70733,128,0,70909:0:0:0:0:
192,192,70821,128,0,70909:0:0:0:0:
64,192,70909,1,2,0:0:0:0:
448,192,70909,1,0,0:0:0:0:
192,192,70997,128,0,71086:0:0:0:0:
320,192,71086,128,0,71262:0:0:0:0:
192,192,71174,128,0,71350:0:0:0:0:
64,192,71262,128,0,71439:0:0:0:0:
448,192,71350,128,0,71439:0:0:0:0:
192,192,71439,128,8,71527:0:0:0:0:
320,192,71439,128,0,71615:0:0:0:0:
448,192,71527,128,0,71703:0:0:0:0:
192,192,71615,128,0,71792:0:0:0:0:
64,192,71703,128,0,71792:0:0:0:0:
448,192,71792,128,0,72056:0:0:0:0:
320,192,71880,128,0,72056:0:0:0:0:
192,192,71968,128,0,72144:0:0:0:0:
64,192,72056,128,0,72144:0:0:0:0:
320,192,72144,1,2,0:0:0:0:
448,192,72144,1,0,0:0:0:0:
192,192,72233,128,0,72409:0:0:0:0:
448,192,72321,128,0,72497:0:0:0:0:
320,192,72409,128,0,72586:0:0:0:0:
64,192,72497,128,0,72674:0:0:0:0:
192,192,72586,128,0,72674:0:0:0:0:
320,192,72674,1,2,0:0:0:0:
448,192,72674,1,0,0:0:0:0:
192,192,72762,128,0,72939:0:0:0:0:
64,192,72850,128,8,72939:0:0:0:0:
448,192,72850,128,0,73027:0:0:0:0:
320,192,72939,128,0,73115:0:0:0:0:
64,192,73027,128,0,73203:0:0:0:0:
192,192,73115,128,0,73203:0:0:0:0:
320,192,73203,1,2,0:0:0:0:
448,192,73203,1,0,0:0:0:0:
192,192,73292,128,0,73468:0:0:0:0:
448,192,73380,128,0,73556:0:0:0:0:
320,192,73468,128,0,73644:0:0:0:0:
64,192,73556,128,0,73733:0:0:0:0:
448,192,73644,128,0,73733:0:0:0:0:
192,192,73733,1,2,0:0:0:0:
320,192,73733,1,0,0:0:0:0:
448,192,73821,128,0,73997:0:0:0:0:
64,192,73909,128,2,74086:0:0:0:0:
320,192,73909,128,0,73997:0:0:0:0:
192,192,73997,128,0,74174:0:0:0:0:
320,192,74086,128,0,74262:0:0:0:0:
448,192,74174,128,0,74262:0:0:0:0:
64,192,74262,128,8,74439:0:0:0:0:
192,192,74262,128,0,74350:0:0:0:0:
448,192,74350,128,0,74527:0:0:0:0:
192,192,74439,128,0,74615:0:0:0:0:
64,192,74527,128,0,74615:0:0:0:0:
448,192,74615,1,0,0:0:0:0:
320,192,74659,1,0,0:0:0:0:
192,192,74703,1,0,0:0:0:0:
192,192,74880,1,0,0:0:0:0:
320,192,74924,1,0,0:0:0:0:
64,192,74968,1,2,0:0:0:0:
448,192,74968,1,4,0:0:0:0:
320,192,75056,128,0,75233:0:0:0:0:
192,192,75144,128,0,75321:0:0:0:0:
64,192,75233,128,0,75321:0:0:0:0:
448,192,75321,128,0,75497:0:0:0:0:
320,192,75409,128,0,75497:0:0:0:0:
64,192,75497,1,2,0:0:0:0:
192,192,75497,1,0,0:0:0:0:
320,192,75586,128,0,75762:0:0:0:0:
192,192,75674,128,8,75762:0:0:0:0:
448,192,75674,128,0,75850:0:0:0:0:
64,192,75762,128,0,75939:0:0:0:0:
320,192,75850,128,0,76027:0:0:0:0:
192,192,75939,128,0,76027:0:0:0:0:
64,192,76027,1,2,0:0:0:0:
448,192,76027,1,0,0:0:0:0:
320,192,76115,128,0,76292:0:0:0:0:
192,192,76203,128,0,76380:0:0:0:0:
448,192,76292,128,0,76468:0:0:0:0:
64,192,76380,128,0,76556:0:0:0:0:
192,192,76468,128,0,76556:0:0:0:0:
320,192,76556,1,2,0:0:0:0:
448,192,76556,1,0,0:0:0:0:
64,192,76644,128,0,76733:0:0:0:0:
448,192,76733,128,0,76909:0:0:0:0:
320,192,76821,128,0,76997:0:0:0:0:
64,192,76909,128,0,77086:0:0:0:0:
192,192,76997,128,0,77086:0:0:0:0:
320,192,77086,128,8,77262:0:0:0:0:
448,192,77086,128,0,77174:0:0:0:0:
192,192,77174,128,0,77350:0:0:0:0:
64,192,77262,128,0,77439:0:0:0:0:
448,192,77350,128,0,77439:0:0:0:0:
320,192,77439,128,0,77615:0:0:0:0:
64,192,77527,128,0,77703:0:0:0:0:
448,192,77615,128,0,77792:0:0:0:0:
320,192,77703,128,0,77792:0:0:0:0:
64,192,77792,1,2,0:0:0:0:
192,192,77792,1,0,0:0:0:0:
448,192,77880,128,0,78056:0:0:0:0:
192,192,77968,128,0,78144:0:0:0:0:
64,192,78056,128,0,78233:0:0:0:0:
320,192,78144,128,0,78321:0:0:0:0:
448,192,78233,128,0,78321:0:0:0:0:
64,192,78321,1,2,0:0:0:0:
192,192,78321,1,0,0:0:0:0:
448,192,78409,128,0,78586:0:0:0:0:
192,192,78497,128,8,78674:0:0:0:0:
320,192,78497,128,0,78586:0:0:0:0:
64,192,78586,128,0,78762:0:0:0:0:
320,192,78674,128,0,78850:0:0:0:0:
448,192,78762,128,0,78850:0:0:0:0:
64,192,78850,1,2,0:0:0:0:
192,192,78850,1,0,0:0:0:0:
448,192,78939,128,0,79115:0:0:0:0:
192,192,79027,128,0,79203:0:0:0:0:
64,192,79115,128,0,79292:0:0:0:0:
320,192,79203,128,0,79380:0:0:0:0:
192,192,79292,128,0,79468:0:0:0:0:
448,192,79380,128,0,79556:0:0:0:0:
320,192,79468,128,0,79556:0:0:0:0:
64,192,79556,1,2,0:0:0:0:
192,192,79556,1,0,0:0:0:0:
448,192,79644,1,0,0:0:0:0:
64,192,79733,1,0,0:0:0:0:
192,192,79821,1,0,0:0:0:0:
320,192,79909,1,8,0:0:0:0:
448,192,79909,1,0,0:0:0:0:
64,192,79997,1,0,0:0:0:0:
320,192,80086,1,0,0:0:0:0:
192,192,80174,1,0,0:0:0:0:
448,192,80262,1,0,0:0:0:0:
320,192,80350,1,0,0:0:0:0:
64,192,80439,1,0,0:0:0:0:
448,192,80527,1,0,0:0:0:0:
192,192,80615,1,2,0:0:0:0:
320,192,80615,1,4,0:0:0:0:
64,192,80703,128,0,80880:0:0:0:0:
448,192,80792,128,0,80880:0:0:0:0:
320,192,80880,128,0,80968:0:0:0:0:
448,192,80968,128,0,81144:0:0:0:0:
64,192,81056,128,0,81144:0:0:0:0:
192,192,81144,1,2,0:0:0:0:
320,192,81144,1,0,0:0:0:0:
64,192,81233,128,0,81321:0:0:0:0:
320,192,81321,128,8,81497:0:0:0:0:
448,192,81321,128,0,81409:0:0:0:0:
192,192,81409,128,0,81586:0:0:0:0:
64,192,81497,128,0,81674:0:0:0:0:
448,192,81586,128,0,81674:0:0:0:0:
192,192,81674,1,2,0:0:0:0:
320,192,81674,1,0,0:0:0:0:
64,192,81762,128,0,81939:0:0:0:0:
448,192,81850,128,0,81939:0:0:0:0:
320,192,81939,128,0,82027:0:0:0:0:
448,192,82027,128,0,82203:0:0:0:0:
64,192,82115,128,0,82203:0:0:0:0:
192,192,82203,1,2,0:0:0:0:
320,192,82203,1,0,0:0:0:0:
64,192,82292,128,0,82380:0:0:0:0:
320,192,82380,128,0,82556:0:0:0:0:
448,192,82380,128,0,82468:0:0:0:0:
192,192,82468,128,0,82644:0:0:0:0:
64,192,82556,128,0,82733:0:0:0:0:
448,192,82644,128,0,82733:0:0:0:0:
192,192,82733,128,8,82821:0:0:0:0:
320,192,82733,128,0,82821:0:0:0:0:
64,192,82821,128,0,82909:0:0:0:0:
448,192,82821,128,0,82909:0:0:0:0:
192,192,82909,128,0,82997:0:0:0:0:
320,192,82909,128,0,82997:0:0:0:0:
64,192,82997,128,0,83086:0:0:0:0:
448,192,82997,128,0,83086:0:0:0:0:
320,192,83086,128,0,83174:0:0:0:0:
192,192,83174,128,0,83262:0:0:0:0:
448,192,83262,128,0,83350:0:0:0:0:
64,192,83350,128,0,83439:0:0:0:0:
320,192,83439,1,2,0:0:0:0:
448,192,83439,1,0,0:0:0:0:
192,192,83527,128,0,83703:0:0:0:0:
320,192,83615,128,0,83703:0:0:0:0:
64,192,83703,1,0,0:0:0:0:
192,192,83792,1,0,0:0:0:0:
320,192,83880,128,0,83968:0:0:0:0:
64,192,83968,1,2,0:0:0:0:
448,192,83968,1,0,0:0:0:0:
192,192,84056,1,0,0:0:0:0:
64,192,84144,1,8,0:0:0:0:
320,192,84144,128,0,84233:0:0:0:0:
448,192,84233,1,0,0:0:0:0:
192,192,84321,1,0,0:0:0:0:
320,192,84409,128,0,84497:0:0:0:0:
64,192,84497,1,2,0:0:0:0:
448,192,84497,1,0,0:0:0:0:
192,192,84586,1,0,0:0:0:0:
448,192,84674,128,0,84762:0:0:0:0:
320,192,84762,1,0,0:0:0:0:
192,192,84850,1,0,0:0:0:0:
64,192,84939,128,0,85027:0:0:0:0:
320,192,85027,1,2,0:0:0:0:
448,192,85027,1,0,0:0:0:0:
192,192,85115,1,0,0:0:0:0:
64,192,85203,1,2,0:0:0:0:
448,192,85203,1,0,0:0:0:0:
192,192,85292,128,0,85380:0:0:0:0:
320,192,85380,1,0,0:0:0:0:
448,192,85468,1,0,0:0:0:0:
64,192,85556,128,8,85644:0:0:0:0:
192,192,85556,128,0,85644:0:0:0:0:
320,192,85644,128,0,85733:0:0:0:0:
448,192,85644,128,0,85733:0:0:0:0:
64,192,85733,128,0,85821:0:0:0:0:
192,192,85733,128,0,85821:0:0:0:0:
320,192,85821,128,0,85909:0:0:0:0:
448,192,85821,128,0,85909:0:0:0:0:
192,192,85909,128,0,85997:0:0:0:0:
64,192,85997,128,0,86086:0:0:0:0:
320,192,86086,128,0,86174:0:0:0:0:
448,192,86086,128,0,86174:0:0:0:0:
192,192,86174,128,0,86262:0:0:0:0:
320,192,86262,1,2,0:0:0:0:
448,192,86262,1,4,0:0:0:0:
64,192,86350,128,0,86527:0:0:0:0:
448,192,86439,128,0,86615:0:0:0:0:
320,192,86527,128,0,86703:0:0:0:0:
64,192,86615,128,0,86792:0:0:0:0:
192,192,86703,128,0,86792:0:0:0:0:
320,192,86792,1,2,0:0:0:0:
448,192,86792,1,0,0:0:0:0:
192,192,86880,128,0,87056:0:0:0:0:
64,192,86968,128,8,87056:0:0:0:0:
448,192,86968,128,0,87144:0:0:0:0:
320,192,87056,128,0,87233:0:0:0:0:
192,192,87144,128,0,87321:0:0:0:0:
64,192,87233,128,0,87321:0:0:0:0:
320,192,87321,1,2,0:0:0:0:
448,192,87321,1,0,0:0:0:0:
64,192,87409,128,0,87586:0:0:0:0:
448,192,87497,128,0,87586:0:0:0:0:
192,192,87586,128,0,87674:0:0:0:0:
448,192,87674,128,0,87850:0:0:0:0:
192,192,87762,128,0,87850:0:0:0:0:
64,192,87850,1,2,0:0:0:0:
320,192,87850,1,0,0:0:0:0:
192,192,87939,128,0,88115:0:0:0:0:
448,192,88027,128,0,88203:0:0:0:0:
64,192,88115,128,0,88292:0:0:0:0:
320,192,88203,128,0,88380:0:0:0:0:
192,192,88292,128,0,88380:0:0:0:0:
64,192,88380,128,8,88468:0:0:0:0:
448,192,88380,128,0,88468:0:0:0:0:
192,192,88468,128,0,88556:0:0:0:0:
320,192,88468,128,0,88556:0:0:0:0:
64,192,88556,128,0,88644:0:0:0:0:
448,192,88556,128,0,88644:0:0:0:0:
192,192,88644,128,0,88733:0:0:0:0:
320,192,88644,128,0,88733:0:0:0:0:
64,192,88733,128,0,88821:0:0:0:0:
448,192,88821,128,0,88909:0:0:0:0:
320,192,88909,128,0,88997:0:0:0:0:
192,192,88997,128,0,89086:0:0:0:0:
320,192,89086,1,2,0:0:0:0:
448,192,89086,1,0,0:0:0:0:
64,192,89174,128,0,89350:0:0:0:0:
192,192,89262,128,0,89350:0:0:0:0:
448,192,89350,1,0,0:0:0:0:
320,192,89439,1,0,0:0:0:0:
192,192,89527,128,0,89615:0:0:0:0:
448,192,89615,1,0,0:0:0:0:
64,192,89703,1,0,0:0:0:0:
192,192,89792,128,8,89880:0:0:0:0:
448,192,89792,1,0,0:0:0:0:
320,192,89880,1,0,0:0:0:0:
64,192,89968,1,2,0:0:0:0:
448,192,89968,1,0,0:0:0:0:
192,192,90056,128,0,90144:0:0:0:0:
320,192,90144,1,0,0:0:0:0:
64,192,90233,1,0,0:0:0:0:
320,192,90321,128,0,90409:0:0:0:0:
192,192,90409,1,0,0:0:0:0:
64,192,90497,1,2,0:0:0:0:
448,192,90497,1,0,0:0:0:0:
320,192,90586,1,0,0:0:0:0:
448,192,90674,128,0,90762:0:0:0:0:
192,192,90762,1,0,0:0:0:0:
64,192,90850,1,2,0:0:0:0:
320,192,90850,1,0,0:0:0:0:
192,192,90939,128,0,91027:0:0:0:0:
448,192,91027,1,0,0:0:0:0:
320,192,91115,1,0,0:0:0:0:
64,192,91203,128,8,91556:0:0:0:0:
192,192,91203,1,0,0:0:0:0:
320,192,91380,1,0,0:0:0:0:
448,192,91468,1,0,0:0:0:0:
192,192,91556,128,0,91909:0:0:0:0:
320,192,91644,1,0,0:0:0:0:
64,192,91733,1,0,0:0:0:0:
448,192,91821,1,0,0:0:0:0:
64,192,91909,1,2,0:0:0:0:
320,192,91909,1,0,0:0:0:0:
192,192,92086,1,0,0:0:0:0:
448,192,92174,1,0,0:0:0:0:
320,192,92262,1,0,0:0:0:0:
192,192,92350,1,0,0:0:0:0:
64,192,92439,1,2,0:0:0:0:
320,192,92439,1,0,0:0:0:0:
64,192,92615,1,8,0:0:0:0:
192,192,92615,1,4,0:0:0:0:
448,192,92615,128,0,94027:0:0:0:0:
320,192,92703,1,0,0:0:0:0:
192,192,92792,1,0,0:0:0:0:
64,192,92968,1,2,0:0:0:0:
320,192,92968,1,0,0:0:0:0:
192,192,93056,1,0,0:0:0:0:
320,192,93144,1,0,0:0:0:0:
64,192,93233,1,0,0:0:0:0:
192,192,93321,1,0,0:0:0:0:
64,192,93497,1,2,0:0:0:0:
320,192,93497,1,0,0:0:0:0:
192,192,93586,1,0,0:0:0:0:
320,192,93674,1,0,0:0:0:0:
64,192,93762,1,0,0:0:0:0:
192,192,93850,1,0,0:0:0:0:
320,192,93939,1,0,0:0:0:0:
64,192,94027,1,8,0:0:0:0:
192,192,94027,1,0,0:0:0:0:
320,192,94203,1,0,0:0:0:0:
448,192,94203,1,0,0:0:0:0:
192,192,94380,1,0,0:0:0:0:
320,192,94380,1,0,0:0:0:0:
64,192,94556,1,0,0:0:0:0:
192,192,94556,1,0,0:0:0:0:
64,192,94733,128,2,95439:0:0:0:0:
320,192,94733,1,0,0:0:0:0:
192,192,94821,1,0,0:0:0:0:
448,192,94909,1,0,0:0:0:0:
320,192,94997,1,0,0:0:0:0:
192,192,95086,1,0,0:0:0:0:
320,192,95262,1,2,0:0:0:0:
448,192,95262,1,0,0:0:0:0:
192,192,95350,1,0,0:0:0:0:
320,192,95439,1,8,0:0:0:0:
448,192,95439,128,0,96144:0:0:0:0:
64,192,95527,1,0,0:0:0:0:
192,192,95615,1,0,0:0:0:0:
64,192,95792,1,2,0:0:0:0:
320,192,95792,1,0,0:0:0:0:
192,192,95880,1,0,0:0:0:0:
320,192,95968,1,0,0:0:0:0:
64,192,96056,1,0,0:0:0:0:
192,192,96144,1,0,0:0:0:0:
64,192,96321,1,2,0:0:0:0:
320,192,96321,1,0,0:0:0:0:
192,192,96409,1,0,0:0:0:0:
320,192,96497,1,2,0:0:0:0:
448,192,96497,1,0,0:0:0:0:
64,192,96586,1,0,0:0:0:0:
448,192,96674,1,0,0:0:0:0:
320,192,96718,1,0,0:0:0:0:
192,192,96762,1,0,0:0:0:0:
64,192,96806,1,0,0:0:0:0:
320,192,96850,128,8,97203:0:0:0:0:
448,192,96850,1,0,0:0:0:0:
448,192,97115,1,0,0:0:0:0:
64,192,97203,1,0,0:0:0:0:
192,192,97203,1,0,0:0:0:0:
192,192,97380,1,0,0:0:0:0:
320,192,97380,1,0,0:0:0:0:
64,192,97556,1,2,0:0:0:0:
320,192,97556,1,4,0:0:0:0:
448,192,97556,128,0,98262:0:0:0:0:
192,192,97644,1,0,0:0:0:0:
64,192,97733,1,0,0:0:0:0:
320,192,97821,1,0,0:0:0:0:
192,192,97909,1,0,0:0:0:0:
64,192,98086,1,2,0:0:0:0:
320,192,98086,1,0,0:0:0:0:
192,192,98174,1,0,0:0:0:0:
64,192,98262,128,8,99674:0:0:0:0:
320,192,98262,1,0,0:0:0:0:
448,192,98350,1,0,0:0:0:0:
192,192,98439,1,0,0:0:0:0:
320,192,98615,1,2,0:0:0:0:
448,192,98615,1,0,0:0:0:0:
192,192,98703,1,0,0:0:0:0:
448,192,98792,1,0,0:0:0:0:
320,192,98880,1,0,0:0:0:0:
192,192,98968,1,0,0:0:0:0:
320,192,99144,1,2,0:0:0:0:
448,192,99144,1,0,0:0:0:0:
192,192,99233,1,0,0:0:0:0:
320,192,99321,1,0,0:0:0:0:
448,192,99409,1,0,0:0:0:0:
192,192,99497,1,0,0:0:0:0:
448,192,99586,1,0,0:0:0:0:
192,192,99674,1,8,0:0:0:0:
320,192,99674,128,0,100380:0:0:0:0:
64,192,99850,1,0,0:0:0:0:
448,192,99850,1,0,0:0:0:0:
192,192,100027,1,0,0:0:0:0:
448,192,100027,1,0,0:0:0:0:
64,192,100203,1,0,0:0:0:0:
192,192,100203,1,0,0:0:0:0:
64,192,100380,1,2,0:0:0:0:
448,192,100380,128,0,102144:0:0:0:0:
192,192,100468,1,0,0:0:0:0:
320,192,100556,1,0,0:0:0:0:
64,192,100644,1,0,0:0:0:0:
192,192,100733,1,0,0:0:0:0:
64,192,100909,1,2,0:0:0:0:
320,192,100909,1,0,0:0:0:0:
192,192,100997,1,0,0:0:0:0:
64,192,101086,1,8,0:0:0:0:
320,192,101086,1,0,0:0:0:0:
192,192,101174,1,0,0:0:0:0:
320,192,101262,1,0,0:0:0:0:
64,192,101439,1,2,0:0:0:0:
192,192,101439,1,0,0:0:0:0:
320,192,101527,1,0,0:0:0:0:
64,192,101615,1,0,0:0:0:0:
192,192,101703,1,0,0:0:0:0:
320,192,101792,1,0,0:0:0:0:
192,192,101880,1,0,0:0:0:0:
64,192,101968,1,0,0:0:0:0:
320,192,102056,1,0,0:0:0:0:
64,192,102144,1,2,0:0:0:0:
192,192,102144,1,0,0:0:0:0:
320,192,102233,1,0,0:0:0:0:
64,192,102321,1,0,0:0:0:0:
192,192,102365,1,0,0:0:0:0:
320,192,102409,1,0,0:0:0:0:
448,192,102453,1,0,0:0:0:0:
64,192,102497,1,8,0:0:0:0:
192,192,102497,1,0,0:0:0:0:
320,192,102850,1,0,0:0:0:0:
448,192,102939,1,0,0:0:0:0:
192,192,103027,1,0,0:0:0:0:
64,192,103115,1,0,0:0:0:0:
320,192,103203,1,2,0:0:0:0:
448,192,103203,1,0,0:0:0:0:
192,192,103292,1,0,0:0:0:0:
320,192,103380,1,0,0:0:0:0:
192,192,103468,1,0,0:0:0:0:
448,192,103556,1,0,0:0:0:0:
320,192,103644,1,0,0:0:0:0:
64,192,103733,1,2,0:0:0:0:
192,192,103733,1,0,0:0:0:0:
320,192,103821,1,0,0:0:0:0:
64,192,103909,128,8,105321:0:0:0:0:
192,192,103909,1,4,0:0:0:0:
448,192,103909,1,0,0:0:0:0:
320,192,103997,1,0,0:0:0:0:
448,192,104086,1,0,0:0:0:0:
192,192,104262,1,2,0:0:0:0:
320,192,104262,1,0,0:0:0:0:
448,192,104350,1,0,0:0:0:0:
320,192,104439,1,0,0:0:0:0:
192,192,104527,1,0,0:0:0:0:
448,192,104615,1,0,0:0:0:0:
192,192,104792,1,2,0:0:0:0:
320,192,104792,1,0,0:0:0:0:
448,192,104880,1,0,0:0:0:0:
320,192,104968,1,0,0:0:0:0:
192,192,105056,1,0,0:0:0:0:
448,192,105144,1,0,0:0:0:0:
320,192,105233,1,0,0:0:0:0:
192,192,105321,1,8,0:0:0:0:
448,192,105321,128,0,106027:0:0:0:0:
192,192,105497,1,0,0:0:0:0:
320,192,105497,1,0,0:0:0:0:
64,192,105674,1,0,0:0:0:0:
320,192,105674,1,0,0:0:0:0:
64,192,105850,1,0,0:0:0:0:
192,192,105850,1,0,0:0:0:0:
192,192,106027,128,2,106733:0:0:0:0:
320,192,106027,1,0,0:0:0:0:
64,192,106115,1,0,0:0:0:0:
448,192,106203,1,0,0:0:0:0:
320,192,106292,1,0,0:0:0:0:
64,192,106380,1,0,0:0:0:0:
320,192,106556,1,2,0:0:0:0:
448,192,106556,1,0,0:0:0:0:
64,192,106644,1,0,0:0:0:0:
320,192,106733,128,8,107439:0:0:0:0:
448,192,106733,1,0,0:0:0:0:
64,192,106821,1,0,0:0:0:0:
192,192,106909,1,0,0:0:0:0:
64,192,107086,1,2,0:0:0:0:
448,192,107086,1,0,0:0:0:0:
192,192,107174,1,0,0:0:0:0:
448,192,107262,1,0,0:0:0:0:
64,192,107350,1,0,0:0:0:0:
192,192,107439,1,0,0:0:0:0:
448,192,107527,1,0,0:0:0:0:
64,192,107615,1,2,0:0:0:0:
192,192,107615,1,0,0:0:0:0:
320,192,107703,1,0,0:0:0:0:
64,192,107792,1,2,0:0:0:0:
448,192,107792,1,0,0:0:0:0:
320,192,107880,1,0,0:0:0:0:
64,192,107968,1,0,0:0:0:0:
192,192,108012,1,0,0:0:0:0:
320,192,108056,1,0,0:0:0:0:
448,192,108100,1,0,0:0:0:0:
64,192,108144,1,8,0:0:0:0:
192,192,108144,128,0,108850:0:0:0:0:
448,192,108409,1,0,0:0:0:0:
320,192,108497,1,0,0:0:0:0:
64,192,108674,1,0,0:0:0:0:
64,192,108850,1,2,0:0:0:0:
320,192,108850,128,4,109556:0:0:0:0:
448,192,108850,1,0,0:0:0:0:
192,192,108939,1,0,0:0:0:0:
448,192,109027,1,0,0:0:0:0:
64,192,109115,1,0,0:0:0:0:
192,192,109203,1,0,0:0:0:0:
64,192,109380,1,2,0:0:0:0:
448,192,109380,1,0,0:0:0:0:
192,192,109468,1,0,0:0:0:0:
64,192,109556,128,8,110086:0:0:0:0:
448,192,109556,1,0,0:0:0:0:
320,192,109644,1,0,0:0:0:0:
192,192,109733,1,0,0:0:0:0:
320,192,109909,1,2,0:0:0:0:
448,192,109909,1,0,0:0:0:0:
192,192,109997,1,0,0:0:0:0:
320,192,110086,1,0,0:0:0:0:
448,192,110086,1,0,0:0:0:0:
64,192,110439,1,2,0:0:0:0:
320,192,110439,1,4,0:0:0:0:
448,192,110439,128,0,110968:0:0:0:0:
192,192,110527,1,0,0:0:0:0:
320,192,110615,1,0,0:0:0:0:
64,192,110703,1,0,0:0:0:0:
192,192,110792,1,0,0:0:0:0:
64,192,110968,128,8,111674:0:0:0:0:
320,192,110968,1,0,0:0:0:0:
320,192,111144,1,0,0:0:0:0:
448,192,111144,1,0,0:0:0:0:
192,192,111321,1,0,0:0:0:0:
448,192,111321,1,0,0:0:0:0:
192,192,111497,1,0,0:0:0:0:
320,192,111497,1,0,0:0:0:0:
320,192,111674,128,2,112380:0:0:0:0:
448,192,111674,1,0,0:0:0:0:
192,192,111762,1,0,0:0:0:0:
64,192,111850,1,0,0:0:0:0:
448,192,112027,1,0,0:0:0:0:
192,192,112115,1,0,0:0:0:0:
64,192,112203,1,0,0:0:0:0:
64,192,112380,1,8,0:0:0:0:
192,192,112380,1,0,0:0:0:0:
320,192,112468,1,0,0:0:0:0:
448,192,112556,128,0,113086:0:0:0:0:
320,192,112733,1,0,0:0:0:0:
192,192,112821,1,0,0:0:0:0:
64,192,112909,1,0,0:0:0:0:
320,192,113086,1,0,0:0:0:0:
192,192,113174,1,0,0:0:0:0:
64,192,113262,1,0,0:0:0:0:
448,192,113439,1,0,0:0:0:0:
320,192,113527,1,0,0:0:0:0:
64,192,113615,1,0,0:0:0:0:
192,192,113659,1,0,0:0:0:0:
320,192,113703,1,0,0:0:0:0:
448,192,113747,1,0,0:0:0:0:
64,192,113792,1,8,0:0:0:0:
192,192,113792,1,0,0:0:0:0:
320,192,113968,1,0,0:0:0:0:
448,192,113968,1,0,0:0:0:0:
64,192,114144,1,2,0:0:0:0:
448,192,114144,128,0,114497:0:0:0:0:
64,192,114497,1,2,0:0:0:0:
192,192,114497,1,4,0:0:0:0:
320,192,114497,1,0,0:0:0:0:
64,192,116439,128,0,116527:0:0:0:0:
192,192,116527,128,0,116615:0:0:0:0:
320,192,116615,128,0,116703:0:0:0:0:
448,192,116792,128,0,116924:0:0:0:0:
320,192,116880,128,0,117012:0:0:0:0:
64,192,117056,128,0,117233:0:0:0:0:
448,192,117233,128,0,117365:0:0:0:0:
320,192,117321,128,0,117453:0:0:0:0:
192,192,117409,128,0,117542:0:0:0:0:
64,192,117497,128,0,117630:0:0:0:0:
192,192,117674,128,0,117762:0:0:0:0:
320,192,117762,128,0,117850:0:0:0:0:
448,192,117850,128,0,117939:0:0:0:0:
64,192,118027,1,0,0:0:0:0:
320,192,118203,1,0,0:0:0:0:
192,192,119086,128,0,119174:0:0:0:0:
448,192,119174,128,0,119262:0:0:0:0:
64,192,119262,128,0,119350:0:0:0:0:
192,192,119306,1,0,0:0:0:0:
320,192,119350,128,0,119439:0:0:0:0:
64,192,119439,128,0,119527:0:0:0:0:
448,192,119527,1,0,0:0:0:0:
320,192,119615,1,0,0:0:0:0:
64,192,119703,1,0,0:0:0:0:
192,192,119792,128,0,119880:0:0:0:0:
448,192,119880,128,0,119968:0:0:0:0:
64,192,119968,1,0,0:0:0:0:
192,192,120012,1,0,0:0:0:0:
320,192,120056,128,0,120144:0:0:0:0:
64,192,120144,128,0,120233:0:0:0:0:
448,192,120233,1,0,0:0:0:0:
320,192,120321,1,0,0:0:0:0:
192,192,120497,128,0,120586:0:0:0:0:
448,192,120586,128,0,120674:0:0:0:0:
64,192,120674,1,0,0:0:0:0:
192,192,120718,1,0,0:0:0:0:
320,192,120762,1,0,0:0:0:0:
64,192,120850,128,0,120939:0:0:0:0:
448,192,120939,1,0,0:0:0:0:
320,192,121027,1,0,0:0:0:0:
192,192,121203,1,0,0:0:0:0:
448,192,121292,1,0,0:0:0:0:
64,192,121380,1,0,0:0:0:0:
192,192,121424,1,0,0:0:0:0:
320,192,121468,1,0,0:0:0:0:
64,192,121556,1,0,0:0:0:0:
448,192,121644,1,0,0:0:0:0:
320,192,121733,1,0,0:0:0:0:
192,192,121909,1,0,0:0:0:0:
64,192,122086,1,0,0:0:0:0:
192,192,122174,1,0,0:0:0:0:
448,192,122262,128,0,122350:0:0:0:0:
320,192,122439,128,0,122527:0:0:0:0:
448,192,122527,128,0,122615:0:0:0:0:
64,192,122703,128,0,122836:0:0:0:0:
448,192,122880,128,0,123056:0:0:0:0:
320,192,122968,128,0,123144:0:0:0:0:
192,192,123056,128,0,123233:0:0:0:0:
64,192,123144,128,0,123321:0:0:0:0:
192,192,123321,128,0,123453:0:0:0:0:
320,192,123409,128,0,123542:0:0:0:0:
448,192,123497,128,0,123630:0:0:0:0:
192,192,123674,128,0,123762:0:0:0:0:
320,192,123762,128,0,123850:0:0:0:0:
64,192,124027,1,0,0:0:0:0:
192,192,124380,128,0,124468:0:0:0:0:
320,192,124468,128,0,124556:0:0:0:0:
64,192,124644,128,0,124733:0:0:0:0:
448,192,124733,128,0,124821:0:0:0:0:
320,192,124909,128,0,124997:0:0:0:0:
192,192,124997,128,0,125086:0:0:0:0:
448,192,125086,1,0,0:0:0:0:
320,192,125174,1,0,0:0:0:0:
64,192,125262,1,0,0:0:0:0:
192,192,125350,1,0,0:0:0:0:
448,192,125439,128,0,125703:0:0:0:0:
320,192,125527,1,0,0:0:0:0:
64,192,125615,1,0,0:0:0:0:
192,192,125703,1,0,0:0:0:0:
64,192,125792,1,4,0:0:0:0:
320,192,125792,1,0,0:0:0:100:clap.wav
448,192,125792,1,0,0:0:0:0:
192,192,125880,1,0,0:0:0:0:
448,192,125968,1,0,0:0:0:0:
320,192,126056,1,0,0:0:0:0:
64,192,126144,1,0,0:0:0:100:clap.wav
192,192,126144,1,0,0:0:0:0:
448,192,126233,1,0,0:0:0:0:
320,192,126321,1,0,0:0:0:0:
192,192,126409,1,0,0:0:0:0:
64,192,126497,1,0,0:0:0:100:clap.wav
448,192,126497,1,0,0:0:0:0:
320,192,126586,1,0,0:0:0:0:
64,192,126674,1,0,0:0:0:0:
192,192,126674,1,0,0:0:0:0:
320,192,126762,1,0,0:0:0:0:
64,192,126850,1,0,0:0:0:100:clap.wav
448,192,126850,1,0,0:0:0:0:
192,192,126939,1,0,0:0:0:0:
320,192,127027,1,0,0:0:0:0:
448,192,127115,1,0,0:0:0:0:
64,192,127203,1,0,0:0:0:100:clap.wav
192,192,127203,1,0,0:0:0:0:
320,192,127292,1,0,0:0:0:0:
192,192,127380,1,0,0:0:0:0:
64,192,127468,1,0,0:0:0:0:
320,192,127556,1,0,0:0:0:100:clap.wav
448,192,127556,1,0,0:0:0:0:
192,192,127644,1,0,0:0:0:0:
64,192,127733,1,0,0:0:0:0:
320,192,127821,1,0,0:0:0:0:
192,192,127909,128,0,127997:0:0:0:100:clap.wav
448,192,127909,1,0,0:0:0:0:
64,192,127997,1,0,0:0:0:0:
320,192,128086,128,0,128174:0:0:0:0:
448,192,128086,1,0,0:0:0:0:
64,192,128174,128,0,128262:0:0:0:0:
192,192,128262,1,0,0:0:0:100:clap.wav
448,192,128262,1,0,0:0:0:0:
320,192,128350,128,0,128439:0:0:0:0:
64,192,128439,1,0,0:0:0:0:
192,192,128527,128,0,128615:0:0:0:0:
320,192,128615,1,0,0:0:0:100:clap.wav
448,192,128615,128,0,128703:0:0:0:0:
64,192,128703,128,0,128792:0:0:0:0:
320,192,128792,128,0,128880:0:0:0:0:
192,192,128880,1,0,0:0:0:0:
64,192,128968,1,0,0:0:0:100:clap.wav
448,192,128968,128,0,129056:0:0:0:0:
320,192,129056,128,0,129144:0:0:0:0:
192,192,129144,128,0,129233:0:0:0:0:
448,192,129233,1,0,0:0:0:0:
64,192,129321,1,0,0:0:0:100:clap.wav
320,192,129321,1,0,0:0:0:0:
192,192,129409,1,0,0:0:0:0:
320,192,129497,1,0,0:0:0:0:
448,192,129497,1,0,0:0:0:0:
192,192,129586,1,0,0:0:0:0:
64,192,129674,1,0,0:0:0:100:clap.wav
320,192,129674,1,0,0:0:0:0:
448,192,129762,1,0,0:0:0:0:
192,192,129850,1,0,0:0:0:0:
320,192,129939,1,0,0:0:0:0:
192,192,130027,1,0,0:0:0:100:clap.wav
448,192,130027,1,0,0:0:0:0:
64,192,130115,1,0,0:0:0:0:
320,192,130203,1,0,0:0:0:0:
192,192,130292,1,0,0:0:0:0:
64,192,130380,128,0,130468:0:0:0:100:clap.wav
448,192,130380,1,0,0:0:0:0:
192,192,130468,128,0,130556:0:0:0:0:
320,192,130556,128,0,130644:0:0:0:0:
448,192,130644,128,0,130733:0:0:0:0:
192,192,130733,128,0,130821:0:0:0:100:clap.wav
320,192,130733,1,0,0:0:0:0:
64,192,130821,128,0,130909:0:0:0:0:
448,192,130909,128,0,130997:0:0:0:0:
320,192,130997,128,0,131086:0:0:0:0:
64,192,131086,1,0,0:0:0:100:clap.wav
192,192,131086,1,0,0:0:0:0:
448,192,131174,1,0,0:0:0:0:
320,192,131262,1,0,0:0:0:0:
192,192,131350,1,0,0:0:0:0:
64,192,131439,1,0,0:0:0:100:clap.wav
320,192,131439,1,0,0:0:0:0:
448,192,131527,1,0,0:0:0:0:
192,192,131615,1,0,0:0:0:0:
320,192,131703,1,0,0:0:0:0:
64,192,131792,1,0,0:0:0:100:clap.wav
448,192,131792,1,0,0:0:0:0:
192,192,131880,1,0,0:0:0:0:
320,192,131968,1,0,0:0:0:0:
64,192,132056,1,0,0:0:0:0:
192,192,132144,1,0,0:0:0:100:clap.wav
448,192,132144,1,0,0:0:0:0:
320,192,132233,1,0,0:0:0:0:
64,192,132321,1,0,0:0:0:0:
192,192,132321,1,0,0:0:0:0:
320,192,132409,1,0,0:0:0:0:
192,192,132497,1,0,0:0:0:100:clap.wav
448,192,132497,1,0,0:0:0:0:
64,192,132586,1,0,0:0:0:0:
320,192,132674,1,0,0:0:0:0:
192,192,132762,1,0,0:0:0:0:
64,192,132850,1,0,0:0:0:100:clap.wav
448,192,132850,1,0,0:0:0:0:
320,192,132939,1,0,0:0:0:0:
192,192,133027,1,0,0:0:0:0:
448,192,133115,1,0,0:0:0:0:
64,192,133203,1,0,0:0:0:100:clap.wav
192,192,133203,1,0,0:0:0:0:
320,192,133292,1,0,0:0:0:0:
448,192,133380,1,0,0:0:0:0:
192,192,133468,1,0,0:0:0:0:
320,192,133556,1,0,0:0:0:100:clap.wav
448,192,133556,1,0,0:0:0:0:
64,192,133644,1,0,0:0:0:0:
192,192,133733,1,0,0:0:0:0:
320,192,133733,1,0,0:0:0:0:
64,192,133821,1,0,0:0:0:0:
320,192,133909,1,0,0:0:0:100:clap.wav
448,192,133909,1,0,0:0:0:0:
192,192,133997,1,0,0:0:0:0:
448,192,134086,1,0,0:0:0:0:
320,192,134174,1,0,0:0:0:0:
64,192,134262,1,0,0:0:0:100:clap.wav
192,192,134262,1,0,0:0:0:0:
448,192,134350,1,0,0:0:0:0:
320,192,134439,1,0,0:0:0:0:
192,192,134527,1,0,0:0:0:0:
64,192,134615,1,0,0:0:0:100:clap.wav
320,192,134615,1,0,0:0:0:0:
448,192,134703,1,0,0:0:0:0:
192,192,134792,1,0,0:0:0:0:
320,192,134880,1,0,0:0:0:0:
64,192,134968,1,0,0:0:0:100:clap.wav
448,192,134968,1,0,0:0:0:0:
192,192,135056,1,0,0:0:0:0:
320,192,135144,1,0,0:0:0:0:
64,192,135233,1,0,0:0:0:0:
320,192,135321,1,0,0:0:0:100:clap.wav
448,192,135321,1,0,0:0:0:0:
192,192,135409,1,0,0:0:0:0:
64,192,135497,1,0,0:0:0:0:
320,192,135586,1,0,0:0:0:0:
64,192,135674,1,2,0:0:0:0:
192,192,135674,1,0,0:0:0:0:
320,192,135850,1,8,0:0:0:0:
448,192,135850,1,0,0:0:0:0:
192,192,135939,1,0,0:0:0:0:
64,192,136027,1,0,0:0:0:0:
320,192,136115,1,8,0:0:0:0:
448,192,136115,1,0,0:0:0:0:
64,192,136203,1,8,0:0:0:0:
192,192,136203,1,0,0:0:0:0:
320,192,136292,1,0,0:0:0:0:
64,192,136380,1,8,0:0:0:0:
192,192,136380,1,0,0:0:0:0:
448,192,136380,1,0,0:0:0:0:
320,192,136556,1,2,0:0:0:0:
448,192,136556,1,0,0:0:0:0:
192,192,136733,1,2,0:0:0:0:
320,192,136733,1,0,0:0:0:0:
64,192,136909,1,2,0:0:0:0:
192,192,136909,1,0,0:0:0:0:
64,192,137086,1,2,0:0:0:0:
320,192,137086,1,4,0:0:0:0:
448,192,137086,1,0,0:0:0:0:
