osu file format v14

[General]
AudioFilename: audio.mp3
AudioLeadIn: 0
PreviewTime: 82019
Countdown: 0
SampleSet: Soft
StackLeniency: 0.7
Mode: 2
LetterboxInBreaks: 0
WidescreenStoryboard: 1

[Editor]
Bookmarks: 21866,41558,51404,60019,82173,92327,100635,112019
DistanceSpacing: 0.8
BeatDivisor: 4
GridSize: 32
TimelineZoom: 2.5

[Metadata]
Title:MAHOROBA
TitleUnicode:MAHOROBA
Artist:Zekk
ArtistUnicode:Zekk
Creator:Jemzuu
Version:PAST
Source:Arcaea
Tags:ajamez video game instrumental electronic future bass hardcore trap
BeatmapID:2570714
BeatmapSetID:1235154

[Difficulty]
HPDrainRate:4
CircleSize:3
OverallDifficulty:7
ApproachRate:7
SliderMultiplier:1.4
SliderTickRate:1

[Events]
//Background and Video events
0,0,"78571223_p0.jpg",0,0
//Break Periods
2,22412,26235
//Storyboard Layer 0 (Background)
//Storyboard Layer 1 (Fail)
//Storyboard Layer 2 (Pass)
//Storyboard Layer 3 (Foreground)
//Storyboard Layer 4 (Overlay)
//Storyboard Sound Samples

[TimingPoints]
1289,307.692307692308,4,2,1,60,1,0
1289,-100,4,2,1,60,0,0
1596,-100,4,2,2,60,0,0
1750,-100,4,2,1,60,0,0
2519,-100,4,2,1,60,0,0
7365,-100,4,2,2,60,0,0
7442,-100,4,2,1,60,0,0
11135,-100,4,2,1,60,0,0
11750,-100,4,2,1,60,0,0
11904,-100,4,2,2,60,0,0
11981,-100,4,2,3,60,0,0
12058,-100,4,2,1,60,0,0
19289,-100,4,2,2,60,0,0
19442,-100,4,2,1,60,0,0
27135,-100,4,2,1,50,0,0
30827,-100,4,2,1,30,0,0
31365,-100,4,2,1,15,0,0
31904,-100,4,2,1,5,0,0
32058,-100,4,2,1,50,0,0
41827,-100,4,2,2,50,0,0
41904,-100,4,2,1,70,0,1
42212,-100,4,2,1,60,0,0
42827,-100,4,2,2,60,0,0
42981,-100,4,2,1,60,0,0
43904,-100,4,2,3,60,0,0
44365,-100,4,2,1,60,0,0
45289,-100,4,2,2,60,0,0
45365,-100,4,2,1,60,0,0
46365,-100,4,2,3,60,0,0
46673,-100,4,2,1,60,0,0
47750,-100,4,2,2,60,0,0
47827,-100,4,2,1,60,0,0
48981,-100,4,2,3,60,0,0
49289,-100,4,2,1,60,0,0
50212,-100,4,2,2,60,0,0
50289,-100,4,2,1,60,0,0
50981,-100,4,2,1,60,0,0
51135,-100,4,2,2,60,0,0
51289,-100,4,2,1,60,0,0
51442,-100,4,2,2,60,0,0
51596,-100,4,2,3,60,0,0
51750,-100,4,2,1,70,0,1
52058,-100,4,2,1,60,0,0
56365,-100,4,2,2,60,0,0
56673,-100,4,2,1,60,0,0
59750,-100,4,2,2,60,0,0
59904,-100,4,2,1,60,0,0
59981,-100,4,2,3,60,0,0
60058,-100,4,2,2,60,0,0
60212,-100,4,2,3,60,0,0
60365,-100,4,2,1,60,0,0
63135,-100,4,2,2,60,0,0
66519,-100,4,2,1,60,0,0
66827,-100,4,2,2,60,0,0
66981,-100,4,2,1,60,0,0
68827,-100,4,2,2,60,0,0
69596,-100,4,2,1,60,0,0
70058,-100,4,2,2,60,0,0
70212,-100,4,2,1,60,0,0
71596,-100,4,2,2,60,0,0
71673,-100,4,2,3,60,0,0
72058,-100,4,2,1,60,0,0
72519,-100,4,2,3,60,0,0
72673,-100,4,2,1,60,0,0
81519,-100,4,2,2,60,0,0
81596,-100,4,2,1,60,0,0
82212,-100,4,2,2,60,0,0
82365,-100,4,2,1,60,0,0
82519,-100,4,2,1,70,0,1
91135,-100,4,2,1,60,0,0
91442,-100,4,2,2,60,0,0
91904,-100,4,2,1,60,0,0
92365,-100,4,2,3,60,0,0
92673,-100,4,2,1,70,0,1
97289,-100,4,2,1,70,0,0
98212,-100,4,2,2,70,0,0
98519,-100,4,2,1,70,0,0
100673,-100,4,2,2,70,0,0
100827,-100,4,2,3,70,0,0
100981,-100,4,2,1,60,0,0
105904,-100,4,2,2,60,0,0
106058,-100,4,2,1,60,0,0
106212,-100,4,2,2,60,0,0
106365,-100,4,2,1,60,0,0
112058,-100,4,2,2,60,0,0
112212,-100,4,2,3,60,0,0
112365,-100,4,2,1,70,0,1
119442,-100,4,2,1,60,0,0

[Colours]
Combo1 : 140,198,255
Combo2 : 91,255,173
Combo3 : 255,255,128
Combo4 : 255,176,138

[HitObjects]
183,357,1289,6,0,P|172:295|238:243,1,140,2|8,0:0|0:0,0:0:0:0:
301,240,1750,1,0,1:0:0:0:
464,161,1904,2,0,L|487:121,2,35,0|0|2,1:0|1:0|0:0,0:0:0:0:
303,126,2212,2,0,L|303:290,1,140,10|2,0:0|0:0,0:0:0:0:
33,331,2827,6,0,L|105:300,1,70,6|2,0:0|0:0,0:0:0:0:
169,288,3135,2,0,L|170:134,1,140,2|10,0:0|0:0,0:0:0:0:
328,47,3750,2,0,L|157:33,1,140,2|10,0:0|0:0,0:0:0:0:
111,63,4212,1,0,0:0:0:0:
190,120,4365,2,0,L|348:125,1,140,2|10,0:0|0:0,0:0:0:0:
250,167,4827,1,0,0:0:0:0:
166,181,4981,5,2,0:0:0:0:
232,188,5134,1,0,0:0:0:0:
264,248,5288,1,10,0:0:0:0:
232,307,5442,1,0,0:0:0:0:
165,314,5596,2,0,L|329:338,1,140,2|10,0:0|0:0,0:0:0:0:
384,332,6058,1,0,0:0:0:0:
469,333,6212,5,2,0:0:0:0:
404,312,6365,1,0,0:0:0:0:
376,250,6519,1,10,0:0:0:0:
404,188,6673,1,0,0:0:0:0:
468,167,6827,2,0,L|469:87,1,70,2|0,0:0|3:0,0:0:0:0:
392,58,7135,2,0,L|290:50,1,70,2|0,0:0|1:2,0:0:0:0:
151,74,7442,6,0,P|137:119|193:202,1,140,6|10,0:0|0:0,0:0:0:0:
343,262,8058,2,0,L|187:280,1,140,2|10,0:0|0:0,0:0:0:0:
277,316,8519,1,0,0:0:0:0:
357,336,8673,2,0,L|360:186,1,140,2|10,0:0|0:0,0:0:0:0:
192,130,9289,2,0,L|342:107,1,140,2|10,0:0|0:0,0:0:0:0:
252,84,9750,1,0,0:0:0:0:
167,91,9904,6,0,L|159:167,1,70,2|0,0:0|0:0,0:0:0:0:
245,184,10212,2,0,L|252:258,1,70,10|0,0:0|0:0,0:0:0:0:
163,286,10519,1,2,0:0:0:0:
95,277,10672,1,0,0:0:0:0:
56,221,10826,1,10,0:0:0:0:
72,155,10980,1,0,0:0:0:0:
244,75,11135,6,0,P|268:109|177:215,1,210,2|0,0:0|0:0,0:0:0:0:
91,229,11750,1,2,0:0:0:0:
59,242,11826,1,0,0:0:0:0:
48,273,11903,1,8,3:3:0:0:
63,304,11980,1,8,3:3:0:0:
96,313,12058,2,0,L|197:317,2,70,0|2|2,1:0|0:0|0:0,0:0:0:0:
382,324,12673,6,0,L|449:298,1,70,6|2,0:0|0:0,0:0:0:0:
369,243,12981,2,0,L|229:214,1,140,2|10,0:0|0:0,0:0:0:0:
394,111,13596,2,0,L|226:104,1,140,2|10,0:0|0:0,0:0:0:0:
177,67,14058,1,0,0:0:0:0:
252,104,14212,1,2,0:0:0:0:
408,140,14519,1,10,0:0:0:0:
247,235,14827,6,0,L|90:208,1,140,2|10,0:0|0:0,0:0:0:0:
183,166,15289,1,0,0:0:0:0:
263,151,15442,2,0,L|412:128,1,140,2|10,0:0|0:0,0:0:0:0:
125,75,16058,2,0,P|103:130|160:188,1,140,2|10,0:0|0:0,0:0:0:0:
226,198,16519,1,0,0:0:0:0:
147,284,16673,2,0,L|62:277,1,70,6|0,0:0|3:0,0:0:0:0:
38,271,16904,1,0,3:0:0:0:
77,278,16981,2,0,L|146:280,1,70,2|8,0:0|1:3,0:0:0:0:
311,161,17289,6,0,L|167:98,2,140,2|0|2,0:0|0:0|0:0,0:0:0:0:
474,148,18212,2,0,L|445:224,1,70,8|8,0:1|1:3,0:0:0:0:
359,238,18519,2,0,L|210:267,1,140,2|8,0:0|0:1,0:0:0:0:
299,311,18981,1,8,1:3:0:0:
381,335,19135,2,0,L|390:246,1,70,2|8,0:0|0:3,0:0:0:0:
304,224,19442,1,8,0:1:0:0:
269,225,19518,1,8,0:1:0:0:
234,226,19595,1,8,0:1:0:0:
399,217,19750,6,0,P|441:206|459:111,1,140,2|2,0:0|0:0,0:0:0:0:
392,99,20212,1,2,0:0:0:0:
241,73,20365,2,0,L|146:69,1,70,2|2,0:0|0:0,0:0:0:0:
212,44,20596,1,2,0:0:0:0:
255,33,20673,2,0,L|337:28,1,70,2|2,0:0|0:0,0:0:0:0:
154,237,20981,6,0,L|17:187,1,140,2|0,0:0|3:0,0:0:0:0:
179,150,21596,2,0,L|184:237,1,70,2|2,0:0|0:0,0:0:0:0:
142,238,21827,1,2,0:0:0:0:
100,248,21904,2,0,L|193:258,1,70,10|2,0:0|0:0,0:0:0:0:
339,274,22212,5,6,0:0:0:0:
358,149,27135,6,0,L|492:90,2,140,0|8|0,1:0|0:1|1:0,0:0:0:0:
210,232,28058,2,0,L|134:242,1,70,8|0,0:1|0:0,0:0:0:0:
229,277,28365,2,0,L|399:299,2,140,0|8|0,1:0|0:1|1:0,0:0:0:0:
75,342,29289,1,8,0:1:0:0:
194,363,29519,1,0,0:0:0:0:
231,359,29596,6,0,L|373:324,1,140,0|8,1:0|0:1,0:0:0:0:
214,226,30212,2,0,L|54:210,1,140,0|8,1:0|0:1,0:0:0:0:
235,139,30673,5,2,0:0:0:0:
256,192,30981,12,0,31750,0:0:0:0:
264,170,32058,6,0,L|423:154,1,140,0|8,3:0|3:0,0:0:0:0:
238,283,32673,2,0,P|225:218|290:158,1,140,0|8,3:0|3:0,0:0:0:0:
346,148,33135,1,0,0:0:0:0:
263,130,33289,2,0,L|101:115,1,140,0|8,3:0|3:0,0:0:0:0:
278,60,33904,2,0,L|127:44,1,140,0|8,3:0|3:0,0:0:0:0:
64,61,34365,1,8,0:3:0:0:
142,105,34519,6,0,L|298:121,1,140,0|8,3:0|3:0,0:0:0:0:
358,146,34981,1,0,0:0:0:0:
282,178,35135,1,0,3:0:0:0:
121,278,35442,2,0,L|209:300,1,70,8|0,3:0|0:0,0:0:0:0:
266,302,35750,6,0,P|279:256|197:197,1,140,0|8,3:0|3:0,0:0:0:0:
61,231,36365,2,0,P|47:198|120:124,1,140,0|8,3:0|3:0,0:0:0:0:
180,109,36827,1,8,1:3:0:0:
348,92,36981,5,0,3:0:0:0:
411,116,37134,1,0,3:0:0:0:
435,180,37288,1,0,3:0:0:0:
404,241,37442,1,0,3:0:0:0:
339,259,37596,2,0,P|312:195|351:129,1,140,0|0,3:0|3:0,0:0:0:0:
415,122,38058,1,0,3:0:0:0:
336,102,38212,5,0,3:0:0:0:
271,124,38365,1,0,3:0:0:0:
245,186,38519,1,0,3:0:0:0:
275,247,38673,1,0,3:0:0:0:
343,277,38827,2,0,L|190:300,1,140,0|0,3:0|3:0,0:0:0:0:
277,334,39289,1,0,3:0:0:0:
446,351,39442,6,0,L|452:210,1,140,2|8,0:0|0:3,0:0:0:0:
421,174,39852,1,2,0:0:0:0:
379,151,39955,1,2,0:0:0:0:
330,145,40058,2,0,L|219:143,2,93.3333333333333,2|2|2,0:0|0:0|0:0,0:0:0:0:
130,78,40673,5,6,0:0:0:0:
62,155,41289,2,0,L|25:278,2,105,0|0|0,0:0|0:0|1:0,0:0:0:0:
241,65,41904,6,0,P|272:91|187:213,1,210,6|2,0:0|0:0,0:0:0:0:
122,242,42519,2,0,L|46:231,2,70,8|0|2,0:0|1:0|0:0,0:0:0:0:
288,314,42981,6,0,L|403:226,2,140,2|2|2,0:0|0:0|0:0,0:0:0:0:
209,336,43750,1,10,0:0:0:0:
288,352,43904,1,8,0:3:0:0:
371,353,44058,2,0,L|393:306,2,35,2|8|2,3:2|3:3|3:2,0:0:0:0:
209,368,44365,6,0,P|179:315|278:221,1,210,2|2,0:0|0:0,0:0:0:0:
343,179,44981,2,0,L|186:160,1,140,10|2,0:0|0:0,0:0:0:0:
366,84,45442,2,0,L|507:169,2,140,2|0|6,0:0|1:0|0:0,0:0:0:0:
301,105,46211,1,10,0:0:0:0:
278,168,46365,1,2,0:0:0:0:
312,226,46519,1,2,0:0:0:0:
379,236,46673,1,2,0:0:0:0:
219,295,46827,6,0,P|167:300|100:164,1,210,6|2,0:0|0:0,0:0:0:0:
173,146,47442,2,0,L|249:139,2,70,10|0|2,0:0|1:0|0:0,0:0:0:0:
336,65,47904,2,0,L|481:95,1,140,2|2,0:0|0:0,0:0:0:0:
312,177,48519,1,2,0:0:0:0:
237,238,48673,2,0,L|326:257,1,70,10|0,0:0|1:0,0:0:0:0:
386,281,48981,2,0,L|428:269,2,35,2|8|2,3:2|3:3|3:2,0:0:0:0:
215,341,49289,6,0,L|88:321,2,105,6|6|6,0:0|0:0|0:0,0:0:0:0:
297,328,49904,2,0,L|354:288,2,70,10|0|2,0:0|1:0|0:0,0:0:0:0:
127,361,50365,6,0,P|63:350|139:220,1,280,2|2,0:0|0:0,0:0:0:0:
207,201,51135,1,8,3:3:0:0:
291,172,51289,2,0,L|352:155,1,35,0|0,3:0|3:0,0:0:0:0:
288,134,51442,2,0,L|208:133,1,70,8|8,3:3|3:3,0:0:0:0:
46,58,51750,6,0,P|32:105|98:166,1,140,6|2,0:0|0:0,0:0:0:0:
237,278,52365,2,0,L|359:299,2,105,10|2|2,0:0|0:0|0:0,0:0:0:0:
150,248,52981,6,0,L|294:213,1,140,2|2,0:0|0:0,0:0:0:0:
414,223,53519,1,0,0:0:0:0:
452,233,53596,2,0,L|472:106,1,105,10|2,0:0|0:0,0:0:0:0:
356,80,54058,1,2,0:0:0:0:
192,95,54212,6,0,L|46:42,2,140,6|2|10,0:0|0:0|0:0,0:0:0:0:
73,158,55058,1,2,0:0:0:0:
194,209,55289,1,2,0:0:0:0:
272,240,55442,6,0,L|106:264,1,140,2|2,0:0|0:0,0:0:0:0:
296,312,56058,2,0,L|390:298,1,70,10|0,0:0|3:0,0:0:0:0:
327,270,56289,1,0,3:0:0:0:
285,232,56365,2,0,L|193:223,1,70,8|0,3:3|3:0,0:0:0:0:
385,188,56673,6,0,L|497:93,2,140,6|0|8,0:0|0:0|0:0,0:0:0:0:
302,228,57442,2,0,L|455:244,1,140,0|0,0:0|0:0,0:0:0:0:
274,348,57904,2,0,L|141:283,2,140,2|0|8,0:0|0:0|0:0,0:0:0:0:
116,366,58827,2,0,L|25:346,1,70,0|0,0:0|0:0,0:0:0:0:
136,278,59135,6,0,L|285:216,2,140,2|0|8,0:0|3:0|3:3,0:0:0:0:
103,268,59826,1,8,3:3:0:0:
88,237,59903,1,0,3:0:0:0:
101,206,59980,1,0,3:0:0:0:
133,194,60058,2,0,L|228:181,1,70,2|8,0:0|3:3,0:0:0:0:
380,137,60365,5,6,0:0:0:0:
256,192,60673,12,0,62519,0:0:0:0:
175,248,62827,6,0,L|39:200,1,140,6|0,0:0|0:0,0:0:0:0:
121,155,63289,2,0,L|259:126,1,140,2|0,0:1|0:0,0:0:0:0:
336,94,63750,1,2,0:1:0:0:
177,69,64058,6,0,P|158:113|215:191,1,140,2|0,0:0|0:0,0:0:0:0:
279,208,64519,2,0,L|422:224,1,140,2|0,0:1|0:0,0:0:0:0:
345,277,64981,1,2,0:1:0:0:
197,346,65289,2,0,P|175:311|228:231,1,140,2|0,0:0|0:0,0:0:0:0:
301,195,65750,2,0,L|135:177,1,140,2|0,0:1|0:0,0:0:0:0:
84,158,66212,1,2,0:1:0:0:
354,151,66519,6,0,L|336:68,1,70,2|0,0:0|1:0,0:0:0:0:
301,71,66750,1,0,1:0:0:0:
261,68,66827,2,0,L|161:69,1,70,8|0,0:0|1:0,0:0:0:0:
276,153,67135,2,0,L|183:157,1,70,6|2,0:0|0:0,0:0:0:0:
170,178,67365,1,2,0:0:0:0:
206,156,67442,2,0,L|288:154,1,70,2|0,0:0|3:0,0:0:0:0:
105,280,67750,6,0,P|53:269|49:184,1,140,6|0,0:0|0:0,0:0:0:0:
214,344,68365,2,0,L|375:310,1,140,8|0,0:3|0:0,0:0:0:0:
266,304,68827,2,0,L|253:149,1,140,2|0,0:1|0:0,0:0:0:0:
335,121,69289,2,0,L|494:109,1,140,2|8,0:0|0:3,0:0:0:0:
314,44,69750,2,0,L|232:36,2,70,2|8|8,0:0|0:3|0:3,0:0:0:0:
480,114,70212,6,0,L|484:266,1,140,6|8,0:0|0:1,0:0:0:0:
217,364,70827,2,0,L|219:281,1,70,10|2,0:0|0:0,0:0:0:0:
257,278,71058,1,2,0:0:0:0:
297,264,71135,2,0,L|217:254,1,70,10|2,0:0|0:0,0:0:0:0:
57,248,71442,6,0,L|48:151,1,70,6|8,0:0|0:3,0:0:0:0:
89,154,71673,1,8,0:3:0:0:
129,144,71750,2,0,L|203:141,1,70,0|2,3:0|0:0,0:0:0:0:
368,169,72058,5,8,3:3:0:0:
385,126,72160,1,2,0:0:0:0:
366,84,72263,1,2,0:0:0:0:
321,64,72365,2,0,L|230:57,1,70,10|2,0:0|0:0,0:0:0:0:
423,294,72673,6,0,P|441:238|392:169,1,140,6|8,0:0|3:1,0:0:0:0:
235,126,73289,2,0,L|374:104,1,140,0|8,3:0|3:1,0:0:0:0:
301,155,73750,1,0,0:0:0:0:
221,171,73904,2,0,L|75:155,1,140,0|8,3:0|3:1,0:0:0:0:
242,103,74519,1,0,3:0:0:0:
304,128,74672,1,0,3:0:0:0:
328,192,74826,1,8,3:1:0:0:
298,253,74980,1,0,0:0:0:0:
233,272,75135,6,0,L|92:268,1,140,0|8,3:0|3:1,0:0:0:0:
253,368,75750,2,0,L|341:346,2,70,0|0|8,3:0|0:0|3:1,0:0:0:0:
168,363,76212,2,0,P|140:311|203:251,1,140,0|0,0:0|0:0,0:0:0:0:
257,224,76673,1,8,3:1:0:0:
330,218,76827,1,0,0:0:0:0:
161,165,76981,6,0,L|70:150,2,70,2|0|10,0:0|3:0|0:0,0:0:0:0:
451,109,77596,5,6,0:0:0:0:
256,192,77904,12,0,80058,3:0:0:0:
139,198,80365,5,8,3:0:0:0:
158,155,80467,1,8,3:0:0:0:
194,127,80570,1,8,3:0:0:0:
240,119,80673,2,0,L|341:90,2,93.3333333333333,2|2|2,0:0|0:0|0:0,0:0:0:0:
453,122,81289,6,0,P|471:176|404:244,1,140,2|0,0:0|3:0,0:0:0:0:
257,304,81904,1,8,3:3:0:0:
326,309,82057,1,0,3:0:0:0:
396,314,82211,1,2,0:0:0:0:
110,364,82519,6,0,P|89:314|163:260,1,140,6|10,0:0|0:0,0:0:0:0:
215,238,82981,1,0,1:0:0:0:
291,228,83135,2,0,L|147:209,1,140,2|10,0:0|0:0,0:0:0:0:
108,158,83595,1,0,1:0:0:0:
129,94,83749,1,2,0:0:0:0:
194,78,83903,1,0,1:0:0:0:
366,70,84058,6,0,P|385:145|331:214,1,140,10|2,0:0|0:0,0:0:0:0:
316,253,84518,1,0,1:0:0:0:
255,286,84672,1,10,0:0:0:0:
185,288,84826,1,0,1:0:0:0:
261,325,84981,6,0,L|409:349,1,140,2|10,0:0|0:0,0:0:0:0:
241,366,85596,2,0,L|153:353,2,70,2|0|10,0:0|1:0|0:0,0:0:0:0:
412,358,86058,2,0,P|431:309|363:247,1,140,8|0,1:3|1:0,0:0:0:0:
301,216,86519,2,0,L|384:209,1,70,10|0,0:0|1:0,0:0:0:0:
457,214,86827,2,0,L|468:139,1,70,2|2,0:0|1:2,0:0:0:0:
429,131,87058,1,2,0:0:0:0:
390,125,87135,2,0,L|310:130,1,70,10|2,0:0|1:2,0:0:0:0:
150,131,87442,6,0,P|135:180|207:221,1,140,6|10,0:0|0:0,0:0:0:0:
274,233,87904,1,0,1:0:0:0:
199,222,88058,2,0,L|47:199,1,140,2|10,0:0|0:0,0:0:0:0:
124,155,88518,1,0,1:0:0:0:
192,134,88672,1,2,0:0:0:0:
264,131,88826,1,0,1:0:0:0:
102,206,88981,6,0,P|45:183|53:86,1,140,10|2,0:0|0:0,0:0:0:0:
97,81,89442,1,0,1:0:0:0:
168,78,89596,1,10,0:0:0:0:
97,81,89750,1,0,1:0:0:0:
260,138,89904,6,0,P|318:137|377:194,1,140,2|10,0:0|0:0,0:0:0:0:
307,238,90365,1,0,1:0:0:0:
231,270,90519,2,0,L|149:257,1,70,2|2,0:0|1:2,0:0:0:0:
195,288,90750,1,2,0:0:0:0:
232,309,90827,2,0,L|301:319,1,70,10|2,0:0|1:2,0:0:0:0:
470,356,91135,6,0,P|479:289|404:252,1,140,6|8,0:0|0:3,0:0:0:0:
268,264,91750,1,8,3:0:0:0:
239,202,91903,1,8,0:3:0:0:
266,140,92057,1,10,0:0:0:0:
331,121,92211,1,2,0:0:0:0:
406,119,92365,6,0,L|423:84,2,35,2|2|2,0:0|0:0|0:0,0:0:0:0:
232,206,92673,6,0,L|140:228,1,70,14|0,0:0|1:0,0:0:0:0:
242,291,92981,2,0,L|363:205,1,140,2|10,0:0|0:0,0:0:0:0:
212,371,93596,2,0,L|133:360,1,70,2|0,0:0|1:0,0:0:0:0:
228,326,93904,2,0,L|61:311,1,140,10|2,0:0|0:0,0:0:0:0:
126,255,94365,1,0,1:0:0:0:
185,219,94519,1,10,0:0:0:0:
255,213,94673,1,0,1:0:0:0:
86,193,94827,6,0,P|42:174|41:75,1,140,2|10,0:0|0:0,0:0:0:0:
193,36,95442,2,0,L|170:119,1,70,2|0,0:0|1:0,0:0:0:0:
90,124,95750,1,10,0:0:0:0:
255,193,95904,6,0,L|397:205,1,140,0|0,1:0|1:0,0:0:0:0:
324,253,96365,1,10,0:0:0:0:
250,292,96519,1,0,1:0:0:0:
330,333,96673,2,0,L|424:338,1,70,2|2,0:0|1:2,0:0:0:0:
437,310,96904,1,2,0:0:0:0:
399,336,96981,2,0,L|316:349,1,70,10|2,0:0|0:0,0:0:0:0:
159,368,97289,6,0,P|140:326|210:255,1,140,6|0,0:0|3:0,0:0:0:0:
263,233,97750,1,0,3:0:0:0:
338,201,97904,2,0,L|182:180,1,140,14|8,0:0|0:3,0:0:0:0:
366,88,98519,2,0,L|454:70,2,70,2|0|0,0:0|0:0|0:0,0:0:0:0:
206,94,99135,1,10,0:0:0:0:
233,157,99288,1,0,3:0:0:0:
291,195,99442,1,0,3:0:0:0:
360,195,99596,1,0,3:0:0:0:
195,283,99750,6,0,L|39:305,1,140,6|2,0:0|0:0,0:0:0:0:
324,357,100365,2,0,P|340:306|262:240,1,140,10|8,0:0|3:3,0:0:0:0:
217,236,100827,1,8,0:3:0:0:
48,282,100981,6,0,L|41:133,1,140,6|0,0:0|0:0,0:0:0:0:
191,88,101596,2,0,L|284:66,1,70,2|2,0:0|0:0,0:0:0:0:
219,62,101827,1,2,0:0:0:0:
177,56,101904,2,0,L|83:62,1,70,2|2,0:0|0:0,0:0:0:0:
278,206,102212,6,0,L|434:250,2,140,6|8|8,0:0|0:1|0:3,0:0:0:0:
126,307,103135,1,8,0:1:0:0:
278,333,103442,2,0,L|284:186,1,140,0|8,3:0|0:1,0:0:0:0:
441,126,104058,2,0,L|290:104,1,140,8|8,0:3|0:1,0:0:0:0:
137,52,104673,6,0,L|279:46,1,140,0|8,3:0|0:1,0:0:0:0:
353,104,105135,1,0,0:0:0:0:
271,146,105289,2,0,L|106:171,1,140,8|8,0:3|0:1,0:0:0:0:
59,207,105750,1,0,0:0:0:0:
223,278,105904,6,0,L|310:293,2,70,8|0|8,3:3|1:0|0:0,0:0:0:0:
147,313,106365,1,0,1:0:0:0:
305,363,106519,2,0,L|292:276,1,70,8|2,0:0|0:0,0:0:0:0:
256,285,106750,1,2,0:0:0:0:
214,278,106827,1,2,0:0:0:0:
479,259,107135,5,6,0:0:0:0:
492,191,107288,1,0,3:0:0:0:
460,131,107442,1,0,3:0:0:0:
397,105,107596,1,0,3:0:0:0:
318,95,107750,2,0,L|452:184,1,140,8|0,3:0|3:0,0:0:0:0:
168,305,108365,5,0,3:0:0:0:
104,282,108518,1,0,3:0:0:0:
79,219,108672,1,0,3:0:0:0:
112,159,108826,1,0,3:0:0:0:
179,146,108981,2,0,L|257:129,1,70,8|0,3:0|3:0,0:0:0:0:
174,118,109289,2,0,L|92:111,1,70,0|0,3:0|3:0,0:0:0:0:
274,59,109596,6,0,L|426:65,1,140,0|8,3:0|3:0,0:0:0:0:
261,161,110212,2,0,L|252:243,1,70,10|2,0:0|0:0,0:0:0:0:
291,247,110442,1,2,0:0:0:0:
330,255,110519,2,0,L|412:248,1,70,10|2,0:0|0:0,0:0:0:0:
232,344,110827,5,2,0:0:0:0:
58,355,111442,2,0,P|37:301|96:234,1,140,0|0,3:0|3:0,0:0:0:0:
108,217,111826,1,0,3:0:0:0:
139,202,111903,1,0,3:0:0:0:
208,190,112058,2,0,L|296:186,1,70,2|2,0:0|0:0,0:0:0:0:
108,150,112365,5,14,0:0:0:0:
38,189,112519,2,0,L|35:46,1,140,0|0,1:0|1:0,0:0:0:0:
107,22,112981,1,10,0:0:0:0:
179,21,113135,1,0,1:0:0:0:
350,78,113289,6,0,P|373:133|314:192,1,140,2|10,0:0|0:0,0:0:0:0:
252,220,113750,1,0,1:0:0:0:
173,248,113904,2,0,L|326:274,1,140,2|10,0:0|0:0,0:0:0:0:
385,286,114365,1,0,1:0:0:0:
218,373,114519,6,0,P|201:331|270:264,1,140,2|10,0:0|0:0,0:0:0:0:
332,249,114981,1,0,1:0:0:0:
410,254,115135,2,0,P|423:210|368:138,1,140,2|10,0:0|0:0,0:0:0:0:
298,125,115596,1,0,1:0:0:0:
131,120,115750,5,2,0:0:0:0:
115,186,115903,1,0,1:0:0:0:
154,242,116057,1,10,0:0:0:0:
221,251,116211,1,0,1:0:0:0:
143,300,116365,2,0,L|58:304,1,70,2|2,0:0|0:0,0:0:0:0:
35,322,116596,1,2,0:0:0:0:
73,303,116673,2,0,L|166:308,1,70,10|2,0:0|0:0,0:0:0:0:
314,340,116981,6,0,P|326:295|254:224,1,140,6|10,0:0|0:0,0:0:0:0:
192,210,117442,2,0,L|357:182,1,140,0|0,1:0|1:0,0:0:0:0:
403,125,117904,2,0,L|319:116,1,70,10|0,0:0|1:0,0:0:0:0:
162,162,118212,6,0,L|150:86,1,70,2|0,0:0|1:0,0:0:0:0:
242,92,118519,2,0,L|248:16,1,70,10|0,0:0|1:0,0:0:0:0:
73,44,118827,2,0,P|52:86|114:158,1,140,2|10,0:0|0:0,0:0:0:0:
174,175,119289,1,8,1:0:0:0:
349,208,119442,6,0,L|472:299,1,140,6|0,0:0|3:0,0:0:0:0:
297,362,120058,2,0,L|443:331,1,140,8|0,3:0|3:0,0:0:0:0:
357,310,120519,1,0,3:0:0:0:
184,324,120673,6,0,L|177:162,1,140,10|0,0:0|0:0,0:0:0:0:
345,138,121289,2,0,L|436:125,1,70,2|2,0:0|0:0,0:0:0:0:
378,116,121519,1,2,0:0:0:0:
341,106,121596,2,0,L|251:95,1,70,2|0,0:0|3:0,0:0:0:0:
91,72,121904,5,2,0:0:0:0:
