osu file format v14

[General]
AudioFilename: audio.mp3
AudioLeadIn: 0
PreviewTime: 97114
Countdown: 0
SampleSet: None
StackLeniency: 0.2
Mode: 0
LetterboxInBreaks: 0
WidescreenStoryboard: 0

[Editor]
Bookmarks: 25489,42739,43489,46488,71988,77519,90550,96738,96831,97113,112300
DistanceSpacing: 0.4
BeatDivisor: 4
GridSize: 16
TimelineZoom: 1.9

[Metadata]
Title:Libertas
TitleUnicode:Libertas
Artist:Zekk
ArtistUnicode:Zekk
Creator:Arastelia
Version:Omnidirection
Source:Arcaea - 超感覚リズムゲーム
Tags:
BeatmapID:2125527
BeatmapSetID:1015571

[Difficulty]
HPDrainRate:0
CircleSize:4.5
OverallDifficulty:8.8
ApproachRate:9.6
SliderMultiplier:2.3
SliderTickRate:0.5

[Events]
//Background and Video events
0,0,"arzz.jpg",0,0
//Break Periods
//Storyboard Layer 0 (Background)
//Storyboard Layer 1 (Fail)
//Storyboard Layer 2 (Pass)
//Storyboard Layer 3 (Foreground)
//Storyboard Sound Samples

[TimingPoints]
1489,375,4,2,1,35,1,0
5989,-66.6666666666667,4,2,1,55,0,0
7489,-58.8235294117647,4,2,1,63,0,0
8051,-500,4,2,1,63,0,0
8239,-66.6666666666667,4,2,1,63,0,0
8989,-250,4,2,1,63,0,0
9739,-100,4,2,1,63,0,0
9926,-71.4285714285714,4,2,1,63,0,0
13489,-83.3333333333333,4,2,1,60,0,0
17051,-66.6666666666667,4,2,1,60,0,0
19489,-76.9230769230769,4,2,1,70,0,0
20989,-64.1025641025641,4,2,1,70,0,0
23239,6E-248,4,2,1,70,1,0
25489,375,4,2,1,80,1,0
25489,-76.9230769230769,4,2,1,80,0,0
26239,-250,4,2,1,80,0,0
26520,-41.6666666666667,4,2,1,80,0,0
26989,-76.9230769230769,4,2,1,80,0,0
27270,-55.5555555555556,4,2,1,80,0,0
28114,-66.6666666666667,4,2,1,80,0,0
28395,-66.6666666666667,4,2,1,5,0,0
28489,-25,4,2,1,80,0,0
29239,-100,4,2,1,80,0,0
29989,-29.4117647058824,4,2,1,80,0,0
30270,-33.3333333333333,4,2,1,80,0,0
30551,-33.3333333333333,4,2,1,80,0,0
30645,-50,4,2,1,5,0,0
30739,-50,4,2,1,80,0,0
31489,-37.037037037037,4,2,1,80,0,0
32239,-66.6666666666667,4,2,1,80,0,0
32989,-50,4,2,1,80,0,0
33364,-1000,4,2,1,80,0,0
33645,-50,4,2,1,80,0,0
34114,-66.6666666666667,4,2,1,80,0,0
37489,-1000,4,2,1,80,0,0
37864,-50,4,2,1,80,0,0
38239,-76.9230769230769,4,2,1,80,0,0
39129,-76.9230769230769,4,2,1,5,0,0
39176,-76.9230769230769,4,2,1,80,0,0
39739,-133.333333333333,4,2,1,80,0,0
40020,-222.222222222222,4,2,1,80,0,0
40301,-66.6666666666667,4,2,1,80,0,0
42176,-50,4,2,1,80,0,0
42364,-33.3333333333333,4,2,1,80,0,0
42551,-29.4117647058824,4,2,1,80,0,0
42739,-181.818181818182,4,2,1,80,0,0
43020,-33.3333333333333,4,2,1,80,0,0
43301,-26.3157894736842,4,2,1,80,0,0
43489,187.5,4,2,1,80,1,0
43489,-25,4,2,1,80,0,0
44051,375,4,2,1,80,1,0
44051,-66.6666666666667,4,2,1,80,0,0
44988,1500,4,2,1,80,1,0
44988,-12.5,4,2,1,80,0,0
45644,-25,4,2,1,80,0,0
46394,-12.5,4,2,1,80,0,0
46488,375,4,2,1,80,1,0
47988,-50,4,2,1,80,0,0
48738,-100,4,2,1,80,0,0
49863,-133.333333333333,4,2,1,60,0,0
50894,-133.333333333333,4,2,1,5,0,0
50988,-133.333333333333,4,2,1,60,0,0
55488,-100,4,2,1,60,0,0
61488,-66.6666666666667,4,2,1,70,0,0
61769,-100,4,2,1,70,0,0
62800,-100,4,2,1,70,0,0
62988,-66.6666666666667,4,2,1,70,0,0
64769,-100,4,2,1,70,0,0
65050,-66.6666666666667,4,2,1,70,0,0
65425,-100,4,2,1,70,0,0
65988,-66.6666666666667,4,2,1,70,0,0
67488,-100,4,2,1,70,0,0
67675,-66.6666666666667,4,2,1,70,0,0
67863,-100,4,2,1,70,0,0
68050,-66.6666666666667,4,2,1,70,0,0
68238,-100,4,2,1,70,0,0
68425,-66.6666666666667,4,2,1,70,0,0
68613,-100,4,2,1,70,0,0
68800,-66.6666666666667,4,2,1,70,0,0
70488,-100,4,2,1,70,0,0
71238,6E-248,4,2,1,70,1,0
73113,375,4,2,1,70,1,0
73113,-66.6666666666667,4,2,1,70,0,0
73394,-66.6666666666667,4,2,1,5,0,0
73488,375,4,2,1,70,1,0
73488,-25,4,2,1,85,0,1
73769,-66.6666666666667,4,2,1,85,0,1
73863,-45.4545454545455,4,2,1,85,0,1
74988,-25,4,2,1,85,0,1
75269,-66.6666666666667,4,2,1,85,0,1
76488,-25,4,2,1,85,0,1
76863,-45.4545454545455,4,2,1,85,0,1
77988,-33.3333333333333,4,2,1,85,0,1
78363,-66.6666666666667,4,2,1,85,0,1
79488,-33.3333333333333,4,2,1,85,0,1
79863,-45.4545454545455,4,2,1,85,0,1
80988,-33.3333333333333,4,2,1,85,0,1
81363,-66.6666666666667,4,2,1,85,0,1
81831,-50,4,2,1,85,0,1
82019,-166.666666666667,4,2,1,85,0,1
82488,-66.6666666666667,4,2,1,85,0,1
82769,-133.333333333333,4,2,1,85,0,1
83050,-250,4,2,1,85,0,1
83331,-500,4,2,1,85,0,1
83613,-66.6666666666667,4,2,1,85,0,1
83988,-50,4,2,1,85,0,0
84363,-40,4,2,1,85,0,0
84550,-333.333333333333,4,2,1,85,0,0
84925,-66.6666666666667,4,2,1,85,0,0
85488,-1000,4,2,1,85,0,0
85863,-66.6666666666667,4,2,1,85,0,1
86238,-100,4,2,1,85,0,1
86613,-50,4,2,1,85,0,1
86800,-66.6666666666667,4,2,1,85,0,1
87175,-100,4,2,1,85,0,1
87363,-50,4,2,1,85,0,1
87550,-100,4,2,1,85,0,1
88488,-66.6666666666667,4,2,1,85,0,1
89425,-50,4,2,1,85,0,1
89613,-50,4,2,1,85,0,1
89988,-66.6666666666667,4,2,1,85,0,1
90738,-100,4,2,1,85,0,1
91019,-200,4,2,1,85,0,1
91300,-66.6666666666667,4,2,1,85,0,1
92800,-133.333333333333,4,2,1,85,0,1
93738,-83.3333333333333,4,2,1,85,0,1
94863,-50,4,2,1,85,0,1
95988,-1000,4,2,1,85,0,0
96644,-1000,4,2,1,5,0,0
96738,-100,4,2,1,85,0,0
96831,-100,4,2,1,5,0,0
96925,-100,4,2,1,85,0,0
97019,-100,4,2,1,5,0,0
97113,-25,4,2,1,5,0,0
97488,-45.4545454545455,4,2,1,85,0,1
97863,-100,4,2,1,85,0,1
98238,-45.4545454545455,4,2,1,85,0,1
98613,-66.6666666666667,4,2,1,85,0,1
98800,-83.3333333333333,4,2,1,85,0,1
98894,-83.3333333333333,4,2,1,5,0,1
98988,-83.3333333333333,4,2,1,85,0,1
99175,-66.6666666666667,4,2,1,85,0,1
99925,-133.333333333333,4,2,1,85,0,1
100113,-100,4,2,1,85,0,1
100300,-200,4,2,1,85,0,1
100488,-66.6666666666667,4,2,1,85,0,1
101425,-133.333333333333,4,2,1,85,0,1
101613,-100,4,2,1,85,0,1
103019,-250,4,2,1,85,0,1
103300,-50,4,2,1,85,0,1
103675,-66.6666666666667,4,2,1,85,0,1
103863,-31.25,4,2,1,85,0,1
104050,-45.4545454545455,4,2,1,85,0,1
104519,-133.333333333333,4,2,1,85,0,1
106113,-43.4782608695652,4,2,1,85,0,1
107613,-62.5,4,2,1,85,0,1
109114,-44.4444444444445,4,2,1,85,0,0
109863,-45.4545454545455,4,2,1,85,0,1
114363,-71.4285714285714,4,2,1,85,0,1
114738,-100,4,2,1,85,0,1
115019,-222.222222222222,4,2,1,85,0,1
115300,-100,4,2,1,85,0,1
119988,-133.333333333333,4,2,1,65,0,0
120363,-100,4,2,1,65,0,0
120738,-66.6666666666667,4,2,1,55,0,0
122800,-100,4,2,1,55,0,0
127113,6,4,2,1,55,1,0
127113,-12.5,4,2,1,55,0,0
127129,375,4,2,1,5,1,0

[HitObjects]
92,67,1489,5,0,0:0:0:0:
165,117,1676,1,0,0:0:0:0:
258,136,1864,1,0,0:0:0:0:
156,141,2051,1,0,0:0:0:0:
215,253,2239,5,0,0:0:0:0:
158,164,2426,1,0,0:0:0:0:
175,291,2614,1,0,0:0:0:0:
152,195,2801,1,0,0:0:0:0:
301,221,2989,5,0,0:0:0:0:
220,330,3176,1,0,0:0:0:0:
377,369,3364,5,0,0:0:0:0:
313,303,3551,1,0,0:0:0:0:
428,296,3739,5,0,0:0:0:0:
391,351,3926,1,0,0:0:0:0:
365,221,4114,5,0,0:0:0:0:
443,277,4301,1,0,0:0:0:0:
445,149,4489,5,0,0:0:0:0:
389,144,4676,1,0,0:0:0:0:
352,101,4864,1,0,0:0:0:0:
357,45,5051,1,0,0:0:0:0:
269,117,5239,5,0,0:0:0:0:
332,40,5426,1,0,0:0:0:0:
194,23,5614,1,0,0:0:0:0:
306,36,5801,1,0,0:0:0:0:
180,116,5989,6,0,P|133:136|64:121,1,86.2500032901765
28,90,6176,1,0,0:0:0:0:
30,122,6270,1,0,0:0:0:0:
64,209,6364,1,0,0:0:0:0:
61,243,6457,2,0,P|56:272|39:336,1,86.2500032901765
124,354,6645,1,0,0:0:0:0:
150,334,6739,2,0,P|192:333|273:341,1,86.2500032901765
369,311,6926,2,0,P|337:274|344:216,1,86.2500032901765
446,183,7114,2,0,P|458:230|411:222,1,86.2500032901765
231,196,7301,2,0,P|218:243|266:235,1,86.2500032901765
340,117,7489,6,0,B|409:88|409:88|453:108|493:103|493:103|435:68,1,195.500003728867
346,23,7770,2,0,B|298:43|298:43|215:28|215:28|135:28,1,195.500003728867
217,121,8051,2,0,L|215:141,1,11.5
117,163,8239,2,0,P|62:153|44:43,1,172.500006580353
26,144,8520,2,0,B|16:210|16:210|38:242,1,86.2500032901765
44,316,8707,1,0,0:0:0:0:
30,349,8801,2,0,P|76:351|158:375,1,86.2500032901765
224,260,8989,6,0,P|211:274|200:309,1,46
300,364,9270,2,0,P|287:350|276:315,1,46
323,184,9551,1,0,0:0:0:0:
302,248,9645,1,0,0:0:0:0:
369,233,9739,2,0,P|407:227|420:228,3,28.75
401,239,9926,2,0,L|406:149,1,80.499997543335
456,42,10114,1,0,0:0:0:0:
456,42,10207,6,0,L|474:129,1,80.499997543335
368,77,10395,1,0,0:0:0:0:
377,52,10489,5,0,0:0:0:0:
239,194,10770,1,0,0:0:0:0:
139,57,11051,1,0,0:0:0:0:
155,90,11145,1,0,0:0:0:0:
104,55,11239,2,0,B|91:119|91:119|102:165,1,80.499997543335
175,305,11426,2,0,B|161:241|161:241|133:202,1,80.499997543335
80,78,11614,2,0,B|90:142|90:142|117:181,1,80.499997543335
190,291,11801,2,0,B|204:227|204:227|193:181,1,80.499997543335
12,271,11989,5,0,0:0:0:0:
166,189,12364,1,0,0:0:0:0:
320,108,12739,1,0,0:0:0:0:
474,26,13114,1,0,0:0:0:0:
506,291,13489,6,0,B|498:248|498:248|523:202|523:202|481:168,1,137.999995788574
402,135,13770,1,0,0:0:0:0:
402,135,13864,1,0,0:0:0:0:
363,242,14051,2,0,L|198:237,1,137.999995788574
160,204,14332,2,0,B|134:238|172:291,1,68.9999978942872
229,142,14614,2,0,B|198:118|198:118|93:118,1,137.999995788574
91,119,14848,1,0,0:0:0:0:
81,120,14895,1,0,0:0:0:0:
72,122,14942,1,0,0:0:0:0:
65,126,14989,5,0,0:0:0:0:
268,69,15176,5,0,0:0:0:0:
296,90,15270,2,0,P|351:89|385:62,1,68.9999978942872
280,34,15551,2,0,B|244:23|244:23|180:39|180:39|121:23,1,137.999995788574
106,0,15832,2,0,P|109:34|123:65,1,68.9999978942872
236,269,16114,6,0,P|203:311|139:254,1,137.999995788574
65,229,16395,1,0,0:0:0:0:
70,241,16489,1,0,0:0:0:0:
196,148,16676,5,0,0:0:0:0:
191,170,16770,1,0,0:0:0:0:
187,193,16864,1,0,0:0:0:0:
127,65,17051,2,0,B|150:32|150:32|245:32|245:32|273:72,1,172.500006580353
356,104,17332,2,0,B|364:126|364:126|381:93|381:93|354:104,1,86.2500032901765
316,197,17614,6,0,B|302:252|302:252|321:322|321:322|343:285|343:285|321:322|321:322|302:252|302:252|318:192,1,345.000013160706
395,227,17801,1,0,0:0:0:0:
362,197,17895,1,0,0:0:0:0:
316,197,17989,2,0,B|260:179|260:179|219:222|150:213,1,172.500006580353
76,185,18270,1,0,0:0:0:0:
67,186,18364,1,0,0:0:0:0:
8,328,18551,6,0,B|75:302|108:355|186:316,1,172.500006580353
316,197,18832,2,0,B|318:302,1,86.2500032901765
452,340,19114,2,0,P|434:271|456:153,1,172.500006580353
447,39,19395,1,0,0:0:0:0:
425,15,19489,6,0,P|399:46|351:43,1,74.7499965782167
346,114,19676,2,0,P|309:96|300:48,1,74.7499965782167
153,20,19864,6,0,P|117:38|110:86,1,74.7499965782167
39,76,20051,2,0,P|48:115|93:133,1,74.7499965782167
189,192,20239,2,0,L|182:302,1,74.7499965782167
84,321,20426,2,0,L|70:208,1,74.7499965782167
230,350,20614,2,0,P|211:355|159:338,1,74.7499965782167
189,192,20801,2,0,P|207:186|260:204,1,74.7499965782167
331,288,20989,6,0,P|386:332|433:294,1,89.7000030111695
439,101,21176,2,0,P|390:151|424:202,1,89.7000030111695
351,274,21364,6,0,P|415:301|450:251,1,89.7000030111695
428,126,21551,2,0,P|395:188|441:227,1,89.7000030111695
363,255,21739,6,0,P|432:263|452:206,1,89.7000030111695
428,152,21926,2,0,P|413:220|468:245,1,89.7000030111695
340,221,22114,6,0,P|316:287|367:319,1,89.7000030111695
399,199,22301,2,0,P|334:169|298:217,1,89.7000030111695
173,253,22489,6,0,L|103:196,1,89.7000030111695
166,69,22676,2,0,P|187:113|165:178,1,89.7000030111695
69,274,22864,2,0,P|76:225|130:184,1,89.7000030111695
166,357,23051,2,0,P|208:346|238:313,1,89.7000030111695
256,192,23239,102,0,B|-179:-1323|-179:-1323|8344:28403,1,32496.5,0|0,3:0|3:0,3:0:0:0:
256,192,23332,6,0,B|-206:-1315|-206:-1315|8835:28257,1,32496.5
256,192,23426,102,0,B|-232:-1307|-232:-1307|9324:28103,1,32496.5
256,192,23520,6,0,B|-258:-1298|-258:-1298|9809:27941,1,32496.5
256,192,23614,102,0,B|-284:-1289|-284:-1289|10292:27770,1,32496.5,0|0,3:0|3:0,3:0:0:0:
256,192,23707,6,0,B|-310:-1279|-310:-1279|10772:27591,1,32496.5
256,192,23801,102,0,B|-335:-1269|-335:-1269|11249:27403,1,32496.5
256,192,23895,6,0,B|-361:-1259|-361:-1259|11722:27207,1,32496.5
256,192,23989,102,0,B|-386:-1248|-386:-1248|12191:27003,1,32496.5,0|0,3:0|3:0,3:0:0:0:
256,192,24082,6,0,B|-411:-1236|-411:-1236|12658:26790,1,32496.5
256,192,24176,102,0,B|-436:-1224|-436:-1224|13120:26570,1,32496.5
256,192,24270,6,0,B|-485:-1199|-485:-1199|14033:26105,1,32496.5
256,192,24364,102,0,B|-533:-1173|-533:-1173|14929:25608,1,32496.5,0|0,3:0|3:0,3:0:0:0:
256,192,24457,6,0,B|-603:-1130|-603:-1130|16239:24805,1,32496.5
256,192,24551,102,0,B|-693:-1066|-693:-1066|17917:23630,1,32496.5
256,192,24645,102,0,B|-757:-1014|-757:-1014|19119:22674,1,32496.5,0|0,3:0|3:0,3:0:0:0:
227,178,24739,102,0,B|-1182:-447|-1182:-447|27065:12129,1,32430,0|0,3:0|3:0,3:0:0:0:
199,190,24832,102,0,B|-1317:110|-1317:110|29563:1728,1,32496.5,0|0,3:0|3:0,3:0:0:0:
193,216,24926,102,0,B|1726:-372|1726:-372|-27142:10707,1,32545,0|0,3:0|3:0,3:0:0:0:
209,241,25020,102,0,B|1370:-921|1370:-921|-20495:20942,1,32545,0|0,3:0|3:0,3:0:0:0:
243,243,25114,102,0,B|583:-1348|583:-1348|-5846:28897,1,32545,0|0,3:0|3:0,3:0:0:0:
264,213,25207,102,0,B|-507:-1184|-507:-1184|14482:25860,1,32487.5,0|0,3:0|3:0,3:0:0:0:
256,192,25301,102,0,B|-1249:-266|-1249:-266|28320:8774,1,32496.5,0|0,3:0|3:0,3:0:0:0:
141,139,25489,6,0,B|128:145|128:145|169:231|169:231|133:251,1,149.499993156433
141,150,25489,6,0,B|128:144|128:144|169:58|169:58|133:38,1,149.499993156433
218,309,25770,1,0,0:0:0:0:
298,293,25864,2,0,L|282:211,1,74.7499965782167
267,127,26051,2,0,L|251:45,1,74.7499965782167
361,151,26239,6,0,P|356:175|367:208,1,46
505,136,26520,2,0,P|412:138|244:44,1,275.999991577149
191,80,26801,5,0,0:0:0:0:
126,110,26895,1,0,0:0:0:0:
62,141,26989,2,0,B|74:262|74:262|126:288,1,149.499993156433
314,152,27270,2,0,P|391:112|545:177,1,206.999993682861
418,256,27551,1,0,0:0:0:0:
303,270,27645,6,0,P|337:351|205:309,1,310.499990524292
148,229,28020,1,0,0:0:0:0:
98,274,28114,6,0,B|111:253|111:253|-13:134|-13:134|90:176,1,258.75000987053
126,163,28301,2,0,B|104:152|104:152|25:160,1,86.2500032901765
294,153,28489,6,0,B|278:-71|278:-71|514:-93|514:-93|531:132|531:132|249:159,1,920
295,163,28489,6,0,B|279:387|279:387|515:409|515:409|532:184|532:184|250:157,1,920
195,92,28957,1,0,0:0:0:0:
200,118,29051,1,0,0:0:0:0:
139,210,29145,1,0,0:0:0:0:
113,219,29239,6,0,L|126:159,1,57.5
32,101,29426,2,0,L|45:161,1,57.5
145,294,29614,2,0,P|107:302|67:285,1,57.5
243,196,29801,2,0,P|281:188|321:205,1,57.5
457,164,29989,6,0,P|509:102|377:152,1,391.000007457733
433,164,30270,2,0,B|496:109|496:109|443:33|443:33|355:54|355:54|361:142|361:142,1,345.000013160706
422,164,30551,2,0,P|422:95|387:165,1,172.500006580353
324,276,30739,5,0,0:0:0:0:
243,196,30864,1,0,0:0:0:0:
238,334,30989,1,0,0:0:0:0:
308,235,31114,5,0,0:0:0:0:
159,266,31239,1,0,0:0:0:0:
313,350,31364,1,0,0:0:0:0:
155,181,31489,6,0,P|215:337|137:178,1,621.000002368927
130,177,31489,6,0,P|70:21|148:180,1,621.000002368927
153,98,31957,1,0,0:0:0:0:
224,36,32051,1,0,0:0:0:0:
257,52,32145,1,0,0:0:0:0:
340,32,32239,6,0,P|400:37|525:26,1,172.500006580353
90,301,32520,2,0,B|150:296|238:311|238:311|192:323,1,172.500006580353
27,125,32801,2,0,B|32:151|32:151|21:178|21:178|21:218,1,86.2500032901765
274,377,32989,2,0,P|318:348|197:269,1,230
164,196,33270,1,0,0:0:0:0:
182,186,33364,6,0,L|194:176,1,11.5
231,110,33645,2,0,B|164:109|150:42|150:42|199:-5|264:39,1,230
345,100,33926,1,0,0:0:0:0:
374,27,34020,1,0,0:0:0:0:
387,54,34114,2,0,P|401:98|404:166,1,86.2500032901765
325,343,34301,2,0,B|331:270|331:270|355:237,1,86.2500032901765
284,178,34489,5,0,0:0:0:0:
241,175,34582,1,0,0:0:0:0:
201,190,34676,1,0,0:0:0:0:
171,221,34770,1,0,0:0:0:0:
158,261,34864,5,0,0:0:0:0:
186,264,34957,1,0,0:0:0:0:
209,281,35051,1,0,0:0:0:0:
219,307,35145,1,0,0:0:0:0:
214,335,35239,5,0,0:0:0:0:
185,357,35332,1,0,0:0:0:0:
150,363,35426,1,0,0:0:0:0:
116,354,35520,1,0,0:0:0:0:
90,330,35614,5,0,0:0:0:0:
86,302,35707,1,0,0:0:0:0:
69,279,35801,1,0,0:0:0:0:
71,213,35895,1,0,0:0:0:0:
128,249,35989,1,0,0:0:0:0:
256,192,36082,12,0,37114,0:0:0:0:
420,37,37489,6,0,P|416:49|418:58,1,17.25
477,96,37864,2,0,P|408:88|339:112,1,115
221,41,38051,1,0,0:0:0:0:
190,34,38145,1,0,0:0:0:0:
197,66,38239,2,0,P|185:108|194:161,1,74.7499965782167
335,203,38426,1,0,0:0:0:0:
376,270,38520,2,0,B|315:287|315:287|288:275,1,74.7499965782167
200,213,38707,1,0,0:0:0:0:
131,242,38801,2,0,B|140:304|140:304|162:324,1,74.7499965782167
114,364,38989,6,0,P|70:340|-21:352,1,112.124994867325
0,277,39176,1,0,0:0:0:0:
13,309,39270,1,0,0:0:0:0:
33,281,39364,2,0,L|34:192,1,74.7499965782167
83,34,39551,2,0,L|82:123,1,74.7499965782167
284,172,39739,6,0,P|348:156|380:117,1,86.2500032901765
288,88,40020,2,0,P|266:121|267:152,1,51.7499984207154
362,237,40301,6,0,L|362:294,1,43.1250016450883
392,240,40395,2,0,L|412:283,1,43.1250016450883
418,224,40489,2,0,P|460:198|529:189,1,86.2500032901765
362,143,40676,1,0,0:0:0:0:
362,72,40770,1,0,0:0:0:0:
423,107,40864,5,0,0:0:0:0:
365,56,40957,1,0,0:0:0:0:
345,128,41051,1,0,0:0:0:0:
375,94,41145,1,0,0:0:0:0:
326,86,41239,2,0,P|265:85|216:87,1,86.2500032901765
152,176,41426,1,0,0:0:0:0:
152,176,41520,2,0,P|91:175|42:177,1,86.2500032901765
0,281,41707,5,0,0:0:0:0:
75,299,41801,1,0,0:0:0:0:
115,235,41895,1,0,0:0:0:0:
66,175,41989,2,0,P|39:197|29:249,1,86.2500032901765
185,340,42176,2,0,P|204:311|186:232,1,115
26,25,42364,2,0,P|19:38|84:183,1,172.500006580353
289,95,42551,2,0,P|194:63|78:99,1,195.500003728867
337,349,42739,6,0,P|357:326|366:289,1,63.2500019302369
17,235,43020,2,0,P|57:330|324:303,1,345.000013160706
286,8,43301,2,0,P|183:7|92:171,1,218.499994165421
362,184,43489,6,0,B|427:77|427:77|358:16|358:16|293:77|293:77|364:195|364:195|437:291|437:291|369:368|369:368|290:298|290:298|362:175|362:175|244:247|244:247|161:185|161:185|239:121|239:121|358:163|358:163|480:117|480:117|551:170|551:170|478:245|478:245|358:184|358:184,1,1840
22,71,44051,5,0,0:0:0:0:
38,118,44144,1,0,0:0:0:0:
30,167,44238,2,0,P|16:212|15:265,1,86.2500032901765
155,249,44426,2,0,P|158:296|176:345,1,86.2500032901765
156,85,44613,2,0,P|152:37|134:-11,1,86.2500032901765
281,167,44801,2,0,P|295:121|296:69,1,86.2500032901765
267,306,44988,6,0,P|255:78|282:185,1,1840
330,204,45269,6,0,P|236:110|308:190,1,1495
136,205,45551,6,0,P|265:175|191:203,1,1150
123,129,45644,2,0,B|117:98|122:71|122:71|119:83,4,57.5
195,261,46113,2,0,P|145:286|90:273,1,115
280,166,46488,1,0,0:0:0:0:
381,152,46613,5,0,0:0:0:0:
470,47,46738,1,0,0:0:0:0:
311,19,46863,5,0,0:0:0:0:
414,147,46988,1,0,0:0:0:0:
423,9,47113,1,0,0:0:0:0:
295,62,47238,5,0,0:0:0:0:
437,168,47363,1,0,0:0:0:0:
384,52,47488,1,0,0:0:0:0:
303,224,47613,5,0,0:0:0:0:
448,201,47738,1,0,0:0:0:0:
273,141,47863,1,0,0:0:0:0:
371,308,47988,6,0,P|385:337|382:303,11,76.6666666666667
345,319,48738,2,0,P|259:325|195:310,1,115
108,240,49113,1,0,0:0:0:0:
239,213,49301,1,0,0:0:0:0:
49,356,49488,1,0,0:0:0:0:
439,49,49863,6,0,P|488:79|328:95,1,474.375018095971
351,22,50988,6,0,B|304:42|267:14|267:14|235:87|235:87|146:46|128:135|76:126|30:92|30:92|61:81|102:108,1,431.250016450883
191,152,52113,1,0,0:0:0:0:
101,314,52300,2,0,L|99:228,1,86.2500032901765
280,292,52675,2,0,L|287:207,1,86.2500032901765
79,248,53050,2,0,L|82:346,1,86.2500032901765
307,227,53425,2,0,L|299:331,1,86.2500032901765
431,288,53800,1,0,0:0:0:0:
369,123,53988,5,0,0:0:0:0:
491,161,54175,1,0,0:0:0:0:
350,136,54363,1,0,0:0:0:0:
502,141,54550,2,0,L|552:134,2,43.1250016450883
311,48,54925,1,0,0:0:0:0:
448,60,55113,1,0,0:0:0:0:
362,216,55300,1,0,0:0:0:0:
221,254,55488,6,0,P|163:280|109:278,1,115
36,340,55769,1,0,0:0:0:0:
36,340,55863,2,0,L|34:269,1,57.5
112,278,56050,2,0,L|114:207,1,57.5
12,41,56238,6,0,B|62:44|67:51|67:51|68:60|149:58,1,115
215,107,56519,1,0,0:0:0:0:
215,107,56613,2,0,L|169:149,1,57.5
166,19,56800,2,0,L|120:61,1,57.5
289,53,56988,6,0,P|357:72|424:49,1,115
340,108,57269,1,0,0:0:0:0:
340,108,57363,2,0,L|341:173,1,57.5
451,141,57550,2,0,L|452:206,1,57.5
504,351,57738,6,0,B|464:359|464:359|372:349,1,115
289,288,58019,1,0,0:0:0:0:
289,288,58113,2,0,L|360:269,1,57.5
230,384,58300,2,0,L|301:365,1,57.5
181,313,58488,6,0,P|131:297|29:319,1,115
1,249,58769,1,0,0:0:0:0:
1,249,58863,2,0,L|5:176,1,57.5
107,200,59050,2,0,L|103:127,1,57.5
194,17,59238,6,0,P|210:64|193:141,1,115
114,71,59519,1,0,0:0:0:0:
114,71,59613,2,0,L|188:74,1,57.5
281,116,59800,2,0,L|355:119,1,57.5
464,64,59988,5,0,0:0:0:0:
480,96,60363,1,0,0:0:0:0:
473,132,60738,1,0,0:0:0:0:
440,148,61113,1,0,0:0:0:0:
220,192,61488,6,0,P|140:170|14:204,1,172.500006580353
133,254,61769,2,0,B|126:349,1,57.5
224,103,62050,1,0,0:0:0:0:
460,209,62238,5,0,0:0:0:0:
473,168,62331,1,0,0:0:0:0:
474,125,62425,1,0,0:0:0:0:
346,41,62613,1,0,0:0:0:0:
354,212,62800,6,0,L|357:277,1,57.5
458,310,62988,2,0,B|409:292|409:292|276:318,1,172.500006580353
207,262,63269,1,0,0:0:0:0:
207,262,63363,1,0,0:0:0:0:
52,118,63550,2,0,P|116:106|227:103,1,172.500006580353
258,116,63831,1,0,0:0:0:0:
258,116,63925,1,0,0:0:0:0:
298,108,64019,1,0,0:0:0:0:
340,121,64113,5,0,0:0:0:0:
159,190,64300,1,0,0:0:0:0:
428,11,64488,2,0,B|449:56|449:56|449:187,1,172.500006580353
362,235,64769,2,0,L|362:309,1,57.5
294,124,65050,2,0,P|231:92|85:125,1,172.500006580353
62,177,65331,1,0,0:0:0:0:
62,177,65425,2,0,L|54:241,1,57.5
140,313,65613,5,0,0:0:0:0:
447,266,65800,1,0,0:0:0:0:
151,160,65988,2,0,P|129:111|188:1,1,172.500006580353
207,9,66269,1,0,0:0:0:0:
207,9,66363,1,0,0:0:0:0:
25,102,66550,1,0,0:0:0:0:
236,112,66738,5,0,0:0:0:0:
246,129,66831,1,0,0:0:0:0:
249,164,66925,1,0,0:0:0:0:
236,208,67019,1,0,0:0:0:0:
194,243,67113,1,0,0:0:0:0:
415,116,67300,1,0,0:0:0:0:
328,330,67488,6,0,P|376:350|415:345,1,57.5
473,247,67675,2,0,L|349:275,1,86.2500032901765
142,336,67863,2,0,P|117:304|124:256,1,57.5
192,156,68050,2,0,L|194:274,1,86.2500032901765
388,265,68238,2,0,P|416:247|436:206,1,57.5
332,203,68425,2,0,L|263:280,1,86.2500032901765
142,336,68613,6,0,P|102:343|62:334,1,57.5
19,232,68800,2,0,L|124:267,1,86.2500032901765
192,156,68988,2,0,P|135:162|95:183,1,86.2500032901765
274,267,69175,2,0,P|331:261|371:240,1,86.2500032901765
176,135,69363,2,0,P|129:168|105:206,1,86.2500032901765
297,256,69550,2,0,P|343:222|367:184,1,86.2500032901765
307,11,69738,6,0,P|288:54|302:114,1,86.2500032901765
446,163,69925,2,0,L|448:66,1,86.2500032901765
325,34,70113,2,0,P|306:77|320:137,1,86.2500032901765
464,186,70300,2,0,L|466:89,1,86.2500032901765
256,192,70488,6,0,L|256:253,1,57.5
256,192,70675,6,0,L|256:253,1,57.5
256,192,70863,6,0,L|256:253,1,57.5
256,192,71050,6,0,L|256:253,1,57.5
255,193,71238,38,0,B|255:-3|255:-3|256:260|256:260|256:260|256:260|427:260|427:260|256:260|256:260|81:261|81:261|256:260|256:260|258:30397,1,31260.5
256,194,71331,6,0,B|249:-2|249:-2|259:260|259:260|259:260|259:260|429:255|429:255|259:260|259:260|84:267|84:267|259:260|259:260|1311:30378,1,31214.1509525803
256,194,71425,102,0,B|239:-2|239:-2|262:260|262:260|262:260|262:260|432:245|432:245|262:260|262:260|88:275|88:275|262:260|262:260|2889:30282,1,31260.5
256,194,71519,6,0,B|222:1|222:1|268:259|268:259|268:259|268:259|436:230|436:230|268:259|268:259|96:290|96:290|268:259|268:259|5502:29938,1,31260.5
256,194,71613,102,0,B|195:7|195:7|278:257|278:257|278:257|278:257|439:205|439:205|278:257|278:257|111:311|111:311|278:257|278:257|9590:28918,1,31260.5
256,194,71706,6,0,B|183:12|183:12|282:256|282:256|282:256|282:256|440:192|440:192|282:256|282:256|120:321|120:321|282:256|282:256|11572:28197,1,31260.5
256,194,71800,102,0,B|167:19|167:19|287:253|287:253|287:253|287:253|439:176|439:176|287:253|287:253|131:333|131:333|287:253|287:253|13969:27104,1,31260.5
256,194,71894,6,0,B|147:31|147:31|295:249|295:249|295:249|295:249|435:154|435:154|295:249|295:249|149:347|149:347|295:249|295:249|17147:25232,1,31260.5
258,194,71988,102,0,B|71:132|71:132|321:213|321:213|321:213|321:213|374:51|374:51|321:213|321:213|267:379|267:379|321:213|321:213|28981:9524,1,31260.5
256,194,72081,6,0,B|64:217|64:217|324:184|324:184|324:184|324:184|303:15|303:15|324:184|324:184|345:357|345:357|324:184|324:184|30234:-3490,1,31222.5
258,193,72175,102,0,B|90:293|90:293|316:156|316:156|316:156|316:156|227:11|227:11|316:156|316:156|406:307|406:307|316:156|316:156|26144:-15365,1,31260.5
258,191,72269,6,0,B|172:367|172:367|286:130|286:130|286:130|286:130|133:56|133:56|286:130|286:130|443:207|443:207|286:130|286:130|13494:-26956,1,31260.5
256,190,72363,102,0,B|363:354|363:354|219:134|219:134|219:134|219:134|76:227|76:227|219:134|219:134|366:39|366:39|219:134|219:134|-16195:-25139,1,31260.5
254,190,72456,102,0,B|442:247|442:247|191:170|191:170|191:170|191:170|141:333|141:333|191:170|191:170|241:3|241:3|191:170|191:170|-28628:-8638,1,31260.5
254,190,72550,102,0,B|444:143|444:143|189:206|189:206|189:206|189:206|231:372|231:372|189:206|189:206|146:37|146:37|189:206|189:206|-29050:7500,1,31260.5
254,191,72644,102,0,B|397:58|397:58|205:236|205:236|205:236|205:236|322:362|322:362|205:236|205:236|86:109|86:109|205:236|205:236|-21833:20792,1,31260.5
254,192,72738,102,0,B|334:13|334:13|227:253|227:253|227:253|227:253|383:323|383:323|227:253|227:253|67:182|67:182|227:253|227:253|-12028:27786,1,31260.5
254,192,72831,102,0,B|258:-2|258:-2|253:259|253:259|253:259|253:259|424:262|424:262|253:259|253:259|78:256|78:256|253:259|253:259|-269:30392,1,31260.5
255,193,72925,102,0,B|172:15|172:15|283:254|283:254|283:254|283:254|438:181|438:181|283:254|283:254|124:328|124:328|283:254|283:254|13022:27566,1,31260.5
255,192,73019,102,0,B|101:71|101:71|308:234|308:234|308:234|308:234|414:99|414:99|308:234|308:234|201:372|201:372|308:234|308:234|24058:18787,1,31260.5
257,192,73113,6,0,B|243:151|243:151|257:105|257:105|245:61|245:61|257:105|257:105|243:151|243:151|252:191,1,258.75000987053
255,192,73113,6,0,B|244:222|244:222|258:268|258:268|246:312|246:312|258:268|258:268|244:222|244:222|253:182,1,258.75000987053
257,192,73113,6,0,B|291:184|291:184|337:199|337:199|381:186|381:186|337:198|337:198|291:184|291:184|251:194,1,258.75000987053
257,192,73113,6,0,B|223:184|223:184|177:199|177:199|133:186|133:186|177:198|177:198|223:184|223:184|263:194,1,258.75000987053
59,107,73488,6,0,B|5:104|5:104|-10:39|-10:39|53:5|53:5|106:49|106:49|23:252,1,460
76,348,73863,6,0,P|141:325|212:345,1,126.500003860474
294,289,74050,1,0,0:0:0:0:
292,324,74144,1,0,0:0:0:0:
392,308,74238,1,0,0:0:0:0:
399,322,74331,2,0,L|384:191,1,126.500003860474
294,31,74519,1,0,0:0:0:0:
210,66,74613,2,0,L|72:72,1,126.500003860474
0,146,74800,1,0,0:0:0:0:
2,183,74894,1,0,0:0:0:0:
30,207,74988,6,0,B|7:275|-113:273|-147:170|-2:53|63:153|28:315|280:198,1,460
105,358,75363,1,0,0:0:0:0:
175,305,75456,2,0,P|231:319|260:352,1,86.2500032901765
371,308,75644,1,0,0:0:0:0:
298,271,75738,1,0,0:0:0:0:
399,302,75831,2,0,L|393:200,1,86.2500032901765
464,25,76019,1,0,0:0:0:0:
402,76,76113,1,0,0:0:0:0:
332,38,76206,2,0,L|209:47,1,86.2500032901765
201,198,76394,1,0,0:0:0:0:
197,220,76488,6,0,P|205:394|95:258,1,460
94,258,76863,1,0,0:0:0:0:
121,172,76956,2,0,B|74:172|74:172|51:187|51:187|-4:187,1,126.500003860474
0,20,77144,1,0,0:0:0:0:
27,63,77238,1,0,0:0:0:0:
46,16,77331,2,0,B|139:13|139:13|174:-8,1,126.500003860474
327,125,77519,1,0,0:0:0:0:
391,79,77613,2,0,B|484:82|484:82|519:103,1,126.500003860474
416,360,77800,2,0,B|398:268|398:268|410:229,1,126.500003860474
512,243,77988,6,0,B|462:258|462:258|429:218|421:211|421:211|423:205|423:205|419:209|419:209|363:200|363:200|304:221|294:231|294:231|292:234|292:234|290:231|290:231|224:204|151:240,1,345.000013160706
29,328,78363,5,0,0:0:0:0:
29,328,78456,2,0,P|49:282|28:169,1,86.2500032901765
312,53,78644,5,0,0:0:0:0:
238,22,78738,6,0,P|238:73|282:135,1,86.2500032901765
156,115,78924,1,0,0:0:0:0:
111,117,79018,1,0,0:0:0:0:
74,133,79112,1,0,0:0:0:0:
106,109,79206,1,0,0:0:0:0:
159,105,79300,1,0,0:0:0:0:
409,164,79488,6,0,B|338:106|416:67|416:67|519:131|385:191|271:207,1,345.000013160706
252,254,79863,1,0,0:0:0:0:
169,209,79956,2,0,B|111:189|96:223|43:209,1,126.500003860474
74,133,80144,1,0,0:0:0:0:
63,225,80238,2,0,B|95:277|95:277|171:308,1,126.500003860474
248,301,80425,5,0,0:0:0:0:
252,254,80519,1,0,0:0:0:0:
293,278,80613,1,0,0:0:0:0:
293,321,80706,1,0,0:0:0:0:
330,298,80800,1,0,0:0:0:0:
391,64,80988,6,0,B|411:0|502:4|553:44|549:151|474:171|474:171|490:63,1,345.000013160706
392,220,81363,1,0,0:0:0:0:
409,312,81456,2,0,P|441:329|519:296,1,115.000004386902
324,281,81644,1,0,0:0:0:0:
326,306,81738,1,0,0:0:0:0:
248,306,81831,2,0,B|204:328|176:293|127:314,1,115
99,335,82019,2,0,L|91:275,2,34.4999989471436
10,304,82300,5,0,0:0:0:0:
0,227,82393,1,0,0:0:0:0:
58,176,82488,6,0,P|137:193|261:145,1,172.500006580353
324,32,82769,2,0,P|271:31|232:45,1,86.2500032901765
248,306,83050,2,0,P|291:318|310:312,1,46
456,65,83331,2,0,P|440:51|433:49,1,23
399,65,83613,5,0,0:0:0:0:
370,95,83706,1,0,0:0:0:0:
371,137,83800,1,0,0:0:0:0:
394,172,83893,1,0,0:0:0:0:
401,213,83988,2,0,P|364:264|239:190,1,230
255,98,84269,5,0,0:0:0:0:
260,74,84363,2,0,B|239:33|239:33|204:31|204:31|201:27|201:27|196:31|196:31|161:33|161:33|143:45|143:45|98:37|71:78|71:78,1,215.625
66,96,84550,2,0,L|63:110,7,8.6249997367859
92,124,84925,5,0,0:0:0:0:
127,221,85018,1,0,0:0:0:0:
166,319,85113,2,0,B|196:358|196:358|225:306,1,86.2500032901765
320,163,85300,2,0,B|290:124|290:124|261:176,1,86.2500032901765
389,238,85488,5,0,0:0:0:0:
389,238,85863,6,0,P|389:308|355:352,1,86.2500032901765
407,165,86050,2,0,P|407:95|441:51,1,86.2500032901765
503,114,86238,2,0,L|444:103,1,57.5
331,46,86425,2,0,L|261:49,1,57.5
124,81,86613,2,0,P|168:73|223:136,1,115
274,197,86800,1,0,0:0:0:0:
273,173,86894,1,0,0:0:0:0:
184,192,86988,6,0,B|152:212|92:172|56:192,1,129.375004935265
72,212,87175,2,0,L|72:302,1,57.5
184,290,87363,6,0,B|216:306|264:274|296:290,1,115
286,299,87550,2,0,L|286:389,1,57.5
392,296,87738,2,0,L|392:236,1,57.5
440,52,87925,2,0,L|440:109,1,57.5
480,272,88113,2,0,L|480:212,1,57.5
356,20,88300,2,0,L|356:77,1,57.5
172,279,88488,5,0,0:0:0:0:
172,279,88581,1,0,0:0:0:0:
172,279,88675,2,0,B|176:219|176:219|156:175,1,86.2500032901765
8,8,88863,5,0,0:0:0:0:
8,8,88956,1,0,0:0:0:0:
8,8,89050,2,0,B|4:68|4:68|24:112,1,86.2500032901765
248,156,89238,6,0,P|264:140|224:120,1,86.2500032901765
27,254,89425,2,0,P|-3:215|43:199,1,115
172,279,89613,2,0,B|180:311|180:311|168:331|168:331|164:367|164:367|180:387,1,115
127,122,89800,2,0,B|119:90|119:90|131:70|131:70|135:34|135:34|119:14,1,115
248,156,89988,6,0,P|326:148|381:159,1,129.375004935265
395,181,90175,2,0,P|433:172|401:139,1,86.2500032901765
318,226,90363,2,0,B|304:253|304:253|304:311,1,86.2500032901765
381,263,90550,2,0,B|395:236|395:236|395:178,1,86.2500032901765
366,50,90738,6,0,P|303:32|232:41,1,115
97,85,91019,2,0,P|61:78|53:55,1,57.5
133,7,91300,2,0,L|111:195,1,172.500006580353
119,202,91863,5,0,0:0:0:0:
125,221,92238,1,0,0:0:0:0:
132,241,92613,1,0,0:0:0:0:
223,314,92800,6,0,B|229:299|218:288|224:272,1,43.1250016450883
251,276,92988,1,0,0:0:0:0:
280,288,93363,1,0,0:0:0:0:
306,308,93738,6,0,P|322:270|324:247,1,45.9999985961914
270,172,93863,2,0,P|268:213|275:235,1,45.9999985961914
377,229,93988,2,0,P|348:198|328:187,1,45.9999985961914
190,187,94113,1,0,0:0:0:0:
312,225,94238,1,0,0:0:0:0:
290,95,94363,1,0,0:0:0:0:
200,284,94488,6,0,L|116:274,1,68.9999978942872
204,100,94675,2,0,L|120:110,1,68.9999978942872
138,294,94863,6,0,L|19:307,1,115
138,90,95050,2,0,L|19:77,1,115
152,192,95238,5,0,0:0:0:0:
166,192,95331,1,0,0:0:0:0:
181,192,95425,1,0,0:0:0:0:
196,192,95519,1,0,0:0:0:0:
211,192,95613,5,0,0:0:0:0:
225,192,95706,1,0,0:0:0:0:
240,192,95800,1,0,0:0:0:0:
255,192,95894,1,0,0:0:0:0:
243,192,95988,6,0,B|223:192|223:192|245:192,1,40.25
256,179,95988,6,0,B|256:159|256:159|256:181,1,40.25
256,205,95988,6,0,B|256:225|256:225|256:203,1,40.25
269,192,95988,6,0,B|289:192|289:192|267:192,1,40.25
256,204,96738,6,0,L|256:268,1,57.5
244,192,96738,6,0,L|180:192,1,57.5
256,180,96738,2,0,L|256:116,1,57.5
268,192,96738,2,0,L|332:191,1,57.5
310,137,96925,6,0,L|265:182,1,57.5
310,246,96925,6,0,L|265:201,1,57.5
201,246,96925,2,0,L|246:201,1,57.5
201,137,96925,2,0,L|246:182,1,57.5
265,235,97113,6,0,P|489:168|257:190,1,690
255,190,97113,6,0,P|72:288|255:192,1,690
255,190,97488,6,0,L|419:211,1,126.500003860474
512,121,97675,2,0,L|380:135,1,126.500003860474
400,283,97863,2,0,P|430:311|459:313,1,57.5
386,134,98050,2,0,P|356:106|327:104,1,57.5
285,317,98238,6,0,B|166:342|151:192|62:226,1,253.000007720947
96,96,98519,1,0,0:0:0:0:
18,82,98613,2,0,P|-12:119|26:166,1,86.2500032901765
46,291,98800,2,0,L|68:210,1,68.9999978942872
212,37,98988,5,0,0:0:0:0:
212,37,99081,1,0,0:0:0:0:
212,37,99175,2,0,B|207:89|207:89|222:120,1,86.2500032901765
401,233,99363,5,0,0:0:0:0:
401,233,99456,1,0,0:0:0:0:
401,233,99550,2,0,B|405:182|405:182|391:150,1,86.2500032901765
286,9,99738,6,0,P|353:-7|420:20,1,129.375004935265
420,31,99925,2,0,B|365:46,1,43.1250016450883
120,208,100113,6,0,P|78:208|20:178,1,86.25
13,174,100300,2,0,L|44:172,1,28.75
250,275,100488,6,0,B|163:277,1,86.2500032901765
83,338,100675,1,0,0:0:0:0:
78,309,100769,1,0,0:0:0:0:
161,316,100863,1,0,0:0:0:0:
163,277,100956,6,0,B|250:275,1,86.2500032901765
404,299,101144,1,0,0:0:0:0:
404,299,101238,2,0,P|390:253|408:205,1,86.2500032901765
416,74,101425,2,0,L|424:42,2,21.5625008225441
396,105,101613,5,0,0:0:0:0:
361,115,101706,1,0,0:0:0:0:
326,116,101800,1,0,0:0:0:0:
291,106,101894,1,0,0:0:0:0:
261,87,101988,5,0,0:0:0:0:
261,169,102081,1,0,0:0:0:0:
212,102,102175,1,0,0:0:0:0:
290,128,102269,1,0,0:0:0:0:
212,153,102363,5,0,0:0:0:0:
248,127,102456,1,0,0:0:0:0:
261,169,102550,1,0,0:0:0:0:
241,144,102644,1,0,0:0:0:0:
234,163,102738,6,0,P|246:249|274:276,1,115
424,200,103019,2,0,P|390:201|377:205,1,46
258,368,103300,2,0,P|319:382|394:352,1,115
503,158,103488,6,0,P|462:129|381:115,1,115
350,53,103675,2,0,B|368:104|368:104|413:119,1,86.2500032901765
338,267,103863,2,0,B|194:297|194:297|135:285,1,184
26,23,104050,2,0,B|22:46|22:46|46:146,1,126.500003860474
133,62,104238,5,0,0:0:0:0:
140,104,104331,1,0,0:0:0:0:
171,60,104425,1,0,0:0:0:0:
165,112,104519,2,0,L|170:144,1,21.5625008225441
220,67,104613,1,0,0:0:0:0:
219,110,104706,1,0,0:0:0:0:
267,64,104800,1,0,0:0:0:0:
270,116,104894,1,0,0:0:0:0:
364,79,104988,5,0,0:0:0:0:
405,79,105081,1,0,0:0:0:0:
439,105,105175,1,0,0:0:0:0:
451,146,105269,1,0,0:0:0:0:
375,102,105363,5,0,0:0:0:0:
399,126,105456,1,0,0:0:0:0:
404,163,105550,1,0,0:0:0:0:
387,195,105644,1,0,0:0:0:0:
362,128,105738,5,0,0:0:0:0:
369,146,105831,1,0,0:0:0:0:
363,168,105925,1,0,0:0:0:0:
346,182,106019,1,0,0:0:0:0:
292,248,106113,6,0,B|315:260|315:260|428:239,1,132.250002522469
251,174,106300,2,0,B|230:190|230:190|207:300,1,132.250002522469
166,360,106488,5,0,0:0:0:0:
121,373,106581,1,0,0:0:0:0:
76,377,106675,1,0,0:0:0:0:
30,370,106769,1,0,0:0:0:0:
36,286,106863,5,0,0:0:0:0:
64,271,106956,1,0,0:0:0:0:
93,263,107050,1,0,0:0:0:0:
125,261,107144,1,0,0:0:0:0:
177,187,107238,5,0,0:0:0:0:
120,164,107331,1,0,0:0:0:0:
59,160,107425,1,0,0:0:0:0:
0,175,107519,1,0,0:0:0:0:
41,73,107613,6,0,P|89:65|158:111,1,92
255,228,107800,2,0,P|207:215|162:147,1,92
320,69,107989,5,0,0:0:0:0:
339,150,108113,1,0,0:0:0:0:
260,128,108238,1,0,0:0:0:0:
344,166,108364,5,0,0:0:0:0:
332,59,108488,1,0,0:0:0:0:
244,122,108613,1,0,0:0:0:0:
394,62,108739,5,0,0:0:0:0:
238,42,108863,1,0,0:0:0:0:
299,185,108988,1,0,0:0:0:0:
171,74,109114,2,0,B|154:67|154:67|156:86|156:86|144:67|144:67|149:86|149:86|130:66|130:66|135:89|135:89|120:68|120:68|123:91|123:91|110:70|110:70|114:91|114:91|98:71|98:71|104:93|104:93|90:75|90:75|95:93|95:93|85:83|85:83|154:75|154:75|154:75|154:75|-9:96,1,517.500019741059
36,90,109863,6,0,P|19:162|50:267,1,126.500003860474
324,348,110050,2,0,B|288:334|288:334|145:333,1,126.500003860474
146,242,110238,2,0,B|63:212|63:212|24:213,1,126.500003860474
273,265,110425,2,0,B|285:218|285:218|267:109,1,126.500003860474
159,21,110613,5,0,0:0:0:0:
155,76,110706,1,0,0:0:0:0:
152,131,110800,1,0,0:0:0:0:
148,186,110894,1,0,0:0:0:0:
145,241,110988,6,0,B|135:295|122:302|122:302|90:299|59:256|45:196,1,126.500003860474
155,76,111175,2,0,B|191:65|191:65|380:79,1,126.500003860474
426,211,111363,2,0,B|453:242|453:242|424:278|424:278|371:256,1,126.500003860474
384,28,111550,2,0,B|392:-4|419:-31|419:-31|450:36|449:59,1,126.500003860474
331,248,111738,1,0,0:0:0:0:
298,296,111831,1,0,0:0:0:0:
335,341,111925,1,0,0:0:0:0:
390,321,112019,1,0,0:0:0:0:
387,262,112113,6,0,L|238:259,1,126.500003860474
210,181,112300,2,0,L|61:184,1,126.500003860474
0,274,112488,1,0,0:0:0:0:
150,106,112675,5,0,0:0:0:0:
45,93,112769,1,0,0:0:0:0:
150,65,112863,1,0,0:0:0:0:
45,52,112957,1,0,0:0:0:0:
150,24,113050,1,0,0:0:0:0:
345,86,113238,5,0,0:0:0:0:
450,73,113332,1,0,0:0:0:0:
345,45,113426,1,0,0:0:0:0:
450,32,113520,1,0,0:0:0:0:
345,4,113613,1,0,0:0:0:0:
300,199,113800,5,0,0:0:0:0:
324,193,113894,2,0,P|359:250|285:240,1,126.500003860474
251,302,114081,1,0,0:0:0:0:
181,330,114175,1,0,0:0:0:0:
193,254,114269,1,0,0:0:0:0:
206,295,114363,2,0,B|156:307|97:274|97:274|35:292,1,160.99999508667
0,209,114644,5,0,0:0:0:0:
35,195,114738,2,0,P|67:169|52:91,1,115
0,40,115019,2,0,P|39:57|58:56,1,51.7499984207154
194,115,115300,2,0,P|155:132|132:132,1,57.5
61,100,115488,5,0,0:0:0:0:
249,32,115863,1,0,0:0:0:0:
218,248,116050,2,0,L|206:183,1,57.5
194,115,116238,5,0,0:0:0:0:
194,115,116519,5,0,0:0:0:0:
194,115,116800,5,0,0:0:0:0:
332,139,116988,5,0,0:0:0:0:
194,115,117269,5,0,0:0:0:0:
332,139,117550,5,0,0:0:0:0:
332,139,117831,5,0,0:0:0:0:
332,139,118113,5,0,0:0:0:0:
332,139,118300,6,0,L|332:174,1,28.75
348,174,118394,6,0,L|361:213,1,28.75
346,221,118488,2,0,P|313:232|245:222,1,57.5
103,209,118738,5,0,0:0:0:0:
73,92,118863,1,0,0:0:0:0:
189,64,118988,1,0,0:0:0:0:
218,179,119113,1,0,0:0:0:0:
80,230,119238,5,0,0:0:0:0:
142,48,119363,1,0,0:0:0:0:
214,195,119488,1,0,0:0:0:0:
28,161,119613,5,0,0:0:0:0:
211,94,119738,1,0,0:0:0:0:
172,287,119863,1,0,0:0:0:0:
123,130,119988,6,0,P|168:107|270:131,1,129.375004935265
298,114,120363,2,0,P|260:76|290:32,1,115
384,64,120738,6,0,B|384:144|384:144|384:176|384:176|384:96|384:96|384:256,1,345.000013160706
117,71,121488,5,0,0:0:0:0:
130,181,121769,1,0,0:0:0:0:
147,296,122050,1,0,0:0:0:0:
238,118,122331,1,0,0:0:0:0:
255,233,122612,1,0,0:0:0:0:
432,347,122800,6,0,L|423:271,1,57.5
422,262,122988,5,0,0:0:0:0:
405,147,123269,1,0,0:0:0:0:
392,37,123550,1,0,0:0:0:0:
308,166,123831,1,0,0:0:0:0:
371,51,124113,1,0,0:0:0:0:
249,93,124300,6,0,P|188:90|152:73,1,57.5
105,51,124488,1,0,0:0:0:0:
232,187,124769,1,0,0:0:0:0:
56,175,125050,5,0,0:0:0:0:
69,151,125144,1,0,0:0:0:0:
98,145,125238,2,0,P|102:180|89:234,1,57.5
20,252,125425,2,0,P|16:217|29:163,1,57.5
141,171,125613,2,0,P|145:211|130:274,1,57.5
49,317,125800,2,0,P|44:276|59:213,1,57.5
175,335,125988,5,0,0:0:0:0:
175,335,126363,1,0,0:0:0:0:
175,335,126738,1,0,0:0:0:0:
175,335,127113,6,0,B|711:147|711:147|672:-263|672:-263|272:-262|272:-262|144:341|144:341|89:880|89:880|-368:924|-368:924|-413:453|-413:453|198:270|198:270|-408:145|-408:145|-491:-311|-491:-311|-39:-283|-39:-283|222:218|222:218|763:440|763:440|834:832|834:832|365:854|365:854|158:287|158:287,1,8050
