osu file format v14

[General]
AudioFilename: audio.mp3
AudioLeadIn: 0
PreviewTime: 49726
Countdown: 0
SampleSet: Soft
StackLeniency: 0.2
Mode: 0
LetterboxInBreaks: 0
WidescreenStoryboard: 0

[Editor]
Bookmarks: 6039,13539,19539,25539,37914,49914,61539,67539,73539,85632,96039
DistanceSpacing: 0.8
BeatDivisor: 4
GridSize: 16
TimelineZoom: 4.299998

[Metadata]
Title:Libertas [from Arcaea]
TitleUnicode:Libertas [from Arcaea]
Artist:Zekk
ArtistUnicode:Zekk
Creator:Lord_Omega
Version:Shattered
Source:Arcaea
Tags:
BeatmapID:1965532
BeatmapSetID:941182

[Difficulty]
HPDrainRate:5.3
CircleSize:4
OverallDifficulty:7
ApproachRate:9.5
SliderMultiplier:2.4
SliderTickRate:4

[Events]
//Background and Video events
0,0,"27339.png",0,0
//Break Periods
//Storyboard Layer 0 (Background)
//Storyboard Layer 1 (Fail)
//Storyboard Layer 2 (Pass)
//Storyboard Layer 3 (Foreground)
//Storyboard Layer 4 (Overlay)
//Storyboard Sound Samples

[TimingPoints]
1539,375,4,1,0,70,1,0
1914,-100,4,2,0,85,0,0
4539,-200,4,2,0,75,0,0
6039,-55.5555555555556,4,1,0,75,0,0
6976,-43.4782608695652,4,1,0,70,0,0
7164,-32.258064516129,4,1,0,70,0,0
7539,-55.5555555555556,4,1,0,70,0,0
9039,-133.333333333333,4,1,0,100,0,0
9976,-55.5555555555556,4,1,0,100,0,0
12039,-55.5555555555556,4,2,0,100,0,0
13164,-50,4,1,0,70,0,0
13914,-83.3333333333333,4,1,0,70,0,0
16164,-500,4,1,0,70,0,0
16539,-83.3333333333333,4,1,0,70,0,0
21226,-100,4,1,0,75,0,0
22539,-55.5555555555556,4,1,0,70,0,0
25164,-100,4,1,0,70,0,0
25539,-40,4,1,0,70,0,0
26289,-66.6666666666667,4,1,0,75,0,0
30039,-66.6666666666667,4,2,0,85,0,0
31164,-66.6666666666667,4,1,0,70,0,0
31539,-133.333333333333,4,1,0,75,0,0
31914,-55.5555555555556,4,1,0,75,0,0
37539,-100,4,1,0,75,0,0
37914,-133.333333333333,4,2,0,85,0,0
43539,-66.6666666666667,4,1,0,75,0,0
46539,-133.333333333333,4,2,0,75,0,0
49914,-133.333333333333,4,1,0,70,0,0
60976,-55.5555555555556,4,1,0,75,0,0
61539,-55.5555555555556,4,1,0,100,0,0
67539,-100,4,1,0,75,0,0
73539,-55.5555555555556,4,1,0,75,0,1
78085,-66.6666666666667,4,1,0,70,0,1
79164,-55.5555555555556,4,1,0,70,0,1
79539,-43.4782608695652,4,1,0,75,0,1
80289,-66.6666666666667,4,1,0,75,0,1
81039,-50,4,1,0,75,0,1
81789,-40,4,1,0,75,0,1
82351,-66.6666666666667,4,1,0,75,0,1
85539,-100,4,1,0,75,0,0
96039,-500,4,1,0,75,0,0
96789,-100,4,2,0,85,0,0
99976,-55.5555555555556,4,2,0,85,0,0
103164,-100,4,2,0,85,0,0
106164,-100,4,2,0,5,0,0

[Colours]
Combo1 : 255,192,0
Combo2 : 0,255,64
Combo3 : 0,128,192
Combo4 : 255,0,128

[HitObjects]
256,192,414,12,0,1539,0:0:0:0:
135,33,1914,37,2,3:0:0:0:
72,166,2101,1,0,0:0:0:0:
187,150,2289,2,0,B|201:138|201:138|229:130|229:130|274:92,2,60
342,188,2664,1,0,0:0:0:0:
342,188,2851,1,0,0:0:0:0:
275,308,3039,2,0,P|240:349|209:331,2,60
414,352,3414,1,2,3:0:0:0:
35,342,3789,5,0,0:0:0:0:
180,287,3976,1,0,0:0:0:0:
187,150,4164,1,0,0:0:0:0:
71,202,4351,1,0,0:0:0:0:
36,46,4539,6,0,P|65:41|90:57,1,60
144,214,4914,1,2,3:0:0:0:
261,64,5101,1,0,0:0:0:0:
344,281,5476,2,0,B|322:265|322:265|292:235,1,60
245,161,5851,1,0,0:0:0:0:
448,36,6039,6,4,B|470:134|470:134|475:252,1,215.999993408203,4|4,3:1|0:3,0:3:0:0:
464,252,6320,1,0,0:0:0:0:
485,247,6413,1,0,0:0:0:0:
477,265,6507,1,8,1:0:0:0:
252,106,6601,2,0,B|233:83|233:83|198:67,2,53.9999983520508
105,183,6789,2,0,B|133:182|133:182|167:159,2,53.9999983520508
209,297,6976,2,0,B|165:319|124:350|124:350|121:313,1,138.000002632141,8|0,3:1|0:0,0:0:0:0:
490,106,7164,6,0,B|436:115|376:91|376:91|454:192|454:192|345:145|345:145|469:250|334:346,1,558.000004257202,2|0,1:0|0:0,0:0:0:0:
209,152,7539,1,8,2:0:0:0:
376,92,7633,2,0,P|409:74|372:80,1,107.999996704102,4|0,3:0|0:0,0:0:0:0:
312,242,7820,2,0,B|281:226|236:218|236:218|276:162|276:162|238:165|176:140,1,215.999993408203,4|0,3:0|0:0,0:0:0:0:
33,157,8101,5,2,2:0:0:0:
32,164,8195,1,0,0:0:0:0:
56,42,8289,1,4,3:0:0:0:
62,42,8383,1,0,0:0:0:0:
62,42,8477,2,0,P|86:90|148:76,1,107.999996704102,2|2,2:0|1:0,0:0:0:0:
233,98,8664,5,2,1:0:0:0:
319,79,8758,1,2,1:0:0:0:
367,140,8851,1,6,1:0:0:0:
231,224,9039,6,0,L|194:289,2,45.0000017166138
133,354,9320,1,0,0:0:0:0:
92,178,9414,2,0,L|92:253,1,45.0000017166138
199,93,9601,2,0,L|206:127,2,22.5000008583069
337,120,9789,2,0,L|322:152,2,22.5000008583069
476,203,9976,6,0,L|474:319,1,107.999996704102,2|0,1:0|0:0,0:0:0:0:
434,281,10163,2,0,L|354:352,1,107.999996704102,2|0,1:0|0:0,0:0:0:0:
354,319,10351,2,0,L|250:290,1,107.999996704102,2|0,1:0|0:0,0:0:0:0:
120,116,10539,1,0,0:0:0:0:
45,231,10726,6,0,B|55:269|55:269|88:302|88:302|105:344,1,107.999996704102
191,293,10914,2,0,B|183:273|183:273|150:240|150:240|140:202,1,107.999996704102
352,199,11101,2,0,L|380:152,2,53.9999983520508
400,308,11289,2,0,L|369:369,2,53.9999983520508
483,174,11476,5,0,0:0:0:0:
483,174,11570,1,0,0:0:0:0:
347,105,11851,1,0,0:0:0:0:
227,200,12039,5,4,0:0:0:0:
227,200,12414,1,4,0:0:0:0:
227,200,12789,1,4,0:0:0:0:
227,200,13164,2,0,B|214:26|55:118|304:251,1,240,2|0,1:0|0:0,0:0:0:0:
419,218,13539,5,12,2:3:0:0:
327,134,13726,1,4,2:0:0:0:
327,134,13914,2,0,P|323:93|302:62,1,71.9999978027344,12|0,2:1|0:0,0:0:0:0:
241,101,14101,2,0,P|204:84|166:87,1,71.9999978027344,8|0,1:0|0:0,0:0:0:0:
170,159,14289,2,0,P|132:180|120:217,1,71.9999978027344,12|8,2:3|3:0,0:0:0:0:
185,250,14476,2,0,P|188:292|209:321,1,71.9999978027344
355,262,14664,6,0,B|330:254|343:202|343:202|313:254|282:254,1,143.999995605469,12|0,2:3|0:0,0:0:0:0:
257,171,15039,2,0,P|254:130|232:99,1,71.9999978027344,12|0,2:3|0:0,0:0:0:0:
167,134,15226,2,0,P|161:91|142:62,1,71.9999978027344
97,331,15414,2,0,P|96:296|116:265,1,71.9999978027344,12|0,2:1|0:0,0:0:0:0:
181,281,15601,2,0,P|181:246|200:215,1,71.9999978027344,8|0,1:0|0:0,0:0:0:0:
309,92,15789,2,0,P|330:119|328:157,1,71.9999978027344,12|8,2:3|3:0,0:0:0:0:
393,112,15976,2,0,P|411:149|410:184,1,71.9999978027344
316,314,16164,6,0,L|292:290,1,24,12|0,2:3|0:0,0:0:0:0:
126,155,16539,2,0,P|141:121|172:105,1,71.9999978027344,4|0,2:3|0:0,0:0:0:0:
171,104,16726,2,0,P|179:70|210:53,1,71.9999978027344,12|0,2:1|0:0,0:0:0:0:
367,154,16914,2,0,P|351:121|321:104,1,71.9999978027344
321,105,17101,2,0,P|302:73|274:55,1,71.9999978027344,8|0,1:0|0:0,0:0:0:0:
248,170,17289,2,0,P|223:195|214:229,1,71.9999978027344,12|8,2:3|3:0,0:0:0:0:
215,230,17476,2,0,P|208:261|237:293,1,71.9999978027344
403,294,17664,6,0,B|433:310|429:344|454:350,2,71.9999978027344,12|0|0,2:3|0:0|0:0,0:0:0:0:
404,175,18039,5,0,0:0:0:0:
190,206,18226,1,0,0:0:0:0:
248,170,18319,1,8,1:0:0:0:
318,172,18413,1,8,1:0:0:0:
85,125,18601,5,8,1:0:0:0:
288,56,18788,1,0,0:0:0:0:
220,50,18881,1,8,1:0:0:0:
158,82,18975,1,8,1:0:0:0:
174,321,19164,2,0,B|203:286|203:286|250:319|305:258,1,143.999995605469,8|0,1:0|0:0,0:0:0:0:
295,158,19539,5,4,1:3:0:0:
295,88,19726,1,0,0:0:0:0:
355,123,19914,1,0,0:0:0:0:
369,54,20101,5,0,0:0:0:0:
235,121,20289,1,0,0:0:0:0:
356,192,20476,1,0,0:0:0:0:
263,198,20664,1,0,0:0:0:0:
134,122,20851,5,4,1:3:0:0:
193,49,20945,1,4,1:3:0:0:
283,38,21039,1,4,1:3:0:0:
312,224,21226,6,0,P|274:277|281:357,1,120
370,308,21601,2,0,P|409:253|411:187,1,120
340,111,21976,2,0,P|311:175|315:238,1,120
413,202,22351,1,0,0:0:0:0:
174,147,22539,6,4,L|131:278,1,107.999996704102,4|8,3:0|1:0,3:1:0:0:
158,248,22726,2,0,L|191:145,1,107.999996704102,4|8,3:0|1:0,0:0:0:0:
287,148,22914,2,0,L|338:268,1,107.999996704102,4|8,3:0|1:0,0:0:0:0:
339,235,23101,2,0,L|298:134,1,107.999996704102,4|8,3:0|1:0,0:0:0:0:
195,67,23289,5,4,1:0:0:0:
126,76,23382,1,0,2:0:0:0:
71,118,23476,1,0,1:0:0:0:
46,182,23570,1,0,2:0:0:0:
75,245,23663,1,0,1:0:0:0:
135,280,23757,1,0,2:0:0:0:
204,276,23851,1,0,1:0:0:0:
251,247,23945,1,0,2:0:0:0:
268,195,24039,1,0,1:0:0:0:
259,155,24132,1,0,2:0:0:0:
228,128,24226,1,0,1:0:0:0:
188,128,24320,1,0,2:0:0:0:
161,135,24414,1,0,1:0:0:0:
144,157,24508,1,0,0:0:0:0:
144,184,24602,1,0,0:0:0:0:
159,207,24696,1,0,0:0:0:0:
297,192,24789,6,0,P|273:121|181:99,1,143.999995605469
297,192,24976,2,0,P|312:118|413:99,1,143.999995605469
380,261,25164,2,0,P|418:240|386:268,1,120,4|0,3:0|0:0,0:0:0:0:
74,73,25539,6,0,B|53:103|76:153|76:153|66:150|66:150|76:192|77:228|77:228|100:234|125:262|125:262|161:228|212:213,1,300,8|0,1:0|0:0,0:0:0:0:
340,180,25820,1,0,0:0:0:0:
384,92,25914,1,4,3:0:0:0:
277,54,26007,1,0,0:0:0:0:
224,139,26101,1,0,0:0:0:0:
36,289,26289,6,0,B|87:204|87:204|159:167,1,180.000006866455,4|0,3:0|0:0,0:0:0:0:
191,289,26570,1,0,0:0:0:0:
350,213,26664,2,0,B|344:264|328:313|328:313|370:298|432:258,1,180.000006866455,4|0,3:0|0:0,0:0:0:0:
306,115,26945,1,0,0:0:0:0:
186,27,27039,6,0,B|159:15|159:15|123:15|123:15|107:62|107:62|74:68|74:68|42:55,2,180.000006866455,4|0|4,3:0|0:0|3:0,0:0:0:0:
158,167,27507,1,4,3:0:0:0:
272,126,27695,1,0,0:0:0:0:
294,259,27976,5,0,0:0:0:0:
294,259,28070,1,0,0:0:0:0:
294,259,28164,1,0,0:0:0:0:
191,201,28257,2,0,L|162:285,1,90.0000034332277,2|0,2:0|0:0,0:0:0:0:
323,174,28445,2,0,L|283:294,1,90.0000034332277,2|0,2:0|0:0,0:0:0:0:
512,37,28632,2,2,B|455:25|427:97|427:97|499:141|429:232,1,270.000010299683,2|4,1:0|3:0,1:0:0:0:
321,252,29007,5,0,0:0:0:0:
297,289,29100,1,0,0:0:0:0:
258,311,29194,1,0,0:0:0:0:
214,311,29288,1,0,0:0:0:0:
175,290,29382,1,0,0:0:0:0:
22,296,29476,6,0,L|92:213,1,90.0000034332277
152,168,29664,1,4,3:0:0:0:
312,233,29757,2,0,L|242:150,1,90.0000034332277
186,86,29945,1,0,0:0:0:0:
143,326,30039,5,12,3:1:0:0:
143,326,30132,1,0,0:0:0:0:
143,326,30226,1,8,1:0:0:0:
254,165,30320,2,0,L|274:298,1,90.0000034332277,8|12,1:0|3:1,0:0:0:0:
114,146,30601,6,0,L|134:279,1,90.0000034332277,8|0,1:0|0:0,0:0:0:0:
307,158,30789,1,4,3:0:0:0:
307,158,30882,1,4,3:0:0:0:
307,158,30976,1,4,3:0:0:0:
150,72,31164,6,12,P|108:93|99:144,1,90.0000034332277,12|12,2:0|2:0,2:0:0:0:
72,153,31351,2,12,P|85:197|134:213,1,90.0000034332277,12|12,2:0|2:0,2:0:0:0:
154,265,31539,2,12,P|199:275|237:241,1,90.0000034332277,12|12,2:0|2:0,2:0:0:0:
356,146,31914,6,0,B|395:124|395:124|425:160|473:177|473:177|405:200|428:251,2,215.999993408203,4|0|4,3:0|0:0|3:0,0:0:0:0:
145,60,32476,6,0,P|97:84|58:122,1,107.999996704102
62,129,32664,1,0,0:0:0:0:
112,271,32851,6,0,P|155:239|193:201,1,107.999996704102
194,201,33039,1,0,0:0:0:0:
87,42,33226,6,0,P|39:66|0:104,1,107.999996704102
3,110,33414,1,0,0:0:0:0:
203,301,33601,6,0,B|293:235|293:235|364:158,1,215.999993408203,4|8,3:0|2:0,0:0:0:0:
417,78,33976,1,10,2:3:0:0:
385,88,34070,1,10,2:3:0:0:
408,96,34164,1,6,2:3:0:0:
396,72,34257,1,10,2:3:0:0:
172,151,34351,6,8,P|155:256|86:338,1,215.999993408203
62,213,34726,2,0,P|99:113|181:46,1,215.999993408203
297,151,35101,6,0,P|280:256|211:338,1,215.999993408203
187,213,35476,2,0,P|224:112|306:45,1,215.999993408203
442,163,35851,6,0,P|425:268|356:350,1,215.999993408203
332,225,36226,2,0,P|369:124|451:57,1,215.999993408203
459,191,36601,5,2,3:0:0:0:
294,163,36789,1,4,2:0:0:0:
394,284,36976,1,4,3:0:0:0:
394,284,37070,1,4,3:0:0:0:
167,209,37164,6,0,P|211:236|262:221,1,107.999996704102
263,222,37351,2,0,P|216:198|164:207,1,107.999996704102
106,38,37539,2,0,B|51:68|51:68|91:110,1,120
229,26,37914,5,12,1:3:0:0:
216,97,38008,1,0,0:0:0:0:
279,48,38102,1,8,2:0:0:0:
256,97,38196,1,0,0:0:0:0:
323,66,38290,1,4,0:3:0:0:
300,112,38383,1,0,0:0:0:0:
356,99,38476,1,8,2:0:0:0:
339,122,38570,1,0,0:0:0:0:
392,129,38664,1,4,0:3:0:0:
379,149,38758,1,0,0:0:0:0:
417,165,38851,1,8,2:0:0:0:
390,214,38945,1,0,0:0:0:0:
367,264,39039,5,4,0:3:0:0:
325,307,39132,1,0,0:0:0:0:
271,332,39226,1,8,2:0:0:0:
212,324,39320,1,0,0:0:0:0:
160,294,39414,1,4,0:3:0:0:
103,278,39507,1,0,0:0:0:0:
46,293,39601,1,8,2:0:0:0:
183,218,39695,5,0,0:0:0:0:
116,155,39789,1,4,3:0:0:0:
116,155,39882,1,0,0:0:0:0:
116,155,39976,1,8,2:0:0:0:
116,155,40070,1,0,0:0:0:0:
346,206,40164,6,4,B|341:215|351:249|351:249|316:245|297:261,2,90.0000034332277,6|6|4,3:0|3:0|3:0,3:0:0:0:
249,68,40632,1,8,2:0:0:0:
164,156,40726,1,8,2:0:0:0:
147,141,40820,1,0,0:0:0:0:
141,162,40914,1,4,3:0:0:0:
271,167,41007,1,0,0:0:0:0:
314,154,41101,1,8,2:0:0:0:
310,194,41195,1,0,0:0:0:0:
125,238,41289,6,0,L|157:268,2,22.5000008583069,4|0|0,3:0|0:0|0:0,0:0:0:0:
44,146,41476,1,8,2:0:0:0:
160,73,41570,2,0,L|128:103,2,22.5000008583069,0|0|4,0:0|0:0|3:0,0:0:0:0:
326,170,41757,5,0,0:0:0:0:
289,137,41851,1,8,2:0:0:0:
249,171,41945,1,0,0:0:0:0:
250,224,42039,2,0,P|230:231|252:225,1,90.0000034332277,4|10,3:0|2:2,0:0:0:0:
353,334,42414,5,12,3:1:0:0:
473,344,42601,1,8,2:0:0:0:
349,202,42789,1,8,3:0:0:0:
478,175,43070,1,8,3:0:0:0:
426,262,43351,1,8,3:0:0:0:
388,25,43539,6,0,B|269:41|269:41|151:98,1,180.000006866455,4|0,1:0|0:0,0:0:0:0:
190,250,43914,2,0,L|126:291,1,67.5000025749207
299,269,44101,2,0,L|237:321,1,67.5000025749207,2|0,1:0|0:0,0:0:0:0:
353,232,44242,2,0,L|316:306,1,67.5000025749207,2|0,1:0|0:0,0:0:0:0:
352,57,44476,5,2,1:0:0:0:
428,130,44664,1,2,1:0:0:0:
484,32,44851,1,2,1:0:0:0:
140,124,45039,6,0,B|248:61|248:61|235:159|318:125,1,180.000006866455,4|0,1:0|0:0,0:0:0:0:
251,132,45414,2,0,P|310:132|251:137,1,180.000006866455
81,126,45695,5,2,1:0:0:0:
70,158,45789,1,2,1:0:0:0:
56,135,45882,1,2,1:0:0:0:
92,146,45976,1,2,1:0:0:0:
320,128,46070,2,0,L|370:216,1,90.0000034332277
372,82,46257,2,0,L|465:149,1,90.0000034332277
224,160,46539,5,12,3:2:0:0:
160,192,46632,1,0,0:0:0:0:
128,224,46726,2,0,L|128:288,1,45.0000017166138
278,152,46914,5,8,3:2:0:0:
348,167,47007,1,0,0:0:0:0:
387,189,47101,2,0,L|404:251,1,45.0000017166138
216,169,47289,5,8,2:0:0:0:
163,216,47382,1,0,0:0:0:0:
140,256,47476,2,0,L|157:317,1,45.0000017166138
267,148,47664,5,8,2:0:0:0:
339,144,47757,1,0,0:0:0:0:
382,155,47851,2,0,L|414:211,1,45.0000017166138
212,180,48039,5,6,1:3:0:0:
172,239,48132,1,2,1:0:0:0:
161,283,48226,2,2,L|193:339,5,45.0000017166138,2|2|2|2|2|2,1:0|1:0|1:0|1:0|1:0|1:0,1:0:0:0:
123,150,48789,6,0,L|143:86,1,45.0000017166138
148,116,48976,2,0,L|183:59,1,45.0000017166138
182,91,49164,2,0,L|231:45,1,45.0000017166138
315,61,49352,1,0,0:0:0:0:
299,103,49445,1,0,0:0:0:0:
269,137,49539,2,12,B|250:160|294:193|221:217,1,90.0000034332277,12|12,1:3|1:3,1:3:0:0:
35,121,49914,6,0,B|-1:181|-28:369|144:314|75:233|75:233|49:258|6:381|196:254|302:381|302:381|346:348|254:145|106:139|106:139|121:268|331:277|368:330|388:96|470:148|432:241|504:259|504:259|314:400|434:79|381:81|312:174|312:174|248:84|85:54|85:54|169:12|169:12|230:15|310:67|310:67|348:44|332:7|332:7|452:51|458:140,1,2565.00009784699,4|4,1:2|2:0,0:0:0:0:
111,167,55539,6,0,L|131:237,1,45.0000017166138
220,214,55726,2,0,L|196:275,1,45.0000017166138
137,318,55914,2,0,L|151:376,1,45.0000017166138
114,166,56101,1,0,0:0:0:0:
217,217,56288,1,0,0:0:0:0:
137,318,56476,1,0,0:0:0:0:
401,217,56664,6,0,L|381:147,1,45.0000017166138
292,170,56851,2,0,L|316:109,1,45.0000017166138
375,66,57039,2,0,L|361:8,1,45.0000017166138
398,218,57226,1,0,0:0:0:0:
295,167,57413,1,0,0:0:0:0:
375,66,57601,1,0,0:0:0:0:
200,54,57789,6,0,L|137:91,1,45.0000017166138
182,171,57976,2,0,L|116:163,1,45.0000017166138
60,118,58164,2,0,L|7:146,1,45.0000017166138
201,56,58351,1,0,0:0:0:0:
179,169,58538,1,0,0:0:0:0:
60,118,58726,1,0,0:0:0:0:
269,246,58914,6,0,P|311:260|337:295,2,90.0000034332277
430,186,59476,2,0,L|454:114,1,45.0000017166138
416,116,59664,2,0,L|406:62,1,45.0000017166138
369,74,59851,2,0,L|339:29,1,45.0000017166138
125,95,60039,5,0,0:0:0:0:
101,194,60226,2,4,P|73:227|71:271,1,90.0000034332277
264,121,60601,1,0,0:0:0:0:
178,154,60789,1,0,0:0:0:0:
354,194,60976,6,0,P|385:238|437:249,1,107.999996704102,0|0,1:0|1:0,1:0:0:0:
436,248,61164,2,0,P|406:204|355:195,1,107.999996704102,0|0,1:0|1:0,1:0:0:0:
47,98,61539,6,0,B|121:97|103:171|103:171|160:189|160:189|195:228,1,215.999993408203,4|4,1:0|0:0,0:0:0:0:
334,110,61914,2,0,P|351:82|350:123,1,107.999996704102,8|8,1:0|1:0,0:0:0:0:
396,163,62101,2,0,P|428:155|398:183,1,107.999996704102,0|8,0:0|3:1,0:0:0:0:
402,245,62289,2,0,P|431:262|390:261,1,107.999996704102,4|0,3:0|0:0,0:0:0:0:
349,307,62476,2,0,P|357:339|329:309,1,107.999996704102,8|0,1:0|0:0,0:0:0:0:
267,313,62664,2,0,P|250:342|251:301,1,107.999996704102,8|0,3:0|0:0,0:0:0:0:
286,211,62851,5,8,3:0:0:0:
286,211,62945,1,8,3:0:0:0:
286,211,63039,1,12,3:1:0:0:
358,49,63132,6,0,P|299:88|311:203,1,107.999996704102,8|0,1:1|0:0,0:0:0:0:
231,115,63320,2,0,P|223:62|247:15,1,107.999996704102,0|8,0:0|1:0,0:0:0:0:
129,67,63507,2,0,P|159:132|273:138,1,107.999996704102
183,204,63695,2,0,P|129:203|86:172,1,107.999996704102,8|0,1:0|0:0,0:0:0:0:
114,285,63882,2,0,P|182:276|225:169,1,107.999996704102,0|8,0:0|1:0,0:0:0:0:
422,218,64070,6,0,L|394:327,1,107.999996704102,4|0,3:0|0:0,0:0:0:0:
310,222,64257,1,8,2:0:0:0:
341,68,64351,2,0,L|367:172,1,107.999996704102,4|0,3:0|0:0,0:0:0:0:
425,72,64539,1,12,3:1:0:0:
246,110,64632,6,0,P|196:130|142:135,1,107.999996704102,0|8,0:0|1:0,0:0:0:0:
142,135,64820,2,0,P|181:170|230:193,1,107.999996704102,8|0,1:0|0:0,0:0:0:0:
49,84,65007,2,0,P|92:116|142:135,1,107.999996704102,0|8,0:0|1:0,0:0:0:0:
142,135,65195,2,0,P|94:159|41:168,1,107.999996704102,8|0,1:0|0:0,0:0:0:0:
425,72,65382,5,4,3:0:0:0:
482,160,65476,2,0,L|363:148,1,107.999996704102,8|0,2:1|0:0,0:0:0:0:
360,242,65664,1,8,2:0:0:0:
279,198,65758,2,0,L|375:149,1,107.999996704102,4|0,3:0|0:0,0:0:0:0:
182,175,66039,6,0,P|133:197|79:193,1,107.999996704102
122,119,66226,2,0,P|169:94|222:98,1,107.999996704102,12|0,3:1|0:0,0:0:0:0:
181,176,66414,2,0,P|233:188|272:225,1,107.999996704102
121,118,66601,2,0,P|70:105|30:69,1,107.999996704102
347,193,66789,5,8,3:0:0:0:
318,175,66882,1,8,3:0:0:0:
307,204,66976,1,8,3:0:0:0:
331,217,67070,1,8,3:0:0:0:
340,198,67164,1,12,3:1:0:0:
85,240,67539,6,0,P|103:268|88:322,1,60
128,238,67726,2,0,P|159:281|146:351,1,120
352,156,68101,2,0,P|334:184|349:238,1,60
309,154,68288,2,0,P|278:197|291:267,1,120
115,78,68664,6,0,B|179:65|248:86,1,120
141,152,68945,1,0,0:0:0:0:
252,234,69226,2,0,B|188:247|119:226,1,120
226,160,69507,1,0,0:0:0:0:
141,152,69601,1,0,0:0:0:0:
410,169,69789,6,0,L|427:249,1,60
422,227,69977,2,0,L|381:270,1,60
381,270,70164,2,0,L|368:328,1,60
368,328,70352,2,0,L|286:345,1,60
256,192,70539,12,0,72414,2:0:0:0:
497,49,73539,6,0,B|400:65|396:166|396:166|391:260|292:251,1,323.999990112305,4|0,1:0|0:0,0:0:0:0:
293,251,73914,1,0,0:0:0:0:
293,251,74007,1,0,0:0:0:0:
293,251,74101,1,0,0:0:0:0:
293,251,74195,1,0,0:0:0:0:
239,353,74289,6,0,B|196:326|185:261|185:261|140:306|78:270,1,215.999993408203,4|0,3:0|0:0,0:0:0:0:
302,157,74570,1,0,0:0:0:0:
302,157,74663,1,4,3:0:0:0:
302,157,74757,1,0,0:0:0:0:
302,157,74851,1,0,0:0:0:0:
32,39,75039,6,0,B|94:31|94:31|138:66|138:66|52:120|52:120|138:158|128:242,1,323.999990112305,4|0,3:1|0:0,0:0:0:0:
210,148,75414,1,0,0:0:0:0:
254,176,75507,1,0,0:0:0:0:
308,178,75601,1,0,0:0:0:0:
354,151,75695,1,0,0:0:0:0:
388,113,75789,2,0,B|396:85|396:58|396:58|418:152|473:208,1,215.999993408203
249,141,76163,1,4,3:0:0:0:
249,141,76257,1,0,0:0:0:0:
249,141,76351,1,0,0:0:0:0:
221,63,76445,1,0,0:0:0:0:
29,158,76539,2,0,B|73:173|86:238|54:267|54:267|83:284|83:284|125:232|125:232|184:247|192:305|192:305|168:352|83:358,1,431.999986816407,4|4,3:1|3:0,0:0:0:0:
348,275,77007,5,0,0:0:0:0:
418,199,77101,1,0,0:0:0:0:
321,259,77195,2,0,P|317:147|332:140,1,107.999996704102,0|4,0:0|3:0,0:0:0:0:
164,57,77382,6,0,B|146:108|146:108|129:176,1,107.999996704102
236,83,77570,2,0,B|225:135|225:135|204:192,1,107.999996704102,4|4,3:0|3:0,0:0:0:0:
477,175,77851,6,0,P|378:211|332:306,1,215.999993408203,0|4,0:0|3:1,0:0:0:0:
333,306,78085,2,0,P|325:237|259:193,1,135.000005149841
166,105,78414,5,4,3:0:0:0:
181,134,78508,1,0,0:0:0:0:
209,105,78602,1,0,0:0:0:0:
307,199,78789,1,4,3:0:0:0:
265,206,78882,1,0,0:0:0:0:
282,175,78976,1,0,0:0:0:0:
246,306,79164,6,0,L|93:351,1,107.999996704102,4|8,3:0|1:0,0:0:0:0:
188,243,79351,1,4,3:0:0:0:
359,258,79539,6,0,B|486:124|384:46|256:165|458:344,1,414.000007896423,4|0,3:1|0:0,0:0:0:0:
442,342,79914,1,4,3:0:0:0:
464,334,80007,1,0,0:0:0:0:
459,356,80101,1,0,0:0:0:0:
216,88,80289,6,0,L|255:232,1,90.0000034332277,4|0,3:0|0:0,0:0:0:0:
146,141,80476,1,0,0:0:0:0:
150,324,80570,6,0,L|174:238,1,90.0000034332277,0|4,0:0|3:0,0:0:0:0:
244,291,80757,1,0,0:0:0:0:
244,291,80851,1,0,0:0:0:0:
244,291,80945,1,0,0:0:0:0:
477,258,81039,2,0,B|417:276|417:276|412:280|412:280|409:274|409:274|376:260|376:260|355:191|293:165|293:165|289:125|289:125|284:118|284:118|293:116|293:116|314:59,1,360,4|0,3:1|0:0,0:0:0:0:
401,130,81414,5,4,3:0:0:0:
373,173,81507,1,0,0:0:0:0:
326,196,81601,1,0,0:0:0:0:
140,266,81789,6,0,P|98:295|132:257,1,150,4|0,3:0|0:0,0:0:0:0:
118,198,81976,2,0,P|67:203|116:186,1,150
134,128,82164,2,0,P|87:107|137:117,1,150,4|0,3:0|0:0,0:0:0:0:
394,175,82351,5,8,3:0:0:0:
394,175,82445,1,8,3:0:0:0:
394,175,82539,1,8,3:0:0:0:
394,175,82632,2,0,L|404:264,1,90.0000034332277,4|4,3:0|1:0,0:0:0:0:
270,257,82820,1,4,3:0:0:0:
162,172,82914,6,4,L|142:300,1,90.0000034332277,4|4,3:0|3:0,3:0:0:0:
242,257,83101,1,8,3:0:0:0:
350,172,83195,6,0,L|370:300,1,90.0000034332277,4|4,1:0|3:0,0:0:0:0:
270,257,83382,1,4,3:0:0:0:
162,172,83476,6,0,L|142:300,1,90.0000034332277,8|0,3:0|0:0,0:0:0:0:
403,136,83664,1,0,0:0:0:0:
395,210,83758,1,0,0:0:0:0:
339,259,83852,1,0,0:0:0:0:
265,257,83945,1,0,0:0:0:0:
178,115,84039,6,8,P|223:126|275:198,1,90.0000034332277,12|8,2:3|2:0,2:0:0:0:
167,212,84226,1,8,2:0:0:0:
140,254,84320,1,8,2:0:0:0:
100,276,84414,1,8,2:0:0:0:
178,115,84507,6,0,P|224:118|288:180,1,90.0000034332277,12|0,3:0|0:0,0:0:0:0:
198,204,84695,1,8,2:0:0:0:
173,256,84788,1,8,2:0:0:0:
119,284,84882,1,8,2:0:0:0:
60,276,84976,1,12,2:3:0:0:
18,235,85070,1,12,2:3:0:0:
26,184,85164,2,2,P|40:167|59:155,8,45.0000017166138,6|2|2|2|2|2|2|2|2,1:3|1:0|1:0|1:0|1:0|1:0|1:0|1:0|1:0,1:0:0:0:
256,192,85632,12,0,86664,0:0:0:0:
47,127,86851,5,0,0:0:0:0:
78,176,86944,1,0,0:0:0:0:
132,202,87038,1,0,0:0:0:0:
193,159,87226,2,0,P|186:100|206:44,1,120
366,184,87601,5,0,0:0:0:0:
334,135,87694,1,0,0:0:0:0:
280,109,87788,1,0,0:0:0:0:
128,223,87976,2,0,L|191:315,1,60
243,219,88164,2,0,L|207:166,1,60
287,45,88351,5,0,0:0:0:0:
236,14,88444,1,0,0:0:0:0:
178,24,88538,1,0,0:0:0:0:
267,119,88727,5,0,0:0:0:0:
216,88,88820,1,0,0:0:0:0:
159,98,88914,1,0,0:0:0:0:
154,280,89102,6,0,P|205:264|239:211,1,60
189,350,89289,2,0,P|253:327|333:256,1,120
424,149,89664,2,0,P|401:167|392:196,1,60
454,236,89851,2,0,P|477:217|487:189,1,60
274,155,90039,5,4,2:2:0:0:
248,74,90132,2,0,P|206:31|152:6,1,120
274,155,90414,1,4,2:2:0:0:
179,142,90507,2,0,P|121:125|62:131,1,120
133,205,90789,5,0,0:0:0:0:
126,283,90882,2,0,L|119:355,1,60
246,193,91070,5,0,0:0:0:0:
219,266,91163,2,0,L|194:334,1,60
348,201,91351,5,0,0:0:0:0:
314,261,91444,2,0,L|270:328,1,60
214,123,91914,5,8,1:2:0:0:
214,123,92289,1,8,1:2:0:0:
214,123,92664,1,8,1:2:0:0:
102,137,92851,2,0,L|72:86,2,60,8|4|12,3:0|3:0|3:1,0:0:0:0:
155,230,93414,5,8,1:2:0:0:
155,230,93789,1,8,1:2:0:0:
240,244,94164,2,0,P|251:205|223:151,1,60,8|0,3:0|0:0,0:0:0:0:
289,204,94351,2,0,P|289:163|248:118,1,60,8|0,3:0|0:0,0:0:0:0:
302,133,94539,1,0,0:0:0:0:
322,113,94632,1,0,0:0:0:0:
327,83,94726,1,0,0:0:0:0:
317,57,94820,1,0,0:0:0:0:
293,34,94914,1,0,0:0:0:0:
253,25,95007,1,0,0:0:0:0:
206,42,95101,6,0,P|185:76|184:114,1,60
254,153,95289,2,0,P|262:124|258:95,1,60
183,183,95476,2,0,P|183:212|194:240,1,60
302,272,95664,2,0,P|294:243|276:219,1,60
220,306,95851,2,0,P|238:330|264:345,1,60
383,334,96039,2,0,P|398:314|397:268,1,71.9999978027344,12|0,3:0|0:0,0:0:0:0:
348,124,96789,6,0,B|310:69|243:80,1,120
244,79,97164,2,0,B|280:120|280:120|348:124,1,120
146,202,97539,5,0,0:0:0:0:
103,290,97726,1,0,0:0:0:0:
160,321,97819,1,0,0:0:0:0:
222,298,97913,1,0,0:0:0:0:
194,182,98101,2,0,P|293:152|327:183,1,120
354,280,98476,6,0,L|441:320,2,60
223,35,98757,1,0,0:0:0:0:
182,78,98851,1,0,0:0:0:0:
176,137,98944,1,0,0:0:0:0:
298,155,99039,2,0,L|313:98,1,60
433,93,99226,1,0,0:0:0:0:
434,153,99320,1,0,0:0:0:0:
400,202,99413,1,0,0:0:0:0:
216,329,99601,6,0,L|260:300,2,40
63,244,99789,2,0,L|98:283,2,30
119,122,99976,6,0,L|187:206,1,107.999996704102,2|0,1:0|0:0,0:0:0:0:
181,99,100164,2,0,L|188:206,1,107.999996704102,2|0,1:0|0:0,0:0:0:0:
244,114,100351,2,0,L|187:206,1,107.999996704102,2|0,1:0|0:0,0:0:0:0:
393,164,100539,5,0,0:0:0:0:
390,241,100726,1,0,0:0:0:0:
390,241,100820,1,0,0:0:0:0:
266,278,100914,6,4,P|223:245|178:198,2,107.999996704102
312,187,101195,1,0,0:0:0:0:
396,52,101289,2,0,B|418:62|434:90|434:90|427:94|427:94|441:132|484:151,2,107.999996704102
99,361,101664,6,2,P|55:332|36:283,1,107.999996704102,2|2,1:0|1:0,1:0:0:0:
126,275,101851,2,2,P|112:224|132:174,1,107.999996704102,2|2,1:0|1:0,1:0:0:0:
308,80,102039,5,2,2:1:0:0:
289,300,102226,1,0,2:0:0:0:
286,307,102320,1,0,2:0:0:0:
391,121,102414,5,2,2:1:0:0:
222,264,102601,1,0,2:0:0:0:
215,267,102695,1,0,2:0:0:0:
425,215,102789,5,2,2:1:0:0:
205,196,102976,1,0,2:0:0:0:
198,193,103070,1,0,2:0:0:0:
308,227,103164,2,0,P|298:173|304:226,1,180
256,192,103539,12,4,106164,1:2:0:0:
