osu file format v14

[General]
AudioFilename: audio.mp3
AudioLeadIn: 0
PreviewTime: 204979
Countdown: 0
SampleSet: Soft
StackLeniency: 0.3
Mode: 0
LetterboxInBreaks: 0
WidescreenStoryboard: 1

[Editor]
Bookmarks: 179,379,579,779,979,1179,1379,1579,1779,14579,27379,40179,51379,51579,51779,51979,52179,52379,52579,52779,52979,65779,78579,91379,102579,102779,102979,103179,103379,103579,103779,103979,104179,116979,129779,142579,153779,153979,154179,154379,154579,154779,154979,155179,155379,168179,180979,193779,206579,206779,206979,207179,207379,207579,207779,207979,208179,220979,233779,246979,260979,261179,261379,261579,261779,261979,262179,262379,262579,272579,284979,297779,308979,309179,309379,309579,309779,309979,310179,310379,310579,323379,336179,348979,360179,360379,360579,360779,360979,361179,361379,361579,361779
DistanceSpacing: 2.9
BeatDivisor: 8
GridSize: 32
TimelineZoom: 4.799997

[Metadata]
Title:Let Me Hear
TitleUnicode:Let Me Hear
Artist:Zekk
ArtistUnicode:Zekk
Creator:Chugger
Version:Team UK's Grand Master
Source:osu!
Tags:team uk united kingdom osu! beatmapping world cup championship contest o!bwc obwc grand finals featured artist fa hypercyte alphabet aistre venax altai undeadphoneguy pocket- yusomi electronic instrumental hypercute
BeatmapID:2659837
BeatmapSetID:1280467

[Difficulty]
HPDrainRate:4
CircleSize:4
OverallDifficulty:8.7
ApproachRate:9.4
SliderMultiplier:2.4
SliderTickRate:1

[Events]
//Background and Video events
0,0,"hear.jpg",0,0
//Break Periods
//Storyboard Layer 0 (Background)
//Storyboard Layer 1 (Fail)
//Storyboard Layer 2 (Pass)
//Storyboard Layer 3 (Foreground)
//Storyboard Layer 4 (Overlay)
//Storyboard Sound Samples

[TimingPoints]
1779,400,4,2,1,60,1,0
1779,-1000,4,2,1,5,0,0
2579,-666.666666666667,4,2,1,5,0,0
3379,-500,4,2,1,5,0,0
4979,-333.333333333333,4,2,1,10,0,0
5779,-250,4,2,1,10,0,0
6579,-200,4,2,1,15,0,0
8879,-200,4,2,1,5,0,0
8979,-200,4,2,1,15,0,0
9679,-200,4,2,1,5,0,0
9779,-200,4,2,1,20,0,0
11379,-166.666666666667,4,2,1,20,0,0
12079,-166.666666666667,4,2,1,5,0,0
12179,-166.666666666667,4,2,1,20,0,0
12879,-166.666666666667,4,2,1,5,0,0
12979,-500,4,2,1,20,0,0
13279,-500,4,2,1,5,0,0
13379,-100,4,2,1,20,0,0
13479,-100,4,2,1,21,0,0
13529,-100,4,2,1,22,0,0
13579,-100,4,2,1,23,0,0
13629,-100,4,2,1,24,0,0
13679,-100,4,2,1,26,0,0
13729,-100,4,2,1,28,0,0
13779,-100,4,2,1,30,0,0
13979,-100,4,2,1,40,0,0
14579,-69.4444444444444,4,2,1,40,0,0
14829,-69.4444444444444,4,2,1,5,0,0
14879,-133.333333333333,4,2,1,40,0,0
15179,-69.4444444444444,4,2,1,40,0,0
15679,-133.333333333333,4,2,1,40,0,0
15979,-83.3333333333333,4,2,1,40,0,0
17179,-100,4,2,1,40,0,0
17379,-125,4,2,1,40,0,0
17579,-250,4,2,1,40,0,0
17779,-69.4444444444444,4,2,1,40,0,0
18179,-133.333333333333,4,2,1,40,0,0
18379,-69.4444444444444,4,2,1,40,0,0
18579,-133.333333333333,4,2,1,40,0,0
18879,-64.9350649350649,4,2,1,40,0,0
19779,-100,4,2,1,40,0,0
20079,-64.9350649350649,4,2,1,40,0,0
20579,-33.3333333333333,4,2,1,40,0,0
20979,-27.7777777777778,4,2,1,40,0,0
21079,-111.111111111111,4,2,1,50,0,0
21879,-227.272727272727,4,2,1,50,0,0
23379,-227.272727272727,4,2,1,50,0,0
23579,-69.4444444444444,4,2,1,50,0,0
24179,-100,4,2,1,50,0,0
24579,-50,4,2,1,50,0,0
24779,-100,4,2,1,50,0,0
24879,-37.037037037037,4,2,1,50,0,0
25079,-50,4,2,1,50,0,0
25579,-156.25,4,2,1,50,0,0
25779,-227.272727272727,4,2,1,40,0,0
26579,-227.272727272727,4,2,1,30,0,0
26979,-57.4712643678161,4,2,1,40,0,0
27379,-100,4,2,1,40,0,0
28279,-66.6666666666667,4,2,1,40,0,0
28979,-133.333333333333,4,2,1,40,0,0
30579,-100,4,2,1,40,0,0
31279,-66.6666666666667,4,2,1,40,0,0
31579,-133.333333333333,4,2,1,40,0,0
32179,-66.6666666666667,4,2,1,40,0,0
33779,-74.0740740740741,4,2,1,40,0,0
36979,-133.333333333333,4,2,1,40,0,0
37279,-66.6666666666667,4,2,1,40,0,0
38579,-57.1428571428571,4,2,1,40,0,0
39279,-44.4444444444445,4,2,1,40,0,0
39779,-66.6666666666667,4,2,1,40,0,0
39979,-100,4,2,1,40,0,0
40279,-133.333333333333,4,2,1,40,0,0
40579,-57.1428571428571,4,2,1,40,0,0
40779,-50,4,2,1,40,0,0
40979,-133.333333333333,4,2,1,40,0,0
41379,-50,4,2,1,40,0,0
41579,-80,4,2,1,40,0,0
41879,-133.333333333333,4,2,1,40,0,0
42079,-57.1428571428571,4,2,1,40,0,0
42379,-133.333333333333,4,2,1,40,0,0
43379,-166.666666666667,4,2,1,40,0,0
43779,-117.647058823529,4,2,1,40,0,0
44179,-100,4,2,1,40,0,0
44579,-83.3333333333333,4,2,1,40,0,0
44979,-69.4444444444444,4,2,1,40,0,0
45079,-100,4,2,1,40,0,0
45379,-66.6666666666667,4,2,1,40,0,0
45979,-57.1428571428571,4,2,1,40,0,0
46179,-100,4,2,1,40,0,0
46579,-133.333333333333,4,2,1,40,0,0
47979,-227.272727272727,4,2,1,40,0,0
48179,-117.647058823529,4,2,1,40,0,0
48379,-117.647058823529,4,2,1,50,0,0
49779,-100,4,2,1,50,0,0
50179,-50,4,2,1,50,0,0
51379,-227.272727272727,4,2,9,80,0,0
51429,-227.272727272727,4,2,9,60,0,0
52179,-250,4,2,4,80,0,0
52229,-250,4,2,4,60,0,0
52579,-66.6666666666667,4,2,1,60,0,0
52979,-50,4,2,5,80,0,0
53029,-50,4,2,5,60,0,0
53179,-50,4,2,1,5,0,0
53379,-50,4,2,1,60,0,0
53579,-50,4,2,1,5,0,0
53679,-40,4,2,1,60,0,0
53779,-40,4,2,1,5,0,0
53879,-200,4,2,1,60,0,0
54179,-66.6666666666667,4,2,1,60,0,0
54229,-66.6666666666667,4,2,1,5,0,0
54279,-66.6666666666667,4,2,1,60,0,0
54329,-66.6666666666667,4,2,1,5,0,0
54379,-66.6666666666667,4,2,1,60,0,0
54429,-66.6666666666667,4,2,1,5,0,0
54479,-66.6666666666667,4,2,1,60,0,0
54529,-66.6666666666667,4,2,1,5,0,0
54579,-133.333333333333,4,2,1,60,0,0
54779,-80,4,2,1,60,0,0
54979,-66.6666666666667,4,2,1,60,0,0
55129,-66.6666666666667,4,2,1,5,0,0
55179,-50,4,2,1,60,0,0
56179,-33.3333333333333,4,2,1,60,0,0
56579,-66.6666666666667,4,2,1,60,0,0
56979,-50,4,2,1,60,0,0
57329,-50,4,2,1,5,0,0
57379,-50,4,2,1,60,0,0
57879,-50,4,2,1,5,0,0
57979,-50,4,2,1,60,0,0
58129,-50,4,2,1,5,0,0
58179,-100,4,2,1,60,0,0
58379,-66.6666666666667,4,2,1,60,0,0
58879,-200,4,2,1,60,0,0
58979,-100,4,2,1,60,0,0
59079,-66.6666666666667,4,2,1,60,0,0
59379,-25,4,2,1,60,0,0
59479,-25,4,2,1,5,0,0
59579,-200,4,2,1,60,0,0
59779,-66.6666666666667,4,2,1,60,0,0
60279,-16.6666666666667,4,2,1,60,0,0
60579,-66.6666666666667,4,2,1,60,0,0
60629,-66.6666666666667,4,2,1,5,0,0
60679,-66.6666666666667,4,2,1,60,0,0
60729,-66.6666666666667,4,2,1,5,0,0
60779,-66.6666666666667,4,2,1,60,0,0
60829,-66.6666666666667,4,2,1,5,0,0
60879,-66.6666666666667,4,2,1,60,0,0
60929,-66.6666666666667,4,2,1,5,0,0
60979,-66.6666666666667,4,2,1,60,0,0
61179,-50,4,2,1,60,0,0
61329,-50,4,2,1,5,0,0
61379,-66.6666666666667,4,2,1,60,0,0
61579,-100,4,2,1,60,0,0
61779,-66.6666666666667,4,2,1,60,0,0
61929,-66.6666666666667,4,2,1,5,0,0
61979,-100,4,2,1,60,0,0
62379,-50,4,2,1,60,0,0
62579,-40,4,2,1,60,0,0
62979,-50,4,2,1,60,0,0
63979,-40,4,2,1,60,0,0
64129,-40,4,2,1,5,0,0
64179,-100,4,2,1,60,0,0
64329,-83.3333333333333,4,2,1,60,0,0
64479,-71.4285714285714,4,2,1,60,0,0
64629,-62.5,4,2,1,60,0,0
64779,-55.5555555555556,4,2,1,60,0,0
65179,-100,4,2,1,60,0,0
65379,-133.333333333333,4,2,1,60,0,0
65579,-80,4,2,1,60,0,0
65779,-44.4444444444445,4,2,1,60,0,0
66179,-66.6666666666667,4,2,1,60,0,0
66479,-40,4,2,1,60,0,0
66979,-66.6666666666667,4,2,1,60,0,0
67429,-66.6666666666667,4,2,1,5,0,0
67479,-66.6666666666667,4,2,1,60,0,0
67529,-66.6666666666667,4,2,1,5,0,0
67579,-66.6666666666667,4,2,1,60,0,0
67779,-40,4,2,1,60,0,0
68079,-133.333333333333,4,2,1,60,0,0
68379,-66.6666666666667,4,2,1,60,0,0
68779,-50,4,2,1,60,0,0
68979,-33.3333333333333,4,2,1,60,0,0
69379,-66.6666666666667,4,2,1,60,0,0
69679,-40,4,2,1,60,0,0
69979,-50,4,2,1,60,0,0
70179,-44.4444444444445,4,2,1,60,0,0
70779,-66.6666666666667,4,2,1,60,0,0
70979,-50,4,2,1,60,0,0
71379,-66.6666666666667,4,2,1,60,0,0
71779,-62.5,4,2,1,60,0,0
71879,-58.8235294117647,4,2,1,60,0,0
71979,-55.5555555555556,4,2,1,60,0,0
72079,-52.6315789473684,4,2,1,60,0,0
72179,-33.3333333333333,4,2,1,60,0,0
73079,-16.6666666666667,4,2,1,60,0,0
73379,-66.6666666666667,4,2,1,60,0,0
73429,-66.6666666666667,4,2,1,5,0,0
73479,-66.6666666666667,4,2,1,60,0,0
73529,-66.6666666666667,4,2,1,5,0,0
73579,-66.6666666666667,4,2,1,60,0,0
73629,-66.6666666666667,4,2,1,5,0,0
73679,-66.6666666666667,4,2,1,60,0,0
73729,-66.6666666666667,4,2,1,5,0,0
73779,-100,4,2,1,60,0,0
74379,-50,4,2,1,60,0,0
74979,-100,4,2,1,60,0,0
75379,-66.6666666666667,4,2,1,60,0,0
75779,-100,4,2,1,60,0,0
76979,-66.6666666666667,4,2,1,60,0,0
78179,-500,4,2,1,60,0,0
78329,-500,4,2,1,5,0,0
78379,-40,4,2,1,60,0,0
78529,-40,4,2,1,5,0,0
78579,-200,4,2,1,60,0,0
78679,-200,4,2,1,5,0,0
78779,-200,4,2,1,60,0,0
78879,-200,4,2,1,5,0,0
78979,-66.6666666666667,4,2,1,60,0,0
79329,-66.6666666666667,4,2,1,5,0,0
79379,-50,4,2,1,60,0,0
79829,-50,4,2,1,5,0,0
79879,-57.1428571428571,4,2,1,60,0,0
79929,-57.1428571428571,4,2,1,5,0,0
79979,-66.6666666666667,4,2,1,60,0,0
80029,-66.6666666666667,4,2,1,5,0,0
80079,-80,4,2,1,60,0,0
80129,-80,4,2,1,5,0,0
80179,-66.6666666666667,4,2,1,60,0,0
80329,-66.6666666666667,4,2,1,5,0,0
80379,-100,4,2,1,60,0,0
80579,-66.6666666666667,4,2,1,60,0,0
81379,-100,4,2,1,60,0,0
81579,-50,4,2,1,60,0,0
81779,-33.3333333333333,4,2,1,60,0,0
81979,-133.333333333333,4,2,1,60,0,0
82179,-50,4,2,1,60,0,0
82329,-50,4,2,1,5,0,0
82379,-66.6666666666667,4,2,1,60,0,0
82579,-44.4444444444445,4,2,1,60,0,0
82729,-44.4444444444445,4,2,1,5,0,0
82779,-57.1428571428571,4,2,1,60,0,0
82979,-50,4,2,1,60,0,0
83479,-50,4,2,1,5,0,0
83579,-50,4,2,1,60,0,0
83729,-50,4,2,1,5,0,0
83779,-100,4,2,1,60,0,0
83979,-66.6666666666667,4,2,1,60,0,0
84179,-400,4,2,1,60,0,0
84579,-200,4,2,1,60,0,0
84629,-200,4,2,1,5,0,0
84679,-100,4,2,1,60,0,0
84729,-100,4,2,1,5,0,0
84779,-66.6666666666667,4,2,1,60,0,0
84829,-66.6666666666667,4,2,1,5,0,0
84879,-66.6666666666667,4,2,1,60,0,0
84979,-50,4,2,1,60,0,0
85129,-50,4,2,1,5,0,0
85179,-66.6666666666667,4,2,1,60,0,0
85679,-133.333333333333,4,2,1,60,0,0
85879,-66.6666666666667,4,2,1,60,0,0
86229,-66.6666666666667,4,2,1,5,0,0
86279,-66.6666666666667,4,2,1,60,0,0
86329,-66.6666666666667,4,2,1,5,0,0
86379,-66.6666666666667,4,2,1,60,0,0
86429,-66.6666666666667,4,2,1,5,0,0
86479,-66.6666666666667,4,2,1,60,0,0
86529,-66.6666666666667,4,2,1,5,0,0
86579,-50,4,2,1,60,0,0
86729,-50,4,2,1,5,0,0
86779,-100,4,2,1,60,0,0
87079,-66.6666666666667,4,2,1,60,0,0
87279,-133.333333333333,4,2,1,60,0,0
87479,-50,4,2,1,60,0,0
87529,-50,4,2,1,5,0,0
87579,-57.1428571428571,4,2,1,60,0,0
87629,-57.1428571428571,4,2,1,5,0,0
87679,-66.6666666666667,4,2,1,60,0,0
87729,-66.6666666666667,4,2,1,5,0,0
87779,-66.6666666666667,4,2,1,60,0,0
87979,-50,4,2,1,60,0,0
88179,-40,4,2,1,60,0,0
88579,-50,4,2,1,60,0,0
89579,-40,4,2,1,60,0,0
89729,-40,4,2,1,5,0,0
89779,-66.6666666666667,4,2,1,60,0,0
89929,-57.1428571428571,4,2,1,60,0,0
90079,-50,4,2,1,60,0,0
90229,-44.4444444444445,4,2,1,60,0,0
90379,-40,4,2,1,60,0,0
90979,-133.333333333333,4,2,1,60,0,0
91179,-80,4,2,1,60,0,0
91379,-44.4444444444445,4,2,1,60,0,0
91779,-66.6666666666667,4,2,1,60,0,0
92179,-50,4,2,1,60,0,0
92379,-80,4,2,1,60,0,0
92579,-50,4,2,1,60,0,0
92979,-66.6666666666667,4,2,1,60,0,0
93129,-66.6666666666667,4,2,1,5,0,0
93179,-100,4,2,1,60,0,0
93479,-44.4444444444445,4,2,1,60,0,0
93679,-66.6666666666667,4,2,1,60,0,0
94179,-333.333333333333,4,2,1,60,0,0
94579,-33.3333333333333,4,2,1,60,0,0
94979,-50,4,2,1,60,0,0
95179,-66.6666666666667,4,2,1,60,0,0
95379,-44.4444444444445,4,2,1,60,0,0
95779,-100,4,2,1,60,0,0
96079,-66.6666666666667,4,2,1,60,0,0
96379,-100,4,2,1,60,0,0
96979,-400,4,2,1,60,0,0
97379,-200,4,2,1,60,0,0
97479,-133.333333333333,4,2,1,60,0,0
97579,-100,4,2,1,60,0,0
97679,-80,4,2,1,60,0,0
97779,-133.333333333333,4,2,1,60,0,0
100179,-44.4444444444445,4,2,1,60,0,0
100579,-100,4,2,1,60,0,0
102579,-100,4,2,2,40,0,0
104312,-100,4,2,1,40,0,0
106579,-133.333333333333,4,2,1,60,0,0
107379,-54.054054054054,4,2,1,60,0,0
108579,-71.4285714285714,4,2,1,60,0,0
108845,-43.4782608695652,4,2,1,60,0,0
109112,-66.6666666666667,4,2,1,60,0,0
109379,-133.333333333333,4,2,1,60,0,0
109779,-100,4,2,1,60,0,0
110179,-133.333333333333,4,2,1,60,0,0
110445,-66.6666666666667,4,2,1,60,0,0
110579,-166.666666666667,4,2,1,60,0,0
110979,-100,4,2,1,60,0,0
111845,-166.666666666667,4,2,1,60,0,0
112245,-133.333333333333,4,2,1,60,0,0
112579,-100,4,2,1,60,0,0
112979,-66.6666666666667,4,2,1,60,0,0
115379,-50,4,2,1,60,0,0
115512,-66.6666666666667,4,2,1,60,0,0
115645,-62.5,4,2,1,60,0,0
115779,-58.8235294117647,4,2,1,60,0,0
115912,-55.5555555555556,4,2,1,60,0,0
116045,-52.6315789473684,4,2,1,60,0,0
116179,-50,4,2,1,60,0,0
116312,-45.4545454545455,4,2,1,60,0,0
116445,-40,4,2,1,60,0,0
116579,-25,4,2,3,60,0,0
116645,-29.4117647058824,4,2,1,60,0,0
116712,-32.258064516129,4,2,1,60,0,0
116845,-51.2820512820513,4,2,1,60,0,0
116979,-166.666666666667,4,2,1,60,0,0
117379,-90.9090909090909,4,2,2,60,0,0
117512,-90.9090909090909,4,2,1,60,0,0
117779,-41.6666666666667,4,2,1,60,0,0
118179,-62.5,4,2,1,60,0,0
118579,-52.6315789473684,4,2,1,60,0,0
118979,-62.5,4,2,1,60,0,0
119112,-50,4,2,1,60,0,0
119779,-66.6666666666667,4,2,1,60,0,0
120845,-43.4782608695652,4,2,1,60,0,0
120979,-55.5555555555556,4,2,1,60,0,0
121112,-83.3333333333333,4,2,1,60,0,0
121645,-66.6666666666667,4,2,1,60,0,0
122045,-55.5555555555556,4,2,1,60,0,0
122579,-50,4,2,1,60,0,0
122979,-58.8235294117647,4,2,1,60,0,0
123379,-40,4,2,1,60,0,0
123779,-71.4285714285714,4,2,1,60,0,0
124045,-52.6315789473684,4,2,1,60,0,0
124179,-37.037037037037,4,2,1,60,0,0
124312,-40.8163265306122,4,2,1,60,0,0
124445,-45.4545454545455,4,2,1,60,0,0
124579,-66.6666666666667,4,2,1,60,0,0
124979,-50,4,2,1,60,0,0
125245,-133.333333333333,4,2,1,60,0,0
125379,-50,4,2,1,60,0,0
125645,-133.333333333333,4,2,1,60,0,0
125779,-50,4,2,1,60,0,0
126045,-133.333333333333,4,2,1,60,0,0
126179,-66.6666666666667,4,2,1,60,0,0
126579,-55.5555555555556,4,2,1,60,0,0
126979,-66.6666666666667,4,2,1,60,0,0
127112,-45.4545454545455,4,2,1,60,0,0
127779,-62.5,4,2,1,60,0,0
128179,-33.3333333333333,4,2,1,60,0,0
128312,-40,4,2,1,60,0,0
128445,-45.4545454545455,4,2,1,60,0,0
128579,-50,4,2,1,60,0,0
128712,-52.6315789473684,4,2,1,60,0,0
128845,-55.5555555555556,4,2,1,60,0,0
128979,-58.8235294117647,4,2,1,60,0,0
129112,-62.5,4,2,1,60,0,0
129245,-100,4,2,1,60,0,0
129379,-142.857142857143,4,2,1,60,0,0
129779,-333.333333333333,4,2,1,60,0,0
131779,-1000,4,2,1,60,0,0
132979,-434.782608695652,4,2,1,60,0,0
136879,-217.391304347826,4,2,1,60,0,0
141979,-142.857142857143,4,2,1,60,0,0
153779,-1000,4,2,1,60,0,0
154979,-66.6666666666667,4,2,1,60,0,0
155379,-285.714285714286,4,2,1,60,0,0
156579,-133.333333333333,4,2,1,60,0,0
156879,-285.714285714286,4,2,1,60,0,0
157879,-100,4,2,1,60,0,0
158179,-133.333333333333,4,2,1,60,0,0
158479,-285.714285714286,4,2,1,60,0,0
158679,-285.714285714286,4,2,1,5,0,0
158779,-125,4,2,1,60,0,0
159379,-90.9090909090909,4,2,1,60,0,0
159979,-166.666666666667,4,2,1,60,0,0
161379,-100,4,2,1,60,0,0
161779,-200,4,2,1,60,0,0
164279,-80,4,2,1,60,0,0
164579,-133.333333333333,4,2,1,60,0,0
166579,-80,4,2,1,60,0,0
166604,-80,4,2,1,40,0,0
166979,-80,4,2,1,60,0,0
167379,-133.333333333333,4,2,1,60,0,0
168179,-66.6666666666667,4,2,1,60,0,0
168579,-100,4,2,1,60,0,0
168979,-40,4,2,1,60,0,0
169579,-100,4,2,1,60,0,0
170679,-36.3636363636364,4,2,1,60,0,0
171379,-66.6666666666667,4,2,1,60,0,0
171779,-100,4,2,1,60,0,0
172179,-50,4,2,1,60,0,0
172479,-40,4,2,1,60,0,0
172979,-66.6666666666667,4,2,1,60,0,0
174179,-40,4,2,1,60,0,0
174979,-66.6666666666667,4,2,1,60,0,0
177079,-40,4,2,1,60,0,0
177379,-66.6666666666667,4,2,1,60,0,0
178979,-100,4,2,1,60,0,0
180979,-90.9090909090909,4,2,1,60,0,0
187379,-80,4,2,1,60,0,0
192279,-133.333333333333,4,2,1,60,0,0
204179,-66.6666666666667,4,2,1,60,0,0
204579,-50,4,2,1,60,0,0
204979,-117.647058823529,4,2,6,60,0,0
205779,-100,4,2,1,60,0,0
205979,-117.647058823529,4,2,1,60,0,0
206579,-33.3333333333333,4,2,5,60,0,0
207179,-66.6666666666667,4,2,1,60,0,0
207379,-133.333333333333,4,2,1,60,0,0
207579,-66.6666666666667,4,2,1,60,0,0
207679,-44.4444444444445,4,2,1,60,0,0
207779,-33.3333333333333,4,2,1,60,0,0
207979,-100,4,2,1,60,0,0
208179,-40,4,2,1,60,0,0
208579,-33.3333333333333,4,2,1,60,0,0
208979,-43.4782608695652,4,2,1,60,0,0
209079,-66.6666666666667,4,2,1,60,0,0
209779,-40,4,2,1,60,0,0
210979,-37.037037037037,4,2,1,60,0,0
211179,-25,4,2,1,60,0,0
211379,-40,4,2,1,60,0,0
211779,-27.027027027027,4,2,1,60,0,0
212179,-35.7142857142857,4,2,1,60,0,0
212879,-30.3030303030303,4,2,1,60,0,0
213179,-40,4,2,1,60,0,0
214179,-100,4,2,1,60,0,0
214979,-35.7142857142857,4,2,1,60,0,0
215979,-25,4,2,1,60,0,0
216179,-33.3333333333333,4,2,1,60,0,0
216979,-43.4782608695652,4,2,1,60,0,0
218279,-35.7142857142857,4,2,1,60,0,0
218479,-27.7777777777778,4,2,1,60,0,0
218779,-35.7142857142857,4,2,1,60,0,0
219379,-55.5555555555556,4,2,1,60,0,0
220579,-66.6666666666667,4,2,1,60,0,0
220779,-100,4,2,1,60,0,0
220979,-35.7142857142857,4,2,1,60,0,0
221379,-25,4,2,1,60,0,0
221779,-35.7142857142857,4,2,1,60,0,0
221879,-66.6666666666667,4,2,1,60,0,0
222579,-38.4615384615385,4,2,1,60,0,0
223179,-71.4285714285714,4,2,1,60,0,0
223479,-38.4615384615385,4,2,1,60,0,0
223979,-31.25,4,2,1,60,0,0
224179,-41.6666666666667,4,2,1,60,0,0
224579,-38.4615384615385,4,2,1,60,0,0
225679,-28.5714285714286,4,2,1,60,0,0
225979,-37.037037037037,4,2,1,60,0,0
226979,-66.6666666666667,4,2,1,60,0,0
227179,-100,4,2,1,60,0,0
228279,-50,4,2,1,60,0,0
228579,-66.6666666666667,4,2,1,60,0,0
228779,-100,4,2,1,60,0,0
229779,-50,4,2,1,60,0,0
230179,-66.6666666666667,4,2,1,60,0,0
230379,-100,4,2,1,60,0,0
230579,-50,4,2,1,60,0,0
231279,-33.3333333333333,4,2,1,60,0,0
231579,-66.6666666666667,4,2,1,60,0,0
233379,-33.3333333333333,4,2,1,60,0,0
233779,-500,4,2,1,60,0,0
234079,-37.037037037037,4,2,1,60,0,0
234279,-60.6060606060606,4,2,1,60,0,0
234579,-37.037037037037,4,2,1,60,0,0
234679,-41.6666666666667,4,2,1,60,0,0
234979,-100,4,2,1,60,0,0
235379,-40,4,2,1,60,0,0
235779,-33.3333333333333,4,2,1,60,0,0
236179,-38.4615384615385,4,2,1,60,0,0
236579,-30.03003003003,4,2,1,60,0,0
236779,-66.6666666666667,4,2,1,60,0,0
236979,-40,4,2,1,60,0,0
237179,-52.6315789473684,4,2,1,60,0,0
237379,-33.3333333333333,4,2,1,60,0,0
237979,-66.6666666666667,4,2,1,60,0,0
238179,-33.3333333333333,4,2,1,60,0,0
238379,-50,4,2,1,60,0,0
238479,-500,4,2,1,60,0,0
238779,-30.03003003003,4,2,1,60,0,0
238979,-66.6666666666667,4,2,1,60,0,0
239379,-133.333333333333,4,2,1,60,0,0
239879,-200,4,2,1,60,0,0
240179,-33.3333333333333,4,2,1,60,0,0
240579,-40,4,2,1,60,0,0
241379,-55.5555555555556,4,2,1,60,0,0
241579,-37.037037037037,4,2,1,60,0,0
241779,-31.25,4,2,1,60,0,0
242079,-50,4,2,1,60,0,0
242979,-37.037037037037,4,2,1,60,0,0
243579,-66.6666666666667,4,2,1,60,0,0
243779,-43.4782608695652,4,2,1,60,0,0
244979,-66.6666666666667,4,2,1,60,0,0
245979,-100,4,2,1,60,0,0
246179,-33.3333333333333,4,2,1,60,0,0
246279,-66.6666666666667,4,2,1,60,0,0
246379,-80,4,2,1,60,0,0
246479,-133.333333333333,4,2,1,60,0,0
246529,-133.333333333333,4,2,1,60,0,0
246979,-33.3333333333333,4,2,1,60,0,0
247379,-45.4545454545455,4,2,1,60,0,0
248179,-37.037037037037,4,2,1,60,0,0
248379,-45.4545454545455,4,2,1,60,0,0
248979,-55.5555555555556,4,2,1,60,0,0
249379,-100,4,2,1,60,0,0
249779,-43.4782608695652,4,2,1,60,0,0
250379,-66.6666666666667,4,2,1,60,0,0
250579,-111.111111111111,4,2,1,60,0,0
250779,-55.5555555555556,4,2,1,60,0,0
250979,-43.4782608695652,4,2,1,60,0,0
251179,-37.037037037037,4,2,1,60,0,0
251579,-50,4,2,1,60,0,0
252179,-333.333333333333,4,2,1,60,0,0
252579,-166.666666666667,4,2,1,60,0,0
255679,-111.111111111111,4,2,1,60,0,0
255779,-74.0740740740741,4,2,1,60,0,0
256179,-52.6315789473684,4,2,1,60,0,0
256279,-43.4782608695652,4,2,1,60,0,0
256579,-52.6315789473684,4,2,1,60,0,0
256679,-43.4782608695652,4,2,1,60,0,0
257379,-52.6315789473684,4,2,1,60,0,0
257479,-74.0740740740741,4,2,1,60,0,0
257779,-250,4,2,1,60,0,0
258179,-50,4,2,1,60,0,0
258579,-83.3333333333333,4,2,1,60,0,0
259779,-62.5,4,2,1,60,0,0
259979,-83.3333333333333,4,2,1,60,0,0
260179,-125,4,2,1,60,0,0
260979,-125,4,2,7,95,0,0
261029,-125,4,2,1,60,0,0
262179,-125,4,2,5,80,0,0
262579,-40,4,2,1,60,0,0
262979,-55.5555555555556,4,2,1,60,0,0
263179,-33.3333333333333,4,2,1,60,0,0
263379,-50,4,2,1,60,0,0
263479,-33.3333333333333,4,2,1,60,0,0
263779,-40,4,2,1,60,0,0
264079,-66.6666666666667,4,2,1,60,0,0
264779,-50,4,2,1,60,0,0
265479,-41.6666666666667,4,2,1,60,0,0
265579,-35.7142857142857,4,2,1,60,0,0
265679,-31.25,4,2,1,60,0,0
265779,-227.272727272727,4,2,1,60,0,0
266179,-38.4615384615385,4,2,1,60,0,0
266579,-25,4,2,1,60,0,0
266679,-38.4615384615385,4,2,1,60,0,0
266879,-50,4,2,1,60,0,0
266979,-40,4,2,1,60,0,0
267179,-69.4444444444444,4,2,1,60,0,0
267379,-33.3333333333333,4,2,1,60,0,0
267579,-50,4,2,1,60,0,0
267779,-33.3333333333333,4,2,1,60,0,0
268279,-50,4,2,1,60,0,0
268729,-66.6666666666667,4,2,1,60,0,0
269479,-50,4,2,1,60,0,0
269579,-40,4,2,1,60,0,0
269679,-33.3333333333333,4,2,1,60,0,0
269879,-66.6666666666667,4,2,1,60,0,0
270079,-33.3333333333333,4,2,1,60,0,0
270579,-80,4,2,1,60,0,0
271279,-100,4,2,1,60,0,0
271779,-80,4,2,1,60,0,0
272579,-43.4782608695652,4,2,1,60,0,0
272979,-58.8235294117647,4,2,1,60,0,0
273779,-45.4545454545455,4,2,1,60,0,0
275379,-39.5256916996047,4,2,1,60,0,0
276879,-133.333333333333,4,2,1,60,0,0
277179,-66.6666666666667,4,2,1,60,0,0
277379,-50,4,2,1,60,0,0
277679,-43.4782608695652,4,2,1,60,0,0
278179,-50,4,2,1,60,0,0
278279,-41.6666666666667,4,2,1,60,0,0
278379,-35.7142857142857,4,2,1,60,0,0
278479,-31.25,4,2,1,60,0,0
278779,-100,4,2,1,60,0,0
279079,-83.3333333333333,4,2,1,60,0,0
279479,-50,4,2,1,60,0,0
279679,-66.6666666666667,4,2,1,60,0,0
280179,-28.5714285714286,4,2,1,60,0,0
280579,-40,4,2,1,60,0,0
280979,-48.780487804878,4,2,1,60,0,0
282279,-45.4545454545455,4,2,1,60,0,0
282679,-62.5,4,2,1,60,0,0
283379,-25,4,2,1,60,0,0
284379,-50,4,2,1,60,0,0
284579,-40,4,2,1,60,0,0
284979,-227.272727272727,4,2,1,60,0,0
285279,-37.037037037037,4,2,1,60,0,0
285379,-40,4,2,1,60,0,0
285479,-50,4,2,1,60,0,0
285679,-37.037037037037,4,2,1,60,0,0
285779,-41.6666666666667,4,2,1,60,0,0
286179,-100,4,2,1,60,0,0
286579,-40.983606557377,4,2,1,60,0,0
286979,-29.0697674418605,4,2,1,60,0,0
287279,-37.037037037037,4,2,1,60,0,0
287479,-25,4,2,1,60,0,0
287779,-37.037037037037,4,2,1,60,0,0
287979,-55.5555555555556,4,2,1,60,0,0
288179,-40,4,2,1,60,0,0
288379,-45.4545454545455,4,2,1,60,0,0
288979,-55.5555555555556,4,2,1,60,0,0
289179,-69.4444444444444,4,2,1,60,0,0
289379,-29.0697674418605,4,2,1,60,0,0
289679,-133.333333333333,4,2,1,60,0,0
289979,-33.3333333333333,4,2,1,60,0,0
290179,-50,4,2,1,60,0,0
290579,-100,4,2,1,60,0,0
290979,-133.333333333333,4,2,1,60,0,0
291379,-33.3333333333333,4,2,1,60,0,0
291779,-40,4,2,1,60,0,0
292579,-55.5555555555556,4,2,1,60,0,0
292779,-37.037037037037,4,2,1,60,0,0
292979,-31.25,4,2,1,60,0,0
293279,-50,4,2,1,60,0,0
294179,-37.037037037037,4,2,1,60,0,0
294379,-100,4,2,1,60,0,0
294779,-66.6666666666667,4,2,1,60,0,0
294979,-43.4782608695652,4,2,1,60,0,0
295079,-133.333333333333,4,2,1,60,0,0
295179,-37.037037037037,4,2,1,60,0,0
295479,-43.4782608695652,4,2,1,60,0,0
296179,-69.4444444444444,4,2,1,60,0,0
297179,-100,4,2,1,60,0,0
297379,-33.3333333333333,4,2,1,60,0,0
297479,-66.6666666666667,4,2,1,60,0,0
297579,-80,4,2,1,60,0,0
297679,-133.333333333333,4,2,1,60,0,0
298179,-40,4,2,1,60,0,0
298579,-50,4,2,1,60,0,0
299529,-50,4,2,1,5,0,0
299579,-50,4,2,1,60,0,0
299929,-50,4,2,1,5,0,0
299979,-50,4,2,1,60,0,0
300279,-83.3333333333333,4,2,1,60,0,0
300579,-66.6666666666667,4,2,1,60,0,0
300979,-45.4545454545455,4,2,1,60,0,0
301379,-35.7142857142857,4,2,1,60,0,0
301529,-35.7142857142857,4,2,1,5,0,0
301579,-40,4,2,1,60,0,0
301629,-40,4,2,1,5,0,0
301679,-40,4,2,1,60,0,0
301879,-58.8235294117647,4,2,1,60,0,0
302479,-76.9230769230769,4,2,1,60,0,0
303579,-50,4,2,1,60,0,0
304979,-100,4,2,1,60,0,0
305379,-66.6666666666667,4,2,1,60,0,0
305579,-100,4,2,1,60,0,0
306879,-66.6666666666667,4,2,1,60,0,0
306979,-50,4,2,1,60,0,0
308979,-100,4,2,1,60,0,0
309779,-76.9230769230769,4,2,9,60,0,0
310579,-45.4545454545455,4,2,5,60,0,0
310979,-133.333333333333,4,2,1,60,0,0
311179,-133.333333333333,4,2,1,5,0,0
311279,-33.3333333333333,4,2,1,60,0,0
311379,-33.3333333333333,4,2,1,5,0,0
311479,-50,4,2,1,60,0,0
311829,-50,4,2,1,5,0,0
311879,-66.6666666666667,4,2,1,60,0,0
311929,-66.6666666666667,4,2,1,5,0,0
311979,-100,4,2,1,60,0,0
312029,-100,4,2,1,5,0,0
312079,-100,4,2,1,60,0,0
312129,-100,4,2,1,5,0,0
312179,-33.3333333333333,4,2,1,60,0,0
312379,-66.6666666666667,4,2,1,60,0,0
312579,-50,4,2,1,60,0,0
312729,-50,4,2,1,5,0,0
312779,-50,4,2,1,60,0,0
312929,-50,4,2,1,5,0,0
312979,-50,4,2,1,60,0,0
313579,-66.6666666666667,4,2,1,60,0,0
313779,-33.3333333333333,4,2,1,60,0,0
313979,-100,4,2,1,60,0,0
314179,-50,4,2,1,60,0,0
314479,-100,4,2,1,60,0,0
314679,-38.4615384615385,4,2,1,60,0,0
314979,-100,4,2,1,60,0,0
315279,-33.3333333333333,4,2,1,60,0,0
315479,-33.3333333333333,4,2,1,5,0,0
315579,-50,4,2,1,60,0,0
315979,-33.3333333333333,4,2,1,60,0,0
316179,-100,4,2,1,60,0,0
316479,-200,4,2,1,60,0,0
316579,-100,4,2,1,60,0,0
316679,-66.6666666666667,4,2,1,60,0,0
316979,-44.4444444444445,4,2,1,60,0,0
317379,-40,4,2,1,60,0,0
317579,-100,4,2,1,60,0,0
317879,-16.6666666666667,4,2,1,60,0,0
318579,-50,4,2,1,60,0,0
318779,-100,4,2,1,60,0,0
318979,-50,4,2,1,60,0,0
319379,-40,4,2,1,60,0,0
319579,-66.6666666666667,4,2,1,60,0,0
319979,-66.6666666666667,4,2,1,60,0,0
320179,-33.3333333333333,4,2,1,60,0,0
321379,-50,4,2,1,60,0,0
321579,-33.3333333333333,4,2,1,60,0,0
321779,-133.333333333333,4,2,1,60,0,0
321929,-100,4,2,1,60,0,0
322079,-66.6666666666667,4,2,1,60,0,0
322229,-80,4,2,1,60,0,0
322979,-66.6666666666667,4,2,1,60,0,0
323179,-50,4,2,1,60,0,0
323379,-133.333333333333,4,2,1,60,0,0
323779,-50,4,2,1,60,0,0
324079,-66.6666666666667,4,2,1,60,0,0
324579,-500,4,2,1,60,0,0
324979,-100,4,2,1,60,0,0
325179,-80,4,2,1,60,0,0
325379,-50,4,2,1,60,0,0
325679,-200,4,2,1,60,0,0
325979,-80,4,2,1,60,0,0
326179,-66.6666666666667,4,2,1,60,0,0
326379,-50,4,2,1,60,0,0
326579,-33.3333333333333,4,2,1,60,0,0
326779,-133.333333333333,4,2,1,60,0,0
326979,-50,4,2,1,60,0,0
327579,-200,4,2,1,60,0,0
327779,-50,4,2,1,60,0,0
328379,-66.6666666666667,4,2,1,60,0,0
328579,-100,4,2,1,60,0,0
328779,-133.333333333333,4,2,1,60,0,0
328979,-200,4,2,1,60,0,0
329329,-200,4,2,1,5,0,0
329379,-100,4,2,1,60,0,0
329429,-100,4,2,1,5,0,0
329479,-66.6666666666667,4,2,1,60,0,0
329529,-66.6666666666667,4,2,1,5,0,0
329579,-66.6666666666667,4,2,1,60,0,0
329779,-66.6666666666667,4,2,1,60,0,0
330179,-50,4,2,1,60,0,0
330379,-66.6666666666667,4,2,1,60,0,0
330579,-50,4,2,1,60,0,0
330629,-50,4,2,1,5,0,0
330679,-50,4,2,1,60,0,0
330979,-100,4,2,1,60,0,0
331379,-66.6666666666667,4,2,1,60,0,0
331429,-66.6666666666667,4,2,1,5,0,0
331479,-66.6666666666667,4,2,1,60,0,0
331529,-66.6666666666667,4,2,1,5,0,0
331579,-66.6666666666667,4,2,1,60,0,0
331629,-66.6666666666667,4,2,1,5,0,0
331679,-66.6666666666667,4,2,1,60,0,0
331729,-66.6666666666667,4,2,1,5,0,0
331779,-100,4,2,1,60,0,0
331979,-50,4,2,1,60,0,0
332579,-100,4,2,1,60,0,0
332779,-50,4,2,1,60,0,0
334079,-40,4,2,1,60,0,0
334579,-100,4,2,1,35,0,0
334979,-133.333333333333,4,2,1,35,0,0
335379,-200,4,2,1,35,0,0
335779,-1000,4,2,1,35,0,0
336079,-1000,4,2,1,5,0,0
336179,-66.6666666666667,4,2,1,60,0,0
336379,-133.333333333333,4,2,1,60,0,0
336579,-66.6666666666667,4,2,1,60,0,0
337029,-66.6666666666667,4,2,1,5,0,0
337079,-66.6666666666667,4,2,1,60,0,0
337129,-66.6666666666667,4,2,1,5,0,0
337179,-66.6666666666667,4,2,1,60,0,0
337229,-66.6666666666667,4,2,1,5,0,0
337279,-66.6666666666667,4,2,1,60,0,0
337329,-66.6666666666667,4,2,1,5,0,0
337379,-66.6666666666667,4,2,1,60,0,0
337579,-200,4,2,1,60,0,0
337779,-50,4,2,1,60,0,0
337929,-50,4,2,1,5,0,0
337979,-100,4,2,1,60,0,0
338179,-50,4,2,1,60,0,0
338929,-50,4,2,1,5,0,0
338979,-50,4,2,1,60,0,0
339379,-66.6666666666667,4,2,1,60,0,0
339979,-133.333333333333,4,2,1,60,0,0
340179,-40,4,2,1,60,0,0
340329,-40,4,2,1,5,0,0
340379,-200,4,2,1,60,0,0
340579,-66.6666666666667,4,2,1,60,0,0
340979,-50,4,2,1,60,0,0
341779,-28.5714285714286,4,2,1,60,0,0
341979,-66.6666666666667,4,2,1,60,0,0
342379,-33.3333333333333,4,2,1,60,0,0
342529,-33.3333333333333,4,2,1,5,0,0
342579,-100,4,2,1,60,0,0
342979,-40,4,2,1,60,0,0
343029,-40,4,2,1,5,0,0
343079,-50,4,2,1,60,0,0
343129,-50,4,2,1,5,0,0
343179,-66.6666666666667,4,2,1,60,0,0
343229,-66.6666666666667,4,2,1,5,0,0
343279,-100,4,2,1,60,0,0
343329,-100,4,2,1,5,0,0
343379,-66.6666666666667,4,2,1,60,0,0
343529,-66.6666666666667,4,2,1,5,0,0
343579,-133.333333333333,4,2,1,60,0,0
344179,-66.6666666666667,4,2,1,60,0,0
344779,-133.333333333333,4,2,1,60,0,0
344979,-86.9565217391304,4,2,1,60,0,0
345379,-200,4,2,1,60,0,0
345779,-66.6666666666667,4,2,1,60,0,0
346179,-100,4,2,1,60,0,0
346379,-57.1428571428571,4,2,1,60,0,0
346529,-100,4,2,1,5,0,0
346579,-100,4,2,1,60,0,0
347512,-75.187969924812,4,2,1,60,0,0
347645,-60.2409638554217,4,2,1,60,0,0
347779,-100,4,2,1,60,0,0
347912,-75.187969924812,4,2,1,60,0,0
348045,-60.2409638554217,4,2,1,60,0,0
348179,-50.251256281407,4,2,1,60,0,0
348579,-50,4,2,3,60,0,0
348629,-50,4,2,1,60,0,0
348979,-400,4,2,1,40,0,0
349379,-200,4,2,1,40,0,0
349579,-100,4,2,1,40,0,0
350029,-100,4,2,1,5,0,0
350079,-100,4,2,1,40,0,0
350129,-100,4,2,1,5,0,0
350179,-100,4,2,1,40,0,0
351379,-66.6666666666667,4,2,1,40,0,0
351529,-66.6666666666667,4,2,1,5,0,0
351579,-100,4,2,1,40,0,0
352179,-100,4,2,1,30,0,0
352979,-66.6666666666667,4,2,1,30,0,0
353179,-100,4,2,1,30,0,0
353229,-100,4,2,1,5,0,0
353279,-100,4,2,1,30,0,0
353329,-100,4,2,1,5,0,0
353379,-100,4,2,1,30,0,0
353979,-200,4,2,1,30,0,0
355179,-50,4,2,1,60,0,0
355329,-50,4,2,1,5,0,0
355379,-400,4,2,1,60,0,0
355779,-200,4,2,1,60,0,0
359479,-66.6666666666667,4,2,1,60,0,0
359979,-40,4,2,1,60,0,0
360179,-25,4,2,1,60,0,0
360312,-26.6666666666667,4,2,1,60,0,0
360445,-28.5714285714286,4,2,1,60,0,0
360579,-30.7692307692308,4,2,1,60,0,0
360712,-33.3333333333333,4,2,1,60,0,0
360845,-36.3636363636364,4,2,1,60,0,0
360979,-40,4,2,1,60,0,0
361112,-44.4444444444445,4,2,1,60,0,0
361245,-50,4,2,1,60,0,0
361379,-400,4,2,10,80,0,0
361429,-400,4,2,1,5,0,0

[Colours]
Combo1 : 237,39,49
Combo2 : 255,232,191
Combo3 : 255,88,128
Combo4 : 17,131,174
Combo5 : 248,196,70
Combo6 : 245,59,157
Combo7 : 117,181,167
Combo8 : 138,112,255

[HitObjects]
441,97,1779,86,0,P|446:114|445:140,1,42,2|0,0:0|0:0,0:0:0:0:
406,201,2579,2,0,P|404:232|412:262,1,62.9999980773926,2|0,0:0|0:0,0:0:0:0:
490,225,3379,2,0,B|448:201|400:222|419:238|364:270|320:244,1,180,2|0,0:0|0:0,0:0:0:0:
276,178,4979,38,0,P|239:150|260:192,1,125.999996154785,2|0,0:0|0:0,0:0:0:0:
185,255,5779,2,0,P|185:297|162:245,1,168,2|0,0:0|0:0,0:0:0:0:
113,168,6579,2,0,P|120:35|43:145,1,360,2|0,0:0|0:0,0:0:0:0:
17,356,8179,70,0,P|68:301|202:270,1,210,2|0,0:0|0:0,0:0:0:0:
339,168,8979,2,0,B|355:136|338:96|298:84|227:110|246:205,1,210,2|0,0:0|0:0,0:0:0:0:
183,357,9779,38,0,P|208:284|361:255,1,240,2|0,0:0|0:0,0:0:0:0:
353,250,10979,1,0,0:0:0:0:
270,81,11379,70,0,P|285:192|292:342,1,251.999992309571,2|0,0:0|0:0,0:0:0:0:
306,345,12179,2,0,P|300:219|283:94,1,251.999992309571,2|0,0:0|0:0,0:0:0:0:
168,127,12979,38,0,P|184:126|204:129,1,36,2|0,0:0|0:0,0:0:0:0:
208,133,13379,2,0,P|172:85|4:60,1,240
15,135,13979,69,2,0:0:0:0:
25,208,14179,1,2,0:0:0:0:
35,281,14379,1,2,0:0:0:0:
46,378,14579,54,0,P|136:357|271:340,1,216.000005273438,0|0,3:0|0:0,0:0:0:0:
273,341,14879,1,0,0:0:0:0:
273,341,14979,2,0,P|294:328|270:296,1,67.5000025749207,0|0,3:0|0:0,0:0:0:0:
190,326,15179,2,0,P|161:269|93:277,1,129.600003164063
33,219,15379,101,2,3:0:0:0:
40,198,15479,1,2,0:0:0:0:
61,193,15579,1,2,0:0:0:0:
102,270,15679,2,0,P|94:305|62:318,1,45.0000017166138,2|0,0:3|3:0,0:0:0:0:
88,310,15979,6,0,P|177:285|260:278,1,143.999995605469,2|0,0:0|3:0,0:0:0:0:
335,124,16379,101,2,0:0:0:0:
339,143,16479,1,2,0:0:0:0:
322,163,16579,1,2,3:0:0:0:
268,163,16679,1,2,0:0:0:0:
224,103,16779,1,2,0:0:0:0:
266,33,16879,1,2,0:0:0:0:
349,48,16979,6,0,P|393:73|408:101,1,71.9999978027344,2|0,3:0|0:0,0:0:0:0:
268,163,17179,102,0,P|242:187|251:241,1,60,2|0,3:0|0:0,0:0:0:0:
348,259,17379,6,0,P|372:284|359:315,1,48,2|0,3:0|0:0,0:0:0:0:
300,320,17579,102,0,P|292:332|305:330,1,24,2|0,3:0|0:0,0:0:0:0:
237,210,17779,6,0,B|187:195|156:239|169:252|133:295|84:266,1,172.80000421875,0|0,3:0|0:0,0:0:0:0:
259,213,18079,1,2,0:0:0:0:
259,213,18179,2,0,B|275:183|275:183|253:158,1,67.5000025749207,0|0,3:0|0:0,0:0:0:0:
337,246,18379,2,0,P|410:212|443:251,1,129.600003164063,2|0,0:0|0:0,0:0:0:0:
446,319,18579,101,2,3:0:0:0:
446,319,18679,2,0,P|480:324|476:349,1,67.5000025749207
395,378,18879,2,0,P|343:368|285:359,1,92.3999981671143,2|0,0:0|3:0,0:0:0:0:
304,361,19179,5,2,0:0:0:0:
288,344,19279,1,2,0:0:0:0:
284,270,19379,101,2,3:0:0:0:
271,346,19479,1,2,0:0:0:0:
197,376,19579,1,2,0:0:0:0:
131,339,19679,1,2,0:0:0:0:
116,323,19779,6,0,B|106:287|130:265|138:274|164:248|152:212,1,120,2|0,3:0|0:0,0:0:0:0:
42,75,20079,2,0,P|60:120|106:124,1,92.3999981671143,2|0,0:0|3:0,0:0:0:0:
157,60,20279,101,2,0:0:0:0:
180,72,20379,1,2,0:0:0:0:
184,101,20479,1,2,0:0:0:0:
164,189,20579,6,0,B|191:249|230:374|230:374|270:303|297:234|297:234|209:273|105:300,1,540.000020599366,4|0,1:2|1:0,0:0:0:0:
29,364,20979,102,0,B|11:358|11:358|32:255,1,107.999996704102,12|0,3:1|0:0,0:0:0:0:
67,195,21079,2,0,P|65:162|64:196,1,107.999996704102
60,182,21379,5,12,3:1:0:0:
135,205,21479,1,0,3:0:0:0:
209,182,21579,1,0,3:0:0:0:
234,111,21679,1,0,3:0:0:0:
225,192,21779,101,8,1:1:0:0:
221,98,21879,6,2,B|219:88|219:88|222:85|222:85|218:83|218:83|221:78|221:78|218:81|218:81|219:77|219:77|216:72|216:72|218:69|218:69|219:66|219:66|216:62|216:62|215:64|215:64|217:58|217:58|214:57|214:57|216:51|216:51|212:49,1,66.0000020141602,2|0,0:1|0:0,0:1:0:0:
160,1,22179,1,2,0:3:0:0:
137,7,22279,1,2,0:3:0:0:
124,27,22379,1,2,0:3:0:0:
124,48,22479,1,2,0:3:0:0:
220,96,22579,101,8,3:1:0:0:
299,90,22679,1,0,3:0:0:0:
357,149,22779,1,0,3:0:0:0:
329,223,22879,1,0,3:0:0:0:
219,206,22979,5,8,3:1:0:0:
177,218,23079,1,0,3:0:0:0:
164,263,23179,1,0,3:0:0:0:
187,297,23279,1,0,3:0:0:0:
270,329,23379,102,0,P|274:311|259:320,1,39.6000012084961,8|0,3:1|0:0,0:0:0:0:
259,339,23579,6,0,P|207:380|133:358,1,129.600003164063
88,319,23779,1,0,3:0:0:0:
88,319,23879,1,0,3:0:0:0:
181,121,24079,101,0,3:0:0:0:
130,177,24179,2,0,L|96:172,3,30,8|0|0|0,1:1|1:0|1:0|1:0,0:0:0:0:
140,188,24379,1,0,1:0:0:0:
195,249,24479,1,0,0:0:0:0:
259,339,24579,6,0,B|312:357|340:293|315:284|348:215|425:256,1,180,8|0,1:1|0:0,0:0:0:0:
467,219,24779,2,0,B|479:228|479:228|469:244,1,30,0|0,3:0|0:0,0:0:0:0:
401,332,24879,102,0,B|339:360|300:284|323:267|277:191|204:226,1,243.000000926971,8|0,1:1|0:0,0:0:0:0:
132,306,25079,2,0,P|135:328|140:306,1,60,8|0,3:1|0:0,0:0:0:0:
46,105,25279,5,0,3:0:0:0:
9,183,25379,2,0,B|25:194|25:194|184:146,1,180,8|0,3:1|0:0,0:0:0:0:
252,124,25579,102,0,B|253:117|253:117|253:113|253:113|253:108|253:108|248:108|248:108|249:104|249:104|247:100|247:100|243:99|243:99|240:95|240:95|237:92|237:92|226:89|226:89|231:91|231:91|226:90,1,57.6,2|0,3:0|0:0,0:0:0:0:
243,215,25779,6,0,P|259:239|249:213,1,79.2000024169922
250,230,26179,101,2,1:3:0:0:
212,295,26279,5,2,1:3:0:0:
258,359,26379,101,2,1:3:0:0:
299,363,26479,5,2,1:3:0:0:
317,346,26579,101,6,3:0:0:0:
321,324,26679,5,6,3:0:0:0:
311,314,26779,101,6,3:0:0:0:
301,311,26879,5,6,3:0:0:0:
294,310,26979,102,0,B|249:312|237:358|246:359|233:414|153:407|134:358|150:308|194:288|232:317,1,261.000002190399,2|0,3:3|0:0,0:0:0:0:
229,316,27379,70,0,P|235:254|211:112,1,180,0|0,1:0|0:0,0:0:0:0:
219,137,27779,1,0,1:0:0:0:
326,49,27979,1,2,0:2:0:0:
330,62,28079,1,2,0:2:0:0:
346,68,28179,1,2,1:2:0:0:
385,42,28279,54,0,B|314:5|251:45|283:84|210:143|132:103,1,270.000010299683,2|0,0:0|1:0,0:0:0:0:
12,195,28779,1,2,0:3:0:0:
35,229,28879,1,2,0:3:0:0:
30,247,28979,2,0,P|39:189|35:106,1,135.000005149841,2|0,1:3|0:0,0:0:0:0:
62,333,29379,53,2,1:2:0:0:
143,298,29579,1,2,0:2:0:0:
262,364,29779,1,0,1:0:0:0:
277,373,29879,2,0,P|276:334|274:316,1,45.0000017166138,2|0,0:0|0:0,0:0:0:0:
242,195,30079,1,2,0:2:0:0:
230,176,30179,1,2,1:2:0:0:
247,135,30279,2,0,P|249:103|236:29,1,90.0000034332277
146,162,30579,54,0,P|223:158|326:172,1,180,2|0,1:2|0:0,0:0:0:0:
434,126,30979,2,0,B|383:137|406:186|338:191,1,120,0|0,1:0|0:0,0:0:0:0:
402,252,31279,2,0,P|391:169|353:52,1,180.000006866455,2|0,0:1|0:0,0:0:0:0:
418,20,31579,54,0,P|393:3|366:1,1,45.0000017166138,2|0,0:0|0:0,0:0:0:0:
282,138,31779,2,0,P|290:108|284:82,1,45.0000017166138,2|0,1:2|0:2,0:0:0:0:
172,83,31979,2,0,P|202:82|225:67,1,45.0000017166138,2|0,0:0|0:0,0:0:0:0:
89,39,32179,53,2,1:3:0:0:
75,30,32279,1,2,0:3:0:0:
61,21,32379,2,0,P|67:81|65:118,1,90.0000034332277,2|0,0:3|0:0,0:0:0:0:
185,289,32579,53,2,1:3:0:0:
171,298,32679,1,2,0:3:0:0:
157,307,32779,2,0,P|163:247|161:210,1,90.0000034332277,2|0,0:3|0:0,0:0:0:0:
227,136,32979,54,0,B|271:119|316:157|286:179|342:216|393:196,1,180.000006866455,0|0,1:0|0:0,0:0:0:0:
396,200,33279,1,0,3:2:0:0:
428,183,33379,1,0,3:2:0:0:
459,113,33479,1,0,3:2:0:0:
416,47,33579,2,0,P|371:28|314:73,1,90.0000034332277,0|0,3:0|3:0,0:0:0:0:
246,213,33779,53,0,3:0:0:0:
246,213,34179,1,0,1:0:0:0:
330,285,34379,1,0,0:0:0:0:
288,354,34579,53,2,1:0:0:0:
295,361,34629,54,0,P|287:283|304:143,1,202.500000772476,2|0,0:2|0:0,0:0:0:0:
332,32,34979,2,0,P|331:3|324:31,1,81.0000003089905,0|0,1:0|0:0,0:0:0:0:
156,248,35179,1,2,0:3:0:0:
139,228,35279,1,2,0:3:0:0:
161,184,35379,54,0,B|194:137|194:137|154:16,1,162.000000617981,0|0,1:0|0:0,0:0:0:0:
77,61,35679,2,0,B|46:49|46:49|92:87,1,81.0000003089905,2|0,0:0|1:0,0:0:0:0:
64,159,35879,2,0,B|43:184|43:184|93:152,1,81.0000003089905,2|0,0:0|0:0,0:0:0:0:
213,364,36079,53,2,0:3:0:0:
204,353,36179,2,0,P|279:311|374:316,1,162.000000617981,0|0,1:0|0:0,0:0:0:0:
434,343,36479,2,0,B|456:353|475:374|471:380|435:371|417:343,1,81.0000003089905,2|0,0:0|1:0,0:0:0:0:
412,248,36679,2,0,B|428:229|453:216|459:224|439:255|407:264,1,81.0000003089905,2|0,0:0|0:0,0:0:0:0:
248,44,36979,54,0,P|241:26|217:-9,2,45.0000017166138,0|0|0,1:0|0:0|0:0,0:0:0:0:
206,112,37279,1,2,0:3:0:0:
234,186,37479,1,2,0:3:0:0:
194,248,37679,2,0,B|231:220|287:239|268:272|319:294|359:270,1,180.000006866455,2|2,0:3|0:3,0:0:0:0:
53,377,38079,53,0,3:0:0:0:
66,271,38179,2,0,B|70:246|70:246|89:273,2,45.0000017166138,8|0|0,3:1|3:0|3:0,0:0:0:0:
0,312,38379,2,0,L|88:297,1,90.0000034332277,0|0,3:0|3:0,0:0:0:0:
484,272,38579,53,4,3:1:0:0:
484,272,38679,54,0,B|506:313|469:369|369:346|356:260,1,210.000002002716,12|0,3:1|0:0,0:0:0:0:
324,145,38979,2,0,P|336:85|343:21,1,105.000001001358,8|0,3:1|0:0,0:0:0:0:
263,197,39179,53,0,3:0:0:0:
242,216,39279,2,0,B|217:266|288:317|357:290|339:187|450:199,2,270.000010299683,0|0|8,3:0|3:0|3:1,0:0:0:0:
166,74,39779,54,0,L|178:174,1,90.0000034332277,0|0,3:0|0:0,0:0:0:0:
100,157,39979,2,0,L|93:97,1,60,0|0,3:0|0:0,0:0:0:0:
280,50,40179,53,4,0:1:0:0:
341,105,40279,2,0,P|399:91|464:80,1,112.500004291535,4|0,3:0|0:0,0:0:0:0:
452,82,40579,54,0,B|436:49|394:63|383:86|396:125|420:135,1,105.000001001358,8|4,0:3|0:3,0:0:0:0:
470,169,40779,2,0,B|498:208|462:261|409:254|410:210,1,120
268,171,40979,53,8,0:3:0:0:
213,224,41079,2,0,B|188:231|160:215|170:210|141:187|106:193,1,112.500004291535,4|0,0:3|0:0,0:0:0:0:
108,192,41379,54,0,P|99:235|119:196,1,120,8|4,0:3|0:3,0:0:0:0:
172,119,41579,2,0,P|178:94|165:117,1,75
129,27,41779,1,8,0:3:0:0:
172,103,41879,2,0,P|216:107|244:93,1,67.5000025749207,4|0,0:3|0:0,0:0:0:0:
258,86,42079,54,0,B|292:90|305:121|305:121|300:143|312:175,1,105.000001001358,0|8,0:0|0:3,0:0:0:0:
460,136,42279,1,4,0:3:0:0:
448,124,42379,54,0,P|386:134|368:137,1,67.5000025749207
308,163,42579,1,8,0:3:0:0:
356,54,42679,2,0,P|389:48|458:41,1,90.0000034332277,4|0,3:0|0:0,0:0:0:0:
432,198,42979,53,8,0:3:0:0:
381,134,43079,1,4,0:3:0:0:
458,120,43179,1,4,0:3:0:0:
199,177,43379,53,8,0:3:0:0:
199,177,43479,1,4,0:3:0:0:
199,177,43579,2,0,P|228:152|249:153,1,53.9999983520508,4|0,0:3|0:0,0:0:0:0:
292,226,43779,53,8,0:3:0:0:
262,228,43879,1,4,0:3:0:0:
247,246,43979,2,0,P|240:273|247:296,1,51.0000009727478,4|0,0:3|0:0,0:0:0:0:
438,284,44179,53,8,0:3:0:0:
430,328,44279,1,4,0:3:0:0:
384,338,44379,2,0,P|356:327|340:302,1,60,4|0,0:3|0:0,0:0:0:0:
336,98,44579,53,8,0:3:0:0:
324,175,44679,1,4,0:3:0:0:
401,196,44779,2,0,P|430:194|458:161,1,71.9999978027344,4|0,0:3|0:0,0:0:0:0:
490,0,44979,53,8,0:3:0:0:
394,10,45079,2,0,P|394:36|478:73,1,120,4|0,0:3|0:0,0:0:0:0:
219,43,45379,54,0,B|183:49|183:49|174:55|174:55|125:61,1,90.0000034332277,8|4,0:3|0:3,0:0:0:0:
52,41,45579,2,0,P|51:74|61:94,1,45.0000017166138
115,143,45679,2,2,P|95:215|88:250,2,90.0000034332277,2|8|4,0:1|0:3|0:3,0:1:0:0:
202,242,45979,54,0,B|249:222|276:271|264:278|295:318|342:294,1,157.500001502037,2|0,0:1|0:0,0:0:0:0:
333,313,46179,2,0,B|360:305|347:275|331:273|319:279,1,60,10|4,0:3|0:3,0:0:0:0:
190,344,46379,1,4,0:3:0:0:
187,354,46579,54,0,L|114:343,1,67.5000025749207,0|0,3:0|0:0,0:0:0:0:
102,331,46779,53,4,0:3:0:0:
88,313,46879,1,4,0:3:0:0:
84,290,46979,1,4,0:3:0:0:
90,268,47079,1,4,0:3:0:0:
104,250,47179,1,4,0:3:0:0:
125,242,47279,1,4,0:3:0:0:
210,274,47379,53,8,0:3:0:0:
228,260,47479,2,0,L|258:266,2,22.5000008583069,10|2|2,0:3|0:3|0:3,0:0:0:0:
313,198,47679,53,4,0:3:0:0:
330,213,47779,2,0,L|360:207,2,22.5000008583069,8|2|2,0:3|0:3|0:3,0:0:0:0:
413,274,47979,2,0,L|456:280,1,39.6000012084961,8|0,0:3|0:0,0:0:0:0:
452,279,48179,2,0,B|474:246|474:246|450:209,1,76.5000014591217,4|0,3:1|0:0,0:0:0:0:
437,202,48379,53,8,0:3:0:0:
423,169,48479,1,8,0:3:0:0:
424,133,48579,1,8,0:3:0:0:
438,100,48679,1,8,0:3:0:0:
468,81,48779,1,8,0:3:0:0:
503,80,48879,1,8,0:3:0:0:
427,55,48979,53,4,0:0:0:0:
410,38,49079,2,0,P|401:15|400:0,2,25.5000004863739,6|2|2,0:3|0:3|0:3,0:0:0:0:
356,100,49279,53,0,0:0:0:0:
339,117,49379,2,0,P|330:140|329:155,2,25.5000004863739,6|2|2,0:3|0:3|0:3,0:0:0:0:
281,41,49579,53,4,0:3:0:0:
238,23,49679,1,4,0:3:0:0:
201,40,49779,2,0,L|155:37,2,30,8|8|8,0:3|0:3|0:3,0:0:0:0:
280,199,49979,53,4,0:3:0:0:
280,199,50079,1,4,0:3:0:0:
330,140,50179,2,0,L|395:123,2,60,8|8|8,0:3|0:3|0:3,0:0:0:0:
164,301,50379,53,4,0:3:0:0:
147,295,50479,1,4,0:3:0:0:
74,271,50579,54,0,P|37:288|30:314,1,60,0|0,3:0|0:0,0:0:0:0:
86,237,50679,2,0,P|52:213|26:220,1,60,0|0,3:0|0:0,0:0:0:0:
111,220,50779,2,0,P|114:179|95:160,1,60,0|0,3:0|0:0,0:0:0:0:
136,220,50879,2,0,P|173:202|180:176,1,60,0|0,3:0|0:0,0:0:0:0:
205,278,50979,53,0,1:0:0:0:
283,327,51079,1,0,1:0:0:0:
377,310,51179,1,0,1:0:0:0:
433,233,51279,1,0,1:0:0:0:
420,128,51379,54,0,P|389:106|410:137,1,105.600003222656,4|0,1:2|0:0,0:0:0:0:
40,253,52179,22,0,B|23:265|23:265|59:257,1,48,4|0,1:2|3:0,0:0:0:0:
112,212,52479,1,4,0:3:0:0:
1,349,52579,70,0,B|131:324|131:324|156:319|168:294|168:294|180:264|210:259|210:259|250:253,1,270.000010299683,8|0,0:1|0:0,0:0:0:0:
466,312,52979,38,0,B|458:296|458:296|404:268|404:268|380:384|380:384|442:379,1,240,6|0,1:2|0:0,0:0:0:0:
422,380,53379,70,0,B|464:373|464:373|490:244|490:244|482:223|482:223|409:182,1,240,4|0,1:0|0:0,0:0:0:0:
312,306,53679,38,0,B|299:369|299:369|290:360|290:360|282:376|282:376|300:285,1,150,6|0,3:2|0:0,0:0:0:0:
241,255,53879,70,0,B|235:228|235:228|227:222|227:222|236:261,1,60,4|0,3:0|0:0,0:0:0:0:
330,141,54179,38,0,L|277:130,1,45.0000017166138,8|0,3:1|0:0,0:0:0:0:
322,151,54279,2,0,L|311:204,1,45.0000017166138,8|0,0:3|0:0,0:0:0:0:
332,159,54379,2,0,L|385:170,1,45.0000017166138,4|0,0:3|0:0,0:0:0:0:
340,149,54479,2,0,L|351:96,1,45.0000017166138,8|0,0:2|0:0,0:0:0:0:
430,9,54579,70,0,L|474:-1,1,45.0000017166138,0|2,1:0|0:0,0:0:0:0:
505,72,54779,2,0,L|431:87,1,75,2|2,0:3|0:0,0:0:0:0:
349,104,54979,38,0,P|305:54|226:72,1,135.000005149841,8|0,3:1|0:0,0:0:0:0:
195,123,55179,2,0,P|144:92|184:43,1,120,2|2,0:3|0:0,0:0:0:0:
245,64,55379,70,0,B|227:170|227:170|235:155|235:155|212:278,2,240,0|6|8,1:0|0:0|3:1,0:0:0:0:
0,340,55979,38,0,P|39:344|1:338,1,120,14|0,0:0|0:0,0:0:0:0:
85,196,56179,70,0,P|36:214|88:199,1,180.000006866455,14|0,1:2|0:0,0:0:0:0:
127,364,56379,37,2,3:0:0:0:
138,361,56479,1,2,0:3:0:0:
214,384,56579,70,0,P|234:348|220:297,1,90.0000034332277,8|0,3:1|0:0,0:0:0:0:
280,244,56779,2,0,P|321:247|354:288,1,90.0000034332277,2|2,0:3|0:0,0:0:0:0:
490,354,56979,38,0,B|541:376|541:376|455:364,1,120,0|0,1:0|0:0,0:0:0:0:
330,355,57179,70,0,P|364:357|413:236,1,180,6|0,0:0|0:0,0:0:0:0:
396,170,57379,38,0,B|377:131|377:131|413:124|413:124|412:183,1,120,8|0,3:1|0:0,0:0:0:0:
352,281,57579,1,0,1:0:0:0:
417,43,57679,70,0,B|442:105|442:105|341:126|341:126|337:39,1,240,8|0,1:0|0:0,0:0:0:0:
417,43,57979,38,0,B|305:25|305:25|292:12|292:12|213:-1,1,180,6|0,3:2|0:0,0:0:0:0:
185,174,58179,2,0,L|254:162,1,60,8|2,3:1|0:0,0:0:0:0:
248,85,58379,2,0,L|148:102,1,90.0000034332277,12|0,1:0|0:0,0:0:0:0:
13,310,58579,69,2,1:2:0:0:
16,319,58679,1,2,3:2:0:0:
22,308,58779,1,2,3:0:0:0:
24,317,58879,2,0,L|21:337,1,15,0|0,3:0|0:0,0:0:0:0:
96,344,58979,38,0,L|107:373,1,30,8|0,1:0|0:0,0:0:0:0:
168,317,59079,70,0,L|216:355,1,45.0000017166138,4|0,1:3|0:0,0:0:0:0:
203,249,59179,37,12,1:3:0:0:
185,174,59279,1,8,1:3:0:0:
33,176,59379,70,0,B|38:218|38:218|55:227|55:227|97:221|97:221|106:205|106:205|100:162|100:162|84:153|84:153|41:159|41:159|30:181,1,240,6|0,1:0|0:0,0:0:0:0:
67,203,59579,2,0,L|72:173,1,30,2|0,0:3|3:0,0:0:0:0:
205,27,59779,38,0,P|225:42|218:115,1,90.0000034332277,8|2,3:1|0:0,0:0:0:0:
43,76,59979,70,0,L|163:59,1,90.0000034332277,2|2,0:3|0:0,0:0:0:0:
326,32,60179,1,0,1:0:0:0:
228,102,60279,38,0,B|228:99|228:98|228:98|226:98|226:98|229:98|229:98|228:97|228:97|228:96|228:96|226:96|226:96|229:95|229:95|228:95|228:95|226:94|226:94|225:94|225:94|228:93|228:93|226:93|226:93|226:92|226:92|225:92|225:92|228:92|228:92|226:91|226:91|226:90|226:90|225:90|225:90|228:90|228:90|226:89|226:89|226:88|226:88|225:88|225:88|228:88|228:88|226:87|226:87|226:86|226:86|225:86|225:86|228:86|228:86|226:85|226:85|226:84|226:84|225:84|225:84|228:84|228:84|226:83|226:83|226:82|226:82|229:82|229:82|228:81|228:81|228:80|228:80|226:79|226:79|229:80|229:80|228:79|228:79|228:78|228:78|226:77|226:77|229:78|229:78|228:77|228:77|228:76|228:76|226:75|226:75|229:76|229:76|228:75|228:75|228:74|228:74|226:73|226:73|229:74|229:74|228:73|228:73|229:72|229:72|229:71|229:71|231:72|231:72|230:71|230:71|230:70|230:70|229:70|229:70|231:70|231:70|230:69|230:69|230:68|230:68|231:68|231:68|231:67|231:67|231:66|231:66|230:66|230:66|232:66|232:66|231:65|231:65|231:64|231:64|230:64|230:64|232:64|232:64|232:62|232:62|232:61|232:61|231:61|231:61|233:61|233:61|232:60|232:60|232:59|232:59|233:59|233:59|233:58|233:58|232:57|232:57|234:57|234:57|233:57|233:57|234:56|234:56|233:55|233:55|235:56|235:56|234:55|234:55|234:54|234:54|233:53|233:53|235:54|235:54|235:53|235:53|235:52|235:52|234:51|234:51|236:52|236:52|235:51|235:51|236:50|236:50|235:49|235:49|237:50|237:50|236:49|236:49|236:48|236:48|236:47|236:47|238:48|238:48|237:47|237:47|237:46|237:46|238:46|238:46|238:45|238:45|239:44|239:44|239:45|239:45|240:44|240:44|240:43|240:43|239:42|239:42|241:43|241:43|241:42|241:42|241:41|241:41|240:40|240:40|242:41|242:41|241:40|241:40|242:39|242:39|241:38|241:38|243:39|243:39|242:39|242:39|243:38|243:38|242:37|242:37|244:38|244:38|244:37|244:37|244:36|244:36|243:35|243:35|245:36|245:36|245:35|245:35|245:34|245:34|245:33|245:33|246:35|246:35|246:34|246:34|246:33|246:33|247:34|247:34|247:33|247:33|247:32|247:32|247:31|247:31|248:32|248:32|248:31|248:31|249:30|249:30|248:29|248:29|250:31|250:31|249:30|249:30|250:29|250:29|249:28|249:28|251:29|251:29|250:28|250:28|251:27|251:27|251:26|251:26|252:27|252:27|252:26|252:26|252:24|252:24|253:26|253:26|253:24|253:24|254:23|254:23|253:22|253:22|255:23|255:23|254:22|254:22|255:22|255:22|255:21|255:21|256:22|256:22|256:21|256:21|256:20|256:20|257:19|257:19|257:21|257:21|258:20|258:20|259:19|259:19|258:18|258:18|260:19|260:19|259:18|259:18|260:17|260:17|260:16|260:16|261:18|261:18|261:17|261:17|262:16|262:16|261:15|261:15|263:16|263:16|262:15|262:15|263:15|263:15|263:14|263:14|264:15|264:15|264:14|264:14|265:13|265:13|264:12|264:12|267:14|267:14|265:13|265:13|267:12|267:12|267:11|267:11|268:13|268:13|268:12|268:12|269:11|269:11|268:10|268:10|270:11|270:11|269:10|269:10|270:10|270:10|270:9|270:9|271:10|271:10|271:9|271:9|272:9|272:9|272:7|272:7|273:9|273:9|273:8|273:8|274:7|274:7|273:6|273:6|274:8|274:8|274:7|274:7|275:6|275:6|275:5|275:5|276:7|276:7|276:6|276:6|277:5|277:5|277:4|277:4|278:6|278:6|278:5|278:5|279:4|279:4|278:3|278:3|279:5|279:5|279:4|279:4|280:3|280:3|280:2|280:2|281:4|281:4|281:3|281:3|282:2|282:2|282:1|282:1|283:3|283:3|283:2|283:2|284:2|284:2|284:1|284:1|285:3|285:3|285:2|285:2|286:1|286:1|286:0|286:0|286:2|286:2|286:1|286:1|287:1|287:1|288:0|288:0|288:1|288:1|288:0|288:0|289:0|289:0|290:0|290:0|291:0|291:0|291:0|291:0|292:0|292:0|292:-1|292:-1|293:0|293:0|293:0|293:0|294:-1|294:-1|294:-2|294:-2|295:0|295:0|295:-1|295:-1|296:-2|296:-2|296:-2|296:-2|297:-1|297:-1|297:-2|297:-2|298:-2|298:-2|298:-2|298:-2|298:-1|298:-1|299:-2|299:-2|300:-2|300:-2|300:-3|300:-3|300:-2|300:-2|300:-2|300:-2|301:-2|301:-2|302:-4|302:-4|302:-2|302:-2|302:-3|302:-3|303:-3|303:-3|305:-4|305:-4|305:-2|305:-2|305:-3|305:-3|306:-3|306:-3|307:-5|307:-5|307:-3|307:-3|307:-4|307:-4|308:-4|308:-4|308:-5|308:-5|309:-3|309:-3|309:-4|309:-4|310:-4|310:-4|310:-5|310:-5|311:-3|311:-3|311:-5|311:-5|312:-5|312:-5|312:-6|312:-6|313:-4|313:-4|313:-5|313:-5|314:-5|314:-5|314:-6|314:-6|315:-4|315:-4|315:-5|315:-5|316:-5|316:-5|316:-6|316:-6|317:-4|317:-4|317:-5|317:-5|318:-5|318:-5|318:-6|318:-6|319:-4|319:-4|319:-5|319:-5|320:-5|320:-5|320:-6|320:-6|321:-4|321:-4|321:-5|321:-5|322:-5|322:-5|322:-6|322:-6|323:-4|323:-4|323:-5|323:-5|324:-5|324:-5|324:-6|324:-6|325:-4|325:-4|325:-5|325:-5|326:-5|326:-5|326:-6|326:-6|327:-4|327:-4|327:-5|327:-5|328:-5|328:-5|328:-6|328:-6|329:-4|329:-4|329:-5|329:-5|330:-5|330:-5|330:-6|330:-6|330:-4|330:-4|331:-5|331:-5|332:-5|332:-5|333:-6|333:-6|332:-4|332:-4|333:-5|333:-5|334:-5|334:-5|335:-6|335:-6|334:-4|334:-4|335:-5|335:-5|336:-5|336:-5|337:-6|337:-6|336:-4|336:-4|337:-5|337:-5|338:-5|338:-5|339:-6|339:-6|338:-4|338:-4|339:-5|339:-5|340:-5|340:-5|341:-6|341:-6|340:-4|340:-4|341:-5|341:-5|343:-5|343:-5|344:-6|344:-6|343:-4|343:-4|344:-5|344:-5|345:-4|345:-4|346:-4|346:-4|345:-3|345:-3|346:-3|346:-3|347:-3|347:-3|348:-4|348:-4|347:-2|347:-2|348:-3|348:-3|349:-3|349:-3|350:-4|350:-4|349:-2|349:-2|350:-3|350:-3|351:-2|351:-2|352:-3|352:-3|351:-2|351:-2|352:-2|352:-2|353:-2|353:-2|353:-3|353:-3|353:-2|353:-2|354:-2|354:-2|355:-2|355:-2|355:-2|355:-2|355:-1|355:-1|356:-2|356:-2|357:-2|357:-2|357:-2|357:-2|357:-1|357:-1|358:-2|358:-2|359:-1|359:-1|359:-2|359:-2|359:0|359:0|360:-1|360:-1|361:-2|361:-2|361:0|361:0|361:-1|361:-1|362:0|362:0|363:-1|363:-1|362:0|362:0|363:0|363:0|364:0|364:0|365:0|365:0|364:1|364:1|365:0|365:0|366:0|366:0|367:0|367:0|366:1|366:1|367:1|367:1|368:1|368:1|369:0|369:0|368:2|368:2|369:1|369:1|370:2|370:2|371:1|371:1|370:3|370:3|371:2|371:2|372:3|372:3|372:2|372:2|372:5|372:5|373:4|373:4|374:4|374:4|373:5|373:5|374:5|374:5|375:5|375:5|376:5|376:5|375:6|375:6|376:6|376:6|377:6|377:6|378:6|378:6|377:7|377:7|378:7|378:7|379:7|379:7|381:7|381:7|379:8|379:8|381:8|381:8|382:8|382:8|381:9|381:9|382:9|382:9|383:9|383:9|384:9|384:9|383:10|383:10|384:10|384:10|385:10|385:10|386:10|386:10|385:11|385:11|386:11|386:11|387:11|387:11|386:13|386:13|387:12|387:12|388:13|388:13|389:12|389:12|388:14|388:14|389:13|389:13|390:14|390:14|391:13|391:13|390:15|390:15|391:14|391:14|391:15|391:15|392:14|392:14|391:16|391:16|392:16|392:16|393:16|393:16|394:16|394:16|393:17|393:17|394:17|394:17|395:17|395:17|394:19|394:19|395:18|395:18|396:19|396:19|397:18|397:18|396:20|396:20|397:19|397:19|397:20|397:20|398:21|398:21|397:21|397:21|398:22|398:22|399:22|399:22|400:22|400:22|399:24|399:24|400:23|400:23|400:24|400:24|401:23|401:23|400:26|400:26|401:26|401:26|402:26|402:26|404:26|404:26|401:28|401:28|403:28|403:28|404:28|404:28|405:28|405:28|403:29|403:29|404:29|404:29|405:30|405:30|406:30|406:30|405:31|405:31|406:31|406:31|407:31|407:31|405:32|405:32|407:32|407:32|407:33|407:33|408:33|408:33|406:34|406:34|407:34|407:34|408:35|408:35|409:34|409:34|407:36|407:36|408:35|408:35|409:36|409:36|410:36|410:36|409:37|409:37|410:37|410:37|410:38|410:38|411:38|411:38|410:39|410:39|411:39|411:39|412:39|412:39|411:40|411:40|412:40|412:40|412:41|412:41|414:41|414:41|412:42|412:42|413:42|413:42|414:44|413:43|413:43|415:43|415:43|413:44|413:44|414:44,1,720.000027465821,4|0,3:2|0:0,0:0:0:0:
457,151,60579,70,0,L|446:204,1,45.0000017166138,8|0,3:1|0:0,0:0:0:0:
475,149,60679,2,0,L|484:104,1,45.0000017166138,4|0,0:3|0:0,0:0:0:0:
467,159,60780,2,0,L|511:168,1,45.0000017166138,8|0,0:3|0:0,0:0:0:0:
465,141,60879,2,0,L|412:130,1,45.0000017166138,10|0,3:2|0:0,0:0:0:0:
289,164,60979,1,0,1:0:0:0:
496,280,61179,38,0,B|448:260|412:301|412:301|372:344|312:312,1,180,6|0,0:0|0:0,0:0:0:0:
279,376,61379,2,0,P|255:330|275:274,1,90.0000034332277,8|0,3:1|0:0,0:0:0:0:
365,187,61579,70,0,L|355:252,1,60,2|0,0:3|0:0,0:0:0:0:
104,316,61779,38,0,P|140:254|205:249,1,135.000005149841,0|0,1:0|0:0,0:0:0:0:
261,294,61979,2,0,P|240:317|204:324,1,60,2|0,0:3|0:0,0:0:0:0:
163,165,62179,69,8,3:1:0:0:
166,154,62279,1,8,3:2:0:0:
247,73,62379,38,0,P|253:113|239:75,1,120,12|0,0:0|0:0,0:0:0:0:
46,8,62579,70,0,P|-21:66|108:53,1,300,8|8,3:1|3:3,0:0:0:0:
166,31,62879,1,8,0:3:0:0:
108,84,62979,38,0,P|224:89|293:182,1,240,8|12,3:1|0:3,0:0:0:0:
314,370,63279,70,0,B|295:344|295:344|315:245,1,120,8|0,1:3|0:0,0:0:0:0:
191,339,63479,2,0,B|218:322|218:322|238:223,1,120,4|0,1:3|0:0,0:0:0:0:
366,145,63679,37,0,3:0:0:0:
507,304,63779,2,0,L|352:327,1,120,8|0,1:3|0:0,0:0:0:0:
309,100,63979,70,0,L|512:199,1,225,4|0,3:0|0:0,0:0:0:0:
512,199,64179,38,0,P|504:179|507:163,1,30,4|0,1:3|0:0,0:0:0:0:
439,117,64329,70,0,P|445:96|464:80,1,35.9999989013672,4|0,0:3|0:0,0:0:0:0:
380,16,64479,38,0,P|398:4|428:6,1,41.9999987182618,12|0,0:3|0:0,0:0:0:0:
396,98,64629,70,0,P|419:101|438:116,1,48,12|0,0:3|0:0,0:0:0:0:
335,201,64779,38,0,P|351:221|355:248,1,53.9999983520508,8|0,0:3|0:0,0:0:0:0:
277,257,64879,69,8,1:3:0:0:
277,257,64979,1,8,1:3:0:0:
11,195,65179,37,8,3:3:0:0:
0,192,65279,1,8,3:3:0:0:
87,217,65379,70,0,L|125:210,3,22.5000008583069,6|8|8|8,1:2|0:3|0:3|0:3,0:0:0:0:
187,196,65579,2,0,L|225:189,3,37.5,4|4|4|4,3:0|0:3|3:0|0:3,0:0:0:0:
80,349,65779,22,0,B|54:314|11:313|11:313|215:275|215:275|196:356|196:356|146:365,1,405.000015449525,6|0,1:2|0:0,0:0:0:0:
163,363,66179,86,0,B|153:303|153:303|189:296,1,90.0000034332277,8|0,1:0|0:0,0:0:0:0:
266,217,66379,1,2,0:3:0:0:
91,221,66479,22,0,B|244:192|244:192|247:188|247:188|393:160,1,300,6|0,3:2|0:0,0:0:0:0:
512,80,66779,85,0,3:0:0:0:
509,91,66879,1,2,0:3:0:0:
433,97,66979,2,0,B|421:54|421:54|456:25,1,90.0000034332277,8|0,1:0|0:0,0:0:0:0:
494,256,67179,21,2,0:3:0:0:
453,194,67279,1,2,0:3:0:0:
365,215,67379,2,0,L|356:262,1,45.0000017166138,0|0,1:0|0:0,0:0:0:0:
376,207,67479,2,0,L|384:159,1,45.0000017166138,2|0,0:3|0:0,0:0:0:0:
381,217,67579,2,0,L|274:196,1,90.0000034332277,2|2,3:0|0:0,0:0:0:0:
181,297,67779,86,0,B|316:323|316:323|320:327|320:327|473:356,1,300,8|0,1:0|0:0,0:0:0:0:
473,356,68079,22,0,B|503:318|503:318|482:280,1,90.0000034332277,0|0,3:0|0:0,0:0:0:0:
394,359,68379,86,0,L|293:340,1,90.0000034332277,0|0,3:0|0:0,0:0:0:0:
254,268,68579,21,8,1:0:0:0:
254,268,68679,1,2,3:0:0:0:
123,345,68779,86,0,P|84:349|122:343,1,120,14|0,0:2|0:0,0:0:0:0:
20,202,68979,22,0,P|69:220|17:205,1,180.000006866455,14|0,1:2|0:0,0:0:0:0:
106,50,69179,85,10,3:2:0:0:
109,59,69279,1,10,0:0:0:0:
86,129,69379,22,0,P|127:130|166:103,1,90.0000034332277,8|0,1:0|0:0,0:0:0:0:
301,24,69579,1,2,0:3:0:0:
176,31,69679,86,0,B|329:56|329:56|334:53|334:53|481:77,1,300,4|0,3:2|0:0,0:0:0:0:
512,166,69979,2,0,B|466:146|423:184|443:201|405:239|353:216,1,180,2|0,3:0|0:0,0:0:0:0:
277,265,70179,22,0,B|299:280|299:280|286:320|286:320|261:287|261:287|277:265,1,135.000005149842,8|0,1:0|0:0,0:0:0:0:
365,353,70379,1,0,3:0:0:0:
262,186,70479,86,0,B|217:154|217:154|242:75|242:75|293:141|293:141|262:186,1,270.000010299683,8|0,3:1|0:0,0:0:0:0:
160,324,70779,22,0,B|152:334|152:334|85:322|85:322|82:312,1,90.0000034332277,8|0,0:1|0:0,0:0:0:0:
83,239,70979,2,0,B|93:225|93:225|180:240|180:240|184:254,1,120,8|0,1:0|0:0,0:0:0:0:
256,364,71179,85,8,3:1:0:0:
256,375,71279,1,0,3:0:0:0:
373,308,71379,22,0,L|364:356,1,45.0000017166138,8|0,3:1|0:0,0:0:0:0:
367,294,71479,2,0,L|319:286,1,45.0000017166138,4|0,3:0|0:0,0:0:0:0:
381,289,71579,2,0,L|389:242,1,45.0000017166138,4|0,3:0|0:0,0:0:0:0:
387,303,71679,2,0,L|434:312,1,45.0000017166138,8|0,3:0|0:0,0:0:0:0:
320,212,71779,86,0,L|268:203,1,48,8|0,1:3|0:0,0:0:0:0:
352,143,71879,22,0,L|317:100,1,51.0000009727478,8|0,1:3|0:0,0:0:0:0:
420,108,71979,85,8,3:0:0:0:
490,140,72079,1,8,3:0:0:0:
483,227,72179,21,8,1:0:0:0:
491,218,72279,2,0,B|486:211|486:211|480:216|480:216|475:210|475:210|469:215|469:215|465:208|465:208|459:213|459:213|454:207|454:207|448:212|448:212|443:205|443:205|437:210|437:210|433:204|433:204|427:209|427:209|422:202|422:202|416:207|416:207|411:201|411:201|405:206|405:206|401:199|401:199|395:204|395:204|390:198|390:198|384:203|384:203|380:196|380:196|373:201|373:201|369:195|369:195|363:200|363:200|358:193|358:193|352:198|352:198|348:192|348:192|342:197|342:197|337:190|337:190|331:195|331:195|326:189|326:189|320:194|320:194|316:188|316:188|310:192|310:192|305:186|305:186|299:191|299:191|294:185|294:185|288:189|288:189|284:183|284:183|278:188|278:188|273:182|273:182|267:186|267:186|262:180|262:180|256:185|256:185|252:179|252:179|246:183|246:183|241:177|241:177|235:182|235:182|231:176|231:176,1,360.000013732911,10|0,3:2|0:0,0:0:0:0:
57,233,72579,85,8,1:0:0:0:
108,223,72679,1,2,3:2:0:0:
133,183,72779,1,2,0:3:0:0:
114,135,72879,1,2,0:3:0:0:
133,65,72979,21,8,1:0:0:0:
24,123,73079,86,0,B|24:120|24:119|24:119|22:119|22:119|25:119|25:119|24:118|24:118|24:117|24:117|22:117|22:117|25:116|25:116|24:116|24:116|22:115|22:115|21:115|21:115|24:114|24:114|22:114|22:114|22:113|22:113|21:113|21:113|24:113|24:113|22:112|22:112|22:111|22:111|21:111|21:111|24:111|24:111|22:110|22:110|22:109|22:109|21:109|21:109|24:109|24:109|22:108|22:108|22:107|22:107|21:107|21:107|24:107|24:107|22:106|22:106|22:105|22:105|21:105|21:105|24:105|24:105|22:104|22:104|22:103|22:103|25:103|25:103|24:102|24:102|24:101|24:101|22:100|22:100|25:101|25:101|24:100|24:100|24:99|24:99|22:98|22:98|25:99|25:99|24:98|24:98|24:97|24:97|22:96|22:96|25:97|25:97|24:96|24:96|24:95|24:95|22:94|22:94|25:95|25:95|24:94|24:94|25:93|25:93|25:92|25:92|27:93|27:93|26:92|26:92|26:91|26:91|25:91|25:91|27:91|27:91|26:90|26:90|26:89|26:89|27:89|27:89|27:88|27:88|27:87|27:87|26:87|26:87|28:87|28:87|27:86|27:86|27:85|27:85|26:85|26:85|28:85|28:85|28:83|28:83|28:82|28:82|27:82|27:82|29:82|29:82|28:81|28:81|28:80|28:80|29:80|29:80|29:79|29:79|28:78|28:78|30:78|30:78|29:78|29:78|30:77|30:77|29:76|29:76|31:77|31:77|30:76|30:76|30:75|30:75|29:74|29:74|31:75|31:75|31:74|31:74|31:73|31:73|30:72|30:72|32:73|32:73|31:72|31:72|32:71|32:71|31:70|31:70|33:71|33:71|32:70|32:70|32:69|32:69|32:68|32:68|34:69|34:69|33:68|33:68|33:67|33:67|34:67|34:67|34:66|34:66|35:65|35:65|35:66|35:66|36:65|36:65|36:64|36:64|35:63|35:63|37:64|37:64|37:63|37:63|37:62|37:62|36:61|36:61|38:62|38:62|37:61|37:61|38:60|38:60|37:59|37:59|39:60|39:60|38:60|38:60|39:59|39:59|38:58|38:58|40:59|40:59|40:58|40:58|40:57|40:57|39:56|39:56|41:57|41:57|41:56|41:56|41:55|41:55|41:54|41:54|42:56|42:56|42:55|42:55|42:54|42:54|43:55|43:55|43:54|43:54|43:53|43:53|43:52|43:52|44:53|44:53|44:52|44:52|45:51|45:51|44:50|44:50|46:52|46:52|45:51|45:51|46:50|46:50|45:49|45:49|47:50|47:50|46:49|46:49|47:48|47:48|47:47|47:47|48:48|48:48|48:47|48:47|48:45|48:45|49:47|49:47|49:45|49:45|50:44|50:44|49:43|49:43|51:44|51:44|50:43|50:43|51:43|51:43|51:42|51:42|52:43|52:43|52:42|52:42|52:41|52:41|53:40|53:40|53:42|53:42|54:41|54:41|55:40|55:40|54:39|54:39|56:40|56:40|55:39|55:39|56:38|56:38|56:37|56:37|57:39|57:39|57:38|57:38|58:37|58:37|57:36|57:36|59:37|59:37|58:36|58:36|59:36|59:36|59:35|59:35|60:36|60:36|60:35|60:35|61:34|61:34|60:33|60:33|63:35|63:35|61:34|61:34|63:33|63:33|63:32|63:32|64:34|64:34|64:33|64:33|65:32|65:32|64:31|64:31|66:32|66:32|65:31|65:31|66:31|66:31|66:30|66:30|67:31|67:31|67:30|67:30|68:30|68:30|68:28|68:28|69:30|69:30|69:29|69:29|70:28|70:28|69:27|69:27|70:29|70:29|70:28|70:28|71:27|71:27|71:26|71:26|72:28|72:28|72:27|72:27|73:26|73:26|73:25|73:25|74:27|74:27|74:26|74:26|75:25|75:25|74:24|74:24|75:26|75:26|75:25|75:25|76:24|76:24|76:23|76:23|77:25|77:25|77:24|77:24|78:23|78:23|78:22|78:22|79:24|79:24|79:23|79:23|80:23|80:23|80:22|80:22|81:24|81:24|81:23|81:23|82:22|82:22|82:21|82:21|82:23|82:23|82:22|82:22|83:22|83:22|84:21|84:21|84:22|84:22|84:21|84:21|85:21|85:21|86:21|86:21|87:21|87:21|87:21|87:21|88:21|88:21|88:20|88:20|89:21|89:21|89:21|89:21|90:20|90:20|90:19|90:19|91:21|91:21|91:20|91:20|92:19|92:19|92:19|92:19|93:20|93:20|93:19|93:19|94:19|94:19|94:19|94:19|94:20|94:20|95:19|95:19|96:19|96:19|96:18|96:18|96:19|96:19|96:19|96:19|97:19|97:19|98:17|98:17|98:19|98:19|98:18|98:18|99:18|99:18|101:17|101:17|101:19|101:19|101:18|101:18|102:18|102:18|103:16|103:16|103:18|103:18|103:17|103:17|104:17|104:17|104:16|104:16|105:18|105:18|105:17|105:17|106:17|106:17|106:16|106:16|107:18|107:18|107:16|107:16|108:16|108:16|108:15|108:15|109:17|109:17|109:16|109:16|110:16|110:16|110:15|110:15|111:17|111:17|111:16|111:16|112:16|112:16|112:15|112:15|113:17|113:17|113:16|113:16|114:16|114:16|114:15|114:15|115:17|115:17|115:16|115:16|116:16|116:16|116:15|116:15|117:17|117:17|117:16|117:16|118:16|118:16|118:15|118:15|119:17|119:17|119:16|119:16|120:16|120:16|120:15|120:15|121:17|121:17|121:16|121:16|122:16|122:16|122:15|122:15|123:17|123:17|123:16|123:16|124:16|124:16|124:15|124:15|125:17|125:17|125:16|125:16|126:16|126:16|126:15|126:15|126:17|126:17|127:16|127:16|128:16|128:16|129:15|129:15|128:17|128:17|129:16|129:16|130:16|130:16|131:15|131:15|130:17|130:17|131:16|131:16|132:16|132:16|133:15|133:15|132:17|132:17|133:16|133:16|134:16|134:16|135:15|135:15|134:17|134:17|135:16|135:16|136:16|136:16|137:15|137:15|136:17|136:17|137:16|137:16|139:16|139:16|140:15|140:15|139:17|139:17|140:16|140:16|141:17|141:17|142:17|142:17|141:18|141:18|142:18|142:18|143:18|143:18|144:17|144:17|143:19|143:19|144:18|144:18|145:18|145:18|146:17|146:17|145:19|145:19|146:18|146:18|147:19|147:19|148:18|148:18|147:19|147:19|148:19|148:19|149:19|149:19|149:18|149:18|149:19|149:19|150:19|150:19|151:19|151:19|151:19|151:19|151:20|151:20|152:19|152:19|153:19|153:19|153:19|153:19|153:20|153:20|154:19|154:19|155:20|155:20|155:19|155:19|155:21|155:21|156:20|156:20|157:19|157:19|157:21|157:21|157:20|157:20|158:21|158:21|159:20|159:20|158:21|158:21|159:21|159:21|160:21|160:21|161:21|161:21|160:22|160:22|161:21|161:21|162:21|162:21|163:21|163:21|162:22|162:22|163:22|163:22|164:22|164:22|165:21|165:21|164:23|164:23|165:22|165:22|166:23|166:23|167:22|167:22|166:24|166:24|167:23|167:23|168:24|168:24|168:23|168:23|168:26|168:26|169:25|169:25|170:25|170:25|169:26|169:26|170:26|170:26|171:26|171:26|172:26|172:26|171:27|171:27|172:27|172:27|173:27|173:27|174:27|174:27|173:28|173:28|174:28|174:28|175:28|175:28|177:28|177:28|175:29|175:29|177:29|177:29|178:29|178:29|177:30|177:30|178:30|178:30|179:30|179:30|180:30|180:30|179:31|179:31|180:31|180:31|181:31|181:31|182:31|182:31|181:32|181:32|182:32|182:32|183:32|183:32|182:34|182:34|183:33|183:33|184:34|184:34|185:33|185:33|184:35|184:35|185:34|185:34|186:35|186:35|187:34|187:34|186:36|186:36|187:35|187:35|187:36|187:36|188:35|188:35|187:37|187:37|188:37|188:37|189:37|189:37|190:37|190:37|189:38|189:38|190:38|190:38|191:38|191:38|190:40|190:40|191:39|191:39|192:40|192:40|193:39|193:39|192:41|192:41|193:40|193:40|193:41|193:41|194:42|194:42|193:42|193:42|194:43|194:43|195:43|195:43|196:43|196:43|195:45|195:45|196:44|196:44|196:45|196:45|197:44|197:44|196:47|196:47|197:47|197:47|198:47|198:47|200:47|200:47|197:49|197:49|199:49|199:49|200:49|200:49|201:49|201:49|199:50|199:50|200:50|200:50|201:51|201:51|202:51|202:51|201:52|201:52|202:52|202:52|203:52|203:52|201:53|201:53|203:53|203:53|203:54|203:54|204:54|204:54|202:55|202:55|203:55|203:55|204:56|204:56|205:55|205:55|203:57|203:57|204:56|204:56|205:57|205:57|206:57|206:57|205:58|205:58|206:58|206:58|206:59|206:59|207:59|207:59|206:60|206:60|207:60|207:60|208:60|208:60|207:61|207:61|208:61|208:61|208:62|208:62|210:62|210:62|208:63|208:63|209:63|209:63|210:65|209:64|209:64|211:64|211:64|209:65|209:65|210:65,1,720.000027465821,6|0,3:2|0:0,0:0:0:0:
420,108,73379,22,0,L|464:117,1,45.0000017166138,8|0,0:3|0:0,0:0:0:0:
418,90,73479,2,0,L|365:79,1,45.0000017166138,12|0,0:3|0:0,0:0:0:0:
410,100,73579,2,0,L|399:153,1,45.0000017166138,12|0,0:3|0:0,0:0:0:0:
428,98,73679,2,0,L|437:53,1,45.0000017166138,4|0,0:3|0:0,0:0:0:0:
320,212,73779,86,0,L|248:197,1,60,8|10,1:0|0:0,0:0:0:0:
387,354,73979,1,2,3:3:0:0:
402,350,74079,1,2,3:0:0:0:
416,346,74179,2,0,L|488:331,1,60,8|8,1:0|0:1,0:0:0:0:
276,304,74379,22,0,B|222:291|222:291|217:293|217:293|158:280,1,120,6|2,3:2|0:3,0:0:0:0:
12,327,74579,85,8,1:0:0:0:
56,261,74679,2,0,L|46:215,8,30,2|2|2|2|2|2|2|2|2,3:3|0:3|0:3|0:3|0:3|0:3|0:3|0:3|0:3,0:0:0:0:
254,377,74979,21,2,3:2:0:0:
267,382,75079,1,10,3:2:0:0:
273,371,75179,2,0,L|289:289,1,60,10|4,0:3|0:3,0:0:0:0:
460,44,75379,86,0,L|447:-11,4,45.0000017166138,4|4|4|4|4,1:3|3:0|3:0|3:0|3:0,0:0:0:0:
489,162,75779,22,0,L|478:113,4,30,8|8|8|8|8,1:0|3:3|3:0|3:0|1:3,0:0:0:0:
505,268,76079,86,0,L|444:254,1,60,8|8,1:0|3:2,0:0:0:0:
369,234,76279,2,0,L|308:220,1,60,8|2,1:0|0:3,0:0:0:0:
413,162,76479,21,0,3:0:0:0:
465,339,76579,2,0,L|404:325,1,60,8|0,1:0|0:0,0:0:0:0:
150,358,76779,1,6,1:2:0:0:
150,358,76979,86,0,B|138:339|138:339|145:306,1,45.0000017166138,8|0,0:1|0:0,0:0:0:0:
94,255,77129,22,0,B|104:235|104:235|136:224,1,45.0000017166138,4|0,3:0|0:0,0:0:0:0:
130,132,77279,86,0,B|152:131|152:131|177:153,1,45.0000017166138,4|0,3:0|0:0,0:0:0:0:
248,156,77379,21,8,0:1:0:0:
248,156,77429,2,0,B|270:156|270:156|295:134,1,45.0000017166138,12|0,3:3|0:0,0:0:0:0:
380,93,77579,86,0,B|392:74|392:74|387:51,1,45.0000017166138,12|0,3:0|0:0,0:0:0:0:
257,6,77729,21,12,3:0:0:0:
257,6,77779,1,8,0:1:0:0:
169,146,77879,86,0,L|161:92,1,45.0000017166138,8|0,3:0|0:0,0:0:0:0:
352,214,78029,22,0,L|360:160,1,45.0000017166138,8|0,3:0|0:0,0:0:0:0:
256,384,78179,86,0,L|256:364,1,18,6|0,3:1|0:0,0:0:0:0:
265,275,78379,22,0,P|260:349|255:274,1,225,2|0,0:0|0:0,0:0:0:0:
241,187,78579,6,0,L|271:187,1,30,4|0,3:2|0:0,0:0:0:0:
271,197,78779,2,0,L|241:197,1,30,0|0,3:0|0:0,0:0:0:0:
20,61,78979,101,12,1:0:0:0:
91,24,79079,2,0,P|121:51|122:103,1,90.0000034332277
62,204,79279,6,0,L|71:143,1,45.0000017166138,2|0,0:3|0:0,0:0:0:0:
124,98,79379,102,0,B|189:88|189:88|195:80|195:80|239:75,1,120,0|0,3:0|0:0,0:0:0:0:
406,140,79579,5,2,0:0:0:0:
408,150,79679,1,2,0:3:0:0:
477,95,79779,102,0,P|492:57|526:42,1,60,8|0,1:0|0:0,0:0:0:0:
409,55,79879,6,0,P|403:14|420:-13,1,52.500000500679,0|0,3:0|0:0,0:0:0:0:
338,84,79979,102,0,P|317:58|317:28,1,45.0000017166138,0|0,3:0|0:0,0:0:0:0:
317,157,80079,6,0,P|289:148|274:126,1,37.5,0|0,3:0|0:0,0:0:0:0:
349,232,80179,102,0,L|332:366,1,135.000005149841,6|0,1:2|0:0,0:0:0:0:
412,356,80379,2,0,L|525:339,1,60
267,252,80579,5,8,1:0:0:0:
332,366,80679,2,0,P|276:357|267:282,1,90.0000034332277
14,271,80879,1,2,0:3:0:0:
44,353,80979,101,0,3:0:0:0:
35,351,81079,1,0,0:0:0:0:
41,362,81179,1,2,0:0:0:0:
32,360,81279,1,0,0:0:0:0:
121,310,81379,6,0,L|112:246,1,60,8|0,1:0|0:0,0:0:0:0:
52,24,81579,102,0,P|48:63|54:25,1,120,14|0,0:0|0:0,0:0:0:0:
161,114,81779,6,0,P|107:127|163:117,1,180.000006866455,14|0,0:0|0:0,0:0:0:0:
103,262,81979,102,0,L|111:321,1,45.0000017166138,2|0,0:3|0:0,0:0:0:0:
171,375,82179,6,0,B|294:349|294:349|312:293,1,180,8|0,1:0|0:0,0:0:0:0:
265,203,82379,2,0,P|234:224|241:287,1,90.0000034332277,2|0,0:0|0:0,0:0:0:0:
251,369,82579,102,0,B|396:338|396:338|412:286,1,202.500007724762,0|0,3:0|0:0,0:0:0:0:
439,199,82779,2,0,P|387:190|354:239,1,105.000001001358,2|0,0:0|0:0,0:0:0:0:
512,384,82979,6,0,L|492:253,1,120,8|0,1:0|0:0,0:0:0:0:
450,5,83179,1,0,3:0:0:0:
486,81,83279,102,0,B|475:156|475:156|282:130,1,240,6|0,1:2|0:0,0:0:0:0:
212,51,83579,6,0,B|341:29|341:29|305:39|291:82,1,180,8|0,1:0|0:0,0:0:0:0:
363,107,83779,2,0,P|337:130|285:127,1,60,8|0,1:0|0:0,0:0:0:0:
257,192,83979,2,0,L|158:175,1,90.0000034332277,0|0,3:0|0:0,0:0:0:0:
12,5,84179,102,2,L|26:7,3,15,2|2|2|2,1:2|0:0|0:0|0:0,0:0:0:0:
115,32,84579,6,0,L|100:29,1,15,0|0,3:0|0:0,0:0:0:0:
87,103,84679,102,0,L|58:113,1,30,8|0,1:0|0:0,0:0:0:0:
114,175,84779,6,0,L|86:210,1,45.0000017166138,4|0,1:3|0:0,0:0:0:0:
182,210,84879,101,12,1:3:0:0:
257,192,84979,6,0,P|330:222|296:336,1,180,6|0,1:2|0:0,0:0:0:0:
262,351,85179,2,0,P|252:307|267:266,1,90.0000034332277,2|0,0:0|0:0,0:0:0:0:
453,344,85379,101,8,1:0:0:0:
404,281,85479,2,0,P|360:282|328:312,1,90.0000034332277
166,384,85679,6,0,L|174:331,1,45.0000017166138,0|0,0:0|3:0,0:0:0:0:
434,202,85879,102,2,B|496:190|496:190|516:165,2,90.0000034332277,0|0|0,0:0|0:0|0:0,0:1:0:0:
354,73,86180,6,0,L|359:28,1,45.0000017166138,10|0,3:2|0:0,0:0:0:0:
336,76,86279,2,0,L|330:120,1,45.0000017166138,8|0,0:3|0:0,0:0:0:0:
347,83,86379,2,0,L|392:88,1,45.0000017166138,4|0,0:3|0:0,0:0:0:0:
344,66,86479,2,0,L|299:60,1,45.0000017166138,8|0,3:1|0:0,0:0:0:0:
238,7,86579,102,0,B|189:-10|154:28|154:28|114:71|54:39,1,180,6|0,0:0|0:0,0:0:0:0:
35,113,86779,2,0,P|7:92|-1:58,1,60
212,83,86979,5,8,1:0:0:0:
48,191,87079,2,0,L|176:169,1,90.0000034332277
216,87,87279,102,0,L|208:141,1,45.0000017166138,2|0,0:0|3:0,0:0:0:0:
13,269,87479,6,0,P|38:284|51:320,1,60,2|0,0:0|0:0,0:0:0:0:
120,277,87579,102,0,P|129:304|116:340,1,52.500000500679,2|0,0:0|0:0,0:0:0:0:
173,332,87679,6,0,P|162:359|129:378,1,45.0000017166138,2|0,0:0|0:0,0:0:0:0:
194,369,87779,102,0,L|322:347,1,90.0000034332277,8|0,1:0|0:0,0:0:0:0:
491,311,87979,6,0,P|475:348|483:308,1,120,14|0,0:0|0:0,0:0:0:0:
384,377,88179,102,0,P|355:283|439:88,1,300,14|0,1:0|3:0,0:0:0:0:
437,24,88479,1,0,3:0:0:0:
347,157,88579,6,0,P|442:197|424:102,1,240,10|0,1:0|3:0,0:0:0:0:
150,175,88879,102,0,P|143:116|180:71,1,120,10|0,1:0|0:0,0:0:0:0:
228,199,89080,2,0,P|264:153|258:95,1,120,10|0,3:0|0:0,0:0:0:0:
111,7,89279,5,0,3:0:0:0:
67,95,89379,2,0,L|186:74,1,120,14|0,1:0|0:0,0:0:0:0:
341,2,89579,102,2,L|224:194,1,225,14|0,1:2|0:0,0:1:0:0:
224,194,89779,6,0,P|242:173|269:165,2,45.0000017166138,4|4|4,1:3|0:3|0:3,0:0:0:0:
335,155,89929,102,0,P|360:166|377:193,2,52.500000500679,4|4|4,3:0|0:3|0:3,0:0:0:0:
415,250,90079,6,0,P|412:278|388:305,2,60,12|12|12,3:3|0:3|0:3,0:0:0:0:
359,374,90229,102,0,P|327:380|290:365,2,67.5000025749208,8|8|8,3:0|0:3|0:3,0:0:0:0:
219,343,90379,6,0,P|201:309|210:273,1,75,8|0,3:0|0:0,0:0:0:0:
304,264,90479,101,8,1:3:0:0:
304,264,90579,1,4,1:3:0:0:
9,334,90779,5,8,3:3:0:0:
6,345,90879,1,8,3:3:0:0:
92,384,90979,102,0,L|88:354,3,22.5000008583069,0|0|0|0,3:0|3:0|3:0|3:0,0:0:0:0:
75,284,91179,2,0,L|68:234,3,37.5,2|0|0|0,3:2|3:0|3:0|3:0,0:0:0:0:
335,155,91379,6,0,B|353:121|397:118|397:118|193:80|193:80|212:161|212:161|262:170,1,405.000015449525,6|0,1:2|0:0,0:0:0:0:
424,237,91779,101,8,3:1:0:0:
489,175,91879,2,0,P|470:135|494:95,1,90.0000034332277,0|0,3:0|0:0,0:0:0:0:
369,30,92079,6,0,L|378:91,1,45.0000017166138,0|0,1:0|0:0,0:0:0:0:
335,155,92179,102,0,B|285:149|285:149|282:143|282:143|218:135,1,120,0|0,1:1|0:0,0:0:0:0:
117,96,92379,5,2,3:2:0:0:
27,194,92479,101,2,0:0:0:0:
31,188,92529,5,2,0:0:0:0:
34,182,92579,102,0,L|46:108,1,60,8|2,3:1|0:0,0:0:0:0:
97,228,92679,2,0,L|158:195,1,60,0|2,3:0|0:0,0:0:0:0:
94,308,92779,2,0,L|155:329,3,60,2|2|2|2,3:0|0:0|0:0|0:0,0:0:0:0:
277,365,92979,6,0,L|299:229,1,135.000005149841,6|0,1:2|0:0,0:0:0:0:
335,155,93179,2,0,L|399:165,1,60,0|0,3:0|0:0,0:0:0:0:
369,30,93379,101,8,3:1:0:0:
482,82,93479,2,0,B|377:68|377:68|373:72|373:72|258:58,1,202.500007724762,0|0,3:0|0:0,0:0:0:0:
275,49,93679,1,0,1:0:0:0:
149,96,93779,5,6,1:2:0:0:
219,135,93879,1,2,0:0:0:0:
237,190,93979,1,2,0:3:0:0:
223,234,94079,1,2,3:2:0:0:
195,260,94179,102,0,L|190:303,1,35.9999989013672,0|2,1:0|0:0,0:0:0:0:
482,82,94579,6,0,P|426:64|484:78,1,180.000006866455,14|0,1:2|0:0,0:0:0:0:
441,190,94779,101,8,3:0:0:0:
439,178,94879,1,4,0:3:0:0:
374,138,94979,6,0,B|334:170|334:170|367:297,1,180,8|0,3:1|0:0,0:0:0:0:
428,344,95179,2,0,B|473:349|473:349|505:306,1,90.0000034332277,0|0,3:0|0:0,0:0:0:0:
288,102,95379,102,0,B|248:134|248:134|300:351,1,270.000010299683,8|2,3:1|3:2,0:0:0:0:
298,346,95629,5,2,0:2:0:0:
298,346,95679,101,2,0:2:0:0:
190,295,95779,6,0,L|149:287,1,30,8|0,3:1|0:0,0:0:0:0:
374,138,95979,101,0,3:0:0:0:
218,224,96079,2,0,B|157:211|157:211|139:133|139:133|179:140,1,180.000006866455,8|0,3:1|0:0,0:0:0:0:
255,30,96379,6,0,L|255:-8,1,30,8|0,0:1|0:0,0:0:0:0:
320,240,96579,101,8,0:1:0:0:
385,212,96679,1,0,3:0:0:0:
436,265,96779,1,8,1:0:0:0:
90,356,96979,6,0,L|94:376,3,15,4|4|4|4,1:3|0:3|0:3|0:3,0:0:0:0:
70,280,97379,102,0,L|51:260,1,15,4|0,1:3|0:0,0:0:0:0:
130,239,97479,6,0,L|122:204,1,22.5000008583069,12|0,1:3|0:0,0:0:0:0:
202,255,97579,101,8,1:3:0:0:
234,325,97679,5,8,1:3:0:0:
309,299,97779,101,0,1:0:0:0:
312,284,97879,2,0,L|321:234,1,45.0000017166138,8|0,0:3|0:0,0:0:0:0:
385,317,98179,5,8,3:0:0:0:
388,302,98279,2,0,L|397:252,1,45.0000017166138,4|0,0:3|0:0,0:0:0:0:
115,222,98579,101,8,1:3:0:0:
101,151,98679,2,0,L|92:101,1,45.0000017166138,4|0,0:3|0:0,0:0:0:0:
198,194,98979,6,0,L|192:164,3,22.5000008583069,8|8|4|4,3:0|3:0|3:0|3:0,0:0:0:0:
202,210,99179,1,8,1:3:0:0:
179,99,99279,1,4,1:3:0:0:
290,87,99379,101,8,1:3:0:0:
292,72,99479,2,0,L|301:22,1,45.0000017166138,4|0,0:3|0:0,0:0:0:0:
365,132,99779,5,8,3:0:0:0:
382,59,99879,2,0,L|391:9,1,45.0000017166138,4|0,0:3|0:0,0:0:0:0:
196,301,100179,102,0,B|256:268|256:268|314:297,1,135.000005149842,0|0,1:0|0:0,0:0:0:0:
260,187,100379,5,8,3:0:0:0:
260,187,100479,1,4,3:0:0:0:
257,384,100679,101,0,3:0:0:0:
257,384,100779,2,0,L|257:343,2,30,0|0|0,3:0|3:0|3:0,0:0:0:0:
398,327,100979,5,4,3:3:0:0:
408,315,101029,1,4,0:3:0:0:
411,300,101079,1,4,0:3:0:0:
408,286,101129,1,4,0:3:0:0:
114,327,101379,101,8,3:3:0:0:
104,315,101429,1,8,0:3:0:0:
101,300,101479,1,8,0:3:0:0:
104,286,101529,1,8,0:3:0:0:
112,274,101579,5,8,0:3:0:0:
196,301,101679,2,0,P|199:270|204:237,1,60,8|4,0:1|0:3,0:0:0:0:
231,17,101879,1,4,1:3:0:0:
231,17,102079,101,8,1:0:0:0:
375,55,102179,2,0,L|422:45,2,30,8|8|8,0:1|0:3|0:3,0:0:0:0:
134,102,102379,1,0,1:0:0:0:
439,332,102579,5,6,1:0:0:0:
439,332,104179,37,8,1:0:0:0:
282,258,104312,1,2,0:2:0:0:
284,263,104445,1,0,0:0:0:0:
374,271,104579,21,0,1:0:0:0:
205,307,104712,1,0,0:0:0:0:
36,343,104845,1,0,0:0:0:0:
128,362,104979,85,2,1:2:0:0:
113,288,105112,1,2,0:2:0:0:
116,292,105245,1,0,0:0:0:0:
39,237,105379,21,2,1:2:0:0:
106,93,105512,1,2,0:2:0:0:
103,179,105779,85,2,1:2:0:0:
65,15,105912,1,2,0:2:0:0:
68,19,106045,1,0,0:0:0:0:
28,135,106179,21,0,1:0:0:0:
190,97,106312,1,0,0:0:0:0:
352,59,106445,1,0,0:0:0:0:
255,9,106579,86,0,L|261:38,1,30.0000011444092,2|0,1:3|0:0,0:0:0:0:
290,160,106712,2,0,L|270:191,1,30.0000011444092,2|0,0:3|0:0,0:0:0:0:
293,164,106845,2,0,L|331:187,1,30.0000011444092,2|0,0:3|0:0,0:0:0:0:
264,43,106979,22,0,L|270:72,1,30.0000011444092,2|0,1:3|0:0,0:0:0:0:
313,258,107112,2,0,L|327:325,1,60.0000022888184,2|0,0:3|0:0,0:0:0:0:
166,187,107379,86,0,B|157:175|157:175|25:134,1,147.999999435425,2|2,1:2|0:2,0:0:0:0:
196,110,107645,1,0,0:0:0:0:
0,208,107779,21,0,1:0:0:0:
169,191,107912,1,0,0:0:0:0:
338,174,108045,1,0,0:0:0:0:
408,110,108179,85,2,1:2:0:0:
450,196,108312,1,2,0:2:0:0:
453,200,108445,1,0,0:0:0:0:
428,0,108579,22,0,L|408:110,1,111.999996582031,2|2,1:2|0:2,0:0:0:0:
448,337,108845,86,0,B|456:294|456:294|352:272|352:272|378:249,1,184.000003509522,2|0,1:2|0:0,0:0:0:0:
453,200,109045,1,0,0:0:0:0:
453,200,109112,2,0,L|511:211,3,60.0000022888184,2|0|0|0,1:2|0:0|0:0|0:0,0:0:0:0:
378,249,109379,22,0,L|311:236,2,60.0000022888184,2|0|0,1:2|0:0|0:0,0:0:0:0:
44,77,109779,86,0,L|49:18,1,40,2|0,1:3|0:0,0:0:0:0:
194,97,109912,2,0,L|197:57,1,40,2|0,0:3|0:0,0:0:0:0:
119,87,110045,2,0,L|122:47,1,40,2|0,0:3|0:0,0:0:0:0:
273,109,110179,2,0,L|281:25,1,60.0000022888184,2|0,1:3|0:0,0:0:0:0:
149,162,110445,22,0,L|86:168,1,60.0000022888184,2|0,0:3|0:0,0:0:0:0:
351,192,110579,86,0,L|471:181,1,119.999996337891,4|0,1:2|0:0,0:0:0:0:
375,351,110979,22,0,L|382:272,1,80,2|2,1:2|0:2,0:0:0:0:
396,94,111245,1,0,0:0:0:0:
395,285,111379,85,0,1:0:0:0:
403,176,111512,1,0,0:0:0:0:
415,14,111645,1,0,0:0:0:0:
425,138,111779,1,2,1:2:0:0:
425,138,111845,2,0,L|430:209,1,71.9999978027344
495,82,112179,21,2,1:2:0:0:
495,82,112245,2,0,L|497:52,4,30.0000011444092,0|2|0|0|0,0:0|0:2|0:0|0:0|0:0,0:0:0:0:
342,69,112579,2,0,L|338:109,4,40,0|0|0|0|2,1:0|0:0|0:0|0:0|0:2,0:0:0:0:
258,3,112979,86,0,L|262:62,1,60.0000022888184,2|0,1:3|0:0,0:0:0:0:
237,138,113112,2,0,L|241:197,1,60.0000022888184,2|0,0:3|0:0,0:0:0:0:
196,264,113245,2,0,L|200:323,1,60.0000022888184,2|0,0:3|0:0,0:0:0:0:
159,192,113379,22,0,L|39:181,1,120.000004577637,2|0,1:3|0:0,0:0:0:0:
361,162,113645,86,0,L|421:167,1,60.0000022888184,2|0,0:3|0:0,0:0:0:0:
287,172,113779,22,0,L|347:177,1,60.0000022888184,2|0,1:2|0:0,0:0:0:0:
400,253,113912,1,2,0:2:0:0:
400,253,113979,1,0,0:0:0:0:
400,253,114045,2,0,L|459:260,1,60.0000022888184,2|0,0:2|0:0,0:0:0:0:
305,321,114179,1,2,1:2:0:0:
305,321,114245,1,0,0:0:0:0:
305,321,114312,1,2,0:2:0:0:
305,321,114379,1,0,0:0:0:0:
305,321,114445,2,0,L|246:311,1,60.0000022888184,2|0,0:2|0:0,0:0:0:0:
150,369,114579,85,2,1:2:0:0:
137,367,114645,1,0,0:0:0:0:
125,366,114712,1,0,0:0:0:0:
113,365,114779,1,0,0:0:0:0:
101,364,114845,1,0,0:0:0:0:
89,363,114912,1,0,0:0:0:0:
65,376,114979,21,2,1:2:0:0:
50,342,115045,1,0,0:0:0:0:
37,307,115112,1,2,0:2:0:0:
72,298,115179,1,0,0:0:0:0:
106,289,115245,1,2,0:2:0:0:
92,255,115312,1,0,0:0:0:0:
79,220,115379,86,2,L|0:214,1,80,0|0,1:0|0:0,0:1:0:0:
154,211,115512,22,0,L|86:204,1,60.0000022888184,2|0,3:2|0:0,0:0:0:0:
231,231,115645,2,0,B|224:225|224:225|169:230,1,64,2|0,3:2|0:0,0:0:0:0:
311,203,115779,2,0,B|303:211|303:211|248:199,1,68.0000012969971,2|0,3:2|0:0,0:0:0:0:
400,226,115912,2,0,B|382:216|382:216|332:230,1,71.9999978027344,2|0,3:2|0:0,0:0:0:0:
491,207,116045,2,0,B|475:218|475:218|425:189,1,75.9999979705811,2|0,3:2|0:0,0:0:0:0:
370,311,116179,86,0,B|351:302|351:302|343:229,1,80,2|0,3:2|0:0,0:0:0:0:
287,135,116312,22,0,B|270:139|270:139|257:210,1,88.000002685547,2|0,3:2|0:0,0:0:0:0:
180,311,116445,86,0,B|157:324|157:324|121:258,1,100,2|0,3:2|0:0,0:0:0:0:
77,111,116579,22,0,B|63:95|63:95|11:133,1,80,4|0,1:0|0:0,0:0:0:0:
77,111,116645,2,0,B|58:100|58:100|20:153,1,68.0000012969971,2|0,0:2|0:0,0:0:0:0:
77,111,116712,2,0,B|55:107|55:107|43:155,1,62.0000004730225,2|0,0:2|0:0,0:0:0:0:
77,111,116779,2,0,B|56:115|56:115|61:163,1,62.0000004730225,2|0,0:2|0:0,0:0:0:0:
77,111,116845,86,0,L|0:119,1,78.0000002975464,2|0,0:2|0:0,0:0:0:0:
251,171,116979,6,0,L|306:164,1,47.9999985351563,0|0,1:0|0:0,0:0:0:0:
170,91,117379,6,0,B|160:107|160:107|89:99,1,88.000002685547,8|0,1:0|0:0,0:0:0:0:
123,19,117645,1,0,3:0:0:0:
237,187,117779,102,0,B|250:210|250:210|417:192,1,191.999994140625,2|0,3:2|0:0,0:0:0:0:
366,88,118045,1,0,3:0:0:0:
394,295,118179,2,0,B|381:193|381:193|401:177,2,128,2|0|0,1:2|0:0|3:0,0:0:0:0:
477,321,118512,5,0,3:0:0:0:
477,321,118579,2,0,B|497:296|497:296|377:281,1,151.999995941162,2|2,1:2|3:2,0:0:0:0:
246,263,118845,1,2,3:2:0:0:
405,331,118979,2,0,B|448:344|448:344|462:332,1,64,2|0,1:2|0:0,0:0:0:0:
477,321,119112,2,0,B|459:304|459:304|296:331|296:331|279:378,1,240,2|0,3:2|0:0,0:0:0:0:
264,364,119379,102,0,B|253:375|253:375|190:363,1,80,2|0,1:2|0:0,0:0:0:0:
116,362,119512,2,0,B|126:351|126:351|190:363,1,80
200,352,119645,2,0,B|189:363|189:363|126:351,1,80,2|0,3:2|0:0,0:0:0:0:
24,347,119779,6,0,B|1:316|1:316|129:252,1,180.000006866455,2|0,1:2|0:0,0:0:0:0:
115,238,120045,2,0,L|129:177,1,60.0000022888184,2|0,3:2|0:0,0:0:0:0:
0,137,120179,2,0,B|32:111|32:111|209:200,1,240.000009155274,2|0,1:2|3:0,0:0:0:0:
200,99,120512,1,0,3:0:0:0:
200,99,120579,2,0,B|188:10|188:10|160:0,1,120.000004577637,2|0,1:2|3:0,0:0:0:0:
98,48,120779,101,0,3:0:0:0:
98,48,120845,2,0,B|104:26|104:26|173:12,1,92.0000017547608,0|0,3:0|0:0,0:0:0:0:
274,37,120979,2,0,B|332:27|332:27|339:9,1,71.9999978027344,2|0,1:2|0:0,0:0:0:0:
409,47,121112,2,0,B|482:34|482:34|489:14,1,95.9999970703126,2|2,3:2|3:2,0:0:0:0:
428,126,121379,6,0,B|459:17|459:17|489:13,1,143.999995605469,2|0,1:2|0:0,0:0:0:0:
500,152,121645,102,0,L|437:141,1,60.0000022888184,2|0,1:2|0:0,0:0:0:0:
428,126,121779,2,0,L|368:116,1,60.0000022888184,0|0,3:0|0:0,0:0:0:0:
294,209,121912,1,2,1:2:0:0:
294,209,121979,1,0,3:0:0:0:
294,209,122045,2,0,L|365:201,1,71.9999978027344,0|0,3:0|0:0,0:0:0:0:
428,288,122179,2,0,L|500:281,1,71.9999978027344,2|0,1:2|0:0,0:0:0:0:
483,383,122312,6,0,B|535:279|535:279|512:263,1,143.999995605469,2|2,3:2|3:2,0:0:0:0:
350,214,122579,2,0,B|314:283|314:283|368:344,2,160,2|2|2,1:3|3:0|3:0,0:0:0:0:
441,305,122979,2,0,B|431:320|431:320|374:327,1,68.0000012969971,2|0,1:2|0:0,0:0:0:0:
251,341,123112,2,0,B|216:346|216:346|210:353|210:353|120:325,1,136.000002593994,2|2,3:2|3:2,0:0:0:0:
14,96,123379,102,2,B|1:73|1:73|129:6|129:6|201:146|201:146|101:187|101:187|93:123,1,500,6|0,1:2|0:0,0:1:0:0:
93,123,123779,5,2,1:2:0:0:
11,322,123912,2,0,B|20:348|20:348|39:334|39:334|43:330,1,55.9999982910157,2|0,3:2|0:0,0:0:0:0:
38,248,124045,2,0,B|28:240|28:240|19:177,1,75.9999979705811,2|0,3:2|0:0,0:0:0:0:
205,9,124179,102,0,B|174:81|174:81|187:107,1,108.000000411987,2|0,1:2|0:0,0:0:0:0:
210,181,124312,2,0,B|164:197|164:197|159:246,1,98.0000009346008,2|0,3:2|0:0,0:0:0:0:
189,320,124445,2,0,B|211:311|211:311|270:335,1,88.000002685547,2|0,3:2|0:0,0:0:0:0:
350,357,124579,6,0,L|360:297,1,60.0000022888184,2|0,1:2|0:0,0:0:0:0:
438,294,124712,2,0,L|427:353,1,60.0000022888184,2|0,3:2|0:0,0:0:0:0:
502,373,124845,2,0,L|512:313,1,60.0000022888184,2|0,3:2|0:0,0:0:0:0:
455,206,124979,102,0,L|430:117,1,80,2|0,1:2|0:0,0:0:0:0:
491,73,125112,2,0,L|426:137,1,80,2|0,3:2|0:0,0:0:0:0:
433,129,125245,6,2,L|404:120,1,30.0000011444092,2|0,3:2|0:0,0:1:0:0:
297,167,125379,102,0,L|249:88,1,80,2|0,1:2|0:0,0:0:0:0:
296,30,125512,2,0,L|251:109,1,80,2|0,3:2|0:0,0:0:0:0:
256,99,125645,6,2,L|225:99,1,30.0000011444092,2|0,3:2|0:0,0:1:0:0:
136,182,125779,102,0,L|68:119,1,80,2|0,1:2|0:0,0:0:0:0:
96,50,125912,2,0,L|75:138,1,80,2|0,3:2|0:0,0:0:0:0:
77,127,126045,6,2,L|48:135,1,30.0000011444092,2|0,3:2|0:0,0:1:0:0:
43,256,126179,102,0,L|53:316,1,60.0000022888184,2|0,1:2|0:0,0:0:0:0:
131,319,126312,2,0,L|120:260,1,60.0000022888184,2|0,3:2|0:0,0:0:0:0:
195,240,126445,2,0,L|205:300,1,60.0000022888184,2|0,3:2|0:0,0:0:0:0:
207,303,126579,6,0,B|204:348|204:348|313:313|313:313|372:323|372:323|459:258|459:258|425:260,1,360.000013732911,6|0,1:2|0:0,0:0:0:0:
357,223,126979,102,0,B|348:252|348:252|353:282,1,60.0000022888184,2|0,1:2|0:0,0:0:0:0:
279,373,127112,2,0,B|292:357|292:357|262:204,1,176.000005371094,2|0,3:2|0:0,0:0:0:0:
262,204,127379,6,0,B|239:177|239:177|294:157,1,88.000002685547,2|0,1:2|0:0,0:0:0:0:
430,178,127512,2,0,B|472:175|472:175|431:156,1,88.000002685547,2|0,3:2|0:0,0:0:0:0:
355,105,127645,2,0,B|344:60|344:60|293:47,1,88.000002685547,2|0,3:2|0:0,0:0:0:0:
143,55,127779,102,0,B|37:47|37:47|3:27,2,128,2|0|2,1:2|0:0|3:2,0:0:0:0:
304,50,128179,6,0,B|213:28|213:28|233:56,1,120.000004577637,2|0,1:2|0:0,0:0:0:0:
154,202,128312,2,0,B|135:249|135:249|120:200,1,100,2|0,3:2|0:0,0:0:0:0:
19,36,128445,2,0,B|47:31|47:31|12:125,1,88.000002685547,2|0,3:2|0:0,0:0:0:0:
26,86,128579,102,0,B|7:136|7:136|32:131,1,80,2|0,3:2|0:0,0:0:0:0:
130,123,128712,2,0,B|125:73|125:73|152:47,1,75.9999979705811,2|0,3:2|0:0,0:0:0:0:
229,52,128845,2,0,B|216:123,1,71.9999978027344,2|0,3:2|0:0,0:0:0:0:
306,212,128979,6,0,B|289:179|289:179|309:155,1,68.0000012969971,2|0,3:2|0:0,0:0:0:0:
387,189,129112,2,0,B|396:220|396:220|416:195,1,64,2|0,3:2|0:0,0:0:0:0:
498,223,129245,2,0,L|471:258,1,40,2|0,3:2|0:0,0:0:0:0:
362,318,129379,102,0,L|328:313,1,27.9999991455078,2|0,0:2|0:0,0:0:0:0:
256,333,129512,2,0,L|256:372,1,27.9999991455078,2|0,0:2|0:0,0:0:0:0:
177,313,129645,2,0,L|150:318,1,27.9999991455078,2|0,0:2|0:0,0:0:0:0:
259,337,129779,102,0,B|279:266|230:274|256:196,2,143.999995605469,6|0|0,1:2|0:0|0:0,0:0:0:0:
177,313,131779,1,0,0:2:0:0:
98,330,132079,2,0,L|99:343,1,12,0|0,0:2|0:2,0:0:0:0:
21,304,132579,1,0,0:2:0:0:
21,304,132979,5,2,0:2:0:0:
335,313,133379,1,0,0:0:0:0:
414,330,133679,2,0,L|416:358,1,27.5999990734864
491,304,134179,1,0,0:0:0:0:
512,223,134479,1,0,0:0:0:0:
433,244,134779,101,0,0:0:0:0:
436,248,134979,1,2,0:2:0:0:
355,266,135279,1,2,0:2:0:0:
298,205,135579,1,2,0:2:0:0:
214,205,135879,1,2,0:2:0:0:
157,266,136179,1,2,0:2:0:0:
40,32,136579,5,0,0:0:0:0:
109,76,136879,2,0,L|121:22,1,55.1999981469727,2|2,0:2|0:2,0:0:0:0:
176,126,137379,1,0,0:0:0:0:
256,118,137679,2,0,L|256:54,1,55.1999981469727,2|2,0:2|0:2,0:0:0:0:
336,126,138179,1,0,0:0:0:0:
403,76,138479,2,0,L|390:22,1,55.1999981469727,2|2,0:2|0:2,0:0:0:0:
472,32,138979,1,0,0:0:0:0:
491,304,139379,101,2,0:2:0:0:
177,313,139779,1,2,0:2:0:0:
98,330,140079,2,0,L|94:389,1,55.1999981469727,2|2,0:2|0:2,0:0:0:0:
21,304,140579,1,2,0:2:0:0:
0,223,140879,1,0,0:0:0:0:
0,223,140979,1,2,0:3:0:0:
0,223,141079,1,0,0:0:0:0:
80,242,141379,5,0,0:0:0:0:
61,161,141679,1,0,0:0:0:0:
146,185,141979,102,0,P|185:192|213:163,2,83.9999974365235,2|2|2,0:2|0:2|0:2,0:0:0:0:
152,85,142579,6,0,P|210:91|226:149,1,125.999996154785,0|2,1:0|0:2,0:0:0:0:
273,223,143112,1,2,0:2:0:0:
271,277,143245,1,2,0:2:0:0:
222,303,143379,1,2,0:2:0:0:
106,266,143679,1,2,0:2:0:0:
19,349,143979,2,0,P|4:364|0:384,1,41.9999987182618,2|0,0:2|0:0,0:0:0:0:
86,298,144379,101,2,0:2:0:0:
106,266,144479,1,2,0:2:0:0:
94,216,144579,1,2,0:2:0:0:
48,194,144679,1,2,0:2:0:0:
2,216,144779,1,2,0:2:0:0:
96,378,144979,1,2,0:2:0:0:
96,378,145179,1,0,0:0:0:0:
222,303,145379,1,2,0:2:0:0:
222,303,145579,1,0,0:0:0:0:
315,376,145779,6,0,P|339:371|348:352,1,41.9999987182618,2|0,0:2|0:0,0:0:0:0:
423,384,146079,1,2,0:2:0:0:
476,304,146379,1,2,0:2:0:0:
315,376,146579,102,0,P|339:371|348:352,1,41.9999987182618,2|0,0:2|0:0,0:0:0:0:
382,265,146879,1,2,0:2:0:0:
305,172,147179,1,2,0:2:0:0:
290,186,147379,5,2,0:2:0:0:
241,171,147479,1,2,0:2:0:0:
209,131,147579,1,2,0:2:0:0:
208,80,147679,1,2,0:2:0:0:
240,41,147779,1,2,0:2:0:0:
240,41,148079,101,2,0:2:0:0:
244,78,148179,1,2,0:2:0:0:
224,110,148279,1,2,0:2:0:0:
190,126,148379,1,2,0:2:0:0:
152,124,148479,1,2,0:2:0:0:
91,71,148779,6,0,P|100:32|76:0,1,83.9999974365235,2|2,0:2|0:2,0:0:0:0:
21,159,149379,1,8,0:0:0:0:
64,265,149679,1,2,0:2:0:0:
172,282,149879,1,2,0:2:0:0:
246,229,150079,2,0,L|240:183,1,41.9999987182618,0|8,0:0|0:0,0:0:0:0:
328,202,150379,101,0,0:0:0:0:
328,202,150479,1,2,0:2:0:0:
407,188,150679,1,2,0:2:0:0:
490,174,150879,2,0,L|486:221,1,41.9999987182618,0|8,0:0|0:0,0:0:0:0:
475,321,151179,5,0,0:0:0:0:
475,321,151279,1,2,0:2:0:0:
386,307,151479,1,2,0:2:0:0:
300,298,151679,1,0,0:0:0:0:
300,298,151779,1,8,0:0:0:0:
226,356,152179,102,0,B|155:361|155:361|145:370|145:370|62:375,1,167.999994873047,2|8,0:3|0:0,0:0:0:0:
51,354,152979,2,0,B|122:359|122:359|132:368|132:368|214:373,1,167.999994873047,2|8,0:3|0:0,0:0:0:0:
287,328,153579,5,0,3:0:0:0:
287,328,153679,1,0,3:0:0:0:
380,318,153779,2,0,L|441:313,1,60,2|0,1:3|0:0,0:0:0:0:
512,370,154979,102,2,B|400:428|409:229|286:285,1,270.000010299683,2|0,0:3|0:0,0:1:0:0:
219,196,155379,54,0,P|233:116|253:6,1,188.999994232178,6|0,3:2|0:0,0:0:0:0:
347,98,156379,85,2,0:2:0:0:
350,87,156479,1,2,0:2:0:0:
288,150,156579,2,0,P|261:123|240:116,2,45.0000017166138,2|2|2,0:2|0:2|0:2,0:0:0:0:
351,231,156879,22,0,B|299:213|257:261|289:280|243:327|196:306,1,188.999994232178,2|0,0:2|0:0,0:0:0:0:
138,257,157879,86,0,P|206:268|269:289,1,120,2|2,0:2|0:2,0:0:0:0:
297,363,158179,22,0,P|342:334|384:318,1,90.0000034332277,2|2,0:2|0:2,0:0:0:0:
466,291,158479,86,0,P|469:270|476:245,1,41.9999987182618,2|0,0:2|0:0,0:0:0:0:
425,159,158779,22,0,P|350:161|352:218,1,144,2|0,0:2|0:0,0:0:0:0:
351,231,159179,2,0,P|381:227|407:230,1,48,2|0,0:2|0:0,0:0:0:0:
197,66,159379,86,0,P|257:60|264:132,1,132.00000402832,2|0,0:2|0:0,0:0:0:0:
232,184,159679,2,0,P|171:189|164:117,1,132.00000402832,2|0,0:2|0:0,0:0:0:0:
89,88,159979,22,0,P|237:155|267:283,1,287.999991210938,2|2,0:2|0:2,0:0:0:0:
137,362,160979,2,0,P|156:331|189:318,1,71.9999978027344,2|2,0:2|0:2,0:0:0:0:
51,271,161379,86,0,L|57:311,3,30,2|0|0|0,3:2|3:0|3:0|3:0,3:0:0:0:
37,179,161579,1,2,3:2:0:0:
39,191,161679,1,0,3:0:0:0:
135,234,161779,22,0,P|161:198|239:186,2,120,12|8|8,3:2|0:2|0:2,0:0:0:0:
97,114,162779,85,0,0:0:0:0:
99,102,162879,1,0,0:0:0:0:
45,169,162979,21,8,0:2:0:0:
37,179,163079,1,0,0:0:0:0:
32,167,163179,1,0,0:0:0:0:
135,234,163279,85,0,0:0:0:0:
135,234,163379,2,0,P|194:261|218:313,2,120,10|8|8,0:2|0:2|0:2,0:0:0:0:
231,183,164279,22,0,P|291:169|326:87,1,150,2|2,0:2|0:2,0:0:0:0:
384,30,164579,86,0,P|437:39|456:72,1,90.0000034332277,10|2,0:2|0:2,0:0:0:0:
488,144,164879,21,2,0:2:0:0:
488,144,164979,1,2,0:3:0:0:
384,168,165179,1,2,0:3:0:0:
408,272,165379,1,2,0:3:0:0:
512,248,165579,1,2,0:3:0:0:
371,366,165779,85,2,3:3:0:0:
358,353,165879,1,2,0:3:0:0:
340,352,165979,1,2,0:3:0:0:
324,358,166079,21,2,3:3:0:0:
322,322,166179,1,2,0:3:0:0:
294,292,166279,1,2,0:3:0:0:
241,296,166379,85,2,3:3:0:0:
294,244,166479,1,2,0:3:0:0:
264,176,166579,2,0,L|261:149,12,18.75,2|0|0|0|0|0|0|0|0|0|0|0|0,3:3|0:0|0:0|0:0|0:0|0:0|0:0|0:0|0:0|0:0|0:0|0:0|0:0,0:0:0:0:
179,233,166979,21,8,0:3:0:0:
135,244,167079,1,8,0:3:0:0:
92,256,167179,1,8,0:3:0:0:
48,268,167279,1,8,0:3:0:0:
4,278,167379,86,2,L|54:288,1,45.0000017166138,8|0,3:3|0:0,0:1:0:0:
141,382,167579,21,8,0:3:0:0:
146,374,167679,85,8,0:3:0:0:
151,366,167779,2,2,L|145:314,1,45.0000017166138,4|0,3:3|0:0,0:1:0:0:
95,260,167979,2,2,L|89:208,1,45.0000017166138,4|0,3:3|0:0,0:1:0:0:
53,12,168179,54,0,P|153:20|146:188,1,270.000010299683,0|0,3:0|0:0,0:0:0:0:
308,145,168579,54,0,P|309:188|171:222,1,180,8|0,0:1|0:0,0:0:0:0:
53,204,168979,54,0,B|43:262|84:338|154:331|234:257|216:207|175:154|78:185|46:94|109:46|192:13|221:25|253:52|242:83|236:126|265:137|288:135|324:135|346:112|360:72|322:43,1,600,0|8,3:0|0:1,0:0:0:0:
340,70,169479,1,8,0:3:0:0:
272,34,169579,54,0,L|231:40,1,30,8|0,0:3|0:0,0:0:0:0:
271,26,169679,2,0,L|225:15,1,30,4|0,0:3|0:0,0:0:0:0:
272,21,169779,1,0,3:0:0:0:
53,204,169979,53,2,0:0:0:0:
108,150,170079,1,2,0:0:0:0:
181,169,170179,1,8,0:1:0:0:
241,217,170279,1,2,0:0:0:0:
315,205,170379,1,2,0:0:0:0:
360,141,170479,1,2,0:0:0:0:
340,70,170579,1,0,3:0:0:0:
340,70,170679,54,0,B|303:67|287:111|291:156|347:152|361:131|380:131|441:146|455:174|451:218|410:290|380:276|341:220|317:226|279:281|298:371|368:366|442:301,1,495.000004720688,2|8,0:0|0:1,0:0:0:0:
432,309,171179,1,4,3:0:0:0:
512,384,171379,54,0,P|368:352|231:347,1,270.000010299683,0|0,3:0|0:0,0:0:0:0:
451,190,171779,54,0,P|310:234|260:258,1,180,8|0,0:1|0:0,0:0:0:0:
119,379,172179,54,0,B|70:384|32:355|48:281|127:245|158:299|210:325|280:358,1,300,0|0,3:0|0:0,0:0:0:0:
288,255,172479,53,2,0:3:0:0:
288,255,172579,2,0,B|328:273|380:299|411:353|490:317|506:243|468:214|419:219,1,300,8|0,0:1|0:0,0:0:0:0:
369,320,172879,53,2,0:3:0:0:
369,320,172979,2,0,L|381:384,2,45.0000017166138,0|0|0,3:0|0:0|0:0,0:0:0:0:
413,171,173179,53,8,0:3:0:0:
413,171,173279,1,8,0:3:0:0:
413,171,173379,2,0,L|425:235,2,45.0000017166138,8|0|0,3:1|0:0|0:0,0:0:0:0:
203,190,173579,53,4,0:3:0:0:
203,190,173679,1,4,0:3:0:0:
203,190,173779,2,0,L|215:254,2,45.0000017166138,0|0|0,3:0|0:0|0:0,0:0:0:0:
128,214,173979,2,0,L|140:278,2,45.0000017166138,4|0|0,0:3|0:0|0:0,0:0:0:0:
266,333,174179,54,0,B|180:406|105:330|138:229|189:253|234:275|282:281|345:254|336:164|322:104|281:110|182:101|191:157|194:208|137:255|60:164|77:120|99:92|159:92,1,600,8|0,0:1|3:0,0:0:0:0:
200,65,174779,53,2,0:0:0:0:
200,65,174879,1,2,0:0:0:0:
200,65,174979,2,0,P|206:138|174:156,2,90.0000034332277,8|2|2,0:1|0:0|0:0,0:0:0:0:
53,68,175279,53,2,0:0:0:0:
53,68,175379,2,0,P|80:109|133:83,1,90.0000034332277,0|0,3:0|0:0,0:0:0:0:
269,22,175579,53,2,0:0:0:0:
340,0,175679,1,2,0:0:0:0:
397,25,175779,1,8,0:1:0:0:
409,76,175879,1,2,0:0:0:0:
386,118,175979,1,2,0:0:0:0:
343,124,176079,1,2,0:0:0:0:
318,103,176179,54,0,P|404:88|506:61,1,180.000006866455,0|2,3:0|0:0,0:0:0:0:
493,64,176479,1,2,0:0:0:0:
479,180,176579,54,0,P|413:194|361:209,1,90.0000034332277,8|0,0:1|0:0,0:0:0:0:
337,19,176779,2,0,P|403:5|455:-10,1,90.0000034332277,2|0,0:0|0:0,0:0:0:0:
304,145,176979,53,0,3:0:0:0:
304,145,177079,2,0,B|285:185|240:183|191:168|201:115|243:74|265:7|195:6|118:-4|125:23|136:80|109:97|74:94|43:71|46:33,1,375,8|0,0:3|0:0,0:0:0:0:
50,62,177379,54,0,L|56:9,2,45.0000017166138,8|4|4,3:1|0:3|0:3,0:0:0:0:
36,187,177579,54,0,L|42:134,2,45.0000017166138,8|8|8,0:3|0:3|0:3,0:0:0:0:
17,330,177779,53,4,1:3:0:0:
67,384,177879,1,4,3:0:0:0:
141,373,177979,1,4,3:0:0:0:
165,303,178079,1,4,3:0:0:0:
134,236,178179,1,8,1:3:0:0:
131,161,178279,1,8,3:0:0:0:
185,111,178379,1,8,3:0:0:0:
258,124,178479,1,8,3:0:0:0:
291,192,178579,54,0,P|270:213|232:219,1,45.0000017166138,4|4,1:3|0:3,0:0:0:0:
361,213,178679,54,0,P|361:242|338:273,1,45.0000017166138,4|4,1:3|0:3,0:0:0:0:
425,178,178779,54,0,P|446:199|452:236,1,45.0000017166138,4|4,1:3|0:3,0:0:0:0:
449,112,178879,54,0,P|478:111|509:134,1,45.0000017166138,4|4,1:3|0:3,0:0:0:0:
405,53,178979,54,0,P|426:31|449:26,1,30,8|8,1:3|0:3,0:0:0:0:
341,55,179079,54,0,P|333:26|339:3,1,30,8|8,1:3|0:3,0:0:0:0:
329,102,179179,54,0,P|300:94|283:77,1,30,8|8,1:3|0:3,0:0:0:0:
342,122,179279,54,0,P|321:143|298:149,1,30,8|8,1:3|0:3,0:0:0:0:
353,123,179379,53,0,1:0:0:0:
175,228,179779,53,8,3:0:0:0:
178,215,179879,1,8,3:0:0:0:
370,293,180079,53,4,0:3:0:0:
367,280,180179,1,4,0:3:0:0:
256,381,180379,53,0,3:0:0:0:
256,381,180479,1,0,3:0:0:0:
256,381,180579,54,0,L|256:345,3,30,8|8|8|8,1:0|0:3|0:3|0:3,0:0:0:0:
253,269,180779,2,0,L|253:233,3,30,0|4|4|4,3:0|0:3|0:3|0:3,0:0:0:0:
164,370,180979,22,0,P|143:295|26:309,1,198.000006042481,4|0,1:0|0:0,0:0:0:0:
30,285,181379,2,0,P|27:244|12:215,1,66.0000020141602,8|0,0:1|0:0,0:0:0:0:
125,127,181579,2,0,P|113:167|109:202,1,66.0000020141602
256,218,181779,22,0,P|320:157|429:175,1,198.000006042481,8|0,0:1|0:0,0:0:0:0:
435,163,182179,1,8,0:1:0:0:
349,384,182379,85,8,0:3:0:0:
356,377,182479,1,8,0:3:0:0:
362,369,182579,2,0,P|349:302|335:234,1,132.00000402832,8|0,0:1|0:0,0:0:0:0:
256,218,182879,1,0,0:0:0:0:
256,218,182979,1,8,0:1:0:0:
447,307,183179,21,4,0:3:0:0:
454,300,183279,1,4,0:3:0:0:
460,292,183379,2,0,P|447:225|433:157,1,132.00000402832,8|0,0:1|0:0,0:0:0:0:
476,83,183679,1,0,0:0:0:0:
476,83,183779,1,8,0:1:0:0:
291,23,183979,85,4,0:3:0:0:
293,34,184079,1,4,0:3:0:0:
295,45,184179,1,8,0:1:0:0:
185,95,184379,1,8,0:3:0:0:
187,84,184479,1,8,0:3:0:0:
189,73,184579,1,8,0:1:0:0:
13,32,184779,22,0,P|73:53|97:69,1,66.0000020141602,2|0,0:0|0:0,0:0:0:0:
138,6,184979,1,8,0:1:0:0:
113,232,185179,86,0,P|115:179|113:150,1,66.0000020141602,2|0,0:0|0:0,0:0:0:0:
216,191,185379,2,0,P|199:223|183:268,1,66.0000020141602,8|0,0:1|0:0,0:0:0:0:
30,373,185579,21,8,0:3:0:0:
28,362,185679,1,8,0:3:0:0:
26,351,185779,2,0,P|68:351|95:367,1,66.0000020141602,8|0,0:1|0:0,0:0:0:0:
113,232,185979,2,0,P|134:268|133:299,1,66.0000020141602,0|4,0:0|0:3,0:0:0:0:
241,363,186179,1,8,0:1:0:0:
350,225,186379,85,2,0:0:0:0:
353,236,186479,1,2,0:0:0:0:
416,273,186579,2,0,P|447:260|483:260,1,66.0000020141602,8|0,0:1|0:0,0:0:0:0:
491,102,186779,21,2,0:0:0:0:
488,112,186879,1,2,0:0:0:0:
485,122,186979,85,8,0:1:0:0:
434,132,187079,1,8,0:3:0:0:
397,86,187179,1,12,0:3:0:0:
325,76,187279,1,4,0:3:0:0:
272,207,187379,22,0,B|305:156|255:86|226:129|179:68|208:12,1,225,8|0,0:1|0:0,0:0:0:0:
217,16,187779,2,0,P|178:24|151:75,1,75,8|0,0:1|0:0,0:0:0:0:
107,161,187979,2,0,P|93:117|57:95,1,75,2|0,0:0|0:0,0:0:0:0:
1,307,188179,86,0,B|51:340|121:290|78:261|139:214|195:243,1,225,8|0,0:1|0:0,0:0:0:0:
205,243,188579,2,0,P|184:294|182:335,1,75,8|0,0:1|0:0,0:0:0:0:
32,238,188779,2,0,P|28:201|7:154,1,75,8|0,0:3|0:0,0:0:0:0:
253,368,188979,22,0,P|319:304|374:315,1,150,8|0,0:1|0:0,0:0:0:0:
437,249,189279,1,2,0:0:0:0:
437,249,189379,1,8,0:1:0:0:
389,178,189479,85,4,0:3:0:0:
399,172,189579,1,4,0:3:0:0:
387,164,189679,1,4,0:3:0:0:
313,215,189779,22,0,P|247:151|192:162,1,150,8|0,0:1|0:0,0:0:0:0:
130,109,190079,1,0,0:0:0:0:
130,109,190179,85,12,0:3:0:0:
140,32,190279,1,4,0:3:0:0:
216,44,190379,2,0,P|256:51|297:57,1,75,8|0,0:3|0:0,0:0:0:0:
196,159,190579,22,0,P|108:170|37:181,1,150,8|0,0:1|0:0,0:0:0:0:
5,245,190879,1,2,0:0:0:0:
5,245,190979,1,8,0:1:0:0:
65,313,191079,85,2,0:0:0:0:
55,307,191179,1,4,0:3:0:0:
67,299,191279,1,4,0:3:0:0:
148,259,191379,22,0,P|181:339|242:350,1,150,8|0,0:1|0:0,0:0:0:0:
302,298,191679,1,2,0:0:0:0:
302,298,191779,86,0,L|344:293,1,37.5,8|0,0:1|0:0,0:0:0:0:
268,223,191879,22,0,L|301:197,1,37.5,0|0,1:0|0:0,0:0:0:0:
219,157,191979,85,4,1:3:0:0:
257,85,192079,21,8,1:3:0:0:
339,86,192179,85,8,1:1:0:0:
349,97,192279,2,0,L|356:157,2,45.0000017166138,8|8|4,0:0|0:3|0:3,0:0:0:0:
178,24,192579,21,8,1:1:0:0:
397,230,192779,85,0,3:0:0:0:
412,226,192879,1,8,1:0:0:0:
257,85,193079,21,8,1:0:0:0:
159,337,193279,85,0,3:0:0:0:
144,333,193379,1,8,1:0:0:0:
256,228,193579,21,0,3:0:0:0:
264,384,193779,85,0,1:0:0:0:
322,326,193879,2,0,P|380:316|427:314,1,90.0000034332277,4|0,0:3|0:0,0:0:0:0:
483,271,194179,21,0,3:0:0:0:
483,271,194279,2,0,P|514:239|512:194,1,90.0000034332277,8|0,0:3|0:0,0:0:0:0:
397,239,194579,85,0,3:0:0:0:
397,239,194679,2,0,P|393:194|424:161,1,90.0000034332277,4|0,0:3|0:0,0:0:0:0:
468,56,194979,21,0,3:0:0:0:
468,56,195079,1,8,0:3:0:0:
392,70,195179,1,12,0:3:0:0:
317,84,195279,1,4,0:3:0:0:
244,107,195379,85,0,3:0:0:0:
244,107,195479,2,0,P|289:132|299:180,1,90.0000034332277,4|0,0:3|0:0,0:0:0:0:
147,208,195779,21,0,3:0:0:0:
147,208,195879,2,0,P|192:181|238:196,1,90.0000034332277,8|0,0:3|0:0,0:0:0:0:
185,342,196179,85,0,3:0:0:0:
185,342,196279,2,0,P|184:289|221:256,1,90.0000034332277,4|0,0:3|0:0,0:0:0:0:
327,253,196579,21,8,3:3:0:0:
308,255,196679,1,12,0:3:0:0:
289,257,196779,1,4,0:3:0:0:
85,277,196979,85,8,3:0:0:0:
93,258,197079,2,0,P|88:206|80:151,1,90.0000034332277,4|0,3:0|0:0,0:0:0:0:
164,35,197379,21,8,3:3:0:0:
174,57,197479,2,0,P|169:109|161:164,1,90.0000034332277,8|0,3:0|0:0,0:0:0:0:
246,305,197779,85,8,3:0:0:0:
259,281,197879,2,0,P|254:229|246:174,1,90.0000034332277,4|0,3:0|0:0,0:0:0:0:
333,10,198179,21,8,3:0:0:0:
346,39,198279,2,0,P|341:91|333:146,1,90.0000034332277,0|0,3:0|0:0,0:0:0:0:
394,221,198579,85,8,3:0:0:0:
394,221,198679,2,0,L|424:215,2,22.5000008583069,4|4|4,3:0|0:3|0:3,0:0:0:0:
266,287,198979,21,8,3:0:0:0:
266,287,199079,2,0,L|236:281,2,22.5000008583069,8|4|4,3:0|0:3|0:3,0:0:0:0:
462,318,199379,85,8,3:0:0:0:
462,318,199479,2,0,L|492:312,2,22.5000008583069,4|4|4,3:0|0:3|0:3,0:0:0:0:
187,370,199779,21,0,3:0:0:0:
187,370,199879,1,8,0:3:0:0:
111,354,199979,1,12,0:3:0:0:
41,340,200079,1,4,0:3:0:0:
41,340,200179,85,2,1:2:0:0:
16,323,200279,1,2,0:0:0:0:
9,283,200379,1,2,0:0:0:0:
26,247,200479,1,2,0:0:0:0:
66,228,200579,1,2,3:2:0:0:
99,201,200679,1,2,0:0:0:0:
109,162,200779,1,2,0:0:0:0:
97,125,200879,1,2,0:0:0:0:
32,72,200979,21,2,3:2:0:0:
32,72,201079,2,0,L|36:29,2,22.5000008583069,8|8|8,0:3|0:3|0:3,0:0:0:0:
143,22,201279,85,0,3:0:0:0:
143,22,201379,2,0,L|145:64,2,22.5000008583069,4|4|4,0:3|0:3|0:3,0:0:0:0:
219,112,201579,21,4,0:3:0:0:
219,112,201679,1,4,0:3:0:0:
219,112,201779,1,2,1:2:0:0:
249,137,201879,1,2,0:2:0:0:
289,132,201979,1,2,0:2:0:0:
316,97,202079,1,2,0:2:0:0:
339,57,202179,1,2,3:2:0:0:
384,46,202279,1,2,0:2:0:0:
432,56,202379,1,2,0:2:0:0:
458,96,202479,1,2,0:2:0:0:
430,171,202579,85,0,3:0:0:0:
430,171,202679,2,0,L|433:211,2,22.5000008583069,8|8|8,0:3|0:3|0:3,0:0:0:0:
256,42,202879,21,0,3:0:0:0:
256,42,202979,2,0,L|259:2,2,22.5000008583069,4|4|8,0:3|0:3|0:3,0:0:0:0:
127,203,203179,85,4,0:3:0:0:
127,203,203279,1,4,0:3:0:0:
127,203,203379,22,0,L|121:245,1,22.5000008583069,4|0,3:0|0:0,0:0:0:0:
200,221,203479,86,0,L|194:263,1,22.5000008583069,4|0,3:0|0:0,0:0:0:0:
272,241,203579,22,0,L|266:283,1,22.5000008583069,4|0,3:0|0:0,0:0:0:0:
8,371,203779,86,0,L|2:329,1,22.5000008583069,8|0,3:0|0:0,0:0:0:0:
81,353,203879,22,0,L|75:311,1,22.5000008583069,8|0,3:0|0:0,0:0:0:0:
153,333,203979,86,0,L|147:291,1,22.5000008583069,8|0,3:0|0:0,0:0:0:0:
56,138,204179,22,0,L|-2:146,6,45.0000017166138,4|4|4|4|4|4|4,3:0|3:0|3:0|3:0|3:0|3:0|3:0,0:0:0:0:
229,375,204579,86,0,L|295:386,6,60,8|8|8|8|8|8|8,3:0|3:0|3:0|3:0|3:0|3:0|3:0,0:0:0:0:
88,267,204979,22,0,P|91:220|108:300,1,408.000007781983,6|2,1:2|0:0,0:0:0:0:
157,248,205979,85,2,0:0:0:0:
157,248,206179,1,2,0:0:0:0:
157,248,206379,1,2,0:0:0:0:
399,351,206579,22,0,P|397:185|381:15,1,270.000010299683,6|0,1:2|0:0,0:0:0:0:
388,81,206779,1,8,0:3:0:0:
417,11,206879,1,4,0:3:0:0:
472,139,206979,54,0,B|511:176|466:243|411:230|374:202|335:209|310:238|307:277|326:287,1,270.000010299683,8|0,3:1|0:0,0:0:0:0:
324,286,207179,1,6,3:2:0:0:
324,286,207279,1,8,3:1:0:0:
395,347,207379,54,0,L|422:354,2,22.5000008583069,0|0|0,1:0|1:0|1:0,0:0:0:0:
243,306,207579,53,8,1:3:0:0:
230,379,207679,1,4,1:3:0:0:
237,299,207779,2,0,P|246:164|263:31,1,270.000010299683,12|0,1:0|0:0,0:0:0:0:
263,30,207979,1,0,1:0:0:0:
263,30,208079,1,0,1:0:0:0:
133,87,208179,54,0,B|142:61|173:38|239:59|242:120|228:153|224:181|257:243|317:242|338:179,1,300,6|2,1:0|2:3,0:0:0:0:
326,200,208479,1,2,0:0:0:0:
333,207,208579,54,0,B|403:233|440:148|409:92|303:48|236:113|252:173|268:218|166:280|102:246|96:181,1,450,8|0,3:1|0:0,0:0:0:0:
111,217,208879,1,0,3:0:0:0:
178,317,208979,54,0,P|200:289|191:247,1,69.0000013160706,4|0,1:2|0:0,0:0:0:0:
62,136,209079,2,0,P|91:263|105:394,1,225.000008583069,2|0,0:3|0:0,0:0:0:0:
103,357,209379,53,8,3:1:0:0:
413,19,209579,53,0,3:0:0:0:
342,1,209679,1,4,3:0:0:0:
419,26,209779,2,0,P|322:44|146:168,1,300,4|2,1:0|0:3,0:0:0:0:
164,161,210079,1,2,0:0:0:0:
164,161,210179,54,0,P|231:150|229:97,1,75,8|0,3:1|0:0,0:0:0:0:
305,149,210279,2,0,P|323:94|263:57,1,75,2|0,3:2|0:0,0:0:0:0:
192,58,210379,53,8,0:3:0:0:
191,68,210479,1,4,0:3:0:0:
50,139,210579,53,4,1:2:0:0:
53,148,210679,2,0,P|167:184|334:312,1,300,2|2,3:0|0:0,0:0:0:0:
396,277,210979,54,0,B|471:252|410:133|313:203|301:257|322:309,1,243.000000926971,8|0,3:1|0:0,0:0:0:0:
321,295,211179,54,0,B|246:320|307:439|404:369|416:315|395:263,1,243.000000926971,2|0,3:2|0:0,0:0:0:0:
464,356,211379,54,0,B|386:390|349:313|361:284|372:255|318:185|246:221,1,300,4|2,1:0|0:3,0:0:0:0:
253,228,211679,1,0,3:0:0:0:
253,228,211779,54,0,B|172:261|204:357|275:389|374:326|366:276|357:233|454:160|529:210|520:298|480:311,1,443.999998306274,8|2,3:1|0:3,0:0:0:0:
501,276,212079,1,2,3:2:0:0:
438,195,212179,54,0,P|456:92|474:16,1,167.999994873047,6|0,1:2|0:0,0:0:0:0:
333,191,212379,2,0,P|315:294|297:370,1,167.999994873047,2|0,3:0|0:0,0:0:0:0:
156,194,212579,53,8,3:1:0:0:
103,139,212679,1,2,0:3:0:0:
160,186,212779,2,0,P|204:148|157:106,1,83.9999974365235,4|0,3:0|0:0,0:0:0:0:
146,57,212879,54,0,B|85:33|17:69|23:198|148:214|160:190|170:153|270:149|343:238|299:317|219:336|184:290,1,495.000004720688,8|0,1:0|0:0,0:0:0:0:
128,349,213179,54,0,P|104:318|143:270,1,75,8|0,3:1|0:0,0:0:0:0:
218,2,213379,54,0,P|242:33|203:81,1,75,8|0,1:0|0:0,0:0:0:0:
94,170,213579,54,0,P|57:173|-17:174,1,75,8|0,1:0|0:0,0:0:0:0:
20,175,213679,53,8,3:0:0:0:
20,175,213779,2,0,P|161:183|386:216,1,300,8|2,1:0|3:3,0:0:0:0:
396,216,214079,53,2,0:3:0:0:
476,232,214179,53,0,1:0:0:0:
476,232,214229,1,0,3:0:0:0:
476,232,214279,2,0,L|523:241,2,30,0|0|0,3:0|3:0|3:0,3:0:0:0:
396,216,214479,53,2,3:3:0:0:
318,203,214579,53,4,1:3:0:0:
174,275,214779,53,0,3:0:0:0:
174,275,214879,1,4,3:0:0:0:
96,261,214979,54,0,B|74:192|208:137|220:204|231:270|388:227|364:49|238:64|220:112,1,419.999987182618,6|0,1:0|0:0,0:0:0:0:
221,108,215279,1,8,3:0:0:0:
154,173,215379,54,0,P|121:154|130:87,1,83.9999974365235,6|0,1:2|0:0,0:0:0:0:
152,2,215479,2,0,P|138:147|124:354,1,335.999989746094,8|0,3:0|0:0,0:0:0:0:
128,339,215779,54,0,B|195:365|272:338|277:241|202:217|164:239,1,251.999992309571,8|0,1:0|0:0,0:0:0:0:
96,261,215979,54,0,B|71:286|-1:282|-21:193|41:150|110:157,1,240,6|0,3:2|0:0,0:0:0:0:
174,239,216179,54,0,B|271:264|316:168|288:136|265:85|342:8|427:49,1,360.000013732911,6|2,1:0|3:2,0:0:0:0:
420,50,216479,1,0,3:0:0:0:
420,50,216579,54,0,P|423:101|365:118,1,90.0000034332277,8|0,1:0|0:0,0:0:0:0:
248,171,216679,2,0,P|290:142|334:184,1,90.0000034332277,8|0,3:0|0:0,0:0:0:0:
387,199,216779,53,4,3:0:0:0:
390,202,216979,54,0,B|316:220|282:148|303:124|321:85|263:27|198:58,1,276.000005264282,6|2,1:2|3:2,0:0:0:0:
212,62,217279,1,0,3:0:0:0:
212,62,217379,54,0,P|216:92|219:162,1,69.0000013160706,8|0,1:0|0:0,0:0:0:0:
142,142,217479,2,0,P|138:112|135:42,1,69.0000013160706,8|0,3:0|0:0,0:0:0:0:
157,0,217579,53,4,3:0:0:0:
53,190,217779,54,0,P|192:159|374:134,1,276.000005264282,6|2,1:2|0:3,0:0:0:0:
324,139,218079,1,0,3:3:0:0:
408,193,218179,54,0,P|413:241|362:271,1,69.0000013160706,8|0,1:0|0:0,0:0:0:0:
327,245,218279,2,0,B|297:182|383:140|398:156|415:172|467:120|441:59,1,251.999992309571,6|0,3:2|0:0,0:0:0:0:
352,18,218479,54,0,L|375:352,1,323.999990112305,8|0,1:0|0:0,0:0:0:0:
381,348,218679,1,8,1:3:0:0:
381,348,218779,54,0,P|343:328|381:252,1,83.9999974365235,0|0,3:0|0:0,0:0:0:0:
407,261,218879,2,0,P|428:220|357:178,1,83.9999974365235,8|0,3:0|0:0,0:0:0:0:
331,92,218979,53,8,1:0:0:0:
334,95,219179,1,4,1:3:0:0:
240,79,219379,54,0,B|203:86|173:114|183:180|248:224|328:165|343:90|358:25|509:69|495:206|388:183,1,431.999986816407,6|8,1:0|0:3,0:0:0:0:
417,183,219879,1,12,0:3:0:0:
417,183,219979,1,4,0:3:0:0:
386,253,220079,54,0,P|388:286|402:345,1,53.9999983520508,0|0,3:0|0:0,0:0:0:0:
319,337,220179,2,0,P|317:304|299:199,1,107.999996704102,0|8,1:0|0:3,0:0:0:0:
248,176,220379,53,8,0:3:0:0:
248,176,220479,1,8,0:3:0:0:
167,208,220579,54,0,L|113:201,3,45.0000017166138,8|8|8|8,1:3|0:3|3:3|0:3,0:0:0:0:
149,277,220779,2,0,L|100:271,3,30,4|4|4|4,1:3|0:3|3:3|0:3,0:0:0:0:
128,352,220979,22,0,B|86:387|17:365|4:273|54:234|120:194|154:241|183:289|305:216|294:116|197:60|146:124,1,503.999984619141,6|0,1:0|0:0,0:0:0:0:
200,375,221379,86,0,B|260:417|332:380|361:280|314:218|282:215|118:171|131:223|143:276|-30:371|-118:179|-73:74|45:62|92:119,1,720,12|0,1:0|0:0,0:0:0:0:
82,111,221779,22,0,P|88:165|92:242,1,83.9999974365235,0|0,1:0|0:0,0:0:0:0:
196,373,221879,2,0,P|190:319|178:119,1,225.000008583069,2|0,3:2|0:0,0:0:0:0:
178,148,222179,1,8,3:1:0:0:
474,384,222379,85,8,3:2:0:0:
512,319,222479,1,4,3:0:0:0:
466,375,222579,2,0,P|374:366|453:208,1,311.999985717774,4|10,1:0|3:2,0:0:0:0:
426,212,222879,21,0,3:0:0:0:
426,212,222979,2,0,P|459:244|415:305,1,77.9999964294435,8|0,3:1|0:0,0:0:0:0:
393,314,223079,2,0,P|360:347|299:303,1,77.9999964294435,8|0,3:0|0:0,0:0:0:0:
282,284,223179,86,0,P|271:267|282:225,1,41.9999987182618,10|0,3:2|0:0,0:0:0:0:
279,232,223279,2,0,P|295:215|325:237,1,41.9999987182618,4|0,3:0|0:0,0:0:0:0:
363,155,223379,21,6,1:2:0:0:
363,164,223479,2,0,P|453:152|388:-6,1,311.999985717774,2|2,3:0|0:3,0:0:0:0:
296,61,223779,86,0,B|239:35|202:90|204:107|212:127|172:175|100:150,1,233.999989288331,8|0,3:1|0:0,0:0:0:0:
130,68,223979,22,0,B|176:47|207:91|204:105|198:122|231:162|289:140,1,192,10|0,3:2|0:0,0:0:0:0:
401,77,224179,86,0,P|219:95|-16:126,1,359.999989013672,4|0,1:0|0:0,0:0:0:0:
43,117,224479,1,0,3:0:0:0:
0,207,224579,22,0,B|-30:244|27:290|68:260|84:213,1,155.999992858887,8|0,3:1|0:0,0:0:0:0:
216,79,224779,2,0,B|246:41|188:-4|147:25|131:72,1,155.999992858887,0|0,3:0|0:0,0:0:0:0:
157,233,224979,86,0,B|182:172|131:139|112:142|92:147|36:119|59:50,1,233.999989288331,0|0,1:0|0:0,0:0:0:0:
135,75,225179,2,0,B|159:136|109:169|90:166|70:160|13:189|36:258,1,233.999989288331,0|0,1:0|0:0,0:0:0:0:
34,260,225379,22,0,P|50:311|45:374,1,77.9999964294435,8|0,3:1|0:0,0:0:0:0:
279,181,225579,86,0,P|295:232|290:295,1,77.9999964294435,0|0,1:0|0:0,0:0:0:0:
342,319,225679,22,0,B|430:377|518:255|433:170|329:150|317:190|306:220|215:113|238:64|279:22|352:24|368:68,1,525.00000500679,8|0,3:1|0:0,0:0:0:0:
432,106,225979,86,0,P|476:98|496:55,1,81.0000003089905,8|0,3:1|0:0,0:0:0:0:
294,260,226179,22,0,P|253:262|226:312,1,81.0000003089905,8|0,3:1|0:0,0:0:0:0:
297,164,226379,86,0,P|342:171|435:179,1,81.0000003089905,0|0,1:0|0:0,0:0:0:0:
377,175,226479,1,0,1:0:0:0:
376,174,226579,2,0,P|268:181|45:210,1,324.000001235962,8|2,3:1|3:0,0:0:0:0:
54,208,226879,1,0,3:0:0:0:
118,156,226979,22,0,L|124:78,3,45.0000017166138,0|0|0|0,1:0|1:0|1:0|1:0,0:0:0:0:
159,230,227179,86,0,L|156:281,3,30,0|0|0|0,1:0|3:0|3:0|3:0,0:0:0:0:
209,167,227379,21,8,3:1:0:0:
277,193,227479,1,0,3:0:0:0:
344,158,227579,1,0,3:0:0:0:
355,84,227679,1,0,3:0:0:0:
472,104,227779,85,8,3:1:0:0:
488,58,227879,1,0,3:0:0:0:
465,14,227979,1,0,3:0:0:0:
416,7,228079,1,0,3:0:0:0:
362,91,228179,21,0,1:0:0:0:
362,91,228279,2,0,L|323:84,4,30,2|2|2|2|2,3:2|0:0|0:0|0:0|0:2,0:0:0:0:
343,169,228479,85,0,3:0:0:0:
343,169,228579,2,0,L|309:161,4,22.5000008583069,8|8|8|8|8,3:3|0:3|0:3|0:3|0:3,0:0:0:0:
322,241,228779,22,0,L|299:236,4,15,4|4|4|4|4,3:3|0:3|0:3|0:3|0:3,0:0:0:0:
327,321,228979,85,8,1:0:0:0:
271,375,229079,1,0,3:0:0:0:
195,358,229179,1,0,3:0:0:0:
161,288,229279,1,0,3:0:0:0:
54,291,229379,21,8,1:0:0:0:
20,257,229479,1,0,3:0:0:0:
32,211,229579,1,0,3:0:0:0:
74,194,229679,1,0,3:0:0:0:
165,291,229779,86,0,L|213:286,8,30,0|2|2|2|2|2|2|2|2,1:0|0:0|0:0|0:0|0:0|0:0|0:0|0:0|0:0,0:0:0:0:
159,216,230079,21,0,3:0:0:0:
159,216,230179,2,0,L|195:213,4,22.5000008583069,8|8|8|8|8,3:3|0:3|0:3|0:3|0:3,0:0:0:0:
150,139,230379,86,0,L|175:136,4,15,4|4|4|4|4,3:3|0:3|0:3|0:3|0:3,0:0:0:0:
230,45,230579,22,0,P|266:52|301:97,1,60,4|4,1:3|0:3,0:0:0:0:
253,18,230679,2,0,P|280:42|288:98,1,60,4|4,3:0|0:3,0:0:0:0:
285,5,230779,2,0,P|296:39|275:92,1,60,4|4,3:0|0:3,0:0:0:0:
476,215,230979,86,0,P|440:222|405:267,1,60,8|8,1:3|0:3,0:0:0:0:
453,188,231079,2,0,P|425:212|417:268,1,60,8|8,3:3|0:3,0:0:0:0:
339,236,231179,21,8,3:0:0:0:
339,236,231279,2,0,B|254:216|267:115|352:110|361:117|368:125|436:119|460:79|452:25|390:4,1,360.000013732911,8|8,1:0|0:1,0:0:0:0:
391,4,231579,1,0,3:0:0:0:
391,4,231679,1,0,1:0:0:0:
389,94,231779,86,0,L|395:138,2,45.0000017166138,0|4|4,1:0|0:3|0:3,0:0:0:0:
316,103,231979,22,0,L|322:147,2,45.0000017166138,0|8|8,3:0|0:3|0:3,0:0:0:0:
178,98,232179,86,0,L|138:91,4,22.5000008583069,8|8|8|8|8,1:3|0:3|0:3|0:3|0:3,0:0:0:0:
166,172,232579,22,0,L|126:165,4,22.5000008583069,12|12|12|12|12,0:3|0:3|0:3|0:3|0:3,0:0:0:0:
152,247,232979,86,0,L|112:240,4,22.5000008583069,4|4|4|4|4,0:3|0:3|0:3|0:3|0:3,0:0:0:0:
152,247,233179,1,4,3:0:0:0:
185,325,233379,22,0,B|242:338|310:295|303:208|227:116|171:159|89:211|-29:185|9:37|67:-5|147:31,1,540.000020599366,6|0,3:2|0:0,0:0:0:0:
210,10,233779,22,0,L|205:28,1,18,0|0,1:0|0:0,0:0:0:0:
205,27,233979,85,2,1:2:0:0:
205,27,234079,2,0,B|178:51|181:100|234:125|287:102,1,162.000000617981,2|12,3:2|3:1,0:0:0:0:
378,151,234279,2,0,P|425:73|508:110,1,198.000001888275,2|0,3:2|0:0,0:0:0:0:
508,109,234579,22,0,P|501:158|525:191,1,81.0000003089905,2|0,1:2|0:0,0:0:0:0:
509,321,234679,2,0,B|474:351|431:336|410:298|426:251|447:263|475:191|393:127|295:167|323:264,1,359.999989013672,2|0,3:2|0:0,0:0:0:0:
323,263,234979,86,0,P|235:243|146:228,1,180,8|0,3:1|0:0,0:0:0:0:
36,298,235379,22,0,B|22:348|78:385|114:329|82:288,1,150,2|0,1:2|0:0,0:0:0:0:
42,217,235579,1,8,0:2:0:0:
177,46,235779,86,0,B|168:-10|236:-55|279:12|247:60,1,180.000006866455,8|0,3:1|0:0,0:0:0:0:
198,124,235979,1,8,0:2:0:0:
422,267,236179,22,2,B|379:373|210:373|282:248|336:188|441:199|521:260|488:339|443:367,1,467.999978576661,0|0,1:0|0:0,0:1:0:0:
493,299,236579,86,0,B|441:267|382:282|403:308|353:355|294:343|273:306|279:263|315:245|348:256|351:290,1,299.700007316895,8|0,0:1|0:0,0:0:0:0:
351,290,236779,22,0,B|302:284|316:309|262:301,1,90.0000034332277,2|0,3:2|0:0,0:0:0:0:
196,376,236979,86,0,P|179:303|158:231,1,150,2|0,1:2|0:0,0:0:0:0:
85,185,237179,2,0,B|94:131|128:148|137:86,1,113.999996955872,2|0,3:2|0:0,0:0:0:0:
18,333,237379,22,0,B|-49:365|67:413|78:273,1,180.000006866455,8|0,3:1|0:0,0:0:0:0:
181,11,237579,1,0,3:0:0:0:
98,14,237679,1,0,3:0:0:0:
49,78,237779,2,0,B|19:137|102:215|179:125|156:126|205:93|250:126,1,270.000010299683,2|0,3:2|0:0,0:0:0:0:
250,126,237979,86,0,L|349:129,1,90.0000034332277,2|0,3:2|0:0,0:0:0:0:
221,322,238179,22,0,B|179:332|147:297|155:228|210:198,1,180.000006866455,8|0,0:1|0:0,0:0:0:0:
370,54,238379,2,0,P|397:68|413:93,1,60,0|0,1:0|0:0,0:0:0:0:
410,173,238479,86,0,L|407:197,1,24,4|0,1:2|0:0,0:0:0:0:
333,231,238779,22,2,B|327:187|273:184|251:231|299:274|372:276|354:261|432:258|471:293|460:335|415:343|399:306,1,299.700007316895,2|0,1:2|0:0,0:1:0:0:
400,306,238979,86,0,P|355:306|320:333,1,90.0000034332277,8|0,3:1|0:0,0:0:0:0:
98,197,239179,2,0,P|142:197|177:224,1,90.0000034332277,8|0,3:1|0:0,0:0:0:0:
292,0,239379,22,0,P|276:65|264:132,1,135.000005149841,8|0,1:1|0:0,0:0:0:0:
257,224,239779,86,0,L|274:209,1,22.5000008583069,2|0,3:2|3:0,0:0:0:0:
267,233,239879,2,0,L|282:211,1,15,0|0,3:0|3:0,0:0:0:0:
281,230,239979,1,2,3:2:0:0:
348,182,240079,1,0,3:0:0:0:
356,102,240179,22,2,B|391:29|457:46|448:105|530:57,1,180.000006866455,4|0,1:1|0:0,0:1:0:0:
512,66,240579,86,0,P|452:115|426:184,1,150,8|0,3:1|0:0,0:0:0:0:
440,297,240779,2,0,P|417:361|351:345,1,150,2|0,3:2|0:0,0:0:0:0:
227,221,240979,1,2,1:2:0:0:
153,205,241079,1,2,3:2:0:0:
90,246,241179,1,2,3:2:0:0:
83,320,241279,1,2,3:2:0:0:
235,333,241379,22,0,P|253:283|236:233,1,107.999996704102,8|0,3:1|0:0,0:0:0:0:
98,276,241579,2,0,P|161:367|262:319,1,243.000000926971,2|0,3:2|0:0,0:0:0:0:
262,319,241779,86,0,B|217:286|256:181|367:183|358:230|473:233|510:119|454:96,1,384,2|0,1:2|0:0,0:0:0:0:
395,25,242079,2,0,P|350:65|371:118,1,120,2|8,3:2|3:1,0:0:0:0:
367,115,242379,22,0,P|248:105|128:98,1,240,2|0,3:2|1:0,0:0:0:0:
80,99,242679,1,0,3:0:0:0:
206,61,242779,85,2,3:2:0:0:
244,100,242879,1,2,3:2:0:0:
230,153,242979,2,0,B|214:200|157:172|168:186|111:158|91:206,1,162.000000617981,8|0,3:1|0:0,0:0:0:0:
89,288,243179,1,2,3:2:0:0:
92,292,243279,1,0,3:0:0:0:
16,348,243379,21,2,1:2:0:0:
102,314,243479,1,2,3:2:0:0:
188,280,243579,2,0,P|176:323|169:367,1,90.0000034332277,2|0,3:2|0:0,0:0:0:0:
239,120,243779,1,8,3:1:0:0:
311,168,243879,2,0,P|333:233|346:300,1,138.000002632141,2|0,3:2|0:0,0:0:0:0:
350,383,244079,86,0,B|438:365|381:340|469:322,1,138.000002632141,8|0,3:1|0:0,0:0:0:0:
119,146,244279,2,0,B|207:164|150:189|238:206,1,138.000002632141,8|0,3:1|0:0,0:0:0:0:
16,336,244479,1,0,1:0:0:0:
89,297,244579,21,2,1:2:0:0:
114,308,244679,1,2,3:2:0:0:
164,377,244779,85,2,1:2:0:0:
189,366,244879,1,2,3:2:0:0:
258,318,244979,22,0,P|263:228|285:141,1,180.000006866455,6|0,1:2|3:0,0:0:0:0:
273,119,245245,1,0,3:0:0:0:
280,102,245312,1,0,3:0:0:0:
297,97,245379,1,0,3:0:0:0:
376,83,245479,1,0,3:0:0:0:
419,151,245579,1,0,3:0:0:0:
492,116,245679,85,0,1:0:0:0:
495,120,245779,1,0,1:0:0:0:
300,100,245979,2,0,P|301:71|306:41,1,60,8|8,3:0|3:0,0:0:0:0:
32,68,246179,22,2,P|76:75|121:80,1,90.0000034332277,8|0,3:0|3:0,0:1:0:0:
193,112,246279,2,0,P|198:90|198:68,1,45.0000017166138,8|0,3:0|3:0,0:0:0:0:
205,108,246379,2,0,P|209:89|208:71,1,37.5,8|0,3:0|3:0,0:0:0:0:
218,102,246479,2,0,P|220:91|219:80,1,22.5000008583069,8|0,3:0|3:0,0:0:0:0:
260,175,246579,86,0,B|323:205|135:234|194:275,1,157.500006008148,2|0,1:2|0:0,0:0:0:0:
192,274,246979,86,0,P|284:250|380:247,1,180.000006866455,12|0,3:1|0:0,0:0:0:0:
505,254,247179,1,2,3:2:0:0:
505,254,247279,1,2,3:2:0:0:
505,254,247379,2,0,B|530:231|524:184|485:158|421:156|374:244|422:306,1,264.000008056641,2|0,1:2|0:0,0:0:0:0:
422,305,247779,22,0,P|480:283|478:221,1,132.00000402832,8|0,3:1|0:0,0:0:0:0:
478,5,247979,2,0,P|462:69|454:134,1,132.00000402832,2|0,3:2|0:0,0:0:0:0:
384,380,248179,86,0,P|376:302|311:258,1,162.000000617981,2|0,1:2|0:0,0:0:0:0:
203,123,248379,2,0,P|219:187|227:252,1,132.00000402832,2|0,3:2|0:0,0:0:0:0:
297,356,248579,22,0,B|306:382|231:426|176:361|223:352|180:280|100:266|90:327|117:340,1,264.000008056641,8|0,0:1|0:0,0:0:0:0:
113,338,248879,1,2,3:2:0:0:
113,339,248979,86,0,B|133:368|201:325|163:178|88:279|31:170|66:78|124:119,1,323.999990112305,2|0,3:2|0:0,0:0:0:0:
203,123,249379,22,0,P|199:152|182:176,3,60,2|0|2|0,3:2|0:0|0:2|0:0,0:0:0:0:
206,127,249779,86,0,B|276:163|265:114|337:152,1,138.000002632141,4|0,1:2|0:0,0:0:0:0:
332,352,249979,2,0,B|328:272|291:306|288:225,1,138.000002632141,2|0,3:2|0:0,0:0:0:0:
464,131,250179,2,0,B|397:173|444:188|376:232,1,138.000002632141,8|0,3:1|0:0,0:0:0:0:
125,369,250379,22,2,P|147:365|169:360,1,45.0000017166138,2|0,3:2|0:0,0:1:0:0:
247,341,250479,2,2,P|225:336|202:333,1,45.0000017166138,0|0,3:0|0:0,0:1:0:0:
137,284,250579,86,2,P|146:273|152:261,1,26.9999991760254,2|0,1:2|0:0,0:1:0:0:
195,241,250679,2,2,P|187:230|181:218,1,26.9999991760254,0|0,3:0|0:0,0:1:0:0:
110,176,250779,22,2,B|139:133|158:154|190:105,1,107.999996704102,2|0,3:2|0:0,0:1:0:0:
266,0,250979,86,0,P|268:52|277:137,1,138.000002632141,8|0,3:1|0:0,0:0:0:0:
277,137,251179,21,2,1:2:0:0:
178,0,251279,2,0,B|136:31|154:94|216:106|271:78|304:36|243:13|318:-40|389:-33|431:-6|420:60|376:75,1,405.000001544952,2|0,1:2|0:0,0:0:0:0:
375,75,251579,86,0,P|391:19|445:0,1,120,8|0,3:1|0:0,0:0:0:0:
459,173,251779,2,0,P|403:156|358:192,1,120,8|0,3:1|0:0,0:0:0:0:
268,267,251979,1,8,3:1:0:0:
271,271,252079,1,0,3:0:0:0:
274,275,252179,22,0,L|278:298,1,17.9999994506836,2|0,1:2|0:0,0:0:0:0:
193,286,252379,2,0,L|197:309,1,17.9999994506836,2|0,3:2|0:0,0:0:0:0:
115,300,252579,85,2,3:2:0:0:
115,300,252629,1,0,3:0:0:0:
115,300,252679,2,0,L|97:302,1,17.9999994506836,0|0,3:0|3:0,3:0:0:0:
19,312,252779,1,2,3:2:0:0:
51,234,252879,1,0,3:0:0:0:
83,156,252979,22,0,L|68:112,1,35.9999989013672,8|8,1:3|0:3,0:0:0:0:
170,29,253379,85,8,0:3:0:0:
158,63,253479,1,8,0:3:0:0:
135,248,253679,1,2,0:0:0:0:
181,180,253779,22,0,L|166:136,1,35.9999989013672,8|8,0:3|0:3,0:0:0:0:
426,152,254179,86,0,L|453:162,3,17.9999994506836,8|8|8|8,0:3|0:3|0:3|0:3,0:3:0:0:
331,180,254379,1,0,3:0:0:0:
331,180,254479,1,0,3:0:0:0:
429,156,254579,22,0,L|444:112,1,35.9999989013672,8|8,0:3|0:3,0:0:0:0:
342,29,254979,85,8,0:3:0:0:
354,63,255079,1,8,0:3:0:0:
377,248,255279,1,2,0:2:0:0:
331,180,255379,22,0,L|346:136,1,35.9999989013672,8|8,0:3|0:3,0:0:0:0:
275,95,255579,86,0,L|265:115,1,17.9999994506836,8|0,3:0|3:0,0:0:0:0:
258,111,255679,2,0,L|246:137,1,26.9999991760254,8|0,3:0|3:0,0:0:0:0:
239,139,255779,22,0,L|198:136,3,40.5000001544952,0|0|8|0,3:0|3:0|3:0|3:0,0:0:0:0:
357,67,255979,2,0,L|397:64,3,40.5000001544952,8|0|0|0,3:0|3:0|3:0|3:0,0:0:0:0:
230,9,256179,86,0,P|207:37|194:63,1,56.9999984779358,6|0,1:2|3:0,0:0:0:0:
192,0,256279,2,0,P|190:34|180:67,1,69.0000013160706,2|0,3:2|3:0,0:0:0:0:
109,25,256379,22,0,B|83:37|52:20|78:-17|-7:4|-17:31|17:55,1,138.000002632141,2|0,3:2|0:0,0:0:0:0:
62,104,256579,86,0,P|53:132|39:156,1,56.9999984779358,8|0,3:1|3:0,0:0:0:0:
74,129,256679,2,0,P|41:138|18:163,1,69.0000013160706,0|0,3:2|3:0,0:0:0:0:
52,232,256779,21,8,3:1:0:0:
4,302,256879,2,0,B|63:258|72:304|130:255,1,138.000002632141,8|0,3:1|3:0,0:0:0:0:
130,255,257029,1,0,3:0:0:0:
130,255,257079,1,8,3:1:0:0:
187,197,257179,1,0,3:0:0:0:
243,306,257279,1,0,1:0:0:0:
310,267,257379,86,0,P|282:269|254:273,1,56.9999984779358,8|0,3:1|3:0,0:0:0:0:
190,201,257479,2,0,P|210:202|230:205,1,40.5000001544952,0|0,3:0|3:0,0:0:0:0:
298,167,257579,21,0,1:0:0:0:
231,117,257679,1,0,3:0:0:0:
275,3,257779,86,0,L|272:30,3,24,0|8|8|8,1:0|0:3|0:3|3:3,0:0:0:0:
294,57,258129,1,0,3:0:0:0:
294,57,258179,22,0,P|287:27|280:-1,6,60,0|0|0|0|0|0|0,3:0|3:0|3:0|3:0|3:0|3:0|3:0,3:0:0:0:
370,25,258579,86,0,B|420:48|464:12|511:37,1,143.999995605469,0|0,3:0|0:0,0:0:0:0:
504,120,258979,2,0,B|456:94|412:130|362:107,1,143.999995605469,8|0,3:0|0:0,0:0:0:0:
366,111,259379,21,0,1:0:0:0:
507,124,259479,1,8,0:3:0:0:
460,191,259779,86,0,P|408:205|391:241,1,96,10|0,0:3|0:3,0:0:0:0:
280,253,259979,2,0,P|311:269|331:299,1,71.9999978027344,2|0,0:3|0:0,0:0:0:0:
444,368,260179,22,0,P|350:348|256:333,1,192,2|8,0:3|0:3,0:0:0:0:
258,337,260779,1,2,0:2:0:0:
176,360,260979,86,0,P|164:360|152:362,4,24,6|0|0|0|0,3:2|3:0|3:0|3:0|3:0,3:0:0:0:
166,286,261379,22,0,P|154:286|142:288,4,24,0|0|0|0|0,3:0|3:0|3:0|3:0|3:0,3:0:0:0:
158,211,261779,86,0,P|146:211|134:213,4,24,2|0|0|0|0,3:2|3:0|3:0|3:0|3:0,3:0:0:0:
235,94,262179,21,4,1:2:0:0:
238,98,262379,2,0,L|227:74,2,24,0|0|0,3:0|3:0|3:0,3:0:0:0:
326,103,262579,38,0,B|277:165|337:221|344:204|386:257|323:312|323:312|264:292|277:242,1,300,6|0,3:1|0:0,0:0:0:0:
337,99,262879,1,0,0:0:0:0:
337,99,262979,2,0,P|392:112|398:159,1,107.999996704102,8|0,3:1|0:0,0:0:0:0:
232,181,263179,102,0,B|187:155|132:183|127:231|149:241|117:305|53:319|18:278,1,270.000010299683,0|0,3:0|0:0,0:0:0:0:
31,271,263379,2,0,P|19:254|28:214,1,60,0|0,3:0|0:0,0:0:0:0:
138,111,263479,2,0,P|168:281|15:274,1,360.000013732911,2|0,3:2|0:0,0:0:0:0:
269,314,263779,6,0,P|306:319|346:324,1,75,8|0,3:1|0:0,0:0:0:0:
255,312,263979,1,0,3:0:0:0:
444,366,264079,102,0,B|437:311|437:311|427:238|409:267|402:200|402:200|394:123,1,225,10|0,3:1|0:0,0:0:0:0:
459,346,264379,6,0,L|536:334,1,45.0000017166138,0|0,3:0|0:0,0:0:0:0:
381,168,264579,2,0,L|336:174,1,45.0000017166138,8|0,3:1|0:0,0:0:0:0:
288,315,264779,102,0,L|365:303,1,60,2|0,3:1|0:0,0:0:0:0:
268,317,264879,2,0,L|280:394,1,60,2|0,0:1|0:0,0:0:0:0:
270,295,264979,5,8,3:0:0:0:
222,230,265079,1,0,3:0:0:0:
144,231,265179,1,0,3:0:0:0:
102,299,265279,1,0,3:0:0:0:
208,371,265379,102,0,P|220:355|207:370,1,60,0|0,1:0|0:0,0:0:0:0:
248,273,265479,2,0,P|250:249|247:273,1,71.9999978027344,0|0,1:0|0:0,0:0:0:0:
233,157,265579,2,0,P|227:145|233:156,1,83.9999974365235,0|0,1:0|0:0,0:0:0:0:
148,93,265679,2,0,P|122:81|148:92,1,96,0|0,1:0|0:0,0:0:0:0:
32,92,265779,6,0,P|17:119|35:94,1,92.4000028198243,0|0,3:3|0:0,0:0:0:0:
27,107,266179,102,0,P|-8:216|168:188,1,311.999985717774,14|0,3:1|0:0,0:0:0:0:
223,61,266479,1,0,0:0:0:0:
138,39,266579,6,0,B|126:70|138:96|138:96|136:137|94:151,1,120,0|0,1:0|0:0,0:0:0:0:
241,137,266679,2,0,P|184:133|144:49,1,155.999992858887,0|0,3:0|0:0,0:0:0:0:
333,148,266879,102,0,P|327:176|320:219,1,60,2|0,0:3|0:0,0:0:0:0:
261,304,266979,2,0,P|254:238|322:207,1,150,8|0,3:1|0:0,0:0:0:0:
393,249,267179,6,0,P|419:280|444:286,1,43.2000010546875,2|0,0:3|0:0,0:0:0:0:
390,253,267279,2,0,P|416:284|441:290,1,43.2000010546875,2|0,0:3|0:0,0:0:0:0:
490,319,267379,102,0,B|526:282|513:221|468:204|453:223|399:175|403:110|451:87,1,270.000010299683,2|0,3:1|0:0,0:0:0:0:
445,96,267579,2,0,P|478:100|497:133,1,60,0|0,3:0|0:0,0:0:0:0:
497,123,267679,2,0,P|501:155|475:182,1,60,0|0,3:0|0:0,0:0:0:0:
343,178,267779,6,0,P|231:167|71:157,1,270.000010299683,8|0,3:1|0:0,0:0:0:0:
90,171,267979,2,0,P|82:129|183:156,1,180.000006866455,2|0,0:1|0:0,0:0:0:0:
306,336,268179,101,2,3:2:0:0:
388,328,268279,2,0,B|385:278|339:258|339:258|308:219|343:176,1,180,0|0,3:0|0:0,0:0:0:0:
342,176,268479,1,0,0:0:0:0:
485,144,268579,6,0,P|477:201|420:217,1,120,8|0,3:1|0:0,0:0:0:0:
318,110,268779,2,0,P|352:140|331:193,1,90.0000034332277,0|0,3:0|0:0,0:0:0:0:
262,242,268979,101,0,3:0:0:0:
241,247,269079,1,0,3:0:0:0:
214,237,269179,1,0,3:0:0:0:
186,190,269279,1,0,3:0:0:0:
117,141,269379,6,0,P|106:118|89:90,1,45.0000017166138,8|0,1:1|0:0,0:0:0:0:
42,187,269479,2,0,P|16:174|-15:173,1,60,0|0,1:0|0:0,0:0:0:0:
52,274,269579,2,0,P|28:296|31:335,1,75,0|0,1:0|0:0,0:0:0:0:
141,289,269679,102,0,P|194:356|328:240,1,270.000010299683,10|0,3:1|0:0,0:0:0:0:
341,296,269879,2,0,P|376:300|409:303,1,45.0000017166138,0|0,3:0|0:0,0:0:0:0:
238,99,270079,5,0,1:0:0:0:
196,163,270179,2,0,P|212:195|270:203,1,90.0000034332277,8|0,3:1|0:0,0:0:0:0:
269,213,270279,1,0,0:0:0:0:
394,121,270379,2,0,P|358:118|322:165,1,90.0000034332277,0|0,3:0|0:0,0:0:0:0:
396,350,270579,102,0,B|440:311|437:233|379:210|355:241|297:190|296:121|367:92|413:127|394:169|367:164,1,300,0|0,3:0|0:0,0:0:0:0:
165,163,271279,5,0,1:0:0:0:
125,89,271379,2,0,L|135:36,1,30,0|0,3:0|0:0,0:0:0:0:
202,238,271579,2,0,L|195:274,1,30,0|0,3:0|0:0,0:0:0:0:
273,120,271779,102,0,L|311:112,1,37.5,0|0,1:0|0:0,0:0:0:0:
276,124,271879,6,0,L|314:116,1,37.5,0|0,1:0|0:0,0:0:0:0:
279,128,271979,102,0,L|317:120,1,37.5,0|0,1:0|0:0,0:0:0:0:
282,132,272079,6,0,L|320:124,1,37.5,0|0,1:0|0:0,0:0:0:0:
285,136,272179,101,0,3:0:0:0:
125,89,272379,6,0,P|115:81|131:83,1,37.5,0|0,3:0|0:0,0:0:0:0:
198,151,272512,1,0,3:0:0:0:
198,151,272579,2,0,B|155:225|80:228|20:201|1:147|34:104,1,276.000005264282,4|2,1:0|0:3,0:0:0:0:
205,171,272879,1,0,3:0:0:0:
55,301,272979,2,0,P|156:317|213:146,1,306.000005836487,8|0,3:1|0:0,0:0:0:0:
256,247,273379,2,0,B|268:276|268:276|331:302|390:256|378:192,1,204.000003890991,0|10,1:0|0:3,0:0:0:0:
407,96,273679,1,8,3:2:0:0:
470,278,273779,86,0,B|433:287|426:324|426:324|351:316|318:237|366:179,1,264.000008056641,6|2,1:2|0:3,0:0:0:0:
424,84,274079,2,0,P|426:43|405:20,1,66.0000020141602,0|0,3:0|0:0,0:0:0:0:
305,0,274179,1,8,3:1:0:0:
242,76,274279,1,0,3:0:0:0:
272,162,274379,1,2,3:3:0:0:
352,188,274479,1,0,3:0:0:0:
423,154,274579,6,0,P|426:121|407:96,1,66.0000020141602,0|0,1:0|0:0,0:0:0:0:
281,147,274679,2,0,P|366:217|391:109,1,264.000008056641,2|0,3:3|0:0,0:0:0:0:
411,24,274979,101,8,3:1:0:0:
352,188,275079,1,4,3:0:0:0:
223,88,275179,1,8,3:0:0:0:
392,110,275379,6,0,P|299:197|244:73,1,303.59999779953,6|2,1:2|0:3,0:0:0:0:
279,0,275679,1,0,3:0:0:0:
223,67,275779,2,0,P|172:118|106:92,1,151.799998899765,8|0,3:1|0:0,0:0:0:0:
0,126,275979,1,2,3:0:0:0:
0,126,276079,2,0,P|18:157|54:159,1,75.8999994498825,2|0,3:2|0:0,0:0:0:0:
70,173,276179,102,0,P|111:173|128:137,1,75.8999994498825,6|0,1:2|0:0,0:0:0:0:
145,155,276279,2,0,P|185:94|152:30,1,151.799998899765,0|0,3:0|0:0,0:0:0:0:
33,5,276479,5,0,3:0:0:0:
33,5,276579,1,8,3:1:0:0:
143,138,276779,1,0,3:0:0:0:
70,173,276879,2,0,P|101:140|146:139,1,90.0000034332277,8|0,3:1|0:0,0:0:0:0:
161,129,277179,2,0,P|204:148|220:189,1,90.0000034332277,8|0,3:0|0:0,0:0:0:0:
234,200,277379,2,0,P|234:257|188:293,1,120,4|0,1:3|0:0,0:0:0:0:
174,309,277579,1,8,3:1:0:0:
61,272,277679,2,0,P|109:319|174:309,1,138.000002632141,0|8,3:0|3:1,0:0:0:0:
235,361,277879,101,0,3:0:0:0:
307,324,277979,1,2,3:0:0:0:
396,322,278079,1,0,3:0:0:0:
487,361,278179,2,0,P|474:351|487:360,1,60,8|0,1:3|0:0,0:0:0:0:
409,308,278279,6,0,P|399:286|411:307,1,71.9999978027344,4|0,1:3|0:0,0:0:0:0:
368,206,278379,102,0,P|377:183|370:208,1,83.9999974365235,12|0,1:3|0:0,0:0:0:0:
400,99,278479,6,0,P|429:84|402:102,1,96,4|0,1:3|0:0,0:0:0:0:
503,32,278579,101,8,1:0:0:0:
503,32,278679,1,0,3:0:0:0:
503,32,278779,2,0,P|517:57|511:86,1,60,0|2,3:0|0:3,0:0:0:0:
486,360,278979,1,8,3:1:0:0:
485,360,279079,2,0,P|447:301|468:234,1,143.999995605469,0|0,3:0|0:0,0:0:0:0:
450,155,279379,5,8,1:0:0:0:
450,155,279479,2,0,P|435:126|406:115,2,60,10|10|10,0:0|0:0|0:0,0:0:0:0:
383,286,279679,1,8,3:0:0:0:
453,243,279779,2,0,P|426:277|383:286,1,90.0000034332277,10|10,0:0|0:0,0:0:0:0:
304,158,279979,2,0,P|291:199|307:241,1,90.0000034332277,4|8,3:0|0:0,0:0:0:0:
379,197,280179,102,0,B|278:191|278:191|269:197|269:197|170:190,1,210.000002002716,8|0,1:0|0:0,0:0:0:0:
171,190,280379,1,0,3:0:0:0:
209,93,280579,5,8,1:0:0:0:
209,93,280679,2,0,B|259:88|259:88|265:81|265:81|354:71,1,150,0|0,3:0|0:0,0:0:0:0:
120,119,280879,101,0,3:0:0:0:
120,119,280979,2,0,L|491:144,1,369.000005630493,8|0,1:0|3:0,0:0:0:0:
512,140,281379,1,8,1:0:0:0:
512,140,281429,1,8,0:3:0:0:
512,140,281479,2,0,L|503:263,1,123.000001876831,4|8,0:3|0:1,0:0:0:0:
495,283,281779,5,8,1:0:0:0:
495,283,281829,1,4,0:3:0:0:
495,283,281879,2,0,L|488:351,1,61.5000009384155,4|4,0:3|0:3,0:0:0:0:
413,308,281979,2,0,P|368:292|315:349,1,123.000001876831,0|0,3:0|3:0,0:0:0:0:
247,276,282179,101,0,1:0:0:0:
247,276,282229,1,8,0:3:0:0:
247,276,282279,2,0,L|240:342,1,66.0000020141602,8|0,0:3|0:0,0:0:0:0:
164,367,282379,1,0,3:0:0:0:
164,367,282479,2,0,P|102:381|59:335,1,132.00000402832,8|8,1:0|0:3,0:0:0:0:
0,273,282679,2,0,P|3:319|41:346,1,96,8|8,3:1|0:3,0:0:0:0:
135,271,282879,1,0,1:0:0:0:
135,271,282979,1,8,1:0:0:0:
40,206,283179,1,0,1:0:0:0:
40,206,283379,6,0,P|19:228|18:257,4,60,8|8|8|8|8,3:3|0:3|0:3|0:3|0:3,0:0:0:0:
68,326,283679,1,8,3:0:0:0:
68,326,283779,1,4,3:0:0:0:
95,369,283879,1,4,3:0:0:0:
155,379,283979,1,4,3:0:0:0:
220,342,284079,1,4,3:0:0:0:
221,260,284179,1,0,3:0:0:0:
235,353,284279,1,0,3:0:0:0:
308,299,284379,2,0,P|361:302|409:347,1,120,0|0,3:0|0:0,0:0:0:0:
512,295,284579,102,0,P|331:313|423:157,1,450,12|0,0:1|0:0,0:0:0:0:
246,107,284979,22,0,P|229:99|207:99,1,39.6000012084961,0|0,3:0|0:0,0:0:0:0:
205,102,285179,1,0,1:2:0:0:
300,33,285279,86,0,B|330:60|319:113|276:132|276:132|266:117|236:101,1,162.000000617981,0|8,0:0|1:0,0:0:0:0:
122,137,285479,22,0,B|96:107|101:57|137:37|137:37|145:38|145:38|164:23|187:17|211:24,1,180,2|0,0:1|0:0,0:0:0:0:
205,102,285679,2,0,B|235:123|237:153|212:181|212:181|172:193|169:232,1,162.000000617981,0|0,3:0|1:0,0:0:0:0:
58,206,285879,86,0,B|49:272|94:327|161:299|221:259|242:328|211:368|163:381|126:348|115:293|138:248|186:237,1,359.999989013672,0|0,3:0|0:0,0:0:0:0:
167,245,286179,22,0,B|230:220|264:266|245:285|302:323|345:291,1,180,10|0,3:1|0:0,0:0:0:0:
422,116,286579,86,0,P|434:163|419:117,1,146.399993968506,0|0,3:0|0:0,0:0:0:0:
431,143,286779,1,0,3:0:0:0:
431,143,286879,1,0,3:0:0:0:
335,231,286979,22,0,P|276:195|338:224,1,206.400003149414,8|0,3:1|0:0,0:0:0:0:
310,216,287180,1,0,3:0:0:0:
311,216,287279,2,0,P|323:291|224:314,1,162.000000617981,0|0,1:0|3:0,0:0:0:0:
69,331,287479,86,0,B|101:211|101:211|120:134|186:130|249:160|226:244|226:244|191:367,1,480,2|0,1:0|0:0,0:0:0:0:
82,212,287779,22,0,P|183:133|253:235,1,243.000000926971,8|0,3:1|0:0,0:0:0:0:
251,196,287979,2,0,P|227:228|166:208,1,107.999996704102,2|0,0:3|0:0,0:0:0:0:
442,63,288179,86,0,B|485:95|481:146|436:178|436:178|399:172|372:187|360:219,1,225,2|0,3:1|0:0,0:0:0:0:
363,211,288379,2,0,P|384:227|379:209,1,66.0000020141602,0|0,3:0|0:0,0:0:0:0:
299,93,288579,22,0,P|351:26|457:49,1,198.000006042481,10|0,3:1|0:0,0:0:0:0:
422,144,288779,85,0,1:0:0:0:
442,63,288879,1,0,1:0:0:0:
404,153,288979,2,0,P|353:144|346:83,1,107.999996704102,2|0,3:1|0:0,0:0:0:0:
497,41,289179,22,0,B|477:67|491:101|491:101|477:68|436:61,1,129.600003164063,0|0,1:0|0:0,0:0:0:0:
422,144,289379,86,0,P|336:157|296:297,1,206.400003149414,8|0,3:1|0:0,0:0:0:0:
285,256,289579,1,0,3:0:0:0:
391,270,289679,22,0,P|407:236|382:266,1,112.500004291535,12|0,3:1|0:0,0:0:0:0:
394,255,289979,86,0,B|395:207|336:189|320:211|268:185|278:129,1,180.000006866455,2|0,3:1|0:0,0:0:0:0:
256,16,290179,22,0,B|255:48|227:70|216:55|191:79|191:114,1,120,2|0,1:1|0:0,0:0:0:0:
208,194,290379,85,0,1:0:0:0:
182,120,290479,1,0,1:0:0:0:
191,202,290579,22,0,P|180:231|150:245,1,60,2|0,3:1|0:0,0:0:0:0:
114,180,290779,86,0,P|83:184|56:165,1,60,0|0,3:0|0:0,0:0:0:0:
37,64,290979,22,0,P|37:83|45:101,1,22.5000008583069,0|0,1:0|0:0,0:0:0:0:
41,67,291079,2,0,P|41:86|49:104,1,22.5000008583069,0|0,1:0|0:0,0:0:0:0:
94,9,291179,2,0,P|110:18|130:20,1,22.5000008583069,0|0,1:0|0:0,0:0:0:0:
91,13,291279,2,0,P|107:22|127:24,1,22.5000008583069,0|0,1:0|0:0,0:0:0:0:
182,120,291379,86,0,P|261:97|180:118,1,270.000010299683,6|0,3:1|0:0,0:0:0:0:
182,120,291779,22,0,P|268:118|284:177,1,150,8|0,3:1|0:0,0:0:0:0:
175,272,291979,2,0,P|93:256|-4:247,1,150
109,108,292179,85,0,3:0:0:0:
182,120,292279,1,2,3:0:0:0:
218,185,292379,1,2,3:0:0:0:
197,258,292479,1,2,3:0:0:0:
103,126,292579,22,0,P|164:137|195:171,1,107.999996704102,8|0,3:1|0:0,0:0:0:0:
197,258,292779,2,0,P|153:329|178:249,1,243.000000926971,2|0,0:3|0:0,0:0:0:0:
144,346,292979,86,0,P|-2:224|127:126,1,384,2|0,3:1|0:0,0:0:0:0:
70,51,293279,2,0,P|118:70|102:125,1,120,0|8,3:0|3:1,0:0:0:0:
102,125,293579,2,0,B|182:106|212:192|189:199|216:267|293:246,1,240,2|0,0:1|3:0,0:0:0:0:
348,296,293879,21,2,0:3:0:0:
365,277,293979,1,2,0:3:0:0:
365,252,294079,1,2,0:3:0:0:
317,176,294179,86,0,P|327:103|411:94,1,162.000000617981,8|0,3:1|0:0,0:0:0:0:
299,184,294379,22,0,L|264:173,1,30,2|0,3:1|0:0,0:0:0:0:
302,202,294479,2,0,L|291:237,1,30,2|0,3:1|0:0,0:0:0:0:
391,216,294579,86,0,L|426:227,1,30,2|0,3:1|0:0,0:0:0:0:
388,198,294679,2,0,L|399:163,1,30,2|0,3:1|0:0,0:0:0:0:
294,168,294779,22,0,P|243:169|226:210,1,90.0000034332277,0|0,1:0|0:0,0:0:0:0:
282,307,294979,1,8,3:1:0:0:
282,307,295079,2,0,P|301:302|311:301,1,22.5000008583069,2|0,0:3|0:0,0:0:0:0:
391,306,295179,86,0,P|422:351|383:310,1,162.000000617981,0|8,3:0|3:0,0:0:0:0:
404,335,295479,22,0,P|463:328|487:252,1,138.000002632141,0|0,3:0|1:0,0:0:0:0:
412,115,295679,1,0,3:0:0:0:
332,94,295779,85,10,3:1:0:0:
327,116,295879,1,2,3:3:0:0:
370,181,295979,21,2,3:3:0:0:
389,189,296079,1,2,3:3:0:0:
412,115,296179,86,0,P|405:50|304:14,1,172.80000421875,2|0,3:1|0:0,0:0:0:0:
246,76,296445,21,2,0:3:0:0:
233,87,296512,1,2,0:3:0:0:
215,90,296579,1,2,0:3:0:0:
172,86,296679,85,0,1:0:0:0:
140,57,296779,1,0,1:0:0:0:
202,4,296879,21,0,3:0:0:0:
205,8,296979,85,0,3:0:0:0:
256,87,297179,22,0,P|227:105|197:102,1,60,4|4,0:3|0:3,0:0:0:0:
31,83,297379,86,0,P|88:117|85:158,1,90.0000034332277,8|0,1:0|0:0,0:0:0:0:
74,208,297479,2,0,P|48:203|29:178,1,45.0000017166138,0|0,3:0|0:0,0:0:0:0:
57,218,297579,2,0,P|37:200|35:181,1,37.5,0|0,3:0|0:0,0:0:0:0:
35,212,297679,2,0,P|33:193|37:183,1,22.5000008583069,0|0,3:0|0:0,0:0:0:0:
90,134,297779,22,0,P|135:154|150:192,1,90.0000034332277,4|2,3:0|0:2,0:0:0:0:
77,320,298079,1,0,0:0:0:0:
77,320,298179,2,0,P|127:270|202:280,1,150,12|0,3:1|0:0,0:0:0:0:
225,384,298379,1,0,3:0:0:0:
155,344,298479,1,0,3:0:0:0:
273,318,298579,86,0,P|300:322|321:348,1,60,2|0,1:2|0:0,0:0:0:0:
357,327,298679,2,0,B|390:318|396:281|396:281|462:260|521:309|510:370,1,240,2|0,3:2|0:0,0:0:0:0:
510,371,298979,2,0,P|472:328|478:270,1,120,8|0,3:1|0:0,0:0:0:0:
346,215,299179,2,0,P|364:159|416:133,1,120,0|0,3:0|0:0,0:0:0:0:
508,8,299379,22,0,P|506:94|435:144,1,180,2|0,1:2|0:0,0:0:0:0:
337,110,299579,2,0,P|311:58|327:2,1,120,2|0,3:2|0:0,0:0:0:0:
508,8,299779,86,0,P|506:94|435:144,1,180,8|0,3:1|0:0,0:0:0:0:
250,166,299979,1,0,3:0:0:0:
356,198,300079,2,0,P|318:241|322:300,1,120,2|0,3:2|1:0,0:0:0:0:
339,309,300279,2,0,P|372:299|390:268,1,71.9999978027344,0|0,3:0|0:0,0:0:0:0:
242,328,300579,22,0,P|213:295|170:286,1,90.0000034332277,2|0,1:2|0:0,0:0:0:0:
36,262,300779,2,0,P|70:232|114:229,1,90.0000034332277,2|0,3:2|0:0,0:0:0:0:
35,367,300979,86,0,P|1:312|20:251,1,132.00000402832,8|0,3:1|0:0,0:0:0:0:
57,99,301179,1,2,3:2:0:0:
159,128,301279,1,0,3:0:0:0:
129,216,301379,2,0,P|37:137|52:17,1,251.999992309571,2|0,1:2|0:0,0:0:0:0:
65,29,301579,22,0,P|102:23|132:43,1,75,2|0,3:2|0:0,0:0:0:0:
159,128,301679,2,0,P|112:183|41:176,1,150,0|8,3:0|3:1,0:0:0:0:
0,104,301879,85,0,3:0:0:0:
79,39,301979,1,0,3:0:0:0:
213,62,302079,1,0,3:0:0:0:
240,210,302179,1,8,3:1:0:0:
228,193,302379,21,8,0:1:0:0:
156,317,302479,2,0,P|207:380|281:373,1,155.999992858887,2|0,1:2|0:0,0:0:0:0:
260,362,302779,2,0,P|297:343|308:305,1,77.9999964294435,8|0,3:1|0:0,0:0:0:0:
154,236,302979,85,8,3:1:0:0:
129,285,303079,1,0,3:0:0:0:
139,338,303179,1,8,3:1:0:0:
178,376,303279,1,0,3:0:0:0:
260,362,303379,2,0,P|297:343|308:305,1,77.9999964294435,0|0,1:0|0:0,0:0:0:0:
136,245,303579,22,0,P|173:289|230:283,1,120,2|0,3:2|0:0,0:0:0:0:
495,371,303779,86,0,P|472:351|466:323,1,60,2|0,3:2|3:0,3:0:0:0:
423,316,303879,2,0,P|409:285|419:249,1,60,0|0,3:0|3:0,3:0:0:0:
383,211,303979,2,0,P|395:179|423:164,1,60,2|0,3:2|0:0,3:0:0:0:
412,89,304079,2,0,P|436:67|467:66,1,60,0|0,3:0|0:0,0:0:0:0:
512,0,304179,21,8,1:3:0:0:
512,0,304279,1,8,0:3:0:0:
368,384,304579,85,8,0:3:0:0:
368,384,304679,1,8,0:3:0:0:
502,279,304879,21,2,0:2:0:0:
489,218,304979,2,0,P|509:239|512:268,1,60,8|8,3:3|0:3,0:0:0:0:
444,357,305379,86,0,P|427:376|406:382,3,45.0000017166138,0|0|0|0,3:0|3:0|3:0|3:0,3:0:0:0:
345,338,305579,2,0,P|317:328|299:304,1,60,0|0,3:0|3:0,0:0:0:0:
306,227,305779,1,8,0:3:0:0:
306,227,305879,1,8,0:3:0:0:
368,178,306179,1,0,0:0:0:0:
368,178,306279,1,0,0:0:0:0:
440,206,306479,2,0,P|456:230|453:260,1,60,2|0,0:2|3:0,0:0:0:0:
394,313,306779,21,8,3:0:0:0:
394,313,306829,1,0,3:0:0:0:
394,313,306879,2,0,P|376:326|354:326,1,45.0000017166138,8|0,3:0|3:0,0:0:0:0:
338,312,306979,2,0,P|310:301|295:276,7,60,8|0|8|0|8|0|8|0,3:0|3:0|3:0|3:0|3:0|3:0|3:0|3:0,3:0:0:0:
215,286,307379,85,4,3:1:0:0:
215,286,307429,1,0,3:0:0:0:
215,286,307479,1,0,3:0:0:0:
215,286,307529,1,0,3:0:0:0:
215,286,307579,2,0,P|191:343|129:363,1,120,0|0,3:0|0:0,0:0:0:0:
46,311,307779,1,8,3:1:0:0:
28,212,307879,1,0,3:0:0:0:
61,132,307979,1,0,1:0:0:0:
119,107,308079,1,8,3:1:0:0:
173,127,308179,21,0,3:0:0:0:
178,172,308279,1,8,3:1:0:0:
131,190,308379,1,0,3:0:0:0:
103,151,308479,1,8,3:1:0:0:
130,117,308579,85,0,1:0:0:0:
185,117,308679,1,0,3:0:0:0:
249,156,308779,1,0,1:0:0:0:
269,232,308879,1,0,3:0:0:0:
231,304,308979,21,0,1:0:0:0:
227,308,309079,1,8,0:3:0:0:
224,313,309179,1,8,0:3:0:0:
222,318,309279,1,8,0:3:0:0:
222,323,309379,1,8,0:3:0:0:
223,328,309479,1,8,0:3:0:0:
225,333,309579,1,8,0:3:0:0:
228,337,309679,1,8,0:3:0:0:
232,341,309779,2,0,P|212:373|175:382,2,77.9999964294435,6|2|2,0:2|0:2|0:2,0:0:0:0:
232,342,310179,86,0,P|123:312|36:384,1,233.999989288331,2|0,0:2|0:0,0:0:0:0:
23,377,310579,54,0,P|26:253|257:156,1,396.000012084961,6|0,1:2|0:0,0:0:0:0:
248,152,310979,2,0,P|258:175|236:152,1,90.0000034332277,4|0,1:0|0:0,0:0:0:0:
471,61,311279,22,0,B|420:119|346:87|346:87|372:78|388:39,1,180.000006866455,6|0,3:2|0:0,0:0:0:0:
313,18,311479,2,0,P|344:150|347:274,1,240,4|0,3:0|0:0,0:0:0:0:
214,346,311779,86,0,P|179:331|169:303,1,60,8|0,3:1|0:0,0:0:0:0:
230,310,311879,2,0,P|234:276|256:253,1,45.0000017166138,8|0,0:3|0:0,0:0:0:0:
256,298,311979,2,0,P|275:293|289:298,1,30,4|0,0:3|0:0,0:0:0:0:
279,308,312079,2,0,P|297:325|304:353,1,30,8|0,0:2|0:0,0:0:0:0:
365,368,312179,22,0,P|416:384|479:284,1,180.000006866455,0|2,1:0|0:0,0:0:0:0:
455,309,312379,2,0,P|435:349|386:349,1,90.0000034332277,2|2,0:3|0:0,0:0:0:0:
285,148,312579,86,0,P|366:187|388:272,1,180,8|0,3:1|0:0,0:0:0:0:
398,261,312779,2,0,P|369:176|290:135,1,180,2|0,0:3|0:0,0:0:0:0:
207,128,312979,22,0,P|157:127|133:57,1,120,0|0,1:0|0:0,0:0:0:0:
172,8,313179,2,0,P|221:8|245:78,1,120,6|0,0:0|0:0,0:0:0:0:
130,255,313379,1,8,3:1:0:0:
115,244,313479,1,0,0:0:0:0:
40,295,313579,86,0,P|22:308|44:296,1,90.0000034332277,14|0,0:0|0:0,0:0:0:0:
210,211,313779,22,0,P|195:170|216:213,1,180.000006866455,14|0,1:2|0:0,0:0:0:0:
366,370,313979,86,0,L|286:355,1,60,2|2,3:0|0:3,0:0:0:0:
260,294,314179,2,0,B|304:275|304:275|373:290|373:290|381:295|381:295|454:307|454:307|524:277,1,240,8|2,3:1|0:3,0:0:0:0:
449,223,314479,2,0,L|390:211,1,60,2|0,0:0|1:0,0:0:0:0:
211,19,314679,22,0,B|163:-11|123:24|105:92|160:150|304:104|230:85|289:59|350:99,1,311.999985717774,6|0,0:2|0:0,0:0:0:0:
294,162,314979,2,0,P|269:144|255:107,1,60,8|0,3:1|0:0,0:0:0:0:
343,98,315179,1,0,1:0:0:0:
297,5,315279,86,0,P|305:129|301:376,1,360.000013732911,8|0,1:0|0:0,0:0:0:0:
200,370,315579,22,0,P|180:355|209:368,1,120,6|0,3:2|0:0,0:0:0:0:
387,259,315779,2,0,B|451:252|436:295|504:287,1,120,8|2,3:1|0:0,0:0:0:0:
177,187,315979,86,0,P|208:204|167:190,1,180.000006866455,12|0,1:0|0:0,0:0:0:0:
412,47,316179,21,2,1:2:0:0:
422,62,316279,1,2,3:2:0:0:
411,58,316379,1,2,3:0:0:0:
425,51,316479,2,0,L|446:63,1,15,0|0,3:0|0:0,0:0:0:0:
362,114,316579,86,0,L|364:144,1,30,8|0,1:0|0:0,0:0:0:0:
285,121,316679,22,0,L|258:176,1,45.0000017166138,4|0,1:3|0:0,0:0:0:0:
224,75,316779,85,12,1:3:0:0:
207,0,316879,1,8,1:3:0:0:
298,22,316979,22,0,B|395:171|303:322|303:322|308:263|254:242,1,405.000015449525,6|0,1:0|3:0,0:0:0:0:
9,327,317379,86,0,B|84:316|84:316|88:318|88:318|172:304,1,150,8|2,3:1|0:0,0:0:0:0:
229,311,317579,2,0,L|165:321,1,60,2|2,0:3|0:0,0:0:0:0:
8,167,317779,1,0,1:0:0:0:
49,105,317879,22,0,B|51:103|52:103|52:103|51:101|51:101|52:103|52:103|53:102|53:102|54:102|54:102|53:100|53:100|55:102|55:102|55:101|55:101|55:99|55:99|54:98|54:98|56:100|56:100|55:98|55:98|56:98|56:98|56:97|56:97|57:100|57:100|57:97|57:97|58:97|58:97|58:96|58:96|59:99|59:99|59:96|59:96|60:96|60:96|59:95|59:95|61:98|61:98|61:95|61:95|62:95|62:95|61:94|61:94|62:97|62:97|62:95|62:95|63:94|63:94|63:93|63:93|64:96|64:96|64:94|64:94|65:93|65:93|66:96|66:96|67:94|67:94|68:94|68:94|68:92|68:92|68:95|68:95|69:93|69:93|69:93|69:93|69:91|69:91|70:94|70:94|70:92|70:92|71:92|71:92|71:90|71:90|72:93|72:93|72:91|72:91|73:91|73:91|73:89|73:89|73:92|73:92|74:90|74:90|75:91|75:91|76:90|76:90|76:93|76:93|77:91|77:91|77:91|77:91|77:90|77:90|78:92|78:92|78:90|78:90|79:90|79:90|80:91|80:91|81:90|81:90|81:90|81:90|81:89|81:89|82:91|82:91|82:89|82:89|83:89|83:89|83:88|83:88|84:90|84:90|85:89|85:89|86:88|86:88|86:87|86:87|87:89|87:89|87:88|87:88|88:87|88:87|89:88|89:88|89:88|89:88|90:86|90:86|91:88|91:88|90:87|90:87|92:87|92:87|92:86|92:86|92:88|92:88|93:87|93:87|93:86|93:86|94:85|94:85|94:87|94:87|95:87|95:87|96:86|96:86|96:85|96:85|96:87|96:87|96:86|96:86|98:86|98:86|98:85|98:85|98:87|98:87|99:86|99:86|100:85|100:85|100:85|100:85|101:87|101:87|101:86|101:86|102:85|102:85|102:86|102:86|103:86|103:86|105:86|105:86|104:86|104:86|105:87|105:87|106:86|106:86|106:85|106:85|106:87|106:87|107:87|107:87|108:86|108:86|109:85|109:85|109:87|109:87|109:86|109:86|110:86|110:86|111:85|111:85|111:87|111:87|110:86|110:86|112:87|112:87|112:85|112:85|112:87|112:87|113:87|113:87|114:86|114:86|114:85|114:85|114:87|114:87|115:87|115:87|116:86|116:86|117:86|117:86|116:88|116:88|117:87|117:87|118:87|118:87|117:88|117:88|118:88|118:88|119:87|119:87|120:87|120:87|119:88|119:88|120:88|120:88|122:88|122:88|122:87|122:87|121:89|121:89|122:88|122:88|123:88|123:88|123:87|123:87|123:89|123:89|124:88|124:88|125:88|125:88|126:88|126:88|126:89|126:89|127:89|127:89|128:88|128:88|127:90|127:90|129:89|129:89|130:89|130:89|131:88|131:88|131:90|131:90|131:88|131:88|132:89|132:89|132:89|132:89|132:90|132:90|133:90|133:90|134:89|134:89|135:90|135:90|133:91|133:91|135:91|135:91|136:91|136:91|137:90|137:90|137:92|137:92|137:91|137:91|138:91|138:91|139:91|139:91|138:93|138:93|139:92|139:92|140:93|140:93|141:91|141:91|141:93|141:93|141:92|141:92|142:93|142:93|142:92|142:92|142:94|142:94|143:93|143:93|144:94|144:94|145:92|145:92|144:96|144:96|144:94|144:94|146:95|146:95|147:94|147:94|146:96|146:96|147:96|147:96|148:96|148:96|148:95|148:95|148:97|148:97|149:96|149:96|149:97|149:97|150:96|150:96|150:98|150:98|151:97|151:97|151:98|151:98|153:97|153:97|152:99|152:99|153:98|153:98|154:99|154:99|154:97|154:97|153:99|153:99|154:99|154:99|155:99|155:99|156:99|156:99|155:100|155:100|156:100|156:100|157:100|157:100|158:100|158:100|157:102|157:102|158:101|158:101|159:102|159:102|159:100|159:100|158:102|158:102|159:102|159:102|160:102|160:102|161:101|161:101|160:103|160:103|161:103|161:103|162:103|162:103|163:103|163:103|162:105|162:105|163:104|163:104|163:105|163:105|164:105|164:105|163:106|163:106|164:106|164:106|165:106|165:106|166:106|166:106|164:107|164:107|165:106|165:106|165:107|165:107|167:108|167:108|166:108|166:108|167:108|167:108|167:108|167:108|168:109|168:109|168:110|168:110|168:110|168:110|169:111|169:111|170:111|170:111|169:112|169:112|169:112|169:112|171:112|171:112|171:112|171:112|170:114|170:114|171:113|171:113|172:114|172:114|172:114|172:114|172:115|172:115|173:114|173:114|173:115|173:115|173:115|173:115|173:116|173:116|174:116|174:116|174:117|174:117|175:117|175:117|174:117|174:117|174:117|174:117|175:118|175:118|177:118|177:118|175:119|175:119|176:118|176:118|177:119|177:119|179:120|179:120|177:121|177:121|178:121|178:121|178:122|178:122|180:122|180:122|179:123|179:123|180:122|180:122|180:123|180:123|181:123|181:123|180:124|180:124|180:124|180:124|181:125|181:125|182:124|182:124|181:126|181:126|182:125|182:125|183:126|183:126|184:126|184:126|182:127|182:127|183:127|183:127|184:128|184:128|185:127|185:127|183:129|183:129|184:129|184:129|185:130|185:130|186:129|186:129|184:131|184:131|185:130|185:130|186:131|186:131|187:131|187:131|185:133|185:133|186:132|186:132|187:133|187:133|188:133|188:133|186:134|186:134|187:134|187:134|188:135|188:135|189:134|189:134|187:136|187:136|188:136|188:136|189:137|189:137|190:136|190:136|188:138|188:138|189:137|189:137|190:138|190:138|190:138|190:138|189:140|189:140|190:139|190:139|191:140|191:140|191:140|191:140|190:141|190:141|191:141|191:141|192:142|192:142|192:141|192:141|191:142|191:142|192:143|192:143|193:144|193:144|194:144|194:144|192:144|192:144|193:144|193:144|193:145|193:145|195:146|195:146|193:146|193:146|194:146|194:146|194:147|194:147|196:147|196:147|194:148|194:148|195:148|195:148|195:149|195:149|197:149|197:149|195:149|195:149|196:150|196:150|196:151|196:151|198:151|198:151|196:151|196:151|197:151|197:151|198:153|198:153|199:154|199:154|197:154|197:154|198:154|198:154|198:155|198:155|198:156|198:156|197:156|197:156|198:157|198:157|198:158|198:158|199:158|199:158|197:158|197:158|199:159|199:159|199:159|199:159|200:160|200:160|198:160|198:160|199:160|199:160|199:162|199:162|200:162|200:162|199:162|199:162|200:163|200:163|200:163|200:163|201:163|201:163|200:163|200:163|201:164|201:164|201:165|201:165|201:165|201:165|200:166|200:166|202:166|202:166|202:167|202:167|202:167|202:167|201:167|201:167|202:168|202:168|202:169|202:169|203:169|203:169|201:170|201:170|203:170|203:170|204:170|204:170|202:171|202:171|203:171|203:171|203:172|203:172|204:173|204:173|203:172|203:172|203:173|203:173|204:174|204:174|204:175|204:175|203:174|203:174|204:175|204:175|205:176|205:176|205:177|205:177|204:176|204:176|204:177|204:177|205:178|205:178|206:178|206:178|204:178|204:178|205:179|205:179|205:180|205:180|206:181|206:181|204:181|204:181|205:181|205:181|205:182|205:182|206:182|206:182|203:183|203:183|205:184|205:184|205:185|205:185|204:184|204:184|204:185|204:185|205:186|205:186|205:187|205:187|204:187|204:187|204:187|204:187|205:188|205:188|205:189|205:189|204:189|204:189|204:190|204:190|205:191|205:191|206:192|206:192|204:191|204:191|205:193|205:193|205:194|205:194|204:193|204:193|205:194|205:194|205:195|205:195|205:196|205:196|204:195|204:195|205:196|205:196|205:197|205:197|206:198|206:198|204:198|204:198|205:199|205:199|205:199|205:199|203:200|203:200|204:200|204:200|204:201|204:201|205:202|205:202|203:202|203:202|204:202|204:202|204:204|204:204|205:204|205:204|203:204|203:204|204:204|204:204|204:205|204:205|205:205|205:205|203:205|203:205|203:206|203:206|204:207|204:207|204:208|204:208|203:208|203:208|203:208|203:208|204:209|204:209|202:209|202:209|203:210|203:210|203:211|203:211|204:212|204:212|202:212|202:212|203:212|203:212|202:213|202:213|202:214|202:214|201:213|201:213|201:214|201:214|201:215|201:215|202:216|202:216|200:216|200:216|201:217|201:217|200:217|200:217|201:218|201:218|198:218|198:218|199:219|199:219|199:220|199:220|200:222|200:222|197:220|197:220|198:222|198:222|199:223|199:223|199:223|199:223|197:222|197:222|198:223|198:223|197:224|197:224|198:225|198:225|196:225|196:225|197:226|197:226|197:227|197:227|196:225|196:225|197:227|197:227|196:228|196:228|196:228|196:228|194:227|194:227|195:228|195:228|194:229|194:229|196:230|196:230|193:229|193:229|194:229|194:229|194:231|194:231|194:232|194:232|193:231|193:231|194:232|194:232|193:233|193:233|193:234|193:234|192:233|192:233|192:234|192:234|193:235|193:235|191:234|191:234|192:235|192:235|191:236|191:236|192:238|192:238|190:236|190:236|191:237|191:237|189:239|190:238|190:238|191:239|191:239|189:238|189:238|189:239,1,720.000027465821,4|0,3:2|0:0,0:0:0:0:
294,358,318179,85,8,3:1:0:0:
263,318,318279,1,4,0:3:0:0:
268,248,318379,1,8,0:3:0:0:
331,199,318479,1,10,3:2:0:0:
414,211,318579,22,0,L|384:329,1,120,0|0,1:0|0:0,0:0:0:0:
463,318,318779,2,0,L|478:259,1,60,6|0,0:0|0:0,0:0:0:0:
359,34,318979,86,0,B|282:53|282:53|268:66|268:66|188:85,1,180,8|0,3:1|0:0,0:0:0:0:
194,96,319179,2,0,B|273:76|273:76|287:63|287:63|364:44,1,180,2|0,0:3|0:0,0:0:0:0:
437,13,319379,22,0,P|474:80|412:155,1,150,0|0,1:0|0:0,0:0:0:0:
245,199,319579,2,0,P|286:169|329:168,1,90.0000034332277,2|0,0:3|0:0,0:0:0:0:
406,213,319779,1,8,3:1:0:0:
406,213,319879,1,8,3:2:0:0:
294,333,319979,86,0,P|275:358|284:327,1,90.0000034332277,12|0,0:0|0:0,0:0:0:0:
0,234,320179,22,0,B|68:161|180:219|137:259|229:341|327:251,1,360.000013732911,8|8,3:1|3:3,0:0:0:0:
245,199,320479,1,8,0:3:0:0:
323,265,320579,2,0,B|372:298|414:262|428:192|371:146|252:126|167:262,1,360.000013732911,8|12,3:1|0:3,0:0:0:0:
109,206,320879,86,0,B|86:210|65:228|58:263|100:305|146:296|189:228,1,180.000006866455,8|0,1:3|0:0,0:0:0:0:
171,147,321079,2,0,P|186:230|196:335,1,180.000006866455,4|0,1:3|0:0,0:0:0:0:
185,132,321279,1,0,3:0:0:0:
201,118,321379,2,0,P|191:64|184:-3,1,120,8|0,1:3|0:0,0:0:0:0:
433,142,321579,22,0,B|385:116|337:143|356:161|302:186|259:161,1,180.000006866455,4|0,3:0|0:0,0:0:0:0:
457,351,321779,86,0,P|469:326|470:314,1,22.5000008583069,4|0,1:3|0:0,0:0:0:0:
392,308,321929,22,0,P|390:274|381:260,1,30,4|0,0:3|0:0,0:0:0:0:
315,308,322079,86,0,P|290:277|262:261,1,45.0000017166138,12|0,0:3|0:0,0:0:0:0:
250,129,322229,22,0,P|262:154|262:188,1,37.5,12|0,0:3|0:0,0:0:0:0:
185,172,322379,86,0,P|183:206|170:231,1,37.5,8|0,0:3|0:0,0:0:0:0:
108,172,322479,21,8,1:3:0:0:
108,172,322579,1,8,1:3:0:0:
455,27,322779,85,8,3:3:0:0:
451,47,322879,1,8,3:3:0:0:
512,118,322979,22,0,L|467:127,3,45.0000017166138,6|8|8|8,1:2|0:3|0:3|0:3,0:0:0:0:
392,143,323179,2,0,L|325:156,3,60,4|4|4|4,3:0|0:3|3:0|0:3,0:0:0:0:
149,277,323379,86,0,B|174:267|174:267|185:202|185:202|129:185,1,135.000005149841,6|0,1:2|0:0,0:0:0:0:
101,125,323779,22,0,B|71:122|71:122|42:299|42:299|87:286,1,240,8|0,1:0|0:0,0:0:0:0:
149,277,324079,86,0,P|200:215|306:250,1,180.000006866455,6|0,3:2|0:0,0:0:0:0:
346,175,324379,2,0,P|380:149|431:160,1,90.0000034332277,2|0,3:0|0:0,0:0:0:0:
495,337,324579,22,0,L|489:377,1,36,8|0,1:0|0:0,0:0:0:0:
409,381,324979,86,0,L|424:274,1,90,0|0,3:0|0:0,0:0:0:0:
410,298,325179,2,0,P|394:258|408:219,1,75,2|0,0:0|0:0,0:0:0:0:
449,12,325379,22,0,B|515:66|515:66|505:77|505:77|330:109,1,240,8|0,1:0|0:0,0:0:0:0:
228,0,325679,86,0,P|217:30|230:65,1,60,0|0,3:0|0:0,0:0:0:0:
299,69,325979,22,0,P|323:36|383:34,1,75,0|0,3:0|0:0,0:0:0:0:
492,178,326179,85,8,1:0:0:0:
489,189,326279,1,2,3:0:0:0:
473,285,326379,22,0,P|512:289|474:283,1,120,14|0,0:0|0:0,0:0:0:0:
346,340,326579,86,0,P|402:360|349:334,1,180.000006866455,14|0,1:2|0:0,0:0:0:0:
377,217,326779,22,0,L|332:210,1,45.0000017166138,2|0,0:0|0:0,0:0:0:0:
97,358,326979,86,0,B|113:309|113:309|149:296|149:296|167:388|167:388|100:374,1,240,8|0,1:0|0:0,0:0:0:0:
27,312,327279,22,0,B|49:328|81:320|93:295|93:295|106:270|138:263|161:279|161:279|179:293|204:292|222:277|229:259,1,240,6|0,3:2|0:0,0:0:0:0:
298,300,327579,2,0,P|325:298|344:284,1,45,0|0,3:0|0:0,0:0:0:0:
377,217,327779,86,0,B|370:163|370:163|366:159|366:159|358:92,2,120,14|0|0,1:2|0:0|1:0,0:0:0:0:
449,87,328079,22,0,B|277:58|277:58|287:53|287:53|201:38,1,240,14|0,1:2|0:0,0:0:0:0:
60,115,328379,2,0,L|148:129,1,90.0000034332277,8|0,1:2|0:0,0:0:0:0:
224,187,328579,86,0,L|233:127,1,60,8|0,3:2|0:0,0:0:0:0:
154,0,328779,22,0,L|146:44,1,45.0000017166138,10|0,3:2|0:0,0:0:0:0:
0,227,328979,85,2,1:2:0:0:
8,229,329079,1,2,3:0:0:0:
3,218,329179,1,2,3:2:0:0:
11,220,329279,2,0,L|9:199,1,15,0|0,3:0|0:0,0:0:0:0:
85,200,329379,22,0,L|98:172,1,30,8|0,1:0|0:0,0:0:0:0:
155,233,329479,86,0,L|206:199,1,45.0000017166138,4|0,1:3|0:0,0:0:0:0:
183,304,329579,21,12,1:3:0:0:
159,377,329679,1,8,1:3:0:0:
107,319,329779,85,6,1:2:0:0:
107,319,329879,2,0,P|183:333|252:259,1,180.000006866455,8|0,1:0|0:0,0:0:0:0:
318,306,330179,22,0,P|368:314|421:272,1,120,8|0,1:0|0:0,0:0:0:0:
273,185,330379,2,0,P|229:183|192:207,1,90.0000034332277,2|0,0:0|0:0,0:0:0:0:
353,236,330579,86,0,L|367:159,1,60,8|0,1:0|0:0,0:0:0:0:
438,162,330679,22,0,L|497:151,4,60,6|0|0|0|0,3:2|0:0|0:0|0:0|0:0,0:0:0:0:
256,20,330979,86,0,L|256:0,4,20
256,96,331179,1,0,0:0:0:0:
473,340,331379,22,0,L|484:393,1,45.0000017166138,8|0,3:1|0:0,0:0:0:0:
455,338,331479,2,0,L|446:293,1,45.0000017166138,4|0,0:3|0:0,0:0:0:0:
465,330,331580,2,0,L|509:320,1,45.0000017166138,10|0,3:2|0:0,0:0:0:0:
463,348,331679,2,0,L|419:357,1,45.0000017166138,8|0,0:3|0:0,0:0:0:0:
365,287,331779,86,0,P|340:305|308:304,1,60,8|0,1:0|0:0,0:0:0:0:
53,264,331979,22,0,B|-26:295|-26:295|99:269,1,180,2|0,3:1|0:0,0:0:0:0:
140,259,332179,86,0,L|148:218,6,40,8|0|0|0|0|0|0,1:0|0:0|0:0|0:0|0:0|0:0|0:0,0:0:0:0:
256,357,332479,1,0,0:0:0:0:
256,364,332579,22,0,L|256:384,4,20
254,213,332779,86,0,P|255:173|259:213,1,120,14|0,0:0|0:0,0:0:0:0:
351,163,332979,21,14,3:2:0:0:
356,182,333029,1,0,3:0:0:0:
356,202,333079,1,0,3:0:0:0:
350,221,333129,1,8,3:0:0:0:
160,220,333379,85,6,3:2:0:0:
156,206,333429,1,0,3:0:0:0:
154,191,333479,1,0,3:0:0:0:
156,176,333529,1,0,3:0:0:0:
161,162,333579,21,8,3:2:0:0:
398,188,333679,86,0,P|392:247|356:294,1,120,14|0,1:2|0:0,0:0:0:0:
114,196,333879,2,0,P|119:136|155:89,1,120,14|0,1:2|0:0,0:0:0:0:
414,292,334079,21,0,3:0:0:0:
414,292,334179,2,0,P|362:352|273:360,1,150,12|0,1:0|0:0,0:0:0:0:
97,91,334379,2,0,P|149:31|238:23,1,150,12|0,1:0|0:0,0:0:0:0:
256,96,334579,86,0,L|256:116,4,20,12|0|0|0|0,1:2|0:0|0:0|0:0|0:0,0:0:0:0:
256,191,334979,22,0,L|256:211,4,15.0000005722046,8|0|0|0|0,0:0|0:0|0:0|0:0|0:0,0:0:0:0:
249,285,335179,85,0,3:0:0:0:
261,284,335279,1,0,3:0:0:0:
256,281,335379,2,0,L|256:291,4,10,8|0|0|0|0,0:0|0:0|0:0|3:0|0:0,0:0:0:0:
265,374,335579,21,0,3:0:0:0:
247,374,335679,1,0,3:0:0:0:
256,365,335779,86,0,L|256:385,1,18,8|0,1:0|0:0,0:0:0:0:
149,130,336179,22,0,P|177:94|233:89,1,90.0000034332277,4|0,1:2|0:0,0:0:0:0:
299,203,336379,2,0,L|290:254,1,45.0000017166138
439,180,336579,38,0,B|391:199|343:160|372:143|310:107|259:140,1,180.000006866455,8|0,3:2|0:0,0:0:0:0:
172,260,336879,1,0,0:0:0:0:
162,257,336979,70,0,L|114:277,1,45.0000017166138,0|0,3:0|0:0,0:0:0:0:
169,273,337079,2,0,L|189:320,1,45.0000017166138,0|0,2:0|2:0,2:0:0:0:
186,265,337179,2,0,L|233:244,1,45.0000017166138
177,248,337279,2,0,L|156:200,1,45.0000017166138,0|0,2:0|2:0,2:0:0:0:
116,348,337379,38,0,P|73:299|32:286,1,90.0000034332277,8|0,3:2|0:0,0:0:0:0:
156,98,337579,2,0,L|152:128,1,30
71,65,337779,70,0,B|157:73|157:73|161:76|161:76|281:89,1,180,0|0,1:0|0:0,0:0:0:0:
316,113,337979,2,0,B|338:91|338:91|314:62,1,60
421,68,338179,38,0,L|178:43,1,240,8|0,3:2|0:0,0:0:0:0:
427,220,338479,1,0,0:0:0:0:
382,285,338579,70,0,P|354:250|368:167,1,120,2|0,3:2|0:0,0:0:0:0:
458,294,338779,2,0,P|358:305|277:382,1,180,2|0,0:2|0:0,0:0:0:0:
218,319,338979,37,8,3:2:0:0:
197,336,339079,1,0,0:0:0:0:
125,334,339179,1,0,0:0:0:0:
65,285,339279,1,0,0:0:0:0:
46,373,339379,70,0,P|35:283|24:194,1,180.000006866455,0|0,1:0|0:0,0:0:0:0:
82,98,339679,1,0,0:0:0:0:
89,20,339779,2,0,P|54:12|25:67,1,90.0000034332277,8|0,3:2|0:0,0:0:0:0:
194,215,339979,38,0,L|251:207,1,45.0000017166138
299,164,340179,2,0,B|274:274|274:274|285:288|285:288|308:188,1,225,0|0,3:0|0:0,0:0:0:0:
339,66,340379,70,0,L|331:101,1,30
285,288,340579,2,0,L|263:381,1,90.0000034332277,8|0,3:2|0:0,0:0:0:0:
434,163,340779,37,0,0:0:0:0:
421,160,340879,1,0,0:0:0:0:
512,104,340979,70,0,B|448:71|398:125|425:154|347:198|281:154,1,240,0|0,1:0|0:0,0:0:0:0:
454,14,341279,1,0,0:0:0:0:
454,14,341379,2,0,P|444:133|445:253,1,240,8|0,3:2|0:0,0:0:0:0:
57,343,341779,38,0,B|-14:329|11:248|60:230|129:281|131:323,1,210.000002002716,2|0,3:2|0:0,0:0:0:0:
62,351,341979,2,0,B|74:265|74:265|71:255|71:255|84:147,1,180.000006866455,2|8,0:2|3:2,0:0:0:0:
389,27,342379,70,2,B|259:52|259:52|234:57|222:82|222:82|211:114|179:124|179:124|141:132,1,270.000010299683,2|0,0:1|0:0,0:0:0:0:
155,55,342579,38,0,L|188:253,1,180,4|0,1:2|0:0,0:0:0:0:
330,320,342979,70,0,P|371:303|386:258,1,75,8|0,3:2|0:0,0:0:0:0:
324,293,343079,2,0,P|336:262|320:230,1,60
308,277,343179,2,0,P|298:253|273:245,1,45.0000017166138
284,270,343279,2,0,P|266:262|247:264,1,30
257,338,343379,38,0,B|195:346|195:346|187:342|187:342|104:350,1,135.000005149841,2|0,3:2|0:0,0:0:0:0:
49,352,343579,2,0,B|19:357|19:357|24:362|24:362|45:359,1,45.0000017166138,2|0,0:2|0:0,0:0:0:0:
99,157,343779,69,8,3:2:0:0:
101,170,343879,1,0,0:0:0:0:
103,183,343979,1,0,0:0:0:0:
105,196,344079,1,0,0:0:0:0:
19,214,344179,38,0,B|58:183|125:209|98:234|155:256|196:223,1,180.000006866455,0|0,1:2|0:0,0:0:0:0:
260,143,344479,1,0,0:0:0:0:
237,67,344579,2,0,P|215:73|185:141,1,90.0000034332277,8|0,3:2|0:0,0:0:0:0:
277,232,344779,70,0,L|330:223,1,45.0000017166138
492,188,344979,2,0,B|430:181|430:181|440:174|440:174|361:167,1,138.000002632141,0|0,3:2|0:0,0:0:0:0:
243,353,345379,38,0,L|212:359,1,30,8|0,3:2|0:0,0:0:0:0:
318,336,345579,2,0,L|348:329,1,30
392,266,345779,70,0,P|420:299|425:344,2,90.0000034332277,0|0|0,1:2|0:0|0:0,0:0:0:0:
479,111,346079,1,0,0:0:0:0:
405,93,346179,2,0,B|375:104|375:104|420:111,1,60,8|0,3:2|0:0,0:0:0:0:
488,129,346379,38,0,L|302:103,1,157.500001502037
266,29,346579,70,0,B|221:40|221:40|206:64|206:64|159:75,2,120,0|0|8,3:0|0:0|3:2,0:0:0:0:
51,125,347179,1,8,0:0:0:0:
51,125,347279,1,8,0:0:0:0:
51,125,347379,38,0,L|-22:106,1,40,4|0,3:0|0:0,0:0:0:0:
128,158,347512,2,0,L|55:172,1,53.1999978082276,4|0,3:0|0:0,0:0:0:0:
201,208,347645,2,0,L|127:194,1,66.4000009625244,0|0,3:0|0:0,0:0:0:0:
304,155,347779,70,0,B|293:150|293:150|250:162,1,40,4|0,3:0|0:0,0:0:0:0:
374,199,347912,2,0,B|356:200|356:200|320:179,1,53.1999978082276,4|0,3:0|0:0,0:0:0:0:
461,143,348045,2,0,B|442:137|442:137|394:172,1,66.4000009625244,4|0,3:0|0:0,0:0:0:0:
457,224,348179,38,0,B|452:256|452:256|456:267|456:267|451:302,1,79.6000019737244,4|0,3:0|0:0,0:0:0:0:
364,105,348312,2,0,B|360:73|360:73|364:62|364:62|359:27,1,79.6000019737244,4|0,3:0|0:0,0:0:0:0:
270,239,348445,70,0,B|266:272|266:272|270:283|270:283|265:318,1,79.6000019737244,4|0,3:0|0:0,0:0:0:0:
134,105,348579,38,0,P|106:92|64:110,1,60,4|0,1:0|0:0,0:0:0:0:
132,121,348679,2,0,P|119:148|137:190,1,60,0|0,0:0|0:0,0:0:0:0:
148,127,348779,2,0,P|175:139|217:121,1,60,0|0,0:0|0:0,0:0:0:0:
150,110,348879,2,0,P|162:82|144:40,1,60,0|0,0:0|0:0,0:0:0:0:
85,12,348979,38,0,L|48:8,1,30,0|0,3:0|0:0,0:0:0:0:
427,12,349379,70,0,L|464:8,1,30,6|0,1:2|0:0,0:0:0:0:
484,84,349579,2,0,L|424:90,1,60
267,108,349779,1,0,3:0:0:0:
336,64,349979,38,0,L|343:18,1,30
347,66,350079,2,0,L|354:20,1,30
263,112,350179,70,0,L|252:180,3,60,0|0|0|0,3:0|0:0|0:0|0:0,0:0:0:0:
324,340,350579,37,0,1:0:0:0:
452,311,350779,2,0,P|464:280|454:250,1,60
326,334,350979,70,0,L|266:343,3,60,0|0|0|0,3:0|0:0|0:0|0:0,0:0:0:0:
382,274,351379,38,0,P|364:241|252:235,1,135.000005149841,2|0,3:2|0:0,0:0:0:0:
287,203,351579,2,0,L|203:194,1,60,2|0,0:0|0:0,0:0:0:0:
36,175,351779,69,0,3:0:0:0:
192,122,351979,2,0,L|114:156,1,60
0,356,352179,37,0,1:0:0:0:
77,383,352379,1,0,0:0:0:0:
77,383,352479,2,0,P|93:352|86:320,1,60,0|0,0:0|3:0,0:0:0:0:
207,224,352779,2,0,P|236:227|258:246,1,60
200,369,352979,70,0,P|195:320|161:294,1,90.0000034332277,2|0,3:2|0:0,0:0:0:0:
42,245,353179,38,0,L|-4:238,1,30,2|0,0:0|0:0,0:0:0:0:
44,234,353279,2,0,L|-2:227,1,30
123,223,353379,2,0,L|116:152,3,60,0|0|0|0,3:0|0:0|0:0|0:0,0:0:0:0:
254,90,353779,69,0,1:0:0:0:
168,99,353979,2,0,P|181:69|175:26,1,60,0|0,0:0|3:0,0:0:0:0:
340,82,354379,2,0,P|327:109|327:138,1,60,0|0,0:0|3:0,0:0:0:0:
245,5,354779,2,0,P|272:17|301:17,1,60,0|0,0:0|3:0,0:0:0:0:
262,177,355179,38,2,P|317:125|421:152,1,180,0|0,0:0|0:0,0:1:0:0:
460,81,355379,70,0,L|512:75,1,45,4|0,1:2|0:0,0:0:0:0:
416,238,355779,38,0,L|405:300,1,60,0|0,3:0|0:0,0:0:0:0:
496,261,356179,2,0,L|485:323,1,60,0|0,3:0|0:0,0:0:0:0:
336,215,356579,2,0,L|325:274,1,60,0|0,3:0|0:0,0:0:0:0:
256,374,356879,69,0,0:0:0:0:
256,384,356979,1,0,1:0:0:0:
106,297,357179,38,0,L|96:238,1,60,0|0,0:0|3:0,0:0:0:0:
26,320,357579,2,0,L|16:261,1,60,0|0,0:0|3:0,0:0:0:0:
186,274,357979,2,0,L|176:215,1,60,0|0,0:0|3:0,0:0:0:0:
14,83,358379,1,0,0:0:0:0:
14,83,358479,1,0,0:0:0:0:
14,83,358579,69,0,1:0:0:0:
6,112,358679,1,0,0:0:0:0:
34,108,358779,1,0,0:0:0:0:
36,137,358879,1,0,0:0:0:0:
61,124,358979,1,0,3:0:0:0:
73,151,359079,1,0,0:0:0:0:
91,129,359179,1,0,0:0:0:0:
112,151,359279,1,0,0:0:0:0:
120,123,359379,1,0,3:0:0:0:
179,26,359479,37,0,3:0:0:0:
82,36,359579,2,0,L|192:24,1,90.0000034332277,8|0,1:0|0:0,0:0:0:0:
322,12,359779,69,8,1:0:0:0:
256,62,359979,38,0,P|327:62|358:129,1,150,6|0,1:2|0:0,0:0:0:0:
193,310,360179,70,0,B|201:357|168:347|175:378|193:381|193:381|210:382|220:350|186:356|204:311,1,160,8|0,1:3|0:0,0:0:0:0:
135,241,360312,38,0,B|114:282|95:255|83:283|96:294|96:294|108:305|134:287|105:273|143:247,1,150.000003576279,8|0,3:0|0:0,0:0:0:0:
128,156,360445,70,0,B|90:176|90:146|65:159|69:175|69:175|72:189|101:189|87:163|129:165,1,140.000001335144,8|0,3:0|0:0,0:0:0:0:
174,79,360579,38,0,B|134:73|151:51|125:48|119:61|119:61|114:74|135:90|139:63|169:87,1,130.00000371933,12|0,3:0|0:0,0:0:0:0:
258,45,360712,70,0,B|231:19|255:12|237:-3|225:2|225:2|214:9|222:32|240:14|249:49,1,120.000004577637,12|0,3:0|0:0,0:0:0:0:
346,63,360845,38,0,B|339:30|361:37|357:16|345:14|345:14|333:13|326:35|349:31|337:61,1,110.000001049042,12|0,3:0|0:0,0:0:0:0:
406,129,360979,70,0,B|418:101|431:118|439:100|430:93|430:93|422:86|406:98|424:106|399:123,1,100,4|0,3:0|0:0,0:0:0:0:
425,212,361112,38,0,B|448:198|448:217|464:209|461:198|461:198|459:189|441:189|450:206|423:205,1,90.0000034332277,4|0,3:0|0:0,0:0:0:0:
389,288,361245,70,0,B|412:291|402:304|418:306|421:297|421:297|424:290|412:280|409:297|391:282,1,80,4|0,3:0|0:0,0:0:0:0:
318,335,361379,38,0,B|330:347|318:350|327:359|333:355|333:355|338:352|335:340|326:349|321:332,1,60,6|0,0:0|0:0,1:0:0:0:
