osu file format v14

[General]
AudioFilename: audio.mp3
AudioLeadIn: 0
PreviewTime: -1
Countdown: 1
SampleSet: None
StackLeniency: 0.7
Mode: 0
LetterboxInBreaks: 0
WidescreenStoryboard: 0

[Editor]
DistanceSpacing: 1
BeatDivisor: 1
GridSize: 4
TimelineZoom: 1

[Metadata]
Title:Hatsukoi Memories
TitleUnicode:Hatsukoi Memories
Artist:Zekk
ArtistUnicode:Zekk
Creator:rock-on
Version:Easy
Source:
Tags:
BeatmapID:1475238
BeatmapSetID:696432

[Difficulty]
HPDrainRate:3
CircleSize:3
OverallDifficulty:3
ApproachRate:3
SliderMultiplier:0.400000005960464
SliderTickRate:1

[Events]
//Background and Video events
0,0,"friendship.png",0,0
//Break Periods
2,75727,92944
//Storyboard Layer 0 (Background)
//Storyboard Layer 1 (Fail)
//Storyboard Layer 2 (Pass)
//Storyboard Layer 3 (Foreground)
//Storyboard Sound Samples

[TimingPoints]
670,285.714285714286,4,1,0,100,1,0
670,-100,4,1,0,100,0,0

[Colours]
Combo1 : 0,255,64
Combo2 : 158,138,229
Combo3 : 255,0,0
Combo4 : 255,255,0

[HitObjects]
416,192,670,6,0,P|384:132|348:108,1,80.0000011920928
304,88,1812,1,0,0:0:0:0:
224,84,2384,1,0,0:0:0:0:
156,124,2955,6,0,P|100:168|92:208,1,80.0000011920928
84,252,4098,2,0,P|124:320|148:316,1,80.0000011920928
180,276,5241,5,0,0:0:0:0:
336,232,6384,1,0,0:0:0:0:
256,192,7527,12,0,8670,0:0:0:0:
340,148,9812,6,0,P|292:104|268:92,1,80.0000011920928
200,92,10955,2,0,P|104:88|88:92,1,80.0000011920928
64,140,12098,5,0,0:0:0:0:
80,220,12670,1,0,0:0:0:0:
148,260,13241,2,0,L|156:356,2,80.0000011920928
224,240,14955,5,0,0:0:0:0:
292,280,15527,1,0,0:0:0:0:
372,260,16098,2,0,L|384:160,1,80.0000011920928
328,120,17241,5,0,0:0:0:0:
252,92,17812,1,0,0:0:0:0:
172,104,18384,1,0,0:0:0:0:
88,188,19241,5,0,0:0:0:0:
96,228,19527,2,0,P|128:280|152:304,1,80.0000011920928
220,280,20670,2,0,P|284:272|300:260,1,80.0000011920928
304,184,21812,5,0,0:0:0:0:
252,124,22384,2,0,L|148:132,1,80.0000011920928
92,120,23527,6,0,L|36:72,2,40.0000005960464
76,200,24670,2,0,L|16:240,2,40.0000005960464
100,276,25812,5,0,0:0:0:0:
172,312,26384,1,0,0:0:0:0:
252,296,26955,2,0,P|316:264|320:236,1,80.0000011920928
340,144,28384,5,0,0:0:0:0:
316,112,28670,2,0,P|256:84|236:84,1,80.0000011920928
164,68,29812,1,0,0:0:0:0:
104,124,30384,5,0,0:0:0:0:
84,200,30955,2,0,P|120:252|160:264,1,80.0000011920928
184,320,32098,1,0,0:0:0:0:
256,284,32670,6,0,L|352:224,1,80.0000011920928
332,164,33812,2,0,L|248:104,1,80.0000011920928
192,92,34955,5,0,0:0:0:0:
156,112,35241,1,0,0:0:0:0:
128,140,35527,1,0,0:0:0:0:
124,220,36098,1,0,0:0:0:0:
136,256,36384,1,0,0:0:0:0:
168,280,36670,1,0,0:0:0:0:
244,304,37241,5,0,0:0:0:0:
296,244,37812,1,0,0:0:0:0:
236,188,38384,2,0,B|204:148|208:152,3,40.0000005960464
196,192,39527,5,0,0:0:0:0:
196,272,40098,1,0,0:0:0:0:
116,272,40670,2,0,L|116:176,1,80.0000011920928
116,112,41812,5,0,0:0:0:0:
196,112,42384,1,0,0:0:0:0:
276,116,42955,2,0,L|360:116,2,80.0000011920928
196,104,44670,5,0,0:0:0:0:
116,104,45241,1,0,0:0:0:0:
116,184,45812,1,0,0:0:0:0:
196,188,46384,6,0,L|296:188,1,80.0000011920928
316,180,47241,2,0,L|372:160,1,40.0000005960464
348,208,47812,2,0,L|336:272,1,40.0000005960464
268,280,48670,5,0,0:0:0:0:
192,300,49241,1,0,0:0:0:0:
120,264,49812,2,0,P|76:236|64:212,1,80.0000011920928
84,136,50955,5,0,0:0:0:0:
156,96,51527,1,0,0:0:0:0:
232,120,52098,2,0,P|284:160|296:180,1,80.0000011920928
304,252,53241,5,0,0:0:0:0:
276,280,53527,1,0,0:0:0:0:
236,284,53812,1,0,0:0:0:0:
160,256,54384,1,0,0:0:0:0:
144,220,54670,1,0,0:0:0:0:
160,184,54955,1,0,0:0:0:0:
236,164,55527,6,0,P|332:192|336:316,1,240.000003576278
264,284,57812,5,0,0:0:0:0:
184,284,58384,1,0,0:0:0:0:
180,204,58955,1,0,0:0:0:0:
100,204,59527,1,0,0:0:0:0:
116,124,60098,6,0,P|184:100|212:116,1,80.0000011920928
252,148,61241,2,0,P|312:184|332:176,1,80.0000011920928
396,168,62384,5,0,0:0:0:0:
336,224,62955,2,0,L|244:288,1,80.0000011920928
200,232,64098,2,0,L|100:192,1,80.0000011920928
176,140,65241,5,0,0:0:0:0:
252,112,65812,2,0,L|300:96,2,40.0000005960464
316,160,66955,5,0,0:0:0:0:
316,240,67527,2,0,P|272:292|256:296,1,80.0000011920928
192,256,68670,1,0,0:0:0:0:
156,184,69241,5,0,0:0:0:0:
228,152,69812,1,0,0:0:0:0:
288,204,70384,1,0,0:0:0:0:
236,264,70955,1,0,0:0:0:0:
124,248,71527,6,0,P|52:136|56:104,1,160.000002384186
132,108,73241,1,0,0:0:0:0:
208,88,73812,6,0,L|248:84,3,40.0000005960464
260,120,74955,1,0,0:0:0:0:
304,188,75527,1,0,0:0:0:0:
356,132,94384,5,0,0:0:0:0:
204,88,95527,1,0,0:0:0:0:
80,188,96670,1,0,0:0:0:0:
184,312,97812,2,0,P|288:292|328:240,1,160.000002384186
256,192,98955,12,0,102384,0:0:0:0:
360,212,103527,5,0,0:0:0:0:
320,144,104098,1,0,0:0:0:0:
256,100,104670,2,0,L|172:88,1,80.0000011920928
108,128,105812,5,0,0:0:0:0:
76,204,106384,1,0,0:0:0:0:
132,264,106955,2,0,L|200:328,2,80.0000011920928
208,236,108670,5,0,0:0:0:0:
280,268,109241,6,0,L|360:248,1,80.0000011920928
344,168,110384,6,0,L|248:112,1,80.0000011920928
212,80,111527,2,0,L|188:36,2,40.0000005960464
144,120,112670,5,0,0:0:0:0:
104,188,113241,2,0,L|72:288,1,80.0000011920928
144,312,114384,2,0,L|232:320,1,80.0000011920928
264,252,115527,5,0,0:0:0:0:
252,172,116098,1,0,0:0:0:0:
332,188,116670,1,0,0:0:0:0:
404,152,117241,6,0,L|460:128,2,40.0000005960464
388,232,118384,2,0,L|428:252,2,40.0000005960464
336,292,119527,5,0,0:0:0:0:
264,328,120098,1,0,0:0:0:0:
200,276,120670,1,0,0:0:0:0:
276,248,121241,1,0,0:0:0:0:
352,160,122098,5,0,0:0:0:0:
324,128,122384,2,0,P|280:88|236:80,1,80.0000011920928
184,64,123527,1,0,0:0:0:0:
128,124,124098,5,0,0:0:0:0:
88,192,124670,2,0,P|96:236|128:264,1,80.0000011920928
184,292,125812,1,0,0:0:0:0:
264,276,126384,5,0,0:0:0:0:
340,256,126955,2,0,L|300:180,1,80.0000011920928
232,212,128098,1,0,0:0:0:0:
180,180,128670,6,0,L|108:128,1,80.0000011920928
188,104,129812,2,0,L|300:72,1,80.0000011920928
320,140,130955,6,0,L|360:188,3,40.0000005960464
320,200,132098,5,0,0:0:0:0:
