osu file format v14

[General]
AudioFilename: audio.mp3
AudioLeadIn: 0
PreviewTime: 86361
Countdown: 0
SampleSet: Normal
StackLeniency: 0.7
Mode: 1
LetterboxInBreaks: 0
WidescreenStoryboard: 1

[Editor]
DistanceSpacing: 2.5
BeatDivisor: 4
GridSize: 32
TimelineZoom: 2

[Metadata]
Title:Freefall
TitleUnicode:フリーフォール
Artist:Zekk
ArtistUnicode:Zekk
Creator:Ph0eNiiXZ
Version:Oni
Source:WACCA Lily
Tags:phoenix phoeniixz electronic video game arcade instrumental future bass core hardcore trap dubstep dance drum and dnb d&b Chester Park original single
BeatmapID:2925051
BeatmapSetID:1417612

[Difficulty]
HPDrainRate:5
CircleSize:2
OverallDifficulty:6
ApproachRate:10
SliderMultiplier:1.4
SliderTickRate:1

[Events]
//Background and Video events
0,0,"bg.jpg",0,-130
//Break Periods
//Storyboard Layer 0 (Background)
//Storyboard Layer 1 (Fail)
//Storyboard Layer 2 (Pass)
//Storyboard Layer 3 (Foreground)
//Storyboard Layer 4 (Overlay)
//Storyboard Sound Samples

[TimingPoints]
28,333.333333333333,4,1,0,25,1,0
28,-125,4,1,0,25,0,0
194,-125,4,1,0,30,0,0
361,-125,4,1,0,35,0,0
527,-125,4,1,0,40,0,0
694,-125,4,1,0,45,0,0
861,-125,4,1,0,50,0,0
1027,-125,4,1,0,55,0,0
1194,-125,4,1,0,60,0,0
1361,-125,4,1,0,65,0,0
5361,-125,4,1,0,65,0,0
5861,-119.402985074627,4,1,0,80,0,0
6027,-117.647058823529,4,1,0,80,0,0
6194,-115.942028985507,4,1,0,80,0,0
6361,-114.285714285714,4,1,0,80,0,0
6527,-112.676056338028,4,1,0,80,0,0
6694,-111.111111111111,4,1,0,80,0,0
10861,-100,4,1,0,81,0,0
11027,-100,4,1,0,82,0,0
11194,-100,4,1,0,83,0,0
11361,-100,4,1,0,84,0,0
11527,-100,4,1,0,85,0,0
11694,-100,4,1,0,86,0,0
11861,-100,4,1,0,87,0,0
12027,-100,4,1,0,88,0,0
12194,-100,4,1,0,89,0,0
12361,-100,4,1,0,90,0,0
17361,-100,4,1,0,90,0,0
17527,-98.7124929543958,4,1,0,90,0,0
17694,-97.4576229890838,4,1,0,90,0,0
17861,-96.2343498888493,4,1,0,90,0,0
18027,-95.0413144593955,4,1,0,90,0,0
18194,-93.8775855060518,4,1,0,90,0,0
18361,-92.7419242650898,4,1,0,90,0,0
18527,-91.6334953413531,4,1,0,90,0,0
18694,-90.5511668423359,4,1,0,90,0,0
18861,-89.4941877999733,4,1,0,90,0,0
19027,-88.4615214497074,4,1,0,90,0,0
19194,-87.4524914340285,4,1,0,90,0,0
19361,-86.4661459098919,4,1,0,90,0,0
19527,-85.5018746286012,4,1,0,90,0,0
19694,-84.5588017679554,4,1,0,90,0,0
20027,-82.7337891413556,4,1,0,90,0,0
20111,-82.2898297176554,4,1,0,90,0,0
20194,-81.8505425463213,4,1,0,90,0,0
20277,-81.4159205576014,4,1,0,90,0,0
20361,-80.9858898284152,4,1,0,90,0,0
20527,-80.1393784069253,4,1,0,90,0,0
20611,-79.7226925861085,4,1,0,90,0,0
20694,-79.3103174792009,4,1,0,90,0,0
20777,-78.9022487929929,4,1,0,90,0,0
20861,-78.4982961944811,4,1,0,90,0,0
20944,-78.098458726917,4,1,0,90,0,0
21027,-77.7026738267091,4,1,0,90,0,0
21194,-76.9230769230769,4,1,0,90,0,0
21361,-76.9230769230769,4,1,0,90,0,0
21694,-83.3333333333333,4,1,0,90,0,0
21861,-86.9565217391304,4,1,0,90,0,0
21944,-88.8888888888889,4,1,0,90,0,0
22027,-90.9090909090909,4,1,0,90,0,0
22111,-93.0232558139535,4,1,0,90,0,0
22194,-95.2380952380952,4,1,0,90,0,0
22361,-100,4,1,0,90,0,0
22694,-111.111111111111,4,1,0,65,0,0
26111,-111.111111111111,4,1,0,65,0,0
26361,-109.523866893454,4,1,0,65,0,0
26527,-108.490581390177,4,1,0,65,0,0
26611,-107.981215587736,4,1,0,65,0,0
26694,-107.476610402661,4,1,0,80,0,0
26861,-106.481530778486,4,1,0,80,0,0
26944,-105.990812716354,4,1,0,80,0,0
27027,-105.504596835284,4,1,0,80,0,0
27194,-104.545426033066,4,1,0,80,0,0
27361,-103.603645605082,4,1,0,80,0,0
27527,-102.678576012436,4,1,0,80,0,0
27694,-101.769879982781,4,1,0,80,0,0
28027,-100,4,1,0,85,0,0
28194,-98.9690395153684,4,1,0,85,0,0
28277,-98.4615384615385,4,1,0,85,0,0
28361,-97.959215660152,4,1,0,85,0,0
28527,-96.969696969697,4,1,0,85,0,0
28694,-95.9999692800098,4,1,0,85,0,0
28861,-95.0495350651992,4,1,0,85,0,0
28944,-94.5812509694578,4,1,0,85,0,0
29027,-94.1176470588235,4,1,0,85,0,0
29194,-93.2038545386083,4,1,0,90,0,0
29361,-92.3077207100679,4,1,0,90,0,0
29444,-91.8660005769185,4,1,0,90,0,0
29527,-91.4285714285714,4,1,0,90,0,0
29611,-90.9952882639737,4,1,0,90,0,0
29694,-90.5660103951667,4,1,0,90,0,0
29861,-89.71965300027,4,1,0,90,0,0
30027,-88.8888888888889,4,1,0,90,0,0
30111,-88.4792887680852,4,1,0,90,0,0
30194,-88.0733686390111,4,1,0,90,0,0
30277,-87.6712328767123,4,1,0,90,0,0
30361,-87.2727526611644,4,1,0,90,0,0
30527,-86.4864864864865,4,1,0,90,0,0
30694,-85.7142612244968,4,1,0,100,0,0
30861,-84.6023688663283,4,1,0,100,0,0
30944,-84.9557762706623,4,1,0,100,0,0
31027,-84.2105263157895,4,1,0,100,0,0
31194,-83.4782376408382,4,1,0,100,0,0
31361,-82.7586435196258,4,1,0,100,0,0
31444,-82.4034108419816,4,1,0,100,0,0
31527,-82.0512820512821,4,1,0,100,0,0
31611,-81.7021499103727,4,1,0,100,0,0
31694,-81.3537260006508,4,1,0,100,0,0
31777,-81.0110174983798,4,1,0,100,0,0
31861,-80.6711842529848,4,1,0,100,0,0
31944,-80.3341902313625,4,1,0,100,0,0
32027,-80,4,1,0,100,0,0
32361,-94.7867298578199,4,1,0,80,0,0
33361,-83.3333333333333,4,1,0,100,0,1
33861,-86.9565217391304,4,1,0,100,0,1
38694,-83.3333333333333,4,1,0,100,0,1
39194,-86.9565217391304,4,1,0,100,0,1
40527,-88.8888888888889,4,1,0,100,0,1
40694,-90.9090909090909,4,1,0,100,0,1
40861,-93.0232558139535,4,1,0,100,0,1
41027,-95.2380952380952,4,1,0,100,0,1
41194,-97.5609756097561,4,1,0,100,0,1
41361,-100,4,1,0,100,0,0
41694,-103.896103896104,4,1,0,100,0,0
41861,-105.960264900662,4,1,0,100,0,0
42194,-110.344827586207,4,1,0,100,0,0
42361,-112.676056338028,4,1,0,100,0,0
42694,-117.647058823529,4,1,0,100,0,0
42861,-112.676056338028,4,1,0,100,0,0
43027,-108.108108108108,4,1,0,100,0,0
43111,-105.960264900662,4,1,0,100,0,0
43194,-103.896103896104,4,1,0,100,0,0
43277,-101.910828025478,4,1,0,100,0,0
43361,-100,4,1,0,100,0,0
43527,-96.3855421686747,4,1,0,100,0,0
43694,-93.0232558139535,4,1,0,100,0,0
44027,-83.3333333333333,4,1,0,100,0,1
44694,-86.9565217391304,4,1,0,100,0,1
49361,-83.3333333333333,4,1,0,100,0,1
49861,-86.9565217391304,4,1,0,100,0,1
52027,-86.9565217391304,4,1,0,100,0,0
52527,-89.4491986693537,4,1,0,100,0,0
52694,-90.3122093075763,4,1,0,100,0,0
52861,-91.1919517631052,4,1,0,100,0,0
53027,-92.0890869827471,4,1,0,100,0,0
53194,-93.0039628988591,4,1,0,100,0,0
53277,-93.4683390021881,4,1,0,100,0,0
53361,-93.9372874668871,4,1,0,100,0,0
53527,-94.8894443084362,4,1,0,100,0,0
53583,-95.2111640802554,4,1,0,100,0,0
53639,-95.5350728359395,4,1,0,100,0,0
53694,-95.8611929925468,4,1,0,100,0,0
53861,-96.8529568723468,4,1,0,100,0,0
54027,-97.8655523042444,4,1,0,100,0,0
54194,-98.8994469542926,4,1,0,100,0,0
54361,-99.9555197936918,4,1,0,100,0,0
54694,-95.2380952380952,4,1,0,100,0,0
54861,-99.8228145042549,4,1,0,100,0,0
55361,-95.2380952380952,4,1,0,100,0,0
55527,-99.8228145042549,4,1,0,100,0,0
56027,-95.2380952380952,4,1,0,100,0,0
56194,-99.8228145042549,4,1,0,100,0,0
60027,-95.2380952380952,4,1,0,100,0,0
60194,-100,4,1,0,100,0,0
60694,-95.2380952380952,4,1,0,100,0,0
60861,-100,4,1,0,100,0,0
61361,-95.2380952380952,4,1,0,100,0,0
61527,-100,4,1,0,100,0,0
63694,-100,4,1,0,100,0,0
63777,-102.564102564103,4,1,0,100,0,0
63861,-105.263157894737,4,1,0,100,0,0
63944,-108.108108108108,4,1,0,100,0,0
64027,-111.111111111111,4,1,0,100,0,0
64361,-111.111111111111,4,1,0,100,0,0
65361,-100,4,1,0,100,0,0
66027,-111.111111111111,4,1,0,100,0,0
66527,-111.111111111111,4,1,0,100,0,0
66611,-110.432564354577,4,1,0,100,0,0
66694,-109.762254955766,4,1,0,100,0,0
66777,-109.10003382101,4,1,0,100,0,0
66861,-108.445755433132,4,1,0,100,0,0
66944,-107.799277744839,4,1,0,100,0,0
67027,-107.160462075912,4,1,0,100,0,0
67194,-105.905278319071,4,1,0,100,0,0
67361,-104.679158379567,4,1,0,100,0,0
67527,-103.481211433846,4,1,0,100,0,0
67694,-102.310268165444,4,1,0,100,0,0
68027,-100.046121261902,4,1,0,100,0,0
70694,-95.2380952380952,4,1,0,100,0,0
70861,-100.046121261902,4,1,0,100,0,0
71361,-95.2380952380952,4,1,0,100,0,0
71527,-100.046121261902,4,1,0,100,0,0
72027,-95.2380952380952,4,1,0,100,0,0
72194,-100.046121261902,4,1,0,100,0,0
73361,-100,4,1,0,100,0,0
73444,-98.7654320987654,4,1,0,100,0,0
73527,-97.5609756097561,4,1,0,100,0,0
73611,-96.3855421686747,4,1,0,100,0,0
73694,-95.2380952380952,4,1,0,100,0,0
73861,-93.0232558139535,4,1,0,100,0,0
74027,-90.9090909090909,4,1,0,100,0,0
74111,-89.8876404494382,4,1,0,100,0,0
74194,-88.8888888888889,4,1,0,100,0,0
74277,-87.9120879120879,4,1,0,100,0,0
74361,-86.9565217391304,4,1,0,100,0,0
74444,-86.0215053763441,4,1,0,100,0,0
74527,-85.1063829787234,4,1,0,100,0,0
74611,-84.2105263157895,4,1,0,100,0,0
74694,-83.3333333333333,4,1,0,100,0,0
74861,-86.0215053763441,4,1,0,100,0,0
75027,-88.8888888888889,4,1,0,100,0,0
75194,-91.9540229885058,4,1,0,100,0,0
75361,-95.2380952380952,4,1,0,100,0,0
75527,-98.7654320987654,4,1,0,100,0,0
75611,-100.62893081761,4,1,0,100,0,0
75694,-102.564102564103,4,1,0,100,0,0
76027,-111.111111111111,4,1,0,70,0,0
86027,-105.263157894737,4,1,0,100,0,0
86694,-100,4,1,0,100,0,0
92027,-100,4,1,0,100,0,0
92194,-98.1642307212813,4,1,0,100,0,0
92361,-96.3945544788284,4,1,0,100,0,0
92527,-94.6876443986577,4,1,0,100,0,0
92694,-93.0401328613097,4,1,0,100,0,0
92861,-91.4489723878973,4,1,0,100,0,0
93027,-89.9112396242429,4,1,0,100,0,0
93194,-88.4244444071097,4,1,0,100,0,0
93361,-86.9860213463696,4,1,0,100,0,0
93444,-86.284180399513,4,1,0,100,0,0
93527,-85.5935743191887,4,1,0,100,0,0
93611,-84.9140075845192,4,1,0,100,0,0
93694,-84.2450756647147,4,1,0,100,0,0
93861,-82.9384082792437,4,1,0,100,0,0
93944,-82.3001238616864,4,1,0,100,0,0
94027,-81.6715887410815,4,1,0,100,0,0
94111,-81.052646936291,4,1,0,100,0,0
94194,-80.4429510657484,4,1,0,100,0,0
94277,-79.8423592459049,4,1,0,100,0,0
94361,-79.2507318805089,4,1,0,100,0,0
94527,-78.0933355928338,4,1,0,100,0,0
94583,-77.7149926986764,4,1,0,100,0,0
94639,-77.3402980849769,4,1,0,100,0,0
94694,-76.9691992355419,4,1,0,100,0,0
94861,-133.333333333333,4,1,0,50,0,0
96027,-133.333333333333,4,1,0,56,0,0
96194,-133.333333333333,4,1,0,59,0,0
96361,-133.333333333333,4,1,0,62,0,0
96527,-133.333333333333,4,1,0,65,0,0
96694,-133.333333333333,4,1,0,68,0,0
96861,-133.333333333333,4,1,0,71,0,0
97027,-133.333333333333,4,1,0,74,0,0
97194,-133.333333333333,4,1,0,77,0,0
97361,-111.111111111111,4,1,0,80,0,0
97527,-109.215017064846,4,1,0,80,0,0
97611,-108.290973514194,4,1,0,80,0,0
97694,-107.38255033557,4,1,0,80,0,0
97861,-105.610561056106,4,1,0,80,0,0
98027,-103.896103896104,4,1,0,80,0,0
98194,-102.23642172524,4,1,0,80,0,0
98277,-101.426256012041,4,1,0,80,0,0
98361,-100.62893081761,4,1,0,80,0,0
98527,-99.0712074303406,4,1,0,80,0,0
98694,-97.5609756097561,4,1,0,90,0,0
98777,-96.823042334907,4,1,0,90,0,0
98861,-96.0960960960961,4,1,0,90,0,0
98944,-95.3800752930314,4,1,0,90,0,0
99027,-94.6745562130178,4,1,0,90,0,0
99111,-93.9794861577615,4,1,0,90,0,0
99194,-93.2944606413994,4,1,0,90,0,0
99277,-92.6193492934996,4,1,0,90,0,0
99361,-91.9540229885058,4,1,0,90,0,0
99527,-90.6515580736544,4,1,0,90,0,0
99694,-89.3854748603352,4,1,0,90,0,0
100027,-83.3333333333333,4,1,0,100,0,1
105361,-76.9230769230769,4,1,0,100,0,0
105444,-78.0487804878049,4,1,0,100,0,0
105527,-79.2079207920792,4,1,0,100,0,0
105611,-80.4020100502513,4,1,0,100,0,0
105694,-81.6326530612245,4,1,0,100,0,0
105861,-84.2105263157895,4,1,0,100,0,0
105944,-85.5614973262032,4,1,0,100,0,0
106027,-86.9565217391304,4,1,0,100,0,0
106111,-88.3977900552486,4,1,0,100,0,0
106194,-89.8876404494382,4,1,0,100,0,0
106361,-93.0232558139535,4,1,0,100,0,0
106444,-94.6745562130178,4,1,0,100,0,0
106527,-96.3855421686747,4,1,0,100,0,0
106611,-98.159509202454,4,1,0,100,0,0
106694,-100,4,1,0,100,0,0
108027,-83.3333333333333,4,1,0,100,0,1
108194,-83.7982038692983,4,1,0,100,0,1
108277,-84.0326248262625,4,1,0,100,0,1
108361,-84.2683610225123,4,1,0,100,0,1
108527,-84.7437518431766,4,1,0,100,0,1
108694,-85.2246094582272,4,1,0,100,0,1
108861,-85.7108817678384,4,1,0,100,0,1
108944,-85.9561417382395,4,1,0,100,0,1
109027,-86.2028093495567,4,1,0,100,0,1
109194,-86.7003410791418,4,1,0,100,0,1
109361,-87.2036492983158,4,1,0,100,0,1
109444,-87.4575393646385,4,1,0,100,0,1
109527,-87.7129121300818,4,1,0,100,0,1
109694,-88.228080174621,4,1,0,100,0,1
110027,-89.276866310571,4,1,0,100,0,1
110111,-89.5429904851618,4,1,0,100,0,1
110194,-89.8106253154598,4,1,0,100,0,1
110277,-90.0799459520324,4,1,0,100,0,1
110361,-90.3508867036021,4,1,0,100,0,1
110527,-90.897604757217,4,1,0,100,0,1
110694,-91.4510631643348,4,1,0,100,0,1
110777,-91.7302433695087,4,1,0,100,0,1
110861,-92.0112180076995,4,1,0,100,0,1
110944,-92.2939192151325,4,1,0,100,0,1
111027,-92.5783629553235,4,1,0,100,0,1
111361,-93.733713767233,4,1,0,100,0,1
111527,-94.3223598699861,4,1,0,100,0,1
111611,-94.6194641699744,4,1,0,100,0,1
111694,-94.9183559761072,4,1,0,100,0,1
111861,-95.5220230800312,4,1,0,100,0,1
112027,-96.1333253863118,4,1,0,100,0,1
112194,-96.7525958721473,4,1,0,100,0,1
112361,-97.3798016762959,4,1,0,100,0,1
112527,-98.015192354815,4,1,0,100,0,1
112694,-98.6590265116536,4,1,0,100,0,1
113027,-99.9723076707752,4,1,0,100,0,1
113694,-100,4,1,0,100,0,1
113861,-98.4896610478315,4,1,0,100,0,1
114027,-97.0241716318787,4,1,0,100,0,1
114194,-95.6017460702902,4,1,0,100,0,1
114277,-94.9060145737676,4,1,0,100,0,1
114361,-94.2203361404712,4,1,0,100,0,1
114527,-92.8783655636742,4,1,0,100,0,1
114694,-91.5740014084082,4,1,0,100,0,1
114777,-90.9354621931269,4,1,0,100,0,1
114861,-90.3058478454831,4,1,0,100,0,1
114944,-89.6848116977694,4,1,0,100,0,1
115027,-89.0722589793744,4,1,0,100,0,1
115194,-87.8719951072873,4,1,0,100,0,1
115277,-87.2838742169545,4,1,0,100,0,1
115361,-86.7035734877813,4,1,0,100,0,1
115444,-86.1310121599763,4,1,0,100,0,1
115527,-85.565890013605,4,1,0,100,0,1
115611,-85.0081352785461,4,1,0,100,0,1
115694,-84.4576048161105,4,1,0,100,0,1
116027,-76.9230769230769,4,1,0,100,0,1
116111,-78.4233764400492,4,1,0,100,0,1
116194,-79.9834274338357,4,1,0,100,0,1
116277,-81.6067387580597,4,1,0,100,0,1
116361,-83.2973766324203,4,1,0,100,0,1
116527,-86.8978090455405,4,1,0,100,0,1
116611,-88.8172824220828,4,1,0,100,0,1
116694,-90.8235516368221,4,1,0,100,0,1
116777,-92.9224673516911,4,1,0,100,0,1
116861,-95.1207796099097,4,1,0,100,0,1
117027,-99.8448411169043,4,1,0,100,0,1
117111,-102.387261386487,4,1,0,100,0,1
117194,-105.062654113781,4,1,0,100,0,1
117277,-107.881498646627,4,1,0,100,0,1
117361,-110.855773313246,4,1,0,100,0,0
117861,-100,4,1,0,100,0,0
117944,-98.9399572975144,4,1,0,100,0,0
118027,-97.9020568243118,4,1,0,100,0,0
118111,-96.8857997389896,4,1,0,100,0,0
118194,-95.8904240945786,4,1,0,100,0,0
118277,-94.9152928468988,4,1,0,100,0,0
118361,-93.9597063195419,4,1,0,100,0,0
118527,-92.1052873961283,4,1,0,100,0,0
118611,-91.2051760761527,4,1,0,100,0,0
118694,-90.3225689906363,4,1,0,100,0,0
118861,-88.6076285851754,4,1,0,100,0,0
119027,-86.9565217391304,4,1,0,100,0,0
126694,-86.9565217391304,4,1,0,85,0,0
127027,-89.8876404494382,4,1,0,85,0,0
127361,-93.0232558139535,4,1,0,85,0,0
127527,-94.6745562130178,4,1,0,85,0,0
127611,-95.5223880597015,4,1,0,85,0,0
127694,-96.3855421686747,4,1,0,85,0,0
127777,-97.2644376899696,4,1,0,85,0,0
127861,-98.0392156862745,4,1,0,75,0,0
128027,-100,4,1,0,72,0,0
128195,-133.333333333333,4,1,0,69,0,0
128361,-133.333333333333,4,1,0,66,0,0
128528,-133.333333333333,4,1,0,63,0,0
128695,-133.333333333333,4,1,0,60,0,0
128861,-133.333333333333,4,1,0,57,0,0
129028,-133.333333333333,4,1,0,54,0,0
129195,-133.333333333333,4,1,0,51,0,0
129361,-133.333333333333,4,1,0,48,0,0
129528,-133.333333333333,4,1,0,45,0,0
129695,-133.333333333333,4,1,0,42,0,0
129861,-133.333333333333,4,1,0,39,0,0
130028,-133.333333333333,4,1,0,36,0,0
130195,-133.333333333333,4,1,0,33,0,0
130361,-133.333333333333,4,1,0,30,0,0
130528,-133.333333333333,4,1,0,27,0,0

[HitObjects]
256,192,28,8,0,1027,0:0:0:0:
256,192,1361,5,8,0:0:0:0:
256,192,1944,1,8,0:0:0:0:
256,192,2027,1,8,0:0:0:0:
256,192,2194,1,0,0:0:0:0:
256,192,2694,1,8,0:0:0:0:
256,192,3027,1,0,0:0:0:0:
256,192,3361,1,0,0:0:0:0:
256,192,3527,1,8,0:0:0:0:
256,192,3694,1,0,0:0:0:0:
256,192,3861,1,8,0:0:0:0:
256,192,4027,1,8,0:0:0:0:
256,192,4861,1,0,0:0:0:0:
256,192,5027,1,8,0:0:0:0:
256,192,5194,1,8,0:0:0:0:
256,192,5361,1,0,0:0:0:0:
256,192,5861,1,0,0:0:0:0:
256,192,6027,1,8,0:0:0:0:
256,192,6194,1,8,0:0:0:0:
256,192,6361,1,0,0:0:0:0:
256,192,6527,1,8,0:0:0:0:
256,192,6694,1,0,0:0:0:0:
256,192,7194,1,0,0:0:0:0:
256,192,7361,1,8,0:0:0:0:
256,192,7694,1,8,0:0:0:0:
256,192,7861,1,0,0:0:0:0:
256,192,8027,1,8,0:0:0:0:
256,192,8194,1,0,0:0:0:0:
256,192,8527,1,0,0:0:0:0:
256,192,8694,1,8,0:0:0:0:
256,192,9027,1,0,0:0:0:0:
256,192,9194,1,0,0:0:0:0:
256,192,9361,1,8,0:0:0:0:
256,192,9861,1,0,0:0:0:0:
256,192,10027,1,8,0:0:0:0:
256,192,10194,1,0,0:0:0:0:
256,192,10277,1,0,0:0:0:0:
256,192,10361,1,0,0:0:0:0:
256,192,10444,1,0,0:0:0:0:
256,192,10527,1,8,0:0:0:0:
256,192,10694,8,0,12027,0:0:0:0:
256,192,12361,5,8,0:0:0:0:
256,192,12694,1,8,0:0:0:0:
256,192,12861,1,0,0:0:0:0:
256,192,13027,1,0,0:0:0:0:
256,192,13194,1,0,0:0:0:0:
256,192,13361,1,8,0:0:0:0:
256,192,13694,1,8,0:0:0:0:
256,192,13861,1,0,0:0:0:0:
256,192,13944,1,0,0:0:0:0:
256,192,14027,1,8,0:0:0:0:
256,192,14194,1,0,0:0:0:0:
256,192,14361,1,8,0:0:0:0:
256,192,14527,1,0,0:0:0:0:
256,192,14611,1,0,0:0:0:0:
256,192,14694,1,8,0:0:0:0:
256,192,15027,1,8,0:0:0:0:
256,192,15194,1,0,0:0:0:0:
256,192,15277,1,0,0:0:0:0:
256,192,15361,1,8,0:0:0:0:
256,192,15527,1,0,0:0:0:0:
256,192,15694,1,8,0:0:0:0:
256,192,15861,1,0,0:0:0:0:
256,192,16194,1,8,0:0:0:0:
256,192,16361,1,8,0:0:0:0:
256,192,16527,1,0,0:0:0:0:
256,192,16694,1,8,0:0:0:0:
256,192,17027,1,0,0:0:0:0:
256,192,17361,1,8,0:0:0:0:
256,192,17527,1,0,0:0:0:0:
256,192,17694,1,0,0:0:0:0:
256,192,17861,1,8,0:0:0:0:
256,192,18027,1,0,0:0:0:0:
256,192,18194,1,0,0:0:0:0:
256,192,18361,1,8,0:0:0:0:
256,192,18527,1,0,0:0:0:0:
256,192,18694,1,8,0:0:0:0:
256,192,18861,1,0,0:0:0:0:
256,192,19027,1,8,0:0:0:0:
256,192,19194,1,8,0:0:0:0:
256,192,19361,1,0,0:0:0:0:
256,192,19527,1,0,0:0:0:0:
256,192,19694,1,8,0:0:0:0:
256,192,20027,1,8,0:0:0:0:
256,192,20111,1,8,0:0:0:0:
256,192,20194,1,0,0:0:0:0:
256,192,20277,1,0,0:0:0:0:
256,192,20361,1,8,0:0:0:0:
256,192,20527,1,8,0:0:0:0:
256,192,20611,1,8,0:0:0:0:
256,192,20694,1,0,0:0:0:0:
256,192,20777,1,0,0:0:0:0:
256,192,20861,1,0,0:0:0:0:
256,192,20944,1,0,0:0:0:0:
256,192,21027,1,8,0:0:0:0:
256,192,21194,1,0,0:0:0:0:
256,192,21694,1,8,0:0:0:0:
256,192,21861,1,0,0:0:0:0:
256,192,21944,1,0,0:0:0:0:
256,192,22027,1,8,0:0:0:0:
256,192,22111,1,8,0:0:0:0:
256,192,22194,1,0,0:0:0:0:
256,192,22361,1,8,0:0:0:0:
256,192,22694,1,4,0:0:0:0:
256,192,23027,1,0,0:0:0:0:
256,192,23194,1,8,0:0:0:0:
256,192,23361,1,0,0:0:0:0:
256,192,23444,1,8,0:0:0:0:
256,192,23694,1,8,0:0:0:0:
256,192,23861,1,0,0:0:0:0:
256,192,23944,1,0,0:0:0:0:
256,192,24027,1,8,0:0:0:0:
256,192,24277,1,8,0:0:0:0:
256,192,24361,1,0,0:0:0:0:
256,192,24527,1,8,0:0:0:0:
256,192,24694,1,0,0:0:0:0:
256,192,24777,1,8,0:0:0:0:
256,192,25027,1,8,0:0:0:0:
256,192,25194,1,0,0:0:0:0:
256,192,25277,1,0,0:0:0:0:
256,192,25361,1,8,0:0:0:0:
256,192,25611,1,8,0:0:0:0:
256,192,25694,1,0,0:0:0:0:
256,192,25861,1,8,0:0:0:0:
256,192,26027,1,0,0:0:0:0:
256,192,26111,1,8,0:0:0:0:
256,192,26361,1,8,0:0:0:0:
256,192,26527,1,0,0:0:0:0:
256,192,26611,1,0,0:0:0:0:
256,192,26694,1,8,0:0:0:0:
256,192,26861,1,8,0:0:0:0:
256,192,26944,1,8,0:0:0:0:
256,192,27027,1,0,0:0:0:0:
256,192,27194,1,8,0:0:0:0:
256,192,27361,1,0,0:0:0:0:
256,192,27527,1,0,0:0:0:0:
256,192,27694,1,12,0:0:0:0:
256,192,28027,1,0,0:0:0:0:
256,192,28194,1,8,0:0:0:0:
256,192,28277,1,8,0:0:0:0:
256,192,28361,1,0,0:0:0:0:
256,192,28527,1,0,0:0:0:0:
256,192,28694,1,8,0:0:0:0:
256,192,28861,1,0,0:0:0:0:
256,192,28944,1,0,0:0:0:0:
256,192,29027,1,8,0:0:0:0:
256,192,29194,1,0,0:0:0:0:
256,192,29361,1,8,0:0:0:0:
256,192,29444,1,8,0:0:0:0:
256,192,29527,1,8,0:0:0:0:
256,192,29611,1,8,0:0:0:0:
256,192,29694,1,0,0:0:0:0:
256,192,29861,1,8,0:0:0:0:
256,192,30027,1,0,0:0:0:0:
256,192,30111,1,0,0:0:0:0:
256,192,30194,1,0,0:0:0:0:
256,192,30277,1,0,0:0:0:0:
256,192,30361,1,8,0:0:0:0:
256,192,30527,1,0,0:0:0:0:
256,192,30694,1,8,0:0:0:0:
256,192,30861,1,0,0:0:0:0:
256,192,30944,1,0,0:0:0:0:
256,192,31027,1,8,0:0:0:0:
256,192,31194,1,0,0:0:0:0:
256,192,31361,1,8,0:0:0:0:
256,192,31444,1,8,0:0:0:0:
256,192,31527,1,0,0:0:0:0:
256,192,31611,1,0,0:0:0:0:
256,192,31694,1,8,0:0:0:0:
256,192,31777,1,8,0:0:0:0:
256,192,31861,1,8,0:0:0:0:
256,192,31944,1,8,0:0:0:0:
256,192,32027,1,0,0:0:0:0:
256,192,32361,1,0,0:0:0:0:
256,192,32527,1,0,0:0:0:0:
256,192,32694,1,8,0:0:0:0:
256,192,32805,1,8,0:0:0:0:
256,192,32916,1,8,0:0:0:0:
256,192,33027,1,8,0:0:0:0:
256,192,33361,1,12,0:0:0:0:
256,192,33694,1,12,0:0:0:0:
256,192,33861,1,0,0:0:0:0:
256,192,34027,1,8,0:0:0:0:
256,192,34194,1,0,0:0:0:0:
256,192,34277,1,8,0:0:0:0:
256,192,34361,1,0,0:0:0:0:
256,192,34527,1,8,0:0:0:0:
256,192,34611,1,8,0:0:0:0:
256,192,34694,1,8,0:0:0:0:
256,192,34777,1,8,0:0:0:0:
256,192,34861,1,8,0:0:0:0:
256,192,35027,1,8,0:0:0:0:
256,192,35194,1,8,0:0:0:0:
256,192,35361,1,0,0:0:0:0:
256,192,35527,1,0,0:0:0:0:
256,192,35611,1,0,0:0:0:0:
256,192,35694,1,8,0:0:0:0:
256,192,35861,1,0,0:0:0:0:
256,192,36027,1,8,0:0:0:0:
256,192,36194,1,8,0:0:0:0:
256,192,36277,1,8,0:0:0:0:
256,192,36361,1,8,0:0:0:0:
256,192,36527,1,0,0:0:0:0:
256,192,36694,1,8,0:0:0:0:
256,192,36861,1,0,0:0:0:0:
256,192,36944,1,8,0:0:0:0:
256,192,37027,1,0,0:0:0:0:
256,192,37194,1,8,0:0:0:0:
256,192,37277,1,8,0:0:0:0:
256,192,37361,1,8,0:0:0:0:
256,192,37444,1,8,0:0:0:0:
256,192,37527,1,8,0:0:0:0:
256,192,37694,1,8,0:0:0:0:
256,192,37861,1,8,0:0:0:0:
256,192,38027,1,0,0:0:0:0:
256,192,38194,1,8,0:0:0:0:
256,192,38361,1,0,0:0:0:0:
256,192,38694,1,12,0:0:0:0:
256,192,39027,1,12,0:0:0:0:
256,192,39194,1,0,0:0:0:0:
256,192,39361,1,8,0:0:0:0:
256,192,39527,1,0,0:0:0:0:
256,192,39611,1,8,0:0:0:0:
256,192,39694,1,0,0:0:0:0:
256,192,39861,1,0,0:0:0:0:
256,192,39944,1,0,0:0:0:0:
256,192,40027,1,0,0:0:0:0:
256,192,40111,1,0,0:0:0:0:
256,192,40194,1,0,0:0:0:0:
256,192,40361,1,0,0:0:0:0:
256,192,40527,1,8,0:0:0:0:
256,192,40694,1,0,0:0:0:0:
256,192,40861,1,0,0:0:0:0:
256,192,41027,1,8,0:0:0:0:
256,192,41194,1,8,0:0:0:0:
256,192,41361,1,4,0:0:0:0:
256,192,41694,1,8,0:0:0:0:
256,192,41861,1,4,0:0:0:0:
256,192,42194,1,8,0:0:0:0:
256,192,42361,1,4,0:0:0:0:
256,192,42694,1,0,0:0:0:0:
256,192,42861,1,0,0:0:0:0:
256,192,43027,1,0,0:0:0:0:
256,192,43111,1,0,0:0:0:0:
256,192,43194,1,0,0:0:0:0:
256,192,43277,1,0,0:0:0:0:
256,192,43361,1,8,0:0:0:0:
256,192,43527,1,0,0:0:0:0:
256,192,43694,1,8,0:0:0:0:
256,192,44027,1,4,0:0:0:0:
256,192,44361,1,4,0:0:0:0:
256,192,44694,1,8,0:0:0:0:
256,192,44861,1,0,0:0:0:0:
256,192,44944,1,8,0:0:0:0:
256,192,45027,1,0,0:0:0:0:
256,192,45194,1,0,0:0:0:0:
256,192,45277,1,0,0:0:0:0:
256,192,45361,1,0,0:0:0:0:
256,192,45444,1,0,0:0:0:0:
256,192,45527,1,8,0:0:0:0:
256,192,45694,1,0,0:0:0:0:
256,192,45861,1,8,0:0:0:0:
256,192,46027,1,0,0:0:0:0:
256,192,46194,1,0,0:0:0:0:
256,192,46361,1,8,0:0:0:0:
256,192,46527,1,0,0:0:0:0:
256,192,46611,1,0,0:0:0:0:
256,192,46694,1,8,0:0:0:0:
256,192,47027,1,8,0:0:0:0:
256,192,47194,1,0,0:0:0:0:
256,192,47277,1,0,0:0:0:0:
256,192,47361,1,8,0:0:0:0:
256,192,47527,1,0,0:0:0:0:
256,192,47611,1,8,0:0:0:0:
256,192,47694,1,0,0:0:0:0:
256,192,47861,1,8,0:0:0:0:
256,192,47944,1,8,0:0:0:0:
256,192,48027,1,8,0:0:0:0:
256,192,48111,1,8,0:0:0:0:
256,192,48194,1,0,0:0:0:0:
256,192,48361,1,8,0:0:0:0:
256,192,48527,1,0,0:0:0:0:
256,192,48694,1,8,0:0:0:0:
256,192,48861,1,0,0:0:0:0:
256,192,48944,1,0,0:0:0:0:
256,192,49027,1,8,0:0:0:0:
256,192,49194,1,0,0:0:0:0:
256,192,49361,1,12,0:0:0:0:
256,192,49694,1,12,0:0:0:0:
256,192,49861,1,0,0:0:0:0:
256,192,50027,1,8,0:0:0:0:
256,192,50194,1,0,0:0:0:0:
256,192,50277,1,8,0:0:0:0:
256,192,50361,1,0,0:0:0:0:
256,192,50527,1,8,0:0:0:0:
256,192,50611,1,8,0:0:0:0:
256,192,50694,1,0,0:0:0:0:
256,192,50777,1,0,0:0:0:0:
256,192,50861,1,8,0:0:0:0:
256,192,51027,1,8,0:0:0:0:
256,192,51194,1,0,0:0:0:0:
256,192,51361,1,0,0:0:0:0:
256,192,51527,1,0,0:0:0:0:
256,192,51694,1,8,0:0:0:0:
256,192,52027,1,0,0:0:0:0:
256,192,52527,1,0,0:0:0:0:
256,192,52694,1,8,0:0:0:0:
256,192,52861,1,8,0:0:0:0:
256,192,53027,1,0,0:0:0:0:
256,192,53194,1,8,0:0:0:0:
256,192,53277,1,8,0:0:0:0:
256,192,53361,1,0,0:0:0:0:
256,192,53527,1,0,0:0:0:0:
256,192,53583,1,0,0:0:0:0:
256,192,53639,1,0,0:0:0:0:
256,192,53694,1,8,0:0:0:0:
256,192,53861,1,8,0:0:0:0:
256,192,54027,1,0,0:0:0:0:
256,192,54194,1,0,0:0:0:0:
256,192,54361,1,8,0:0:0:0:
256,192,54694,1,4,0:0:0:0:
256,192,54861,1,8,0:0:0:0:
256,192,55194,1,8,0:0:0:0:
256,192,55361,1,4,0:0:0:0:
256,192,55527,1,8,0:0:0:0:
256,192,55861,1,8,0:0:0:0:
256,192,56027,1,4,0:0:0:0:
256,192,56194,1,8,0:0:0:0:
256,192,56361,1,8,0:0:0:0:
256,192,56527,1,0,0:0:0:0:
256,192,56611,1,0,0:0:0:0:
256,192,56694,1,8,0:0:0:0:
256,192,56861,1,8,0:0:0:0:
256,192,57027,1,0,0:0:0:0:
256,192,57361,1,8,0:0:0:0:
256,192,57611,1,8,0:0:0:0:
256,192,57694,1,0,0:0:0:0:
256,192,57861,1,8,0:0:0:0:
256,192,58027,1,8,0:0:0:0:
256,192,58277,1,8,0:0:0:0:
256,192,58361,1,0,0:0:0:0:
256,192,58527,1,8,0:0:0:0:
256,192,58694,1,8,0:0:0:0:
256,192,58944,1,8,0:0:0:0:
256,192,59027,1,0,0:0:0:0:
256,192,59194,1,8,0:0:0:0:
256,192,59361,1,8,0:0:0:0:
256,192,59694,1,8,0:0:0:0:
256,192,59861,1,8,0:0:0:0:
256,192,59944,1,8,0:0:0:0:
256,192,60027,1,4,0:0:0:0:
256,192,60194,1,8,0:0:0:0:
256,192,60527,1,8,0:0:0:0:
256,192,60694,1,4,0:0:0:0:
256,192,60861,1,8,0:0:0:0:
256,192,61194,1,8,0:0:0:0:
256,192,61361,1,4,0:0:0:0:
256,192,61527,1,8,0:0:0:0:
256,192,61694,1,8,0:0:0:0:
256,192,61861,1,0,0:0:0:0:
256,192,61944,1,0,0:0:0:0:
256,192,62027,1,8,0:0:0:0:
256,192,62194,1,8,0:0:0:0:
256,192,62361,1,0,0:0:0:0:
256,192,62527,1,0,0:0:0:0:
256,192,62694,1,8,0:0:0:0:
256,192,62944,1,8,0:0:0:0:
256,192,63027,1,0,0:0:0:0:
256,192,63194,1,8,0:0:0:0:
256,192,63361,1,8,0:0:0:0:
256,192,63694,1,8,0:0:0:0:
256,192,63861,1,8,0:0:0:0:
256,192,63944,1,8,0:0:0:0:
256,192,64027,1,0,0:0:0:0:
256,192,64361,1,0,0:0:0:0:
256,192,64694,1,8,0:0:0:0:
256,192,64861,1,0,0:0:0:0:
256,192,65027,1,8,0:0:0:0:
256,192,65361,1,4,0:0:0:0:
256,192,66027,1,8,0:0:0:0:
256,192,66111,1,8,0:0:0:0:
256,192,66194,1,8,0:0:0:0:
256,192,66527,1,0,0:0:0:0:
256,192,66611,1,0,0:0:0:0:
256,192,66694,1,8,0:0:0:0:
256,192,66777,1,8,0:0:0:0:
256,192,66861,1,8,0:0:0:0:
256,192,66944,1,8,0:0:0:0:
256,192,67027,1,0,0:0:0:0:
256,192,67194,1,8,0:0:0:0:
256,192,67361,1,0,0:0:0:0:
256,192,67527,1,0,0:0:0:0:
256,192,67694,1,8,0:0:0:0:
256,192,68027,1,8,0:0:0:0:
256,192,68194,1,0,0:0:0:0:
256,192,68277,1,8,0:0:0:0:
256,192,68361,1,0,0:0:0:0:
256,192,68527,1,0,0:0:0:0:
256,192,68694,1,8,0:0:0:0:
256,192,68861,1,0,0:0:0:0:
256,192,69027,1,8,0:0:0:0:
256,192,69194,1,8,0:0:0:0:
256,192,69361,1,0,0:0:0:0:
256,192,69527,1,8,0:0:0:0:
256,192,69611,1,8,0:0:0:0:
256,192,69694,1,0,0:0:0:0:
256,192,69861,1,0,0:0:0:0:
256,192,70027,1,8,0:0:0:0:
256,192,70194,1,0,0:0:0:0:
256,192,70361,1,8,0:0:0:0:
256,192,70527,1,8,0:0:0:0:
256,192,70611,1,8,0:0:0:0:
256,192,70694,1,4,0:0:0:0:
256,192,70861,1,8,0:0:0:0:
256,192,71194,1,8,0:0:0:0:
256,192,71361,1,4,0:0:0:0:
256,192,71527,1,8,0:0:0:0:
256,192,71861,1,8,0:0:0:0:
256,192,72027,1,4,0:0:0:0:
256,192,72194,1,8,0:0:0:0:
256,192,72361,1,8,0:0:0:0:
256,192,72527,1,0,0:0:0:0:
256,192,72611,1,0,0:0:0:0:
256,192,72694,1,8,0:0:0:0:
256,192,72861,1,8,0:0:0:0:
256,192,73027,1,0,0:0:0:0:
256,192,73361,1,8,0:0:0:0:
256,192,73444,1,8,0:0:0:0:
256,192,73527,1,0,0:0:0:0:
256,192,73611,1,0,0:0:0:0:
256,192,73694,1,8,0:0:0:0:
256,192,73861,1,0,0:0:0:0:
256,192,74027,1,8,0:0:0:0:
256,192,74111,1,8,0:0:0:0:
256,192,74194,1,8,0:0:0:0:
256,192,74277,1,8,0:0:0:0:
256,192,74361,1,0,0:0:0:0:
256,192,74444,1,0,0:0:0:0:
256,192,74527,1,8,0:0:0:0:
256,192,74611,1,8,0:0:0:0:
256,192,74694,1,0,0:0:0:0:
256,192,75027,1,8,0:0:0:0:
256,192,75194,1,8,0:0:0:0:
256,192,75361,1,0,0:0:0:0:
256,192,75527,1,0,0:0:0:0:
256,192,75611,1,0,0:0:0:0:
256,192,75694,1,8,0:0:0:0:
256,192,76027,1,4,0:0:0:0:
256,192,76361,1,8,0:0:0:0:
256,192,76694,1,8,0:0:0:0:
256,192,76944,1,8,0:0:0:0:
256,192,77027,1,0,0:0:0:0:
256,192,77194,1,8,0:0:0:0:
256,192,77527,1,8,0:0:0:0:
256,192,77694,1,8,0:0:0:0:
256,192,77861,1,0,0:0:0:0:
256,192,77944,1,0,0:0:0:0:
256,192,78027,1,8,0:0:0:0:
256,192,78194,1,0,0:0:0:0:
256,192,78277,1,8,0:0:0:0:
256,192,78527,1,0,0:0:0:0:
256,192,78694,1,8,0:0:0:0:
256,192,79027,1,8,0:0:0:0:
256,192,79361,1,8,0:0:0:0:
256,192,79611,1,8,0:0:0:0:
256,192,79694,1,0,0:0:0:0:
256,192,79861,1,8,0:0:0:0:
256,192,80194,1,8,0:0:0:0:
256,192,80361,1,8,0:0:0:0:
256,192,80527,1,0,0:0:0:0:
256,192,80611,1,0,0:0:0:0:
256,192,80694,1,8,0:0:0:0:
256,192,80861,1,8,0:0:0:0:
256,192,81027,1,0,0:0:0:0:
256,192,81194,1,0,0:0:0:0:
256,192,81361,1,8,0:0:0:0:
256,192,81694,1,8,0:0:0:0:
256,192,82027,1,8,0:0:0:0:
256,192,82277,1,8,0:0:0:0:
256,192,82361,1,0,0:0:0:0:
256,192,82527,1,8,0:0:0:0:
256,192,82861,1,8,0:0:0:0:
256,192,83027,1,8,0:0:0:0:
256,192,83194,1,0,0:0:0:0:
256,192,83277,1,0,0:0:0:0:
256,192,83361,1,8,0:0:0:0:
256,192,83527,1,0,0:0:0:0:
256,192,83611,1,8,0:0:0:0:
256,192,83861,1,0,0:0:0:0:
256,192,84027,1,8,0:0:0:0:
256,192,84361,1,8,0:0:0:0:
256,192,84694,1,8,0:0:0:0:
256,192,84944,1,8,0:0:0:0:
256,192,85027,1,0,0:0:0:0:
256,192,85194,1,8,0:0:0:0:
256,192,85361,1,0,0:0:0:0:
256,192,86027,1,0,0:0:0:0:
256,192,86111,1,0,0:0:0:0:
256,192,86194,1,0,0:0:0:0:
256,192,86277,1,0,0:0:0:0:
256,192,86361,1,8,0:0:0:0:
256,192,86694,1,12,0:0:0:0:
256,192,87027,1,8,0:0:0:0:
256,192,87361,1,8,0:0:0:0:
256,192,87611,1,8,0:0:0:0:
256,192,87694,1,0,0:0:0:0:
256,192,87861,1,8,0:0:0:0:
256,192,88027,1,0,0:0:0:0:
256,192,88194,1,8,0:0:0:0:
256,192,88361,1,8,0:0:0:0:
256,192,88694,1,8,0:0:0:0:
256,192,88944,1,8,0:0:0:0:
256,192,89027,1,0,0:0:0:0:
256,192,89194,1,8,0:0:0:0:
256,192,89277,1,8,0:0:0:0:
256,192,89361,1,8,0:0:0:0:
256,192,89694,1,8,0:0:0:0:
256,192,90027,1,8,0:0:0:0:
256,192,90277,1,8,0:0:0:0:
256,192,90361,1,0,0:0:0:0:
256,192,90527,1,0,0:0:0:0:
256,192,90694,1,8,0:0:0:0:
256,192,90861,1,0,0:0:0:0:
256,192,91027,1,8,0:0:0:0:
256,192,91361,1,8,0:0:0:0:
256,192,91611,1,0,0:0:0:0:
256,192,91694,1,8,0:0:0:0:
254,192,92027,1,8,0:0:0:0:
254,192,92194,1,0,0:0:0:0:
254,192,92361,1,8,0:0:0:0:
254,192,92527,1,0,0:0:0:0:
254,192,92694,1,8,0:0:0:0:
254,192,92861,1,0,0:0:0:0:
254,192,93027,1,8,0:0:0:0:
254,192,93194,1,0,0:0:0:0:
254,192,93361,1,8,0:0:0:0:
254,192,93444,1,8,0:0:0:0:
254,192,93527,1,0,0:0:0:0:
254,192,93611,1,0,0:0:0:0:
254,192,93694,1,8,0:0:0:0:
254,192,93861,1,0,0:0:0:0:
254,192,93944,1,0,0:0:0:0:
254,192,94027,1,8,0:0:0:0:
254,192,94111,1,8,0:0:0:0:
254,192,94194,1,8,0:0:0:0:
254,192,94277,1,8,0:0:0:0:
254,192,94361,1,0,0:0:0:0:
254,192,94527,1,8,0:0:0:0:
254,192,94583,1,8,0:0:0:0:
254,192,94639,1,8,0:0:0:0:
254,192,94694,1,0,0:0:0:0:
256,192,96027,12,0,97027,0:0:0:0:
256,192,97361,5,8,0:0:0:0:
256,192,97527,1,0,0:0:0:0:
256,192,97611,1,8,0:0:0:0:
256,192,97694,1,0,0:0:0:0:
256,192,97861,1,0,0:0:0:0:
256,192,98027,1,8,0:0:0:0:
256,192,98194,1,0,0:0:0:0:
256,192,98277,1,0,0:0:0:0:
256,192,98361,1,8,0:0:0:0:
256,192,98527,1,0,0:0:0:0:
256,192,98694,1,8,0:0:0:0:
256,192,98861,1,0,0:0:0:0:
256,192,98944,1,0,0:0:0:0:
256,192,99027,1,8,0:0:0:0:
256,192,99111,1,8,0:0:0:0:
256,192,99194,1,0,0:0:0:0:
256,192,99277,1,0,0:0:0:0:
256,192,99361,1,8,0:0:0:0:
256,192,99694,1,12,0:0:0:0:
256,192,100027,1,8,0:0:0:0:
256,192,100194,1,8,0:0:0:0:
256,192,100277,1,8,0:0:0:0:
256,192,100361,1,0,0:0:0:0:
256,192,100527,1,0,0:0:0:0:
256,192,100694,1,8,0:0:0:0:
256,192,100861,1,0,0:0:0:0:
256,192,100944,1,8,0:0:0:0:
256,192,101027,1,0,0:0:0:0:
256,192,101194,1,0,0:0:0:0:
256,192,101361,1,8,0:0:0:0:
256,192,101527,1,0,0:0:0:0:
256,192,101611,1,0,0:0:0:0:
256,192,101694,1,8,0:0:0:0:
256,192,102027,1,0,0:0:0:0:
256,192,102111,1,8,0:0:0:0:
256,192,102277,1,0,0:0:0:0:
256,192,102361,1,8,0:0:0:0:
256,192,102527,1,0,0:0:0:0:
256,192,102694,1,8,0:0:0:0:
256,192,102861,1,0,0:0:0:0:
256,192,103027,1,8,0:0:0:0:
256,192,103361,1,8,0:0:0:0:
256,192,103527,1,8,0:0:0:0:
256,192,103611,1,0,0:0:0:0:
256,192,103694,1,8,0:0:0:0:
256,192,103861,1,0,0:0:0:0:
256,192,104027,1,8,0:0:0:0:
256,192,104111,1,8,0:0:0:0:
256,192,104194,1,0,0:0:0:0:
256,192,104361,1,8,0:0:0:0:
256,192,104527,1,8,0:0:0:0:
256,192,104694,1,0,0:0:0:0:
256,192,104861,1,0,0:0:0:0:
256,192,104944,1,0,0:0:0:0:
256,192,105027,1,8,0:0:0:0:
256,192,105361,1,8,0:0:0:0:
256,192,105444,1,8,0:0:0:0:
256,192,105527,1,8,0:0:0:0:
256,192,105611,1,8,0:0:0:0:
256,192,105694,1,0,0:0:0:0:
256,192,105861,1,0,0:0:0:0:
256,192,105944,1,0,0:0:0:0:
256,192,106027,1,0,0:0:0:0:
256,192,106111,1,0,0:0:0:0:
256,192,106194,1,8,0:0:0:0:
256,192,106361,1,8,0:0:0:0:
256,192,106444,1,8,0:0:0:0:
256,192,106527,1,8,0:0:0:0:
256,192,106611,1,8,0:0:0:0:
256,192,106694,1,0,0:0:0:0:
256,192,107027,1,0,0:0:0:0:
256,192,107194,1,8,0:0:0:0:
256,192,107277,1,8,0:0:0:0:
256,192,107361,1,8,0:0:0:0:
256,192,107444,1,8,0:0:0:0:
256,192,107527,1,0,0:0:0:0:
256,192,107694,1,8,0:0:0:0:
256,192,108027,1,8,0:0:0:0:
256,192,108194,1,0,0:0:0:0:
256,192,108277,1,8,0:0:0:0:
256,192,108361,1,0,0:0:0:0:
256,192,108527,1,0,0:0:0:0:
256,192,108694,1,8,0:0:0:0:
256,192,108861,1,0,0:0:0:0:
256,192,108944,1,0,0:0:0:0:
256,192,109027,1,8,0:0:0:0:
256,192,109194,1,8,0:0:0:0:
256,192,109361,1,0,0:0:0:0:
256,192,109444,1,8,0:0:0:0:
256,192,109527,1,0,0:0:0:0:
256,192,109694,1,8,0:0:0:0:
256,192,109861,1,0,0:0:0:0:
256,192,110027,1,8,0:0:0:0:
256,192,110111,1,8,0:0:0:0:
256,192,110194,1,0,0:0:0:0:
256,192,110277,1,0,0:0:0:0:
256,192,110361,1,8,0:0:0:0:
256,192,110527,1,0,0:0:0:0:
256,192,110694,1,8,0:0:0:0:
256,192,110777,1,8,0:0:0:0:
256,192,110861,1,8,0:0:0:0:
256,192,110944,1,8,0:0:0:0:
256,192,111027,1,0,0:0:0:0:
256,192,111361,1,0,0:0:0:0:
256,192,111527,1,8,0:0:0:0:
256,192,111611,1,0,0:0:0:0:
256,192,111694,1,8,0:0:0:0:
256,192,111861,1,0,0:0:0:0:
256,192,112027,1,8,0:0:0:0:
256,192,112194,1,0,0:0:0:0:
256,192,112277,1,0,0:0:0:0:
256,192,112361,1,8,0:0:0:0:
256,192,112527,1,0,0:0:0:0:
256,192,112694,1,8,0:0:0:0:
256,192,113027,1,8,0:0:0:0:
256,192,113194,1,0,0:0:0:0:
256,192,113361,1,8,0:0:0:0:
256,192,113444,1,8,0:0:0:0:
256,192,113527,1,0,0:0:0:0:
256,192,113611,1,0,0:0:0:0:
256,192,113694,1,8,0:0:0:0:
256,192,113861,1,0,0:0:0:0:
256,192,114027,1,8,0:0:0:0:
256,192,114194,1,0,0:0:0:0:
256,192,114277,1,0,0:0:0:0:
256,192,114361,1,8,0:0:0:0:
256,192,114527,1,0,0:0:0:0:
256,192,114694,1,8,0:0:0:0:
256,192,114861,1,8,0:0:0:0:
256,192,114944,1,8,0:0:0:0:
256,192,115027,1,0,0:0:0:0:
256,192,115194,1,0,0:0:0:0:
256,192,115277,1,0,0:0:0:0:
256,192,115361,1,8,0:0:0:0:
256,192,115444,1,8,0:0:0:0:
256,192,115527,1,0,0:0:0:0:
256,192,115611,1,0,0:0:0:0:
256,192,115694,1,8,0:0:0:0:
256,192,116027,1,8,0:0:0:0:
256,192,116111,1,8,0:0:0:0:
256,192,116194,1,8,0:0:0:0:
256,192,116277,1,8,0:0:0:0:
256,192,116361,1,0,0:0:0:0:
256,192,116527,1,0,0:0:0:0:
256,192,116611,1,0,0:0:0:0:
256,192,116694,1,0,0:0:0:0:
256,192,116777,1,0,0:0:0:0:
256,192,116861,1,8,0:0:0:0:
256,192,117027,1,8,0:0:0:0:
256,192,117111,1,8,0:0:0:0:
256,192,117194,1,8,0:0:0:0:
256,192,117277,1,8,0:0:0:0:
256,192,117361,1,0,0:0:0:0:
256,192,117861,1,0,0:0:0:0:
256,192,117944,1,0,0:0:0:0:
256,192,118027,1,8,0:0:0:0:
256,192,118111,1,8,0:0:0:0:
256,192,118194,1,0,0:0:0:0:
256,192,118277,1,0,0:0:0:0:
256,192,118361,1,8,0:0:0:0:
256,192,118527,1,8,0:0:0:0:
256,192,118611,1,8,0:0:0:0:
256,192,118694,1,0,0:0:0:0:
256,192,118861,1,0,0:0:0:0:
256,192,119027,1,8,0:0:0:0:
256,192,119361,1,8,0:0:0:0:
256,192,119527,1,0,0:0:0:0:
256,192,119611,1,8,0:0:0:0:
256,192,119694,1,0,0:0:0:0:
256,192,119861,1,8,0:0:0:0:
256,192,120194,1,8,0:0:0:0:
256,192,120361,1,8,0:0:0:0:
256,192,120527,1,0,0:0:0:0:
256,192,120611,1,0,0:0:0:0:
256,192,120694,1,8,0:0:0:0:
256,192,120861,1,0,0:0:0:0:
256,192,120944,1,8,0:0:0:0:
256,192,121027,1,0,0:0:0:0:
256,192,121194,1,0,0:0:0:0:
256,192,121361,1,8,0:0:0:0:
256,192,121527,1,0,0:0:0:0:
256,192,121694,1,8,0:0:0:0:
256,192,122027,1,8,0:0:0:0:
256,192,122194,1,0,0:0:0:0:
256,192,122277,1,8,0:0:0:0:
256,192,122361,1,0,0:0:0:0:
256,192,122527,1,8,0:0:0:0:
256,192,122861,1,8,0:0:0:0:
256,192,123027,1,8,0:0:0:0:
256,192,123194,1,0,0:0:0:0:
256,192,123277,1,0,0:0:0:0:
256,192,123361,1,8,0:0:0:0:
256,192,123527,1,8,0:0:0:0:
256,192,123694,1,0,0:0:0:0:
256,192,123777,1,0,0:0:0:0:
256,192,123861,1,0,0:0:0:0:
256,192,123944,1,0,0:0:0:0:
256,192,124027,1,8,0:0:0:0:
256,192,124194,1,0,0:0:0:0:
256,192,124361,1,8,0:0:0:0:
256,192,124694,1,8,0:0:0:0:
256,192,124861,1,0,0:0:0:0:
256,192,124944,1,8,0:0:0:0:
256,192,125027,1,0,0:0:0:0:
256,192,125194,1,8,0:0:0:0:
256,192,125527,1,8,0:0:0:0:
256,192,125694,1,8,0:0:0:0:
256,192,125861,1,0,0:0:0:0:
256,192,125944,1,0,0:0:0:0:
256,192,126027,1,8,0:0:0:0:
256,192,126194,1,8,0:0:0:0:
256,192,126361,1,0,0:0:0:0:
256,192,126527,1,0,0:0:0:0:
256,192,126694,1,8,0:0:0:0:
256,192,127027,1,8,0:0:0:0:
256,192,127361,1,8,0:0:0:0:
256,192,127527,1,0,0:0:0:0:
256,192,127611,1,0,0:0:0:0:
256,192,127694,1,0,0:0:0:0:
256,192,127777,1,0,0:0:0:0:
256,192,127861,1,8,0:0:0:0:
256,192,128027,12,0,130694,0:0:0:0:
