osu file format v14

[General]
AudioFilename: audio.mp3
AudioLeadIn: 0
PreviewTime: 86361
Countdown: 0
SampleSet: Normal
StackLeniency: 0.7
Mode: 1
LetterboxInBreaks: 0
WidescreenStoryboard: 1

[Editor]
DistanceSpacing: 2.5
BeatDivisor: 4
GridSize: 32
TimelineZoom: 2

[Metadata]
Title:Freefall
TitleUnicode:フリーフォール
Artist:Zekk
ArtistUnicode:Zekk
Creator:Ph0eNiiXZ
Version:Muzukashii
Source:WACCA Lily
Tags:phoenix phoeniixz electronic video game arcade instrumental future bass core hardcore trap dubstep dance drum and dnb d&b Chester Park original single
BeatmapID:2925427
BeatmapSetID:1417612

[Difficulty]
HPDrainRate:5.5
CircleSize:2
OverallDifficulty:5
ApproachRate:10
SliderMultiplier:1.4
SliderTickRate:1

[Events]
//Background and Video events
0,0,"bg.jpg",0,-130
//Break Periods
//Storyboard Layer 0 (Background)
//Storyboard Layer 1 (Fail)
//Storyboard Layer 2 (Pass)
//Storyboard Layer 3 (Foreground)
//Storyboard Layer 4 (Overlay)
//Storyboard Sound Samples

[TimingPoints]
28,333.333333333333,4,1,0,25,1,0
28,-133.333333333333,4,1,0,25,0,0
194,-133.333333333333,4,1,0,30,0,0
361,-133.333333333333,4,1,0,35,0,0
527,-133.333333333333,4,1,0,40,0,0
694,-133.333333333333,4,1,0,45,0,0
861,-133.333333333333,4,1,0,50,0,0
1027,-133.333333333333,4,1,0,55,0,0
1194,-133.333333333333,4,1,0,60,0,0
1361,-133.333333333333,4,1,0,65,0,0
5861,-126.984126984127,4,1,0,80,0,0
6027,-125,4,1,0,80,0,0
6194,-123.076923076923,4,1,0,80,0,0
6361,-121.212121212121,4,1,0,80,0,0
6527,-119.402985074627,4,1,0,80,0,0
6694,-117.647058823529,4,1,0,80,0,0
10861,-105.263157894737,4,1,0,81,0,0
11027,-105.263157894737,4,1,0,82,0,0
11194,-105.263157894737,4,1,0,83,0,0
11361,-105.263157894737,4,1,0,84,0,0
11527,-105.263157894737,4,1,0,85,0,0
11694,-105.263157894737,4,1,0,86,0,0
11861,-105.263157894737,4,1,0,87,0,0
12027,-105.263157894737,4,1,0,88,0,0
12194,-105.263157894737,4,1,0,89,0,0
12361,-105.263157894737,4,1,0,90,0,0
17361,-105.263157894737,4,1,0,90,0,0
17527,-105.691039725034,4,1,0,90,0,0
17694,-106.122414327375,4,1,0,90,0,0
17861,-106.557324643939,4,1,0,90,0,0
18194,-107.438043166457,4,1,0,90,0,0
18361,-107.883826380401,4,1,0,90,0,0
18527,-108.333324305556,4,1,0,90,0,0
18694,-108.786583568222,4,1,0,90,0,0
19027,-109.704696896893,4,1,0,90,0,0
19194,-110.169528871027,4,1,0,90,0,0
19361,-110.638316704394,4,1,0,90,0,0
19527,-111.111111111111,4,1,0,90,0,0
19694,-111.587963675886,4,1,0,90,0,0
20027,-112.554054084474,4,1,0,90,0,0
20194,-113.043527410229,4,1,0,90,0,0
20277,-113.289799839582,4,1,0,90,0,0
20361,-113.537147651654,4,1,0,90,0,0
20527,-114.035097722377,4,1,0,90,0,0
20694,-114.537434842517,4,1,0,90,0,0
20861,-115.044217244898,4,1,0,90,0,0
20944,-115.299293907124,4,1,0,90,0,0
21027,-115.555504197554,4,1,0,90,0,0
21194,-116.071490752584,4,1,0,90,0,0
21361,-117.647058823529,4,1,0,90,0,0
21694,-117.647058823529,4,1,0,90,0,0
22694,-117.647058823529,4,1,0,65,0,0
26361,-115.874855156431,4,1,0,65,0,0
26527,-114.718366410462,4,1,0,65,0,0
26611,-114.142221207625,4,1,0,65,0,0
26694,-113.584734211722,4,1,0,80,0,0
26861,-112.473287594196,4,1,0,80,0,0
26944,-111.919418019026,4,1,0,80,0,0
27027,-111.383381599465,4,1,0,80,0,0
27194,-110.314396028682,4,1,0,80,0,0
27361,-109.265734265734,4,1,0,80,0,0
27527,-108.236822166901,4,1,0,80,0,0
27694,-107.227107012653,4,1,0,80,0,0
28027,-105.263157894737,4,1,0,85,0,0
28194,-104.123281965848,4,1,0,85,0,0
28277,-103.562551781276,4,1,0,85,0,0
28361,-103.007828594973,4,1,0,85,0,0
28527,-101.905635381637,4,1,0,85,0,0
28694,-100.836946657255,4,1,0,85,0,0
28861,-99.7904400758407,4,1,0,85,0,0
28944,-99.2752903802244,4,1,0,85,0,0
29027,-98.7654320987654,4,1,0,85,0,0
29194,-97.7612669860201,4,1,0,90,0,0
29361,-96.7773153972709,4,1,0,90,0,0
29444,-96.2927298988926,4,1,0,90,0,0
29527,-95.8037938302357,4,1,0,90,0,0
29611,-95.3288846520496,4,1,0,90,0,0
29694,-94.8586605957124,4,1,0,90,0,0
29861,-93.9319932368965,4,1,0,90,0,0
30027,-93.0232558139535,4,1,0,90,0,0
30111,-92.5754489909276,4,1,0,90,0,0
30194,-92.1319329279528,4,1,0,90,0,0
30277,-91.6926462497708,4,1,0,90,0,0
30361,-91.2575287461216,4,1,0,90,0,0
30527,-90.3913947392208,4,1,0,90,0,0
30694,-89.5495656846064,4,1,0,100,0,0
30861,-88.339222614841,4,1,0,100,0,0
30944,-88.7232721142756,4,1,0,100,0,0
31027,-87.9120879120879,4,1,0,100,0,0
31194,-87.1156024043906,4,1,0,100,0,0
31361,-86.333419666753,4,1,0,100,0,0
31444,-85.9475719810915,4,1,0,100,0,0
31527,-85.5578370978782,4,1,0,100,0,0
31611,-85.1788756388416,4,1,0,100,0,0
31694,-84.8032564450475,4,1,0,100,0,0
31777,-84.4309354947653,4,1,0,100,0,0
31861,-84.0618695359785,4,1,0,100,0,0
31944,-83.6960160696351,4,1,0,100,0,0
32027,-83.3333333333333,4,1,0,100,0,0
32361,-99.5024875621891,4,1,0,80,0,0
33361,-90.9090909090909,4,1,0,100,0,1
41361,-90.9090909090909,4,1,0,100,0,0
44027,-90.9090909090909,4,1,0,100,0,1
52027,-90.9090909090909,4,1,0,100,0,0
52527,-93.6329588014981,4,1,0,100,0,0
52694,-94.58053532583,4,1,0,100,0,0
52861,-95.5474871010892,4,1,0,100,0,0
53027,-96.5344145187759,4,1,0,100,0,0
53194,-97.5419430355053,4,1,0,100,0,0
53277,-98.0488283165016,4,1,0,100,0,0
53361,-98.570724494825,4,1,0,100,0,0
53527,-99.6115150911445,4,1,0,100,0,0
53583,-99.9700089973008,4,1,0,100,0,0
53639,-100.331092605598,4,1,0,100,0,0
53694,-100.684655658478,4,1,0,100,0,0
53861,-101.781170483461,4,1,0,100,0,0
54027,-102.901831652603,4,1,0,100,0,0
54194,-104.04744563521,4,1,0,100,0,0
54361,-105.218855218855,4,1,0,100,0,0
76027,-105.263157894737,4,1,0,70,0,0
77027,-117.647058823529,4,1,0,70,0,0
86027,-111.111111111111,4,1,0,100,0,0
86694,-105.263157894737,4,1,0,100,0,0
92194,-103.231134510168,4,1,0,100,0,0
92361,-101.276078590237,4,1,0,100,0,0
92527,-99.3936984395189,4,1,0,100,0,0
92694,-97.5800156128025,4,1,0,100,0,0
92861,-95.831336847149,4,1,0,100,0,0
93027,-94.1442289587648,4,1,0,100,0,0
93194,-92.5154963456379,4,1,0,100,0,0
93361,-90.9421607857403,4,1,0,100,0,0
93444,-90.1713255184851,4,1,0,100,0,0
93527,-89.4214432620943,4,1,0,100,0,0
93611,-88.6760663296976,4,1,0,100,0,0
93694,-87.9507475813544,4,1,0,100,0,0
93861,-86.5276455827637,4,1,0,100,0,0
93944,-85.8295425285383,4,1,0,100,0,0
94027,-85.149863760218,4,1,0,100,0,0
94111,-84.4737286703835,4,1,0,100,0,0
94194,-83.8152711424021,4,1,0,100,0,0
94277,-83.1600831600832,4,1,0,100,0,0
94361,-82.5218682950982,4,1,0,100,0,0
94527,-81.2677773262901,4,1,0,100,0,0
94583,-80.8538163001294,4,1,0,100,0,0
94639,-80.450522928399,4,1,0,100,0,0
94694,-80.051232788985,4,1,0,100,0,0
94861,-142.857142857143,4,1,0,50,0,0
96027,-142.857142857143,4,1,0,56,0,0
96194,-142.857142857143,4,1,0,59,0,0
96361,-142.857142857143,4,1,0,62,0,0
96527,-142.857142857143,4,1,0,65,0,0
96694,-142.857142857143,4,1,0,68,0,0
96861,-142.857142857143,4,1,0,71,0,0
97027,-142.857142857143,4,1,0,74,0,0
97194,-142.857142857143,4,1,0,77,0,0
97361,-117.647058823529,4,1,0,80,0,0
97527,-115.526802218115,4,1,0,80,0,0
97611,-114.495076711701,4,1,0,80,0,0
97694,-113.468739362306,4,1,0,80,0,0
97861,-111.495149960977,4,1,0,80,0,0
98027,-109.58904109589,4,1,0,80,0,0
98194,-107.747010020472,4,1,0,80,0,0
98277,-106.849022331446,4,1,0,80,0,0
98361,-105.954651409197,4,1,0,80,0,0
98527,-104.231811548885,4,1,0,80,0,0
98694,-102.564102564103,4,1,0,90,0,0
98777,-101.750101750102,4,1,0,90,0,0
98861,-100.948919846558,4,1,0,90,0,0
98944,-100.160256410256,4,1,0,90,0,0
99027,-99.3739441518434,4,1,0,90,0,0
99111,-98.6096045754856,4,1,0,90,0,0
99194,-97.8569331637146,4,1,0,90,0,0
99277,-97.1156647567253,4,1,0,90,0,0
99361,-96.3855421686747,4,1,0,90,0,0
99527,-94.9577438040072,4,1,0,90,0,0
99694,-93.562874251497,4,1,0,90,0,0
100027,-90.9090909090909,4,1,0,100,0,1
105361,-90.9090909090909,4,1,0,100,0,0
108027,-90.9090909090909,4,1,0,100,0,1
108194,-91.323617109297,4,1,0,100,0,1
108277,-91.5323429533826,4,1,0,100,0,1
108361,-91.7419409291991,4,1,0,100,0,1
108527,-92.1641147959348,4,1,0,100,0,1
108694,-92.5901921061306,4,1,0,100,0,1
109027,-93.4542756265642,4,1,0,100,0,1
109194,-93.8923936832953,4,1,0,100,0,1
109361,-94.334727915061,4,1,0,100,0,1
109444,-94.5573722128033,4,1,0,100,0,1
109527,-94.7811597801835,4,1,0,100,0,1
109694,-95.2318371459399,4,1,0,100,0,1
110027,-96.1461729496588,4,1,0,100,0,1
110111,-96.3774603960921,4,1,0,100,0,1
110194,-96.6099566221295,4,1,0,100,0,1
110361,-97.0782363214338,4,1,0,100,0,1
110694,-98.0285478737118,4,1,0,100,0,1
110861,-98.5107150104717,4,1,0,100,0,1
110944,-98.7536304303387,4,1,0,100,0,1
111027,-98.9976488058409,4,1,0,100,0,1
111361,-99.9861019318315,4,1,0,100,0,1
111694,-100.994492770309,4,1,0,100,0,1
111861,-101.506354297779,4,1,0,100,0,1
112027,-102.023534789005,4,1,0,100,0,1
112194,-102.545907239023,4,1,0,100,0,1
112277,-102.80905172015,4,1,0,100,0,1
112361,-103.073656434888,4,1,0,100,0,1
112527,-103.606865819784,4,1,0,100,0,1
112694,-104.145620572509,4,1,0,100,0,1
113027,-105.24011584832,4,1,0,100,0,1
113694,-105.263157894737,4,1,0,100,0,1
114027,-102.573255254571,4,1,0,100,0,1
114194,-101.279155736958,4,1,0,100,0,1
114277,-100.644223675748,4,1,0,100,0,1
114361,-100.017302993418,4,1,0,100,0,1
114527,-98.7865065534968,4,1,0,100,0,1
114694,-97.5857290629818,4,1,0,100,0,1
114861,-96.4136996154058,4,1,0,100,0,1
114944,-95.8381332265058,4,1,0,100,0,1
115027,-95.269488802977,4,1,0,100,0,1
115194,-94.152117810662,4,1,0,100,0,1
115361,-93.0607398142694,4,1,0,100,0,1
115444,-92.5243986839329,4,1,0,100,0,1
115527,-91.9942889945392,4,1,0,100,0,1
115611,-91.4701354581236,4,1,0,100,0,1
115694,-90.9520037181179,4,1,0,100,0,1
117361,-90.9520037181179,4,1,0,100,0,0
117861,-100,4,1,0,100,0,0
126694,-100,4,1,0,85,0,0
127861,-100,4,1,0,75,0,0
128028,-100,4,1,0,72,0,0
128195,-133.333333333333,4,1,0,69,0,0
128361,-133.333333333333,4,1,0,66,0,0
128528,-133.333333333333,4,1,0,63,0,0
128695,-133.333333333333,4,1,0,60,0,0
128861,-133.333333333333,4,1,0,57,0,0
129028,-133.333333333333,4,1,0,54,0,0
129195,-133.333333333333,4,1,0,51,0,0
129361,-133.333333333333,4,1,0,48,0,0
129528,-133.333333333333,4,1,0,45,0,0
129695,-133.333333333333,4,1,0,42,0,0
129861,-133.333333333333,4,1,0,39,0,0
130028,-133.333333333333,4,1,0,36,0,0
130195,-133.333333333333,4,1,0,33,0,0
130361,-133.333333333333,4,1,0,30,0,0
130528,-133.333333333333,4,1,0,27,0,0

[HitObjects]
256,192,28,8,0,1027,0:0:0:0:
256,192,1361,5,8,0:0:0:0:
256,192,2027,1,8,0:0:0:0:
256,192,2194,1,0,0:0:0:0:
256,192,2694,1,8,0:0:0:0:
256,192,3027,1,0,0:0:0:0:
256,192,3361,1,0,0:0:0:0:
256,192,3527,1,0,0:0:0:0:
256,192,3861,1,8,0:0:0:0:
256,192,4027,1,8,0:0:0:0:
256,192,4861,1,8,0:0:0:0:
256,192,5194,1,8,0:0:0:0:
256,192,5361,1,0,0:0:0:0:
256,192,5861,1,0,0:0:0:0:
256,192,6027,1,8,0:0:0:0:
256,192,6361,1,8,0:0:0:0:
256,192,6527,1,8,0:0:0:0:
256,192,6694,1,0,0:0:0:0:
256,192,7194,1,0,0:0:0:0:
256,192,7361,1,8,0:0:0:0:
256,192,7861,1,0,0:0:0:0:
256,192,8027,1,8,0:0:0:0:
256,192,8194,1,0,0:0:0:0:
256,192,8527,1,0,0:0:0:0:
256,192,8694,1,8,0:0:0:0:
256,192,9027,1,0,0:0:0:0:
256,192,9194,1,0,0:0:0:0:
256,192,9361,1,8,0:0:0:0:
256,192,9861,1,0,0:0:0:0:
256,192,10027,1,8,0:0:0:0:
256,192,10194,1,0,0:0:0:0:
256,192,10361,1,8,0:0:0:0:
256,192,10444,1,8,0:0:0:0:
256,192,10527,1,8,0:0:0:0:
256,192,10694,8,0,12027,0:0:0:0:
256,192,12361,5,8,0:0:0:0:
256,192,12694,1,8,0:0:0:0:
256,192,12861,1,8,0:0:0:0:
256,192,13027,1,0,0:0:0:0:
256,192,13361,1,8,0:0:0:0:
256,192,13694,1,8,0:0:0:0:
256,192,13861,1,0,0:0:0:0:
256,192,14027,1,8,0:0:0:0:
256,192,14361,1,0,0:0:0:0:
256,192,14694,1,8,0:0:0:0:
256,192,15027,1,8,0:0:0:0:
256,192,15194,1,0,0:0:0:0:
256,192,15277,1,0,0:0:0:0:
256,192,15361,1,0,0:0:0:0:
256,192,15527,1,0,0:0:0:0:
256,192,15694,1,8,0:0:0:0:
256,192,15861,1,0,0:0:0:0:
256,192,16527,1,0,0:0:0:0:
256,192,16694,1,8,0:0:0:0:
256,192,17027,1,0,0:0:0:0:
256,192,17361,1,8,0:0:0:0:
256,192,17527,1,0,0:0:0:0:
256,192,17694,1,0,0:0:0:0:
256,192,17861,1,8,0:0:0:0:
256,192,18194,1,0,0:0:0:0:
256,192,18361,1,8,0:0:0:0:
256,192,18527,1,0,0:0:0:0:
256,192,18694,1,8,0:0:0:0:
256,192,19027,1,8,0:0:0:0:
256,192,19194,1,8,0:0:0:0:
256,192,19361,1,0,0:0:0:0:
256,192,19527,1,0,0:0:0:0:
256,192,19694,1,8,0:0:0:0:
256,192,20027,1,8,0:0:0:0:
256,192,20194,1,0,0:0:0:0:
256,192,20277,1,0,0:0:0:0:
256,192,20361,1,0,0:0:0:0:
256,192,20527,1,8,0:0:0:0:
256,192,20694,1,0,0:0:0:0:
256,192,20861,1,8,0:0:0:0:
256,192,20944,1,8,0:0:0:0:
256,192,21027,1,8,0:0:0:0:
256,192,21194,1,0,0:0:0:0:
256,192,21694,1,0,0:0:0:0:
256,192,21861,1,0,0:0:0:0:
256,192,22027,1,8,0:0:0:0:
256,192,22111,1,8,0:0:0:0:
256,192,22194,1,8,0:0:0:0:
256,192,22361,1,8,0:0:0:0:
256,192,22694,1,4,0:0:0:0:
256,192,23027,1,0,0:0:0:0:
256,192,23194,1,8,0:0:0:0:
256,192,23361,1,0,0:0:0:0:
256,192,23694,1,0,0:0:0:0:
256,192,23861,1,8,0:0:0:0:
256,192,23944,1,8,0:0:0:0:
256,192,24027,1,8,0:0:0:0:
256,192,24361,1,8,0:0:0:0:
256,192,24527,1,8,0:0:0:0:
256,192,24694,1,0,0:0:0:0:
256,192,25027,1,8,0:0:0:0:
256,192,25194,1,0,0:0:0:0:
256,192,25277,1,0,0:0:0:0:
256,192,25361,1,0,0:0:0:0:
256,192,25694,1,0,0:0:0:0:
256,192,25861,1,8,0:0:0:0:
256,192,26027,1,0,0:0:0:0:
256,192,26361,1,0,0:0:0:0:
256,192,26527,1,8,0:0:0:0:
256,192,26611,1,8,0:0:0:0:
256,192,26694,1,8,0:0:0:0:
256,192,27194,1,0,0:0:0:0:
256,192,27361,1,8,0:0:0:0:
256,192,27527,1,0,0:0:0:0:
256,192,27694,1,12,0:0:0:0:
256,192,28027,1,0,0:0:0:0:
256,192,28194,1,0,0:0:0:0:
256,192,28361,1,8,0:0:0:0:
256,192,28527,1,0,0:0:0:0:
256,192,28694,1,8,0:0:0:0:
256,192,28861,1,8,0:0:0:0:
256,192,29027,1,0,0:0:0:0:
256,192,29361,1,0,0:0:0:0:
256,192,29527,1,0,0:0:0:0:
256,192,29611,1,0,0:0:0:0:
256,192,29694,1,0,0:0:0:0:
256,192,29861,1,8,0:0:0:0:
256,192,30027,1,0,0:0:0:0:
256,192,30194,1,8,0:0:0:0:
256,192,30277,1,8,0:0:0:0:
256,192,30361,1,8,0:0:0:0:
256,192,30694,1,8,0:0:0:0:
256,192,30861,1,0,0:0:0:0:
256,192,30944,1,0,0:0:0:0:
256,192,31027,1,0,0:0:0:0:
256,192,31194,1,0,0:0:0:0:
256,192,31361,1,8,0:0:0:0:
256,192,31527,1,0,0:0:0:0:
256,192,31611,1,0,0:0:0:0:
256,192,31694,1,0,0:0:0:0:
256,192,31861,1,8,0:0:0:0:
256,192,31944,1,8,0:0:0:0:
256,192,32027,1,8,0:0:0:0:
256,192,32694,1,0,0:0:0:0:
256,192,33027,1,0,0:0:0:0:
256,192,33361,1,12,0:0:0:0:
256,192,33694,1,12,0:0:0:0:
256,192,34027,1,8,0:0:0:0:
256,192,34194,1,0,0:0:0:0:
256,192,34277,1,0,0:0:0:0:
256,192,34361,1,0,0:0:0:0:
256,192,34527,1,8,0:0:0:0:
256,192,34694,1,0,0:0:0:0:
256,192,34861,1,8,0:0:0:0:
256,192,34944,1,8,0:0:0:0:
256,192,35027,1,8,0:0:0:0:
256,192,35194,1,0,0:0:0:0:
256,192,35694,1,8,0:0:0:0:
256,192,35861,1,0,0:0:0:0:
256,192,36027,1,8,0:0:0:0:
256,192,36194,1,8,0:0:0:0:
256,192,36277,1,8,0:0:0:0:
256,192,36361,1,8,0:0:0:0:
256,192,36527,1,0,0:0:0:0:
256,192,36694,1,8,0:0:0:0:
256,192,36861,1,0,0:0:0:0:
256,192,36944,1,0,0:0:0:0:
256,192,37027,1,0,0:0:0:0:
256,192,37194,1,8,0:0:0:0:
256,192,37527,1,8,0:0:0:0:
256,192,37611,1,8,0:0:0:0:
256,192,37694,1,8,0:0:0:0:
256,192,37861,1,8,0:0:0:0:
256,192,38361,1,0,0:0:0:0:
256,192,38694,1,12,0:0:0:0:
256,192,39027,1,12,0:0:0:0:
256,192,39194,1,0,0:0:0:0:
256,192,39361,1,8,0:0:0:0:
256,192,39527,1,0,0:0:0:0:
256,192,39611,1,0,0:0:0:0:
256,192,39694,1,0,0:0:0:0:
256,192,39861,1,8,0:0:0:0:
256,192,40194,1,8,0:0:0:0:
256,192,40277,1,8,0:0:0:0:
256,192,40361,1,8,0:0:0:0:
256,192,40527,1,8,0:0:0:0:
256,192,40694,1,0,0:0:0:0:
256,192,40861,1,0,0:0:0:0:
256,192,41027,1,8,0:0:0:0:
256,192,41194,1,8,0:0:0:0:
256,192,41361,1,4,0:0:0:0:
256,192,41861,1,4,0:0:0:0:
256,192,42361,1,4,0:0:0:0:
256,192,43027,1,0,0:0:0:0:
256,192,43194,1,0,0:0:0:0:
256,192,43361,1,8,0:0:0:0:
256,192,43527,1,0,0:0:0:0:
256,192,43694,1,8,0:0:0:0:
256,192,44027,1,4,0:0:0:0:
256,192,44361,1,4,0:0:0:0:
256,192,44694,1,8,0:0:0:0:
256,192,44861,1,0,0:0:0:0:
256,192,44944,1,0,0:0:0:0:
256,192,45027,1,0,0:0:0:0:
256,192,45194,1,8,0:0:0:0:
256,192,45527,1,0,0:0:0:0:
256,192,45694,1,0,0:0:0:0:
256,192,45861,1,8,0:0:0:0:
256,192,46194,1,0,0:0:0:0:
256,192,46361,1,8,0:0:0:0:
256,192,46527,1,8,0:0:0:0:
256,192,46611,1,8,0:0:0:0:
256,192,46694,1,8,0:0:0:0:
256,192,47194,1,0,0:0:0:0:
256,192,47361,1,8,0:0:0:0:
256,192,47527,1,0,0:0:0:0:
256,192,47611,1,0,0:0:0:0:
256,192,47694,1,0,0:0:0:0:
256,192,47861,1,8,0:0:0:0:
256,192,48194,1,8,0:0:0:0:
256,192,48277,1,8,0:0:0:0:
256,192,48361,1,8,0:0:0:0:
256,192,48527,1,0,0:0:0:0:
256,192,48694,1,8,0:0:0:0:
256,192,48861,1,0,0:0:0:0:
256,192,48944,1,0,0:0:0:0:
256,192,49027,1,0,0:0:0:0:
256,192,49194,1,0,0:0:0:0:
256,192,49361,1,12,0:0:0:0:
256,192,49694,1,12,0:0:0:0:
256,192,49861,1,0,0:0:0:0:
256,192,50027,1,8,0:0:0:0:
256,192,50194,1,0,0:0:0:0:
256,192,50277,1,0,0:0:0:0:
256,192,50361,1,0,0:0:0:0:
256,192,50527,1,8,0:0:0:0:
256,192,50861,1,0,0:0:0:0:
256,192,51027,1,0,0:0:0:0:
256,192,51194,1,8,0:0:0:0:
256,192,51361,1,0,0:0:0:0:
256,192,51527,1,0,0:0:0:0:
256,192,51694,1,8,0:0:0:0:
256,192,52027,1,0,0:0:0:0:
256,192,52527,1,0,0:0:0:0:
256,192,52694,1,8,0:0:0:0:
256,192,53027,1,0,0:0:0:0:
256,192,53194,1,8,0:0:0:0:
256,192,53277,1,8,0:0:0:0:
256,192,53361,1,8,0:0:0:0:
256,192,53527,1,0,0:0:0:0:
256,192,53694,1,8,0:0:0:0:
256,192,53861,1,8,0:0:0:0:
256,192,54027,1,0,0:0:0:0:
256,192,54194,1,0,0:0:0:0:
256,192,54361,1,8,0:0:0:0:
256,192,54694,1,4,0:0:0:0:
256,192,55194,1,8,0:0:0:0:
256,192,55361,1,4,0:0:0:0:
256,192,55861,1,8,0:0:0:0:
256,192,56027,1,4,0:0:0:0:
256,192,56361,1,8,0:0:0:0:
256,192,56527,1,8,0:0:0:0:
256,192,56611,1,8,0:0:0:0:
256,192,56694,1,8,0:0:0:0:
256,192,56861,1,8,0:0:0:0:
256,192,57027,1,0,0:0:0:0:
256,192,57361,1,8,0:0:0:0:
256,192,57694,1,0,0:0:0:0:
256,192,57861,1,8,0:0:0:0:
256,192,58027,1,8,0:0:0:0:
256,192,58361,1,8,0:0:0:0:
256,192,58527,1,0,0:0:0:0:
256,192,58694,1,8,0:0:0:0:
256,192,59027,1,0,0:0:0:0:
256,192,59194,1,8,0:0:0:0:
256,192,59361,1,8,0:0:0:0:
256,192,59694,1,8,0:0:0:0:
256,192,59861,1,8,0:0:0:0:
256,192,60027,1,4,0:0:0:0:
256,192,60527,1,8,0:0:0:0:
256,192,60694,1,4,0:0:0:0:
256,192,61194,1,8,0:0:0:0:
256,192,61361,1,4,0:0:0:0:
256,192,61694,1,8,0:0:0:0:
256,192,61861,1,0,0:0:0:0:
256,192,61944,1,0,0:0:0:0:
256,192,62027,1,0,0:0:0:0:
256,192,62194,1,8,0:0:0:0:
256,192,62361,1,0,0:0:0:0:
256,192,62527,1,0,0:0:0:0:
256,192,62694,1,8,0:0:0:0:
256,192,63027,1,0,0:0:0:0:
256,192,63194,1,8,0:0:0:0:
256,192,63361,1,8,0:0:0:0:
256,192,63694,1,8,0:0:0:0:
256,192,63861,1,8,0:0:0:0:
256,192,64027,1,0,0:0:0:0:
256,192,64361,1,0,0:0:0:0:
256,192,64694,1,8,0:0:0:0:
256,192,64861,1,0,0:0:0:0:
256,192,65027,1,8,0:0:0:0:
256,192,65361,1,4,0:0:0:0:
256,192,66027,1,8,0:0:0:0:
256,192,66111,1,8,0:0:0:0:
256,192,66194,1,8,0:0:0:0:
256,192,66527,1,0,0:0:0:0:
256,192,66611,1,0,0:0:0:0:
256,192,66694,1,0,0:0:0:0:
256,192,66861,1,8,0:0:0:0:
256,192,67027,1,0,0:0:0:0:
256,192,67194,1,8,0:0:0:0:
256,192,67361,1,0,0:0:0:0:
256,192,67527,1,0,0:0:0:0:
256,192,67694,1,8,0:0:0:0:
256,192,68027,1,8,0:0:0:0:
256,192,68194,1,0,0:0:0:0:
256,192,68277,1,0,0:0:0:0:
256,192,68361,1,0,0:0:0:0:
256,192,68527,1,0,0:0:0:0:
256,192,68694,1,8,0:0:0:0:
256,192,69027,1,8,0:0:0:0:
256,192,69194,1,8,0:0:0:0:
256,192,69361,1,0,0:0:0:0:
256,192,69527,1,8,0:0:0:0:
256,192,69611,1,8,0:0:0:0:
256,192,69694,1,8,0:0:0:0:
256,192,69861,1,0,0:0:0:0:
256,192,70027,1,8,0:0:0:0:
256,192,70361,1,8,0:0:0:0:
256,192,70527,1,8,0:0:0:0:
256,192,70694,1,4,0:0:0:0:
256,192,71194,1,8,0:0:0:0:
256,192,71361,1,4,0:0:0:0:
256,192,71861,1,8,0:0:0:0:
256,192,72027,1,4,0:0:0:0:
256,192,72361,1,8,0:0:0:0:
256,192,72527,1,0,0:0:0:0:
256,192,72611,1,0,0:0:0:0:
256,192,72694,1,0,0:0:0:0:
256,192,72861,1,8,0:0:0:0:
256,192,73027,1,0,0:0:0:0:
256,192,73361,1,8,0:0:0:0:
256,192,73527,1,0,0:0:0:0:
256,192,73611,1,0,0:0:0:0:
256,192,73694,1,0,0:0:0:0:
256,192,73861,1,0,0:0:0:0:
256,192,74027,1,8,0:0:0:0:
256,192,74194,1,8,0:0:0:0:
256,192,74277,1,8,0:0:0:0:
256,192,74361,1,8,0:0:0:0:
256,192,74527,1,8,0:0:0:0:
256,192,74694,1,0,0:0:0:0:
256,192,75027,1,8,0:0:0:0:
256,192,75361,1,0,0:0:0:0:
256,192,75527,1,0,0:0:0:0:
256,192,75694,1,8,0:0:0:0:
256,192,76027,1,4,0:0:0:0:
256,192,77027,1,0,0:0:0:0:
256,192,77194,1,8,0:0:0:0:
256,192,78194,1,0,0:0:0:0:
256,192,78361,1,0,0:0:0:0:
256,192,78527,1,0,0:0:0:0:
256,192,78694,1,8,0:0:0:0:
256,192,79694,1,8,0:0:0:0:
256,192,79861,1,0,0:0:0:0:
256,192,80694,1,8,0:0:0:0:
256,192,80861,1,8,0:0:0:0:
256,192,81027,1,0,0:0:0:0:
256,192,81194,1,0,0:0:0:0:
256,192,81361,1,8,0:0:0:0:
256,192,82361,1,0,0:0:0:0:
256,192,82527,1,8,0:0:0:0:
256,192,83361,1,0,0:0:0:0:
256,192,83527,1,0,0:0:0:0:
256,192,83694,1,8,0:0:0:0:
256,192,83861,1,0,0:0:0:0:
256,192,84027,1,8,0:0:0:0:
256,192,84361,1,8,0:0:0:0:
256,192,84694,1,0,0:0:0:0:
256,192,85027,1,8,0:0:0:0:
256,192,85361,1,0,0:0:0:0:
256,192,86027,1,0,0:0:0:0:
256,192,86194,1,0,0:0:0:0:
256,192,86361,1,8,0:0:0:0:
256,192,86694,1,12,0:0:0:0:
256,192,87027,1,0,0:0:0:0:
256,192,87361,1,8,0:0:0:0:
256,192,87694,1,0,0:0:0:0:
256,192,87861,1,8,0:0:0:0:
256,192,88027,1,0,0:0:0:0:
256,192,88194,1,8,0:0:0:0:
256,192,88361,1,8,0:0:0:0:
256,192,88694,1,8,0:0:0:0:
256,192,89027,1,0,0:0:0:0:
256,192,89194,1,0,0:0:0:0:
256,192,89361,1,8,0:0:0:0:
256,192,89694,1,0,0:0:0:0:
256,192,90027,1,8,0:0:0:0:
256,192,90361,1,0,0:0:0:0:
256,192,90527,1,0,0:0:0:0:
256,192,90694,1,8,0:0:0:0:
256,192,90861,1,0,0:0:0:0:
256,192,91027,1,8,0:0:0:0:
256,192,91361,1,8,0:0:0:0:
256,192,91694,1,0,0:0:0:0:
254,192,92027,1,8,0:0:0:0:
254,192,92194,1,0,0:0:0:0:
254,192,92361,1,8,0:0:0:0:
254,192,92527,1,0,0:0:0:0:
254,192,92694,1,8,0:0:0:0:
254,192,92861,1,0,0:0:0:0:
254,192,93027,1,8,0:0:0:0:
254,192,93194,1,0,0:0:0:0:
254,192,93361,1,8,0:0:0:0:
254,192,93527,1,0,0:0:0:0:
254,192,93611,1,0,0:0:0:0:
254,192,93694,1,0,0:0:0:0:
254,192,93861,1,0,0:0:0:0:
254,192,94027,1,8,0:0:0:0:
254,192,94111,1,8,0:0:0:0:
254,192,94194,1,8,0:0:0:0:
254,192,94361,1,8,0:0:0:0:
254,192,94527,1,0,0:0:0:0:
254,192,94611,1,0,0:0:0:0:
254,192,94694,1,0,0:0:0:0:
256,192,96027,12,0,97027,0:0:0:0:
256,192,97361,5,8,0:0:0:0:
256,192,97527,1,0,0:0:0:0:
256,192,97611,1,0,0:0:0:0:
256,192,97694,1,0,0:0:0:0:
256,192,97861,1,0,0:0:0:0:
256,192,98027,1,8,0:0:0:0:
256,192,98361,1,8,0:0:0:0:
256,192,98527,1,0,0:0:0:0:
256,192,98694,1,8,0:0:0:0:
256,192,98861,1,8,0:0:0:0:
256,192,99027,1,0,0:0:0:0:
256,192,99194,1,0,0:0:0:0:
256,192,99361,1,8,0:0:0:0:
256,192,100027,1,8,0:0:0:0:
256,192,100194,1,8,0:0:0:0:
256,192,100277,1,8,0:0:0:0:
256,192,100361,1,8,0:0:0:0:
256,192,100527,1,0,0:0:0:0:
256,192,100694,1,8,0:0:0:0:
256,192,101027,1,0,0:0:0:0:
256,192,101194,1,0,0:0:0:0:
256,192,101361,1,8,0:0:0:0:
256,192,101694,1,8,0:0:0:0:
256,192,102027,1,0,0:0:0:0:
256,192,102194,1,0,0:0:0:0:
256,192,102361,1,8,0:0:0:0:
256,192,102527,1,0,0:0:0:0:
256,192,102694,1,8,0:0:0:0:
256,192,102861,1,8,0:0:0:0:
256,192,103027,1,0,0:0:0:0:
256,192,103361,1,8,0:0:0:0:
256,192,103694,1,0,0:0:0:0:
256,192,103861,1,0,0:0:0:0:
256,192,104027,1,8,0:0:0:0:
256,192,104361,1,8,0:0:0:0:
256,192,104527,1,8,0:0:0:0:
256,192,104694,1,0,0:0:0:0:
256,192,104861,1,0,0:0:0:0:
256,192,105027,1,8,0:0:0:0:
256,192,105361,1,8,0:0:0:0:
256,192,105527,1,8,0:0:0:0:
256,192,105611,1,8,0:0:0:0:
256,192,105694,1,8,0:0:0:0:
256,192,105861,1,0,0:0:0:0:
256,192,106027,1,0,0:0:0:0:
256,192,106111,1,0,0:0:0:0:
256,192,106194,1,0,0:0:0:0:
256,192,106361,1,8,0:0:0:0:
256,192,106527,1,8,0:0:0:0:
256,192,106611,1,8,0:0:0:0:
256,192,106694,1,8,0:0:0:0:
256,192,107194,1,8,0:0:0:0:
256,192,107361,1,8,0:0:0:0:
256,192,107444,1,8,0:0:0:0:
256,192,107527,1,8,0:0:0:0:
256,192,107694,1,0,0:0:0:0:
256,192,108027,1,8,0:0:0:0:
256,192,108194,1,0,0:0:0:0:
256,192,108277,1,0,0:0:0:0:
256,192,108361,1,0,0:0:0:0:
256,192,108527,1,0,0:0:0:0:
256,192,108694,1,8,0:0:0:0:
256,192,109027,1,8,0:0:0:0:
256,192,109194,1,0,0:0:0:0:
256,192,109361,1,8,0:0:0:0:
256,192,109527,1,0,0:0:0:0:
256,192,109694,1,8,0:0:0:0:
256,192,110027,1,0,0:0:0:0:
256,192,110111,1,0,0:0:0:0:
256,192,110194,1,0,0:0:0:0:
256,192,110361,1,8,0:0:0:0:
256,192,110527,1,0,0:0:0:0:
256,192,110694,1,8,0:0:0:0:
256,192,110861,1,8,0:0:0:0:
256,192,110944,1,8,0:0:0:0:
256,192,111027,1,8,0:0:0:0:
256,192,111361,1,0,0:0:0:0:
256,192,111694,1,8,0:0:0:0:
256,192,111861,1,0,0:0:0:0:
256,192,112027,1,8,0:0:0:0:
256,192,112194,1,0,0:0:0:0:
256,192,112361,1,0,0:0:0:0:
256,192,112527,1,0,0:0:0:0:
256,192,112694,1,8,0:0:0:0:
256,192,113027,1,8,0:0:0:0:
256,192,113194,1,0,0:0:0:0:
256,192,113361,1,8,0:0:0:0:
256,192,113444,1,8,0:0:0:0:
256,192,113527,1,8,0:0:0:0:
256,192,113694,1,8,0:0:0:0:
256,192,114027,1,8,0:0:0:0:
256,192,114361,1,0,0:0:0:0:
256,192,114527,1,0,0:0:0:0:
256,192,114694,1,8,0:0:0:0:
256,192,114861,1,8,0:0:0:0:
256,192,114944,1,8,0:0:0:0:
256,192,115027,1,8,0:0:0:0:
256,192,115194,1,8,0:0:0:0:
256,192,115361,1,0,0:0:0:0:
256,192,115444,1,0,0:0:0:0:
256,192,115527,1,0,0:0:0:0:
256,192,115694,1,8,0:0:0:0:
256,192,116027,1,8,0:0:0:0:
256,192,116194,1,8,0:0:0:0:
256,192,116277,1,8,0:0:0:0:
256,192,116361,1,8,0:0:0:0:
256,192,116527,1,0,0:0:0:0:
256,192,116694,1,0,0:0:0:0:
256,192,116777,1,0,0:0:0:0:
256,192,116861,1,0,0:0:0:0:
256,192,117027,1,8,0:0:0:0:
256,192,117194,1,8,0:0:0:0:
256,192,117277,1,8,0:0:0:0:
256,192,117361,1,8,0:0:0:0:
256,192,117861,1,0,0:0:0:0:
256,192,117944,1,0,0:0:0:0:
256,192,118027,1,0,0:0:0:0:
256,192,118194,1,0,0:0:0:0:
256,192,118361,1,8,0:0:0:0:
256,192,118527,1,8,0:0:0:0:
256,192,118611,1,8,0:0:0:0:
256,192,118694,1,8,0:0:0:0:
256,192,118861,1,0,0:0:0:0:
256,192,119027,1,8,0:0:0:0:
256,192,119361,1,8,0:0:0:0:
256,192,119527,1,0,0:0:0:0:
256,192,119611,1,0,0:0:0:0:
256,192,119694,1,0,0:0:0:0:
256,192,119861,1,8,0:0:0:0:
256,192,120194,1,8,0:0:0:0:
256,192,120361,1,8,0:0:0:0:
256,192,120527,1,0,0:0:0:0:
256,192,120611,1,0,0:0:0:0:
256,192,120694,1,0,0:0:0:0:
256,192,120861,1,8,0:0:0:0:
256,192,121027,1,0,0:0:0:0:
256,192,121361,1,8,0:0:0:0:
256,192,121527,1,0,0:0:0:0:
256,192,121694,1,8,0:0:0:0:
256,192,122027,1,8,0:0:0:0:
256,192,122194,1,0,0:0:0:0:
256,192,122277,1,0,0:0:0:0:
256,192,122361,1,0,0:0:0:0:
256,192,122527,1,8,0:0:0:0:
256,192,122861,1,8,0:0:0:0:
256,192,123027,1,8,0:0:0:0:
256,192,123194,1,0,0:0:0:0:
256,192,123277,1,0,0:0:0:0:
256,192,123361,1,0,0:0:0:0:
256,192,123527,1,8,0:0:0:0:
256,192,123694,1,0,0:0:0:0:
256,192,123861,1,8,0:0:0:0:
256,192,123944,1,8,0:0:0:0:
256,192,124027,1,8,0:0:0:0:
256,192,124194,1,0,0:0:0:0:
256,192,124361,1,8,0:0:0:0:
256,192,124694,1,8,0:0:0:0:
256,192,124861,1,0,0:0:0:0:
256,192,124944,1,0,0:0:0:0:
256,192,125027,1,0,0:0:0:0:
256,192,125194,1,8,0:0:0:0:
256,192,125527,1,8,0:0:0:0:
256,192,125694,1,8,0:0:0:0:
256,192,125861,1,0,0:0:0:0:
256,192,125944,1,0,0:0:0:0:
256,192,126027,1,0,0:0:0:0:
256,192,126194,1,8,0:0:0:0:
256,192,126361,1,0,0:0:0:0:
256,192,126527,1,0,0:0:0:0:
256,192,126694,1,8,0:0:0:0:
256,192,127027,1,8,0:0:0:0:
256,192,127361,1,8,0:0:0:0:
256,192,127527,1,0,0:0:0:0:
256,192,127694,1,8,0:0:0:0:
256,192,127777,1,8,0:0:0:0:
256,192,127861,1,8,0:0:0:0:
256,192,128027,12,0,130694,0:0:0:0:
