osu file format v14

[General]
AudioFilename: audio.mp3
AudioLeadIn: 0
PreviewTime: 31971
Countdown: 0
SampleSet: Drum
StackLeniency: 0.7
Mode: 3
LetterboxInBreaks: 0
SpecialStyle: 0
WidescreenStoryboard: 1

[Editor]
Bookmarks: 1317,6650,11983,12316,17316,22650,27983,33316,43983,54650,65316,75983,86650,97316,99983,107983,118650,127816
DistanceSpacing: 0.9
BeatDivisor: 4
GridSize: 32
TimelineZoom: 2.3

[Metadata]
Title:Freefall
TitleUnicode:フリーフォール
Artist:Zekk
ArtistUnicode:Zekk
Creator:Nimis
Version:NORMAL
Source:WACCA Lily
Tags:future bass core hardcore trap dubstep dance drum and n dnb d&b furiforu jersey riddim colour video game electronic instrumental minhyuk choi chester park hp Hydria Nihilese
BeatmapID:2959765
BeatmapSetID:1402506

[Difficulty]
HPDrainRate:7.5
CircleSize:4
OverallDifficulty:7.3
ApproachRate:5
SliderMultiplier:1.4
SliderTickRate:1

[Events]
//Background and Video events
0,0,"cvxcvzx.png",0,0
//Break Periods
//Storyboard Layer 0 (Background)
//Storyboard Layer 1 (Fail)
//Storyboard Layer 2 (Pass)
//Storyboard Layer 3 (Foreground)
//Storyboard Layer 4 (Overlay)
//Storyboard Sound Samples

[TimingPoints]
1305,333.333333333333,4,3,1,50,1,0
12304,-100,4,3,1,70,0,0
22638,-100,4,3,1,60,0,0
33304,-100,4,3,1,90,0,0
54638,-100,4,3,1,80,0,0
75971,-100,4,3,1,70,0,0
86638,-100,4,3,1,80,0,0
94638,-100,4,3,1,60,0,0
99638,-100,4,3,1,90,0,0
128221,-100,4,3,1,50,0,0

[HitObjects]
448,192,1305,5,0,0:0:0:85:kick.wav
192,192,1888,1,0,0:0:0:0:
448,192,1971,1,0,0:0:0:0:
320,192,2138,1,0,0:0:0:0:
64,192,2638,1,0,0:0:0:0:
192,192,3304,1,0,0:0:0:0:
320,192,3638,1,0,0:0:0:0:
448,192,3804,1,0,0:0:0:0:
64,192,3971,1,0,0:0:0:0:
320,192,4304,1,0,0:0:0:0:
192,192,4804,1,0,0:0:0:0:
64,192,4971,1,0,0:0:0:0:
320,192,5138,1,0,0:0:0:0:
192,192,5304,1,0,0:0:0:0:
64,192,5971,1,0,0:0:0:0:
448,192,6138,1,0,0:0:0:0:
448,192,6304,1,0,0:0:0:0:
64,192,6471,1,0,0:0:0:0:
320,192,6638,1,0,0:0:0:85:kick.wav
192,192,7138,1,0,0:0:0:85:kick.wav
320,192,7304,1,0,0:0:0:95:snare.wav
448,192,7304,1,0,0:0:0:0:
192,192,7804,1,0,0:0:0:85:kick.wav
320,192,8138,1,0,0:0:0:85:kick.wav
192,192,8471,1,0,0:0:0:85:kick.wav
320,192,8638,1,0,0:0:0:95:snare.wav
448,192,8638,1,0,0:0:0:0:
192,192,8971,1,0,0:0:0:85:kick.wav
320,192,9304,1,0,0:0:0:85:kick.wav
192,192,9804,1,0,0:0:0:85:kick.wav
320,192,9971,1,0,0:0:0:95:snare.wav
448,192,9971,1,0,0:0:0:0:
64,192,10054,1,0,0:0:0:0:
448,192,10138,1,0,0:0:0:0:
192,192,10221,1,0,0:0:0:0:
64,192,10304,128,0,10471:0:0:0:0:
320,192,10471,1,0,0:0:0:85:kick.wav
448,192,10471,1,0,0:0:0:0:
192,192,11304,1,0,0:0:0:0:
64,192,11471,1,0,0:0:0:0:
192,192,11638,1,0,0:0:0:0:
320,192,11804,1,0,0:0:0:0:
448,192,11971,1,0,0:0:0:0:
320,192,12138,1,0,0:0:0:0:
64,192,12304,1,0,0:0:0:85:kick.wav
192,192,12304,1,0,0:0:0:0:
448,192,12471,1,0,0:0:0:0:
192,192,12638,1,0,0:0:0:85:kick.wav
448,192,12804,1,0,0:0:0:0:
320,192,12971,1,0,0:0:0:85:kick.wav
64,192,13138,1,0,0:0:0:0:
192,192,13304,1,0,0:0:0:85:kick.wav
64,192,13471,1,0,0:0:0:0:
320,192,13638,1,0,0:0:0:85:kick.wav
448,192,13804,1,0,0:0:0:0:
192,192,13971,1,0,0:0:0:85:kick.wav
64,192,14138,1,0,0:0:0:0:
320,192,14304,1,0,0:0:0:85:kick.wav
448,192,14471,1,0,0:0:0:0:
192,192,14638,1,0,0:0:0:85:kick.wav
64,192,14804,1,0,0:0:0:0:
320,192,14971,1,0,0:0:0:85:kick.wav
64,192,15138,1,0,0:0:0:0:
192,192,15304,1,0,0:0:0:85:kick.wav
448,192,15471,1,0,0:0:0:0:
320,192,15638,1,0,0:0:0:85:kick.wav
192,192,15804,1,0,0:0:0:85:kick.wav
64,192,16138,128,0,16638:0:0:0:0:
192,192,16471,1,0,0:0:0:85:kick.wav
320,192,16638,1,0,0:0:0:95:snare.wav
448,192,16638,1,0,0:0:0:0:
320,192,16804,1,0,0:0:0:0:
192,192,16971,128,0,17304:0:0:0:85:kick.wav
64,192,17138,128,0,17304:0:0:0:0:
448,192,17304,1,0,0:0:0:85:kick.wav
448,192,17471,1,0,0:0:0:85:kick.wav
64,192,17638,1,0,0:0:0:85:kick.wav
320,192,17804,1,0,0:0:0:85:kick.wav
320,192,17971,1,0,0:0:0:85:kick.wav
320,192,18138,1,0,0:0:0:85:kick.wav
192,192,18304,1,0,0:0:0:85:kick.wav
448,192,18471,1,0,0:0:0:85:kick.wav
64,192,18638,1,0,0:0:0:85:kick.wav
64,192,18804,1,0,0:0:0:85:kick.wav
320,192,18971,1,0,0:0:0:85:kick.wav
320,192,19138,1,0,0:0:0:85:kick.wav
192,192,19304,1,0,0:0:0:85:kick.wav
192,192,19471,1,0,0:0:0:85:kick.wav
448,192,19638,1,0,0:0:0:85:kick.wav
448,192,19804,1,0,0:0:0:85:kick.wav
64,192,19971,1,0,0:0:0:85:kick.wav
192,192,19971,1,0,0:0:0:0:
320,192,20138,1,0,0:0:0:85:kick.wav
448,192,20138,1,0,0:0:0:0:
64,192,20304,1,0,0:0:0:85:kick.wav
192,192,20304,1,0,0:0:0:0:
320,192,20471,1,0,0:0:0:85:kick.wav
448,192,20471,1,0,0:0:0:0:
64,192,20638,1,0,0:0:0:85:kick.wav
192,192,20638,1,0,0:0:0:0:
320,192,20804,1,0,0:0:0:85:kick.wav
192,192,20971,1,0,0:0:0:85:kick.wav
64,192,21138,1,0,0:0:0:85:kick.wav
448,192,21138,1,0,0:0:0:0:
64,192,21638,1,0,0:0:0:0:
64,192,21804,1,0,0:0:0:0:
192,192,21888,1,0,0:0:0:0:
320,192,21971,1,0,0:0:0:0:
192,192,22304,1,0,0:0:0:95:snare.wav
320,192,22304,1,0,0:0:0:0:
64,192,22638,1,0,0:0:0:85:kick.wav
192,192,22638,1,0,0:0:0:0:
64,192,22971,1,0,0:0:0:0:
64,192,23304,1,0,0:0:0:0:
64,192,23638,1,0,0:0:0:0:
448,192,23971,1,0,0:0:0:0:
448,192,24304,1,0,0:0:0:0:
448,192,24638,1,0,0:0:0:0:
448,192,24971,1,0,0:0:0:0:
192,192,25304,1,0,0:0:0:0:
192,192,25638,1,0,0:0:0:0:
192,192,25971,1,0,0:0:0:0:
192,192,26304,1,0,0:0:0:0:
320,192,26638,1,0,0:0:0:85:kick.wav
448,192,26638,1,0,0:0:0:0:
192,192,26749,1,0,0:0:0:0:
64,192,26860,1,0,0:0:0:0:
320,192,26971,1,0,0:0:0:0:
192,192,27138,1,0,0:0:0:0:
448,192,27304,128,0,27638:0:0:0:0:
64,192,27638,1,0,0:0:0:95:snare.wav
192,192,27638,1,0,0:0:0:0:
320,192,27971,1,0,0:0:0:85:kick.wav
448,192,27971,1,0,0:0:0:0:
320,192,28138,1,0,0:0:0:0:
192,192,28304,1,0,0:0:0:85:kick.wav
192,192,28471,1,0,0:0:0:0:
320,192,28638,1,0,0:0:0:85:kick.wav
320,192,28804,1,0,0:0:0:0:
192,192,28971,1,0,0:0:0:85:kick.wav
192,192,29138,1,0,0:0:0:0:
320,192,29304,1,0,0:0:0:85:kick.wav
320,192,29471,1,0,0:0:0:0:
192,192,29554,1,0,0:0:0:0:
64,192,29638,1,0,0:0:0:85:kick.wav
192,192,29804,1,0,0:0:0:0:
320,192,29888,1,0,0:0:0:0:
448,192,29971,1,0,0:0:0:85:kick.wav
320,192,30138,1,0,0:0:0:0:
192,192,30221,1,0,0:0:0:0:
64,192,30304,1,0,0:0:0:85:kick.wav
192,192,30471,1,0,0:0:0:0:
320,192,30554,1,0,0:0:0:0:
448,192,30638,1,0,0:0:0:0:
64,192,30804,1,0,0:0:0:0:
448,192,30971,1,0,0:0:0:0:
64,192,31138,1,0,0:0:0:0:
320,192,31304,1,0,0:0:0:0:
448,192,31471,1,0,0:0:0:0:
64,192,31638,1,0,0:0:0:0:
192,192,31721,1,0,0:0:0:0:
320,192,31804,1,0,0:0:0:0:
448,192,31888,1,0,0:0:0:0:
64,192,31971,1,0,0:0:0:85:kick.wav
192,192,31971,1,0,0:0:0:0:
64,192,32138,128,0,32304:0:0:0:0:
448,192,32304,128,0,32471:0:0:0:0:
192,192,32471,128,0,32638:0:0:0:0:
320,192,32638,1,0,0:0:0:0:
448,192,32749,1,0,0:0:0:0:
64,192,32860,1,0,0:0:0:0:
320,192,32971,1,0,0:0:0:95:snare.wav
448,192,32971,1,0,0:0:0:0:
192,192,33138,128,0,33304:0:0:0:0:
320,192,33304,128,0,33638:0:0:0:85:kick.wav
448,192,33304,128,0,33638:0:0:0:0:
64,192,33638,128,0,33804:0:0:0:85:kick.wav
192,192,33638,128,0,33804:0:0:0:0:
448,192,33804,128,0,33971:0:0:0:0:
64,192,33971,1,0,0:0:0:95:snare.wav
192,192,33971,1,0,0:0:0:0:
64,192,34221,1,0,0:0:0:95:snare.wav
320,192,34221,1,0,0:0:0:0:
320,192,34471,128,0,34971:0:0:0:85:kick.wav
448,192,34471,128,0,34971:0:0:0:0:
64,192,34804,1,0,0:0:0:0:
64,192,34971,1,0,0:0:0:0:
192,192,35054,1,0,0:0:0:0:
320,192,35138,128,0,35304:0:0:0:85:kick.wav
448,192,35138,128,0,35471:0:0:0:0:
192,192,35304,128,0,35471:0:0:0:0:
64,192,35471,128,0,35638:0:0:0:0:
320,192,35638,1,0,0:0:0:95:snare.wav
448,192,35638,1,0,0:0:0:0:
192,192,35804,1,0,0:0:0:0:
320,192,35971,128,0,36471:0:0:0:85:kick.wav
448,192,35971,128,0,36471:0:0:0:0:
64,192,36138,1,0,0:0:0:0:
64,192,36304,1,0,0:0:0:0:
192,192,36471,128,0,36638:0:0:0:0:
64,192,36638,1,0,0:0:0:95:snare.wav
320,192,36638,1,0,0:0:0:0:
192,192,36888,1,0,0:0:0:95:snare.wav
448,192,36888,1,0,0:0:0:0:
320,192,37138,128,0,37638:0:0:0:85:kick.wav
448,192,37138,128,0,37638:0:0:0:0:
64,192,37471,1,0,0:0:0:0:
64,192,37638,1,0,0:0:0:95:snare.wav
192,192,37638,1,0,0:0:0:0:
320,192,37804,128,0,37971:0:0:0:85:kick.wav
448,192,37804,128,0,38138:0:0:0:0:
64,192,37971,128,0,38138:0:0:0:0:
192,192,38138,128,0,38304:0:0:0:0:
320,192,38304,128,0,38471:0:0:0:95:snare.wav
448,192,38304,1,0,0:0:0:0:
64,192,38471,1,0,0:0:0:0:
320,192,38638,128,0,38804:0:0:0:85:kick.wav
448,192,38638,128,0,38971:0:0:0:0:
64,192,38971,128,0,39304:0:0:0:85:kick.wav
192,192,38971,128,0,39138:0:0:0:0:
192,192,39304,1,0,0:0:0:95:snare.wav
448,192,39304,1,0,0:0:0:0:
64,192,39554,1,0,0:0:0:95:snare.wav
320,192,39554,1,0,0:0:0:0:
64,192,39804,128,0,40304:0:0:0:85:kick.wav
192,192,39804,128,0,40304:0:0:0:0:
448,192,40138,1,0,0:0:0:0:
448,192,40304,1,0,0:0:0:0:
320,192,40388,1,0,0:0:0:0:
64,192,40471,128,0,40804:0:0:0:85:kick.wav
192,192,40471,128,0,40638:0:0:0:0:
448,192,40638,128,0,40804:0:0:0:0:
320,192,40804,128,0,40971:0:0:0:0:
64,192,40971,1,0,0:0:0:95:snare.wav
192,192,40971,128,0,41138:0:0:0:0:
448,192,41138,128,0,41304:0:0:0:0:
64,192,41304,128,0,41638:0:0:0:85:kick.wav
192,192,41304,128,0,41471:0:0:0:0:
192,192,41638,1,0,0:0:0:95:snare.wav
448,192,41638,1,0,0:0:0:0:
320,192,41804,128,0,41971:0:0:0:85:kick.wav
448,192,41804,128,0,42138:0:0:0:0:
64,192,42138,1,0,0:0:0:95:snare.wav
320,192,42138,1,0,0:0:0:0:
64,192,42304,128,0,42638:0:0:0:85:kick.wav
192,192,42304,128,0,42471:0:0:0:0:
320,192,42638,128,0,43638:0:0:0:0:
192,192,42971,128,0,43304:0:0:0:0:
448,192,43304,128,0,43638:0:0:0:0:
192,192,43638,128,0,43804:0:0:0:0:
64,192,43804,128,0,43971:0:0:0:0:
320,192,43971,128,0,44304:0:0:0:85:kick.wav
448,192,43971,128,0,44304:0:0:0:0:
64,192,44304,128,0,44471:0:0:0:85:kick.wav
192,192,44304,128,0,44471:0:0:0:0:
448,192,44471,128,0,44638:0:0:0:0:
64,192,44638,1,0,0:0:0:95:snare.wav
320,192,44638,1,0,0:0:0:0:
192,192,44888,1,0,0:0:0:95:snare.wav
448,192,44888,1,0,0:0:0:0:
64,192,45138,128,0,45471:0:0:0:85:kick.wav
192,192,45138,128,0,45471:0:0:0:0:
448,192,45471,128,0,45804:0:0:0:0:
64,192,45804,128,0,46138:0:0:0:85:kick.wav
192,192,45804,128,0,46138:0:0:0:0:
320,192,46138,128,0,46304:0:0:0:0:
192,192,46304,1,0,0:0:0:95:snare.wav
448,192,46304,1,0,0:0:0:0:
64,192,46471,1,0,0:0:0:0:
192,192,46554,1,0,0:0:0:0:
320,192,46638,128,0,46971:0:0:0:85:kick.wav
448,192,46638,128,0,46971:0:0:0:0:
64,192,46971,1,0,0:0:0:0:
320,192,47138,1,0,0:0:0:0:
64,192,47221,1,0,0:0:0:0:
320,192,47304,128,0,47804:0:0:0:95:snare.wav
448,192,47304,1,0,0:0:0:0:
64,192,47554,1,0,0:0:0:95:snare.wav
192,192,47554,1,0,0:0:0:0:
64,192,47804,1,0,0:0:0:85:kick.wav
448,192,47804,128,0,48304:0:0:0:0:
64,192,48304,1,0,0:0:0:95:snare.wav
192,192,48304,1,0,0:0:0:0:
320,192,48471,128,0,48971:0:0:0:85:kick.wav
448,192,48471,128,0,48638:0:0:0:0:
64,192,48638,1,0,0:0:0:0:
64,192,48804,1,0,0:0:0:0:
192,192,48971,1,0,0:0:0:95:snare.wav
448,192,48971,1,0,0:0:0:0:
192,192,49138,1,0,0:0:0:0:
64,192,49304,128,0,49638:0:0:0:85:kick.wav
448,192,49304,1,0,0:0:0:0:
448,192,49471,128,0,49638:0:0:0:0:
192,192,49638,1,0,0:0:0:85:kick.wav
320,192,49638,128,0,49971:0:0:0:0:
192,192,49804,128,0,49971:0:0:0:0:
64,192,49971,1,0,0:0:0:95:snare.wav
448,192,49971,1,0,0:0:0:0:
192,192,50221,1,0,0:0:0:95:snare.wav
320,192,50221,1,0,0:0:0:0:
320,192,50471,128,0,50804:0:0:0:85:kick.wav
448,192,50471,128,0,50804:0:0:0:0:
64,192,50804,1,0,0:0:0:0:
320,192,50971,1,0,0:0:0:0:
448,192,51054,1,0,0:0:0:0:
64,192,51138,128,0,51471:0:0:0:85:kick.wav
192,192,51138,128,0,51471:0:0:0:0:
320,192,51471,1,0,0:0:0:0:
64,192,51638,1,0,0:0:0:95:snare.wav
448,192,51638,1,0,0:0:0:0:
192,192,51804,1,0,0:0:0:0:
320,192,51971,128,0,52638:0:0:0:85:kick.wav
448,192,51971,1,0,0:0:0:0:
192,192,52471,1,0,0:0:0:85:kick.wav
64,192,52638,1,0,0:0:0:95:snare.wav
448,192,52638,1,0,0:0:0:0:
320,192,52804,1,0,0:0:0:0:
448,192,52888,1,0,0:0:0:0:
64,192,52971,1,0,0:0:0:85:kick.wav
192,192,52971,1,0,0:0:0:0:
192,192,53304,128,0,53471:0:0:0:85:kick.wav
320,192,53304,1,0,0:0:0:0:
320,192,53471,128,0,53638:0:0:0:0:
64,192,53638,1,0,0:0:0:0:
448,192,53804,1,0,0:0:0:0:
64,192,53971,128,0,54138:0:0:0:0:
448,192,54138,1,0,0:0:0:0:
448,192,54304,128,0,54638:0:0:0:0:
64,192,54638,128,0,54804:0:0:0:85:kick.wav
320,192,54638,128,0,54804:0:0:0:0:
192,192,54804,1,0,0:0:0:0:
64,192,55138,128,0,55304:0:0:0:0:
192,192,55304,128,0,55471:0:0:0:85:kick.wav
448,192,55304,128,0,55471:0:0:0:0:
320,192,55471,1,0,0:0:0:0:
448,192,55804,128,0,55971:0:0:0:0:
64,192,55971,128,0,56138:0:0:0:85:kick.wav
320,192,55971,128,0,56138:0:0:0:0:
192,192,56138,128,0,56304:0:0:0:0:
448,192,56304,1,0,0:0:0:0:
64,192,56471,1,0,0:0:0:0:
192,192,56554,1,0,0:0:0:0:
320,192,56638,1,0,0:0:0:95:snare.wav
448,192,56638,1,0,0:0:0:0:
448,192,56804,1,0,0:0:0:0:
192,192,56971,1,0,0:0:0:85:kick.wav
320,192,57138,1,0,0:0:0:0:
64,192,57304,1,0,0:0:0:0:
192,192,57554,1,0,0:0:0:0:
320,192,57638,1,0,0:0:0:85:kick.wav
64,192,57763,1,0,0:0:0:0:
192,192,57971,1,0,0:0:0:95:snare.wav
448,192,57971,1,0,0:0:0:0:
64,192,58221,1,0,0:0:0:0:
320,192,58304,1,0,0:0:0:85:kick.wav
192,192,58429,1,0,0:0:0:0:
64,192,58638,1,0,0:0:0:0:
192,192,58888,1,0,0:0:0:0:
320,192,58971,1,0,0:0:0:85:kick.wav
64,192,59096,1,0,0:0:0:0:
192,192,59304,1,0,0:0:0:95:snare.wav
448,192,59304,1,0,0:0:0:0:
448,192,59638,1,0,0:0:0:0:
192,192,59721,1,0,0:0:0:0:
320,192,59804,1,0,0:0:0:0:
64,192,59888,1,0,0:0:0:0:
192,192,59971,128,0,60138:0:0:0:85:kick.wav
448,192,59971,128,0,60138:0:0:0:0:
320,192,60138,1,0,0:0:0:0:
448,192,60471,128,0,60638:0:0:0:0:
64,192,60638,128,0,60804:0:0:0:85:kick.wav
320,192,60638,128,0,60804:0:0:0:0:
192,192,60804,1,0,0:0:0:0:
64,192,61138,128,0,61304:0:0:0:0:
192,192,61304,128,0,61471:0:0:0:85:kick.wav
448,192,61304,128,0,61471:0:0:0:0:
320,192,61471,1,0,0:0:0:0:
64,192,61638,1,0,0:0:0:0:
448,192,61804,1,0,0:0:0:0:
320,192,61888,1,0,0:0:0:0:
64,192,61971,1,0,0:0:0:95:snare.wav
192,192,61971,1,0,0:0:0:0:
64,192,62138,1,0,0:0:0:0:
320,192,62304,1,0,0:0:0:85:kick.wav
192,192,62471,1,0,0:0:0:0:
448,192,62638,1,0,0:0:0:0:
320,192,62888,1,0,0:0:0:0:
192,192,62971,1,0,0:0:0:85:kick.wav
448,192,63096,1,0,0:0:0:0:
64,192,63304,1,0,0:0:0:95:snare.wav
320,192,63304,1,0,0:0:0:0:
448,192,63554,1,0,0:0:0:0:
192,192,63638,1,0,0:0:0:85:kick.wav
320,192,63721,1,0,0:0:0:0:
64,192,63804,1,0,0:0:0:0:
320,192,63971,1,0,0:0:0:85:kick.wav
448,192,63971,1,0,0:0:0:0:
448,192,64138,1,0,0:0:0:0:
64,192,64304,128,0,64638:0:0:0:0:
448,192,64471,128,0,64638:0:0:0:0:
192,192,64638,1,0,0:0:0:0:
320,192,64638,1,0,0:0:0:0:
192,192,64971,128,0,65304:0:0:0:0:
320,192,65138,128,0,65304:0:0:0:0:
64,192,65304,128,0,65471:0:0:0:85:kick.wav
448,192,65304,128,0,65471:0:0:0:0:
192,192,65471,1,0,0:0:0:0:
448,192,65804,128,0,65971:0:0:0:0:
64,192,65971,1,0,0:0:0:0:
320,192,66054,1,0,0:0:0:0:
64,192,66138,1,0,0:0:0:0:
320,192,66221,1,0,0:0:0:0:
64,192,66471,128,0,66638:0:0:0:0:
448,192,66638,128,0,66804:0:0:0:0:
192,192,66804,128,0,66971:0:0:0:0:
320,192,66971,1,0,0:0:0:0:
320,192,67138,128,0,67304:0:0:0:0:
64,192,67304,1,0,0:0:0:95:snare.wav
192,192,67304,1,0,0:0:0:0:
448,192,67471,1,0,0:0:0:0:
64,192,67638,1,0,0:0:0:85:kick.wav
320,192,67638,1,0,0:0:0:0:
448,192,67804,1,0,0:0:0:0:
192,192,67971,128,0,68138:0:0:0:85:kick.wav
64,192,68138,1,0,0:0:0:0:
448,192,68221,1,0,0:0:0:0:
192,192,68304,128,0,68471:0:0:0:85:kick.wav
320,192,68471,1,0,0:0:0:0:
320,192,68638,1,0,0:0:0:95:snare.wav
448,192,68638,1,0,0:0:0:0:
192,192,68804,1,0,0:0:0:0:
320,192,68971,128,0,69138:0:0:0:85:kick.wav
448,192,69138,128,0,69304:0:0:0:0:
64,192,69304,1,0,0:0:0:0:
192,192,69388,1,0,0:0:0:0:
320,192,69471,1,0,0:0:0:0:
448,192,69638,128,0,69804:0:0:0:85:kick.wav
320,192,69804,128,0,69971:0:0:0:0:
64,192,69971,1,0,0:0:0:95:snare.wav
192,192,70138,1,0,0:0:0:0:
448,192,70304,1,0,0:0:0:0:
192,192,70388,1,0,0:0:0:0:
320,192,70471,1,0,0:0:0:0:
64,192,70554,1,0,0:0:0:0:
192,192,70638,128,0,70804:0:0:0:85:kick.wav
448,192,70638,128,0,70804:0:0:0:0:
320,192,70804,1,0,0:0:0:0:
448,192,71138,128,0,71304:0:0:0:0:
64,192,71304,128,0,71471:0:0:0:85:kick.wav
320,192,71304,128,0,71471:0:0:0:0:
192,192,71471,1,0,0:0:0:0:
64,192,71804,128,0,71971:0:0:0:0:
192,192,71971,128,0,72138:0:0:0:85:kick.wav
448,192,71971,128,0,72138:0:0:0:0:
320,192,72138,128,0,72304:0:0:0:0:
64,192,72304,1,0,0:0:0:0:
448,192,72471,1,0,0:0:0:0:
320,192,72554,1,0,0:0:0:0:
64,192,72638,1,0,0:0:0:95:snare.wav
192,192,72638,1,0,0:0:0:0:
64,192,72804,1,0,0:0:0:0:
192,192,72888,1,0,0:0:0:0:
320,192,72971,1,0,0:0:0:85:kick.wav
320,192,73138,1,0,0:0:0:0:
192,192,73304,1,0,0:0:0:85:kick.wav
448,192,73638,1,0,0:0:0:0:
192,192,73971,1,0,0:0:0:0:
448,192,74138,1,0,0:0:0:0:
64,192,74304,1,0,0:0:0:0:
192,192,74388,1,0,0:0:0:0:
320,192,74471,1,0,0:0:0:0:
448,192,74554,1,0,0:0:0:0:
64,192,74638,1,0,0:0:0:85:kick.wav
192,192,74638,1,0,0:0:0:0:
64,192,74804,1,0,0:0:0:0:
320,192,74971,128,0,75304:0:0:0:0:
448,192,75138,128,0,75304:0:0:0:0:
64,192,75304,1,0,0:0:0:0:
192,192,75388,1,0,0:0:0:0:
320,192,75471,1,0,0:0:0:0:
64,192,75638,1,0,0:0:0:0:
448,192,75638,1,0,0:0:0:0:
64,192,75971,1,0,0:0:0:85:kick.wav
192,192,75971,1,0,0:0:0:0:
192,192,76304,1,0,0:0:0:0:
192,192,76638,1,0,0:0:0:0:
64,192,76888,1,0,0:0:0:0:
448,192,77138,1,0,0:0:0:0:
320,192,77304,1,0,0:0:0:0:
320,192,77471,1,0,0:0:0:0:
320,192,77638,1,0,0:0:0:0:
64,192,77971,1,0,0:0:0:0:
320,192,78221,1,0,0:0:0:0:
192,192,78471,1,0,0:0:0:0:
448,192,78638,1,0,0:0:0:0:
448,192,78971,1,0,0:0:0:0:
64,192,79304,1,0,0:0:0:0:
320,192,79554,1,0,0:0:0:0:
448,192,79804,1,0,0:0:0:0:
192,192,79971,1,0,0:0:0:0:
192,192,80138,1,0,0:0:0:0:
192,192,80304,1,0,0:0:0:0:
64,192,80638,1,0,0:0:0:0:
448,192,80888,1,0,0:0:0:0:
192,192,81138,1,0,0:0:0:0:
320,192,81304,1,0,0:0:0:0:
320,192,81638,1,0,0:0:0:0:
64,192,81971,1,0,0:0:0:0:
320,192,82221,1,0,0:0:0:0:
192,192,82471,1,0,0:0:0:0:
448,192,82638,1,0,0:0:0:0:
448,192,82804,1,0,0:0:0:0:
448,192,82971,1,0,0:0:0:0:
192,192,83304,1,0,0:0:0:0:
320,192,83554,1,0,0:0:0:0:
448,192,83804,1,0,0:0:0:0:
64,192,83971,1,0,0:0:0:0:
64,192,84304,1,0,0:0:0:0:
192,192,84638,1,0,0:0:0:0:
448,192,84888,1,0,0:0:0:0:
320,192,85138,1,0,0:0:0:0:
64,192,85304,128,0,85971:0:0:0:85:kick.wav
192,192,85804,128,0,85971:0:0:0:0:
448,192,85971,1,0,0:0:0:0:
320,192,86054,1,0,0:0:0:0:
64,192,86138,1,0,0:0:0:0:
192,192,86221,1,0,0:0:0:0:
320,192,86304,1,0,0:0:0:85:kick.wav
448,192,86304,1,0,0:0:0:0:
448,192,86471,1,0,0:0:0:0:
64,192,86638,1,0,0:0:0:85:kick.wav
64,192,86971,1,0,0:0:0:85:kick.wav
64,192,87304,1,0,0:0:0:85:kick.wav
192,192,87554,1,0,0:0:0:0:
64,192,87638,1,0,0:0:0:85:kick.wav
64,192,87804,1,0,0:0:0:0:
192,192,87971,1,0,0:0:0:85:kick.wav
192,192,88138,1,0,0:0:0:0:
192,192,88304,1,0,0:0:0:85:kick.wav
192,192,88638,1,0,0:0:0:85:kick.wav
64,192,88888,1,0,0:0:0:0:
192,192,88971,1,0,0:0:0:85:kick.wav
192,192,89138,1,0,0:0:0:0:
320,192,89304,1,0,0:0:0:85:kick.wav
320,192,89638,1,0,0:0:0:85:kick.wav
320,192,89971,1,0,0:0:0:85:kick.wav
448,192,90221,1,0,0:0:0:0:
320,192,90304,1,0,0:0:0:85:kick.wav
320,192,90471,1,0,0:0:0:0:
448,192,90638,1,0,0:0:0:85:kick.wav
448,192,90804,1,0,0:0:0:0:
448,192,90971,1,0,0:0:0:85:kick.wav
448,192,91304,1,0,0:0:0:85:kick.wav
320,192,91554,1,0,0:0:0:0:
448,192,91638,1,0,0:0:0:85:kick.wav
448,192,91804,1,0,0:0:0:0:
64,192,91971,1,0,0:0:0:85:kick.wav
192,192,91971,1,0,0:0:0:0:
192,192,92138,1,0,0:0:0:85:kick.wav
192,192,92304,1,0,0:0:0:85:kick.wav
320,192,92471,1,0,0:0:0:85:kick.wav
320,192,92638,1,0,0:0:0:85:kick.wav
320,192,92804,1,0,0:0:0:85:kick.wav
192,192,92971,1,0,0:0:0:85:kick.wav
192,192,93138,1,0,0:0:0:85:kick.wav
448,192,93304,1,0,0:0:0:0:
64,192,93471,1,0,0:0:0:0:
448,192,93638,1,0,0:0:0:0:
192,192,93804,1,0,0:0:0:0:
320,192,93971,1,0,0:0:0:0:
192,192,94138,1,0,0:0:0:0:
448,192,94304,1,0,0:0:0:0:
320,192,94388,1,0,0:0:0:0:
192,192,94471,1,0,0:0:0:0:
64,192,94554,1,0,0:0:0:0:
320,192,94638,1,0,0:0:0:85:kick.wav
448,192,94638,128,0,94888:0:0:0:0:
192,192,94888,128,0,95138:0:0:0:0:
64,192,95138,128,0,95554:0:0:0:0:
320,192,95554,128,0,95804:0:0:0:0:
192,192,95804,128,0,95971:0:0:0:0:
64,192,95971,128,0,96638:0:0:0:0:
448,192,96304,128,0,96638:0:0:0:0:
192,192,96638,128,0,96804:0:0:0:0:
448,192,96804,128,0,96971:0:0:0:0:
192,192,96971,1,0,0:0:0:95:snare.wav
320,192,96971,1,0,0:0:0:0:
448,192,97304,1,0,0:0:0:85:kick.wav
320,192,97388,1,0,0:0:0:0:
192,192,97471,1,0,0:0:0:0:
64,192,97554,1,0,0:0:0:0:
320,192,97638,1,0,0:0:0:0:
192,192,97804,1,0,0:0:0:0:
448,192,97971,1,0,0:0:0:0:
320,192,98138,1,0,0:0:0:0:
64,192,98304,1,0,0:0:0:0:
192,192,98388,1,0,0:0:0:0:
320,192,98471,1,0,0:0:0:0:
448,192,98638,1,0,0:0:0:0:
64,192,98804,1,0,0:0:0:0:
192,192,98971,1,0,0:0:0:0:
320,192,99054,1,0,0:0:0:0:
64,192,99138,1,0,0:0:0:0:
448,192,99221,1,0,0:0:0:0:
192,192,99304,1,0,0:0:0:0:
64,192,99304,1,0,0:0:0:85:kick.wav
192,192,99638,1,0,0:0:0:95:snare.wav
320,192,99638,1,0,0:0:0:85:kick.wav
448,192,99638,1,0,0:0:0:0:
64,192,99971,1,0,0:0:0:85:kick.wav
192,192,99971,1,0,0:0:0:0:
448,192,100054,1,0,0:0:0:0:
320,192,100138,1,0,0:0:0:0:
192,192,100221,1,0,0:0:0:0:
64,192,100304,1,0,0:0:0:95:snare.wav
448,192,100304,1,0,0:0:0:0:
320,192,100638,1,0,0:0:0:85:kick.wav
64,192,100804,1,0,0:0:0:0:
192,192,100888,1,0,0:0:0:0:
320,192,100971,1,0,0:0:0:95:snare.wav
448,192,100971,1,0,0:0:0:0:
192,192,101138,1,0,0:0:0:0:
448,192,101304,1,0,0:0:0:85:kick.wav
192,192,101471,1,0,0:0:0:0:
64,192,101554,1,0,0:0:0:0:
320,192,101638,1,0,0:0:0:95:snare.wav
448,192,101638,1,0,0:0:0:0:
192,192,101804,1,0,0:0:0:0:
64,192,101971,1,0,0:0:0:85:kick.wav
448,192,102054,1,0,0:0:0:0:
320,192,102304,128,0,102471:0:0:0:0:
192,192,102471,128,0,102638:0:0:0:0:
320,192,102638,1,0,0:0:0:85:kick.wav
448,192,102638,1,0,0:0:0:0:
64,192,102804,1,0,0:0:0:0:
192,192,102971,1,0,0:0:0:95:snare.wav
448,192,102971,1,0,0:0:0:0:
320,192,103138,1,0,0:0:0:0:
192,192,103221,1,0,0:0:0:0:
64,192,103304,1,0,0:0:0:85:kick.wav
320,192,103471,1,0,0:0:0:0:
448,192,103554,1,0,0:0:0:0:
64,192,103638,1,0,0:0:0:95:snare.wav
192,192,103638,1,0,0:0:0:0:
320,192,103804,1,0,0:0:0:0:
448,192,103971,128,0,104138:0:0:0:85:kick.wav
192,192,104138,1,0,0:0:0:0:
320,192,104304,128,0,104471:0:0:0:95:snare.wav
448,192,104304,1,0,0:0:0:0:
64,192,104471,1,0,0:0:0:0:
192,192,104638,128,0,104804:0:0:0:85:kick.wav
448,192,104804,1,0,0:0:0:0:
64,192,104971,128,0,105138:0:0:0:95:snare.wav
192,192,104971,1,0,0:0:0:0:
320,192,105138,1,0,0:0:0:0:
64,192,105304,1,0,0:0:0:85:kick.wav
192,192,105304,1,0,0:0:0:0:
448,192,105388,1,0,0:0:0:0:
320,192,105471,1,0,0:0:0:0:
192,192,105554,1,0,0:0:0:0:
64,192,105638,1,0,0:0:0:95:snare.wav
448,192,105638,1,0,0:0:0:0:
448,192,105804,1,0,0:0:0:85:kick.wav
64,192,105971,1,0,0:0:0:0:
192,192,106054,1,0,0:0:0:0:
320,192,106138,1,0,0:0:0:95:snare.wav
448,192,106138,1,0,0:0:0:0:
320,192,106304,1,0,0:0:0:85:kick.wav
192,192,106388,1,0,0:0:0:0:
64,192,106471,1,0,0:0:0:0:
448,192,106554,1,0,0:0:0:0:
320,192,106638,1,0,0:0:0:0:
64,192,106971,1,0,0:0:0:0:
192,192,107138,1,0,0:0:0:0:
320,192,107221,1,0,0:0:0:0:
448,192,107304,128,0,107471:0:0:0:0:
192,192,107471,128,0,107638:0:0:0:0:
320,192,107638,128,0,107971:0:0:0:0:
64,192,107804,1,0,0:0:0:0:
64,192,107971,1,0,0:0:0:85:kick.wav
192,192,107971,1,0,0:0:0:0:
448,192,108054,1,0,0:0:0:0:
320,192,108138,1,0,0:0:0:0:
192,192,108221,1,0,0:0:0:0:
64,192,108304,1,0,0:0:0:95:snare.wav
448,192,108304,1,0,0:0:0:0:
320,192,108471,1,0,0:0:0:0:
192,192,108638,1,0,0:0:0:85:kick.wav
64,192,108804,1,0,0:0:0:0:
192,192,108888,1,0,0:0:0:0:
320,192,108971,1,0,0:0:0:95:snare.wav
448,192,108971,1,0,0:0:0:0:
192,192,109138,1,0,0:0:0:0:
448,192,109304,1,0,0:0:0:85:kick.wav
64,192,109471,1,0,0:0:0:0:
192,192,109554,1,0,0:0:0:0:
320,192,109638,1,0,0:0:0:95:snare.wav
448,192,109638,1,0,0:0:0:0:
64,192,109804,1,0,0:0:0:0:
448,192,109971,1,0,0:0:0:85:kick.wav
192,192,110054,1,0,0:0:0:0:
64,192,110304,1,0,0:0:0:95:snare.wav
320,192,110304,1,0,0:0:0:0:
192,192,110471,1,0,0:0:0:0:
320,192,110638,1,0,0:0:0:85:kick.wav
448,192,110638,1,0,0:0:0:0:
64,192,110721,1,0,0:0:0:0:
192,192,110804,1,0,0:0:0:0:
320,192,110888,1,0,0:0:0:0:
64,192,110971,1,0,0:0:0:95:snare.wav
448,192,110971,1,0,0:0:0:0:
192,192,111138,1,0,0:0:0:0:
320,192,111304,1,0,0:0:0:85:kick.wav
64,192,111471,1,0,0:0:0:0:
192,192,111554,1,0,0:0:0:0:
320,192,111638,1,0,0:0:0:95:snare.wav
448,192,111638,1,0,0:0:0:0:
448,192,111804,1,0,0:0:0:0:
64,192,111971,128,0,112138:0:0:0:85:kick.wav
320,192,112138,1,0,0:0:0:0:
64,192,112304,1,0,0:0:0:95:snare.wav
192,192,112304,128,0,112471:0:0:0:0:
448,192,112471,1,0,0:0:0:0:
320,192,112638,128,0,112804:0:0:0:85:kick.wav
64,192,112804,1,0,0:0:0:0:
448,192,112971,128,0,113138:0:0:0:0:
192,192,113138,1,0,0:0:0:0:
320,192,113304,1,0,0:0:0:85:kick.wav
448,192,113304,1,0,0:0:0:0:
64,192,113388,1,0,0:0:0:0:
192,192,113471,1,0,0:0:0:0:
320,192,113554,1,0,0:0:0:0:
448,192,113638,1,0,0:0:0:0:
64,192,113971,1,0,0:0:0:0:
192,192,114304,1,0,0:0:0:0:
320,192,114471,1,0,0:0:0:0:
448,192,114638,128,0,114804:0:0:0:0:
320,192,114971,128,0,115138:0:0:0:0:
192,192,115304,128,0,115471:0:0:0:0:
64,192,115638,128,0,115804:0:0:0:85:kick.wav
448,192,115638,1,0,0:0:0:0:
64,192,115971,1,0,0:0:0:85:kick.wav
192,192,115971,1,0,0:0:0:0:
448,192,116054,1,0,0:0:0:0:
320,192,116138,1,0,0:0:0:0:
192,192,116221,1,0,0:0:0:0:
64,192,116304,1,0,0:0:0:0:
320,192,116471,1,0,0:0:0:85:kick.wav
64,192,116638,1,0,0:0:0:95:snare.wav
448,192,116638,1,0,0:0:0:0:
192,192,116804,1,0,0:0:0:0:
448,192,116971,1,0,0:0:0:85:kick.wav
320,192,117054,1,0,0:0:0:0:
192,192,117138,1,0,0:0:0:0:
64,192,117221,1,0,0:0:0:0:
320,192,117304,1,0,0:0:0:85:kick.wav
448,192,117304,1,0,0:0:0:0:
192,192,117471,1,0,0:0:0:0:
64,192,117638,1,0,0:0:0:0:
320,192,117804,128,0,118138:0:0:0:0:
64,192,117971,128,0,118138:0:0:0:0:
192,192,118138,1,0,0:0:0:0:
64,192,118304,1,0,0:0:0:0:
448,192,118304,1,0,0:0:0:0:
320,192,118471,1,0,0:0:0:0:
192,192,118554,1,0,0:0:0:0:
448,192,118638,128,0,118804:0:0:0:0:
64,192,118804,1,0,0:0:0:0:
320,192,118971,1,0,0:0:0:85:kick.wav
448,192,118971,128,0,119304:0:0:0:0:
64,192,119138,1,0,0:0:0:0:
64,192,119304,1,0,0:0:0:95:snare.wav
192,192,119304,1,0,0:0:0:0:
448,192,119471,1,0,0:0:0:0:
320,192,119638,1,0,0:0:0:0:
64,192,119804,1,0,0:0:0:85:kick.wav
192,192,119804,128,0,120304:0:0:0:0:
64,192,120138,1,0,0:0:0:0:
448,192,120304,1,0,0:0:0:0:
448,192,120471,1,0,0:0:0:0:
320,192,120638,1,0,0:0:0:95:snare.wav
448,192,120638,1,0,0:0:0:0:
64,192,120804,1,0,0:0:0:0:
192,192,120971,1,0,0:0:0:0:
320,192,121304,1,0,0:0:0:85:kick.wav
448,192,121304,128,0,121471:0:0:0:0:
64,192,121471,1,0,0:0:0:0:
448,192,121638,128,0,121971:0:0:0:0:
64,192,121804,1,0,0:0:0:0:
64,192,121971,1,0,0:0:0:95:snare.wav
192,192,121971,1,0,0:0:0:0:
448,192,122138,1,0,0:0:0:0:
320,192,122304,1,0,0:0:0:0:
64,192,122471,1,0,0:0:0:85:kick.wav
192,192,122471,128,0,122971:0:0:0:0:
64,192,122804,1,0,0:0:0:0:
448,192,122971,1,0,0:0:0:0:
448,192,123138,1,0,0:0:0:0:
320,192,123304,1,0,0:0:0:95:snare.wav
448,192,123304,1,0,0:0:0:0:
64,192,123471,1,0,0:0:0:0:
320,192,123554,1,0,0:0:0:0:
192,192,123638,1,0,0:0:0:0:
64,192,123804,1,0,0:0:0:0:
320,192,123971,1,0,0:0:0:85:kick.wav
448,192,123971,128,0,124138:0:0:0:0:
64,192,124138,1,0,0:0:0:0:
448,192,124304,128,0,124638:0:0:0:0:
64,192,124471,1,0,0:0:0:0:
64,192,124638,1,0,0:0:0:95:snare.wav
192,192,124638,1,0,0:0:0:0:
448,192,124804,1,0,0:0:0:0:
320,192,124971,1,0,0:0:0:0:
64,192,125138,1,0,0:0:0:85:kick.wav
192,192,125138,128,0,125638:0:0:0:0:
64,192,125471,1,0,0:0:0:0:
448,192,125638,1,0,0:0:0:0:
448,192,125804,1,0,0:0:0:0:
320,192,125971,1,0,0:0:0:95:snare.wav
448,192,125971,1,0,0:0:0:0:
64,192,126138,1,0,0:0:0:0:
192,192,126304,1,0,0:0:0:0:
320,192,126638,1,0,0:0:0:85:kick.wav
448,192,126638,128,0,126804:0:0:0:0:
64,192,126804,1,0,0:0:0:0:
448,192,126971,128,0,127304:0:0:0:0:
64,192,127138,1,0,0:0:0:0:
64,192,127304,1,0,0:0:0:95:snare.wav
192,192,127304,1,0,0:0:0:0:
448,192,127471,1,0,0:0:0:85:kick.wav
192,192,127554,1,0,0:0:0:85:kick.wav
320,192,127638,1,0,0:0:0:85:kick.wav
448,192,127721,1,0,0:0:0:85:kick.wav
64,192,127804,1,0,0:0:0:95:snare.wav
192,192,127804,1,0,0:0:0:0:
64,192,128221,128,0,128471:0:0:0:0:
320,192,128471,1,0,0:0:0:0:
448,192,128638,1,0,0:0:0:0:
64,192,128804,1,0,0:0:0:0:
192,192,128971,1,0,0:0:0:0:
448,192,129138,1,0,0:0:0:0:
320,192,129304,1,0,0:0:0:0:
