osu file format v14

[General]
AudioFilename: audio.mp3
AudioLeadIn: 0
PreviewTime: 31971
Countdown: 0
SampleSet: Drum
StackLeniency: 0.7
Mode: 3
LetterboxInBreaks: 0
SpecialStyle: 0
WidescreenStoryboard: 1

[Editor]
Bookmarks: 1317,6650,11983,12316,17316,22650,27983,33316,43983,54650,65316,75983,86650,97316,99983,107983,118650,127816
DistanceSpacing: 0.9
BeatDivisor: 4
GridSize: 32
TimelineZoom: 2.3

[Metadata]
Title:Freefall
TitleUnicode:フリーフォール
Artist:Zekk
ArtistUnicode:Zekk
Creator:Nimis
Version:HYDRIA'S HARD
Source:WACCA Lily
Tags:future bass core hardcore trap dubstep dance drum and n dnb d&b furiforu jersey riddim colour video game electronic instrumental minhyuk choi chester park hp Hydria Nihilese
BeatmapID:2959764
BeatmapSetID:1402506

[Difficulty]
HPDrainRate:7.8
CircleSize:4
OverallDifficulty:7.5
ApproachRate:5
SliderMultiplier:1.4
SliderTickRate:1

[Events]
//Background and Video events
0,0,"cvxcvzx.png",0,0
//Break Periods
//Storyboard Layer 0 (Background)
//Storyboard Layer 1 (Fail)
//Storyboard Layer 2 (Pass)
//Storyboard Layer 3 (Foreground)
//Storyboard Layer 4 (Overlay)
//Storyboard Sound Samples

[TimingPoints]
1305,333.333333333333,4,3,1,50,1,0
12304,-100,4,3,1,70,0,0
22638,-100,4,3,1,60,0,0
33304,-100,4,3,1,90,0,0
54638,-100,4,3,1,80,0,0
75971,-100,4,3,1,70,0,0
86638,-100,4,3,1,80,0,0
94638,-100,4,3,1,60,0,0
99638,-100,4,3,1,90,0,0
128221,-100,4,3,1,50,0,0

[HitObjects]
448,192,1305,128,0,1554:0:0:0:85:kick.wav
64,192,1888,128,0,2138:0:0:0:0:
320,192,2138,128,0,2388:0:0:0:0:
192,192,2638,128,0,2971:0:0:0:0:
64,192,2971,128,0,3138:0:0:0:0:
320,192,3304,128,0,3638:0:0:0:0:
192,192,3638,128,0,3804:0:0:0:0:
448,192,3804,128,0,4304:0:0:0:0:
192,192,4804,128,0,4971:0:0:0:0:
64,192,4971,128,0,5138:0:0:0:0:
320,192,5138,128,0,5304:0:0:0:0:
64,192,5304,128,0,5638:0:0:0:0:
320,192,5971,1,0,0:0:0:0:
448,192,5971,1,0,0:0:0:0:
64,192,6138,128,0,6221:0:0:0:0:
64,192,6304,128,0,6388:0:0:0:0:
64,192,6471,128,0,6554:0:0:0:0:
320,192,6471,128,0,6638:0:0:0:0:
192,192,6638,128,0,6971:0:0:0:85:kick.wav
64,192,7138,1,0,0:0:0:85:kick.wav
192,192,7138,1,0,0:0:0:0:
64,192,7304,1,0,0:0:0:95:snare.wav
320,192,7304,1,0,0:0:0:0:
448,192,7304,128,0,7638:0:0:0:0:
320,192,7804,1,0,0:0:0:85:kick.wav
448,192,7804,1,0,0:0:0:0:
64,192,7971,128,0,8304:0:0:0:0:
320,192,8138,1,0,0:0:0:85:kick.wav
448,192,8138,1,0,0:0:0:0:
320,192,8471,1,0,0:0:0:85:kick.wav
448,192,8471,1,0,0:0:0:0:
64,192,8638,1,0,0:0:0:95:snare.wav
192,192,8638,1,0,0:0:0:0:
320,192,8638,128,0,8971:0:0:0:0:
64,192,8971,1,0,0:0:0:85:kick.wav
192,192,8971,128,0,9138:0:0:0:0:
448,192,9138,128,0,9638:0:0:0:0:
64,192,9304,1,0,0:0:0:85:kick.wav
192,192,9304,1,0,0:0:0:0:
64,192,9804,1,0,0:0:0:85:kick.wav
192,192,9804,1,0,0:0:0:0:
64,192,9971,1,0,0:0:0:95:snare.wav
320,192,9971,1,0,0:0:0:0:
448,192,9971,1,0,0:0:0:0:
192,192,10054,1,0,0:0:0:0:
320,192,10138,128,0,10304:0:0:0:0:
448,192,10221,1,0,0:0:0:0:
64,192,10304,128,0,10471:0:0:0:0:
192,192,10388,1,0,0:0:0:0:
448,192,10471,128,0,10971:0:0:0:85:kick.wav
192,192,10971,128,0,11304:0:0:0:0:
320,192,11304,128,0,11638:0:0:0:0:
448,192,11471,128,0,11804:0:0:0:0:
64,192,11638,128,0,11804:0:0:0:0:
192,192,11804,128,0,11971:0:0:0:0:
320,192,11971,128,0,12304:0:0:0:0:
64,192,12304,128,0,12388:0:0:0:85:kick.wav
192,192,12304,1,0,0:0:0:0:
64,192,12471,128,0,12554:0:0:0:0:
320,192,12638,128,0,12721:0:0:0:85:kick.wav
448,192,12638,1,0,0:0:0:0:
192,192,12804,128,0,12888:0:0:0:0:
320,192,12971,1,0,0:0:0:85:kick.wav
448,192,12971,128,0,13054:0:0:0:0:
192,192,13138,128,0,13221:0:0:0:0:
64,192,13304,1,0,0:0:0:85:kick.wav
448,192,13304,128,0,13471:0:0:0:0:
64,192,13638,128,0,13804:0:0:0:85:kick.wav
192,192,13638,1,0,0:0:0:0:
448,192,13721,1,0,0:0:0:0:
320,192,13804,1,0,0:0:0:0:
192,192,13888,1,0,0:0:0:0:
320,192,13971,128,0,14138:0:0:0:85:kick.wav
448,192,13971,1,0,0:0:0:0:
64,192,14304,1,0,0:0:0:85:kick.wav
192,192,14304,128,0,14471:0:0:0:0:
448,192,14388,1,0,0:0:0:0:
320,192,14471,1,0,0:0:0:0:
64,192,14554,1,0,0:0:0:0:
320,192,14638,128,0,14721:0:0:0:85:kick.wav
448,192,14638,1,0,0:0:0:0:
320,192,14804,128,0,14888:0:0:0:0:
64,192,14971,128,0,15054:0:0:0:85:kick.wav
192,192,14971,1,0,0:0:0:0:
64,192,15138,128,0,15221:0:0:0:0:
320,192,15304,1,0,0:0:0:85:kick.wav
448,192,15304,128,0,15388:0:0:0:0:
192,192,15471,128,0,15554:0:0:0:0:
320,192,15638,1,0,0:0:0:85:kick.wav
448,192,15638,128,0,15721:0:0:0:0:
64,192,15804,128,0,16304:0:0:0:85:kick.wav
192,192,15804,1,0,0:0:0:0:
320,192,16138,128,0,16221:0:0:0:0:
448,192,16304,128,0,16388:0:0:0:0:
192,192,16388,128,0,16471:0:0:0:0:
448,192,16471,128,0,16554:0:0:0:85:kick.wav
192,192,16554,128,0,16638:0:0:0:0:
64,192,16638,1,0,0:0:0:95:snare.wav
320,192,16638,1,0,0:0:0:0:
448,192,16638,1,0,0:0:0:0:
64,192,16804,1,0,0:0:0:0:
320,192,16971,128,0,17054:0:0:0:85:kick.wav
192,192,17138,128,0,17221:0:0:0:0:
320,192,17304,128,0,17388:0:0:0:85:kick.wav
448,192,17304,1,0,0:0:0:0:
320,192,17471,128,0,17554:0:0:0:85:kick.wav
64,192,17638,128,0,17721:0:0:0:85:kick.wav
192,192,17638,1,0,0:0:0:0:
64,192,17804,128,0,17888:0:0:0:85:kick.wav
320,192,17971,1,0,0:0:0:85:kick.wav
448,192,17971,128,0,18054:0:0:0:0:
320,192,18138,128,0,18221:0:0:0:85:kick.wav
64,192,18304,128,0,18388:0:0:0:85:kick.wav
192,192,18304,1,0,0:0:0:0:
192,192,18471,128,0,18554:0:0:0:85:kick.wav
320,192,18638,1,0,0:0:0:85:kick.wav
448,192,18638,128,0,18721:0:0:0:0:
448,192,18804,1,0,0:0:0:85:kick.wav
64,192,18971,128,0,19054:0:0:0:85:kick.wav
192,192,18971,1,0,0:0:0:0:
64,192,19138,1,0,0:0:0:85:kick.wav
320,192,19304,128,0,19388:0:0:0:85:kick.wav
448,192,19304,1,0,0:0:0:0:
320,192,19471,1,0,0:0:0:85:kick.wav
64,192,19638,1,0,0:0:0:85:kick.wav
192,192,19638,128,0,19721:0:0:0:0:
192,192,19804,128,0,19888:0:0:0:85:kick.wav
320,192,19971,1,0,0:0:0:85:kick.wav
448,192,19971,1,0,0:0:0:0:
64,192,20054,1,0,0:0:0:85:kick.wav
320,192,20138,1,0,0:0:0:85:kick.wav
192,192,20221,1,0,0:0:0:85:kick.wav
64,192,20304,1,0,0:0:0:85:kick.wav
448,192,20304,1,0,0:0:0:0:
320,192,20388,1,0,0:0:0:85:kick.wav
192,192,20471,1,0,0:0:0:85:kick.wav
448,192,20554,1,0,0:0:0:85:kick.wav
64,192,20638,1,0,0:0:0:85:kick.wav
192,192,20721,1,0,0:0:0:85:kick.wav
320,192,20804,128,0,20971:0:0:0:85:kick.wav
192,192,20888,128,0,21054:0:0:0:85:kick.wav
64,192,20971,128,0,21138:0:0:0:85:kick.wav
448,192,21138,128,0,21638:0:0:0:85:kick.wav
320,192,21138,1,0,0:0:0:0:
320,192,21638,1,0,0:0:0:0:
64,192,21804,1,0,0:0:0:0:
192,192,21888,1,0,0:0:0:0:
448,192,21971,1,0,0:0:0:0:
320,192,22054,1,0,0:0:0:0:
192,192,22138,1,0,0:0:0:0:
320,192,22304,128,0,22388:0:0:0:95:snare.wav
192,192,22471,128,0,22554:0:0:0:0:
320,192,22638,1,0,0:0:0:85:kick.wav
448,192,22638,128,0,22804:0:0:0:0:
448,192,22971,128,0,23138:0:0:0:0:
448,192,23304,128,0,23471:0:0:0:0:
448,192,23638,128,0,23804:0:0:0:0:
448,192,23971,128,0,24138:0:0:0:0:
64,192,24138,1,0,0:0:0:0:
192,192,24221,1,0,0:0:0:0:
448,192,24304,128,0,24471:0:0:0:0:
64,192,24471,1,0,0:0:0:0:
448,192,24638,128,0,24804:0:0:0:0:
192,192,24721,1,0,0:0:0:0:
64,192,24804,1,0,0:0:0:0:
448,192,24971,128,0,25138:0:0:0:0:
320,192,25138,1,0,0:0:0:0:
64,192,25221,1,0,0:0:0:0:
448,192,25304,128,0,25471:0:0:0:0:
192,192,25388,1,0,0:0:0:0:
64,192,25471,1,0,0:0:0:0:
320,192,25554,1,0,0:0:0:0:
448,192,25638,128,0,25804:0:0:0:0:
64,192,25721,1,0,0:0:0:0:
192,192,25804,1,0,0:0:0:0:
448,192,25971,128,0,26138:0:0:0:0:
320,192,26054,1,0,0:0:0:0:
64,192,26138,1,0,0:0:0:0:
448,192,26304,128,0,26471:0:0:0:0:
192,192,26388,1,0,0:0:0:0:
64,192,26471,1,0,0:0:0:0:
320,192,26554,1,0,0:0:0:0:
192,192,26638,1,0,0:0:0:85:kick.wav
448,192,26638,128,0,26804:0:0:0:0:
64,192,26749,1,0,0:0:0:0:
192,192,26860,1,0,0:0:0:0:
448,192,26971,128,0,27138:0:0:0:0:
64,192,27138,1,0,0:0:0:0:
320,192,27221,1,0,0:0:0:0:
448,192,27304,128,0,27471:0:0:0:0:
192,192,27471,1,0,0:0:0:0:
64,192,27638,1,0,0:0:0:95:snare.wav
320,192,27638,1,0,0:0:0:0:
448,192,27638,1,0,0:0:0:0:
320,192,27971,1,0,0:0:0:85:kick.wav
448,192,27971,128,0,28304:0:0:0:0:
192,192,28138,1,0,0:0:0:0:
64,192,28304,128,0,28638:0:0:0:85:kick.wav
320,192,28304,1,0,0:0:0:0:
448,192,28471,1,0,0:0:0:0:
192,192,28638,128,0,28971:0:0:0:85:kick.wav
320,192,28638,1,0,0:0:0:0:
448,192,28804,1,0,0:0:0:0:
64,192,28971,1,0,0:0:0:85:kick.wav
320,192,28971,128,0,29304:0:0:0:0:
192,192,29138,1,0,0:0:0:0:
64,192,29304,1,0,0:0:0:85:kick.wav
448,192,29304,128,0,29638:0:0:0:0:
192,192,29471,1,0,0:0:0:0:
320,192,29554,1,0,0:0:0:0:
64,192,29638,128,0,29971:0:0:0:85:kick.wav
192,192,29638,1,0,0:0:0:0:
320,192,29804,1,0,0:0:0:0:
448,192,29888,1,0,0:0:0:0:
192,192,29971,128,0,30304:0:0:0:85:kick.wav
320,192,29971,1,0,0:0:0:0:
448,192,30138,1,0,0:0:0:0:
64,192,30221,1,0,0:0:0:0:
320,192,30304,1,0,0:0:0:85:kick.wav
448,192,30304,128,0,30638:0:0:0:0:
64,192,30471,1,0,0:0:0:0:
192,192,30554,1,0,0:0:0:0:
64,192,30638,128,0,30804:0:0:0:0:
320,192,30638,1,0,0:0:0:0:
320,192,30804,128,0,30971:0:0:0:0:
448,192,30804,1,0,0:0:0:0:
64,192,30971,128,0,31138:0:0:0:0:
192,192,30971,1,0,0:0:0:0:
320,192,31138,128,0,31304:0:0:0:0:
448,192,31138,1,0,0:0:0:0:
192,192,31304,1,0,0:0:0:0:
448,192,31388,1,0,0:0:0:0:
192,192,31471,1,0,0:0:0:0:
448,192,31554,1,0,0:0:0:0:
64,192,31638,1,0,0:0:0:0:
320,192,31721,1,0,0:0:0:0:
64,192,31804,1,0,0:0:0:0:
320,192,31888,1,0,0:0:0:0:
64,192,31971,1,0,0:0:0:85:kick.wav
192,192,31971,1,0,0:0:0:0:
448,192,32138,128,0,32304:0:0:0:0:
64,192,32304,128,0,32471:0:0:0:0:
448,192,32471,128,0,32638:0:0:0:0:
192,192,32638,1,0,0:0:0:0:
64,192,32749,1,0,0:0:0:0:
192,192,32860,1,0,0:0:0:0:
320,192,32971,1,0,0:0:0:95:snare.wav
448,192,32971,1,0,0:0:0:0:
64,192,33138,128,0,33304:0:0:0:0:
192,192,33304,128,0,33554:0:0:0:85:kick.wav
448,192,33304,128,0,33554:0:0:0:0:
192,192,33638,128,0,33804:0:0:0:85:kick.wav
448,192,33638,128,0,33804:0:0:0:0:
64,192,33804,128,0,33971:0:0:0:0:
320,192,33971,128,0,34138:0:0:0:95:snare.wav
448,192,33971,1,0,0:0:0:0:
192,192,34138,128,0,34304:0:0:0:0:
320,192,34221,1,0,0:0:0:95:snare.wav
448,192,34221,1,0,0:0:0:0:
64,192,34304,128,0,34471:0:0:0:0:
320,192,34471,128,0,34971:0:0:0:85:kick.wav
448,192,34471,128,0,34971:0:0:0:0:
192,192,34804,1,0,0:0:0:0:
64,192,34888,1,0,0:0:0:0:
192,192,34971,1,0,0:0:0:0:
320,192,35054,1,0,0:0:0:0:
64,192,35138,128,0,35304:0:0:0:85:kick.wav
448,192,35138,128,0,35638:0:0:0:0:
320,192,35304,128,0,35471:0:0:0:0:
192,192,35471,128,0,35638:0:0:0:0:
64,192,35638,128,0,35721:0:0:0:95:snare.wav
320,192,35638,128,0,35721:0:0:0:0:
64,192,35804,128,0,35888:0:0:0:0:
192,192,35804,128,0,35888:0:0:0:0:
320,192,35971,128,0,36471:0:0:0:85:kick.wav
448,192,35971,128,0,36471:0:0:0:0:
192,192,36304,1,0,0:0:0:0:
64,192,36388,1,0,0:0:0:0:
192,192,36471,1,0,0:0:0:0:
320,192,36638,128,0,36804:0:0:0:95:snare.wav
448,192,36638,1,0,0:0:0:0:
64,192,36804,128,0,36971:0:0:0:0:
320,192,36888,1,0,0:0:0:95:snare.wav
448,192,36888,1,0,0:0:0:0:
192,192,36971,128,0,37138:0:0:0:0:
320,192,37138,128,0,37638:0:0:0:85:kick.wav
448,192,37138,128,0,37638:0:0:0:0:
192,192,37471,1,0,0:0:0:0:
64,192,37554,1,0,0:0:0:0:
192,192,37638,128,0,37804:0:0:0:95:snare.wav
448,192,37804,128,0,37971:0:0:0:85:kick.wav
320,192,37804,1,0,0:0:0:0:
64,192,37971,128,0,38138:0:0:0:0:
192,192,38054,1,0,0:0:0:0:
448,192,38138,128,0,38304:0:0:0:0:
320,192,38221,1,0,0:0:0:0:
64,192,38304,1,0,0:0:0:95:snare.wav
192,192,38304,128,0,38471:0:0:0:0:
64,192,38471,128,0,38638:0:0:0:0:
192,192,38638,128,0,38721:0:0:0:85:kick.wav
320,192,38638,128,0,38804:0:0:0:0:
448,192,38638,128,0,38888:0:0:0:0:
64,192,38971,1,0,0:0:0:85:kick.wav
448,192,38971,128,0,39138:0:0:0:0:
192,192,39138,128,0,39304:0:0:0:0:
320,192,39304,128,0,39471:0:0:0:95:snare.wav
448,192,39304,1,0,0:0:0:0:
64,192,39471,128,0,39638:0:0:0:0:
320,192,39554,1,0,0:0:0:95:snare.wav
448,192,39554,1,0,0:0:0:0:
192,192,39638,1,0,0:0:0:0:
320,192,39721,1,0,0:0:0:0:
64,192,39804,1,0,0:0:0:85:kick.wav
448,192,39804,128,0,40304:0:0:0:0:
192,192,40138,1,0,0:0:0:0:
64,192,40221,1,0,0:0:0:0:
320,192,40304,1,0,0:0:0:0:
64,192,40471,128,0,40638:0:0:0:85:kick.wav
448,192,40471,128,0,40971:0:0:0:0:
320,192,40638,128,0,40804:0:0:0:0:
192,192,40804,128,0,40971:0:0:0:0:
64,192,40971,128,0,41138:0:0:0:95:snare.wav
320,192,40971,128,0,41304:0:0:0:0:
448,192,41138,128,0,41304:0:0:0:0:
64,192,41304,128,0,43304:0:0:0:85:kick.wav
192,192,41304,128,0,41638:0:0:0:0:
320,192,41638,1,0,0:0:0:95:snare.wav
448,192,41638,1,0,0:0:0:0:
192,192,41804,128,0,42138:0:0:0:85:kick.wav
448,192,41804,1,0,0:0:0:0:
320,192,42138,1,0,0:0:0:95:snare.wav
448,192,42138,1,0,0:0:0:0:
192,192,42304,128,0,42804:0:0:0:85:kick.wav
448,192,42304,1,0,0:0:0:0:
448,192,42971,128,0,43304:0:0:0:0:
320,192,43304,128,0,43471:0:0:0:0:
448,192,43471,128,0,43638:0:0:0:0:
64,192,43638,1,0,0:0:0:0:
192,192,43638,128,0,43804:0:0:0:0:
320,192,43804,128,0,43971:0:0:0:0:
192,192,43888,1,0,0:0:0:0:
64,192,43971,128,0,44304:0:0:0:85:kick.wav
448,192,43971,128,0,44471:0:0:0:0:
192,192,44304,128,0,44471:0:0:0:85:kick.wav
64,192,44471,1,0,0:0:0:0:
192,192,44554,1,0,0:0:0:0:
320,192,44638,128,0,44804:0:0:0:95:snare.wav
448,192,44638,1,0,0:0:0:0:
64,192,44888,1,0,0:0:0:95:snare.wav
448,192,44888,1,0,0:0:0:0:
192,192,44971,128,0,45138:0:0:0:0:
320,192,45138,128,0,45471:0:0:0:85:kick.wav
448,192,45138,128,0,46138:0:0:0:0:
64,192,45471,128,0,45804:0:0:0:0:
192,192,45804,1,0,0:0:0:85:kick.wav
320,192,45804,128,0,46138:0:0:0:0:
192,192,46138,128,0,46304:0:0:0:0:
64,192,46304,128,0,46471:0:0:0:95:snare.wav
320,192,46304,1,0,0:0:0:0:
192,192,46471,1,0,0:0:0:0:
448,192,46554,1,0,0:0:0:0:
64,192,46638,128,0,47138:0:0:0:85:kick.wav
192,192,46638,128,0,46971:0:0:0:0:
320,192,47138,1,0,0:0:0:0:
192,192,47221,1,0,0:0:0:0:
64,192,47304,1,0,0:0:0:95:snare.wav
320,192,47304,128,0,47804:0:0:0:0:
64,192,47554,1,0,0:0:0:95:snare.wav
192,192,47554,1,0,0:0:0:0:
64,192,47804,1,0,0:0:0:85:kick.wav
448,192,47804,128,0,48471:0:0:0:0:
192,192,48304,1,0,0:0:0:95:snare.wav
320,192,48304,1,0,0:0:0:0:
64,192,48471,128,0,48638:0:0:0:85:kick.wav
192,192,48471,1,0,0:0:0:0:
320,192,48638,128,0,48721:0:0:0:0:
320,192,48804,128,0,48888:0:0:0:0:
64,192,48971,1,0,0:0:0:95:snare.wav
192,192,48971,128,0,49054:0:0:0:0:
320,192,49054,1,0,0:0:0:0:
448,192,49138,128,0,49221:0:0:0:0:
320,192,49221,1,0,0:0:0:0:
64,192,49304,128,0,49638:0:0:0:85:kick.wav
192,192,49304,128,0,49471:0:0:0:0:
320,192,49638,128,0,49721:0:0:0:85:kick.wav
448,192,49638,128,0,49804:0:0:0:0:
192,192,49804,1,0,0:0:0:0:
320,192,49971,128,0,50054:0:0:0:95:snare.wav
448,192,49971,128,0,50138:0:0:0:0:
64,192,50138,1,0,0:0:0:0:
320,192,50221,1,0,0:0:0:95:snare.wav
448,192,50221,1,0,0:0:0:0:
192,192,50304,1,0,0:0:0:0:
64,192,50471,128,0,50804:0:0:0:85:kick.wav
448,192,50471,128,0,50804:0:0:0:0:
320,192,50804,1,0,0:0:0:0:
192,192,50888,1,0,0:0:0:0:
320,192,50971,1,0,0:0:0:0:
192,192,51054,1,0,0:0:0:0:
64,192,51138,128,0,51304:0:0:0:85:kick.wav
448,192,51138,128,0,51471:0:0:0:0:
320,192,51304,128,0,51471:0:0:0:0:
192,192,51471,128,0,51638:0:0:0:0:
320,192,51638,128,0,51804:0:0:0:95:snare.wav
448,192,51638,128,0,51971:0:0:0:0:
64,192,51804,128,0,51971:0:0:0:0:
192,192,51971,128,0,53304:0:0:0:85:kick.wav
320,192,51971,128,0,52471:0:0:0:0:
64,192,52471,1,0,0:0:0:85:kick.wav
320,192,52638,1,0,0:0:0:95:snare.wav
448,192,52638,1,0,0:0:0:0:
64,192,52804,1,0,0:0:0:0:
320,192,52888,1,0,0:0:0:0:
448,192,52971,1,0,0:0:0:85:kick.wav
320,192,53138,1,0,0:0:0:0:
64,192,53221,1,0,0:0:0:0:
448,192,53304,128,0,53471:0:0:0:85:kick.wav
320,192,53388,1,0,0:0:0:0:
64,192,53471,128,0,53638:0:0:0:0:
192,192,53554,1,0,0:0:0:0:
448,192,53638,1,0,0:0:0:0:
320,192,53721,1,0,0:0:0:0:
192,192,53804,1,0,0:0:0:0:
64,192,53888,1,0,0:0:0:0:
320,192,53971,128,0,54138:0:0:0:0:
192,192,54138,1,0,0:0:0:0:
448,192,54304,128,0,54638:0:0:0:0:
64,192,54638,128,0,54804:0:0:0:85:kick.wav
192,192,54638,128,0,54721:0:0:0:0:
320,192,54804,1,0,0:0:0:0:
448,192,54804,1,0,0:0:0:0:
320,192,55138,1,0,0:0:0:0:
448,192,55138,1,0,0:0:0:0:
64,192,55304,128,0,55471:0:0:0:85:kick.wav
192,192,55304,128,0,55388:0:0:0:0:
320,192,55471,1,0,0:0:0:0:
448,192,55471,1,0,0:0:0:0:
320,192,55804,1,0,0:0:0:0:
448,192,55804,1,0,0:0:0:0:
64,192,55971,128,0,56304:0:0:0:85:kick.wav
192,192,55971,128,0,56138:0:0:0:0:
320,192,56138,1,0,0:0:0:0:
448,192,56221,1,0,0:0:0:0:
320,192,56304,1,0,0:0:0:0:
192,192,56471,128,0,56554:0:0:0:0:
64,192,56638,1,0,0:0:0:95:snare.wav
320,192,56638,1,0,0:0:0:0:
448,192,56638,1,0,0:0:0:0:
448,192,56804,128,0,56888:0:0:0:0:
64,192,56971,1,0,0:0:0:85:kick.wav
192,192,56971,1,0,0:0:0:0:
320,192,57138,1,0,0:0:0:0:
192,192,57221,1,0,0:0:0:0:
448,192,57304,128,0,57388:0:0:0:0:
320,192,57346,1,0,0:0:0:0:
64,192,57554,128,0,57638:0:0:0:0:
192,192,57596,1,0,0:0:0:0:
320,192,57638,1,0,0:0:0:85:kick.wav
448,192,57763,128,0,57846:0:0:0:0:
320,192,57804,1,0,0:0:0:0:
64,192,57971,128,0,58054:0:0:0:95:snare.wav
192,192,57971,1,0,0:0:0:0:
320,192,58013,1,0,0:0:0:0:
448,192,58221,128,0,58304:0:0:0:0:
320,192,58263,1,0,0:0:0:0:
192,192,58304,1,0,0:0:0:85:kick.wav
64,192,58429,128,0,58513:0:0:0:0:
192,192,58471,1,0,0:0:0:0:
448,192,58638,128,0,58721:0:0:0:0:
320,192,58679,1,0,0:0:0:0:
64,192,58888,128,0,58971:0:0:0:0:
192,192,58929,1,0,0:0:0:0:
320,192,58971,1,0,0:0:0:85:kick.wav
448,192,59096,128,0,59179:0:0:0:0:
320,192,59138,1,0,0:0:0:0:
64,192,59304,128,0,59388:0:0:0:95:snare.wav
192,192,59304,1,0,0:0:0:0:
320,192,59360,1,0,0:0:0:0:
448,192,59638,1,0,0:0:0:0:
192,192,59721,1,0,0:0:0:0:
448,192,59804,1,0,0:0:0:0:
192,192,59888,1,0,0:0:0:0:
64,192,59971,128,0,60138:0:0:0:85:kick.wav
320,192,59971,128,0,60054:0:0:0:0:
192,192,60138,128,0,60221:0:0:0:0:
448,192,60138,128,0,60304:0:0:0:0:
64,192,60471,1,0,0:0:0:0:
192,192,60471,1,0,0:0:0:0:
64,192,60638,128,0,60804:0:0:0:85:kick.wav
320,192,60638,128,0,60721:0:0:0:0:
192,192,60804,128,0,60888:0:0:0:0:
448,192,60804,128,0,60971:0:0:0:0:
64,192,61138,1,0,0:0:0:0:
192,192,61138,1,0,0:0:0:0:
64,192,61304,128,0,61471:0:0:0:85:kick.wav
320,192,61304,128,0,61388:0:0:0:0:
192,192,61471,128,0,61554:0:0:0:0:
448,192,61471,128,0,61638:0:0:0:0:
64,192,61638,1,0,0:0:0:0:
192,192,61638,1,0,0:0:0:0:
320,192,61763,1,0,0:0:0:0:
192,192,61804,1,0,0:0:0:0:
64,192,61971,1,0,0:0:0:95:snare.wav
320,192,61971,1,0,0:0:0:0:
448,192,61971,1,0,0:0:0:0:
192,192,62138,128,0,62221:0:0:0:0:
64,192,62304,1,0,0:0:0:85:kick.wav
192,192,62304,1,0,0:0:0:0:
320,192,62471,128,0,62554:0:0:0:0:
192,192,62554,1,0,0:0:0:0:
448,192,62638,128,0,62721:0:0:0:0:
320,192,62679,1,0,0:0:0:0:
64,192,62888,128,0,62971:0:0:0:0:
192,192,62929,1,0,0:0:0:0:
320,192,62971,1,0,0:0:0:85:kick.wav
448,192,63138,128,0,63221:0:0:0:0:
320,192,63179,1,0,0:0:0:0:
64,192,63304,1,0,0:0:0:95:snare.wav
192,192,63304,128,0,63471:0:0:0:0:
320,192,63304,1,0,0:0:0:0:
448,192,63554,128,0,63721:0:0:0:0:
192,192,63638,1,0,0:0:0:85:kick.wav
64,192,63721,1,0,0:0:0:0:
192,192,63804,1,0,0:0:0:0:
448,192,63888,1,0,0:0:0:0:
64,192,63971,128,0,64304:0:0:0:85:kick.wav
320,192,63971,1,0,0:0:0:0:
320,192,64138,128,0,64304:0:0:0:0:
192,192,64304,128,0,64638:0:0:0:0:
448,192,64471,128,0,64638:0:0:0:0:
320,192,64638,128,0,64721:0:0:0:0:
64,192,64804,1,0,0:0:0:0:
448,192,64971,128,0,65138:0:0:0:0:
192,192,65138,128,0,65304:0:0:0:0:
320,192,65304,1,0,0:0:0:85:kick.wav
448,192,65304,1,0,0:0:0:0:
320,192,65804,1,0,0:0:0:0:
64,192,65971,1,0,0:0:0:0:
192,192,65971,1,0,0:0:0:0:
320,192,66054,1,0,0:0:0:0:
448,192,66054,1,0,0:0:0:0:
192,192,66138,1,0,0:0:0:0:
320,192,66221,1,0,0:0:0:0:
448,192,66471,1,0,0:0:0:0:
64,192,66554,1,0,0:0:0:0:
192,192,66638,128,0,66721:0:0:0:0:
448,192,66721,1,0,0:0:0:0:
320,192,66804,128,0,66971:0:0:0:0:
64,192,66888,1,0,0:0:0:0:
448,192,66971,1,0,0:0:0:0:
192,192,67138,1,0,0:0:0:0:
64,192,67304,1,0,0:0:0:95:snare.wav
320,192,67304,1,0,0:0:0:0:
448,192,67304,128,0,67388:0:0:0:0:
448,192,67471,1,0,0:0:0:0:
64,192,67638,128,0,67804:0:0:0:85:kick.wav
192,192,67638,128,0,67721:0:0:0:0:
192,192,67804,1,0,0:0:0:0:
320,192,67888,1,0,0:0:0:0:
64,192,67971,1,0,0:0:0:85:kick.wav
448,192,67971,128,0,68138:0:0:0:0:
320,192,68138,1,0,0:0:0:0:
192,192,68221,1,0,0:0:0:0:
64,192,68304,128,0,68471:0:0:0:85:kick.wav
448,192,68304,1,0,0:0:0:0:
448,192,68471,128,0,68638:0:0:0:0:
64,192,68638,1,0,0:0:0:95:snare.wav
192,192,68638,1,0,0:0:0:0:
192,192,68804,1,0,0:0:0:0:
64,192,68971,128,0,69304:0:0:0:85:kick.wav
320,192,68971,128,0,69138:0:0:0:0:
448,192,69138,128,0,69304:0:0:0:0:
320,192,69304,1,0,0:0:0:0:
192,192,69388,1,0,0:0:0:0:
320,192,69471,1,0,0:0:0:0:
64,192,69638,128,0,69804:0:0:0:85:kick.wav
448,192,69638,128,0,69971:0:0:0:0:
320,192,69804,1,0,0:0:0:0:
64,192,69888,1,0,0:0:0:0:
320,192,69971,128,0,70138:0:0:0:95:snare.wav
192,192,69971,1,0,0:0:0:0:
64,192,70138,128,0,70304:0:0:0:0:
448,192,70304,1,0,0:0:0:0:
192,192,70388,1,0,0:0:0:0:
448,192,70471,1,0,0:0:0:0:
192,192,70554,1,0,0:0:0:0:
64,192,70638,128,0,70804:0:0:0:85:kick.wav
320,192,70638,128,0,70721:0:0:0:0:
192,192,70804,128,0,70888:0:0:0:0:
448,192,70804,128,0,70971:0:0:0:0:
64,192,71138,1,0,0:0:0:0:
192,192,71138,1,0,0:0:0:0:
64,192,71304,128,0,71471:0:0:0:85:kick.wav
320,192,71304,128,0,71388:0:0:0:0:
192,192,71471,128,0,71554:0:0:0:0:
448,192,71471,128,0,71638:0:0:0:0:
64,192,71804,1,0,0:0:0:0:
192,192,71804,1,0,0:0:0:0:
64,192,71971,128,0,72138:0:0:0:85:kick.wav
320,192,71971,128,0,72054:0:0:0:0:
192,192,72138,128,0,72221:0:0:0:0:
448,192,72138,128,0,72304:0:0:0:0:
64,192,72304,1,0,0:0:0:0:
192,192,72304,1,0,0:0:0:0:
320,192,72471,128,0,72638:0:0:0:0:
64,192,72638,1,0,0:0:0:95:snare.wav
192,192,72638,1,0,0:0:0:0:
448,192,72638,128,0,72721:0:0:0:0:
64,192,72804,1,0,0:0:0:0:
320,192,72846,1,0,0:0:0:0:
448,192,72971,1,0,0:0:0:85:kick.wav
192,192,72971,1,0,0:0:0:0:
64,192,73138,128,0,73221:0:0:0:0:
320,192,73221,128,0,73304:0:0:0:0:
64,192,73304,1,0,0:0:0:85:kick.wav
192,192,73304,1,0,0:0:0:0:
448,192,73388,1,0,0:0:0:0:
64,192,73471,1,0,0:0:0:0:
192,192,73554,1,0,0:0:0:0:
448,192,73638,1,0,0:0:0:0:
64,192,73721,1,0,0:0:0:0:
320,192,73804,1,0,0:0:0:0:
448,192,73888,1,0,0:0:0:0:
192,192,73971,1,0,0:0:0:0:
320,192,74054,1,0,0:0:0:0:
192,192,74138,1,0,0:0:0:0:
320,192,74221,1,0,0:0:0:0:
64,192,74304,1,0,0:0:0:0:
448,192,74388,1,0,0:0:0:0:
64,192,74471,1,0,0:0:0:0:
448,192,74554,1,0,0:0:0:0:
64,192,74638,1,0,0:0:0:85:kick.wav
192,192,74638,1,0,0:0:0:0:
448,192,74804,128,0,74888:0:0:0:0:
64,192,74971,128,0,75138:0:0:0:0:
192,192,74971,128,0,75054:0:0:0:0:
448,192,75138,128,0,75304:0:0:0:0:
320,192,75304,1,0,0:0:0:0:
64,192,75388,1,0,0:0:0:0:
192,192,75554,128,0,75638:0:0:0:0:
320,192,75638,1,0,0:0:0:0:
448,192,75638,128,0,75804:0:0:0:0:
64,192,75804,128,0,75971:0:0:0:0:
320,192,75971,1,0,0:0:0:85:kick.wav
448,192,75971,1,0,0:0:0:0:
320,192,76304,1,0,0:0:0:0:
320,192,76638,1,0,0:0:0:0:
192,192,76971,128,0,77138:0:0:0:0:
448,192,77138,128,0,77304:0:0:0:0:
320,192,77304,1,0,0:0:0:0:
320,192,77638,1,0,0:0:0:0:
320,192,77971,1,0,0:0:0:0:
192,192,78138,128,0,78304:0:0:0:0:
64,192,78304,128,0,78471:0:0:0:0:
320,192,78471,128,0,78638:0:0:0:0:
448,192,78638,128,0,78804:0:0:0:0:
320,192,78971,1,0,0:0:0:0:
320,192,79304,1,0,0:0:0:0:
192,192,79554,1,0,0:0:0:0:
320,192,79638,1,0,0:0:0:0:
320,192,79804,1,0,0:0:0:0:
320,192,79971,1,0,0:0:0:0:
192,192,80138,1,0,0:0:0:0:
320,192,80304,128,0,80638:0:0:0:0:
192,192,80638,1,0,0:0:0:0:
64,192,80804,1,0,0:0:0:0:
192,192,80888,1,0,0:0:0:0:
320,192,80971,1,0,0:0:0:0:
448,192,81138,1,0,0:0:0:0:
320,192,81304,1,0,0:0:0:0:
320,192,81638,1,0,0:0:0:0:
192,192,81971,1,0,0:0:0:0:
192,192,82221,1,0,0:0:0:0:
192,192,82471,1,0,0:0:0:0:
320,192,82638,1,0,0:0:0:0:
192,192,82804,1,0,0:0:0:0:
320,192,82971,1,0,0:0:0:0:
320,192,83304,1,0,0:0:0:0:
64,192,83471,1,0,0:0:0:0:
192,192,83554,1,0,0:0:0:0:
320,192,83638,1,0,0:0:0:0:
448,192,83804,1,0,0:0:0:0:
320,192,83971,128,0,84138:0:0:0:0:
192,192,84304,128,0,84471:0:0:0:0:
320,192,84638,128,0,84804:0:0:0:0:
320,192,84888,128,0,85054:0:0:0:0:
192,192,85138,128,0,85304:0:0:0:0:
320,192,85304,1,0,0:0:0:85:kick.wav
448,192,85304,1,0,0:0:0:0:
64,192,85471,128,0,85638:0:0:0:0:
448,192,85638,128,0,85804:0:0:0:0:
320,192,85804,1,0,0:0:0:0:
192,192,85888,1,0,0:0:0:0:
64,192,85971,1,0,0:0:0:0:
320,192,86054,1,0,0:0:0:0:
64,192,86138,1,0,0:0:0:0:
320,192,86221,1,0,0:0:0:0:
192,192,86304,1,0,0:0:0:85:kick.wav
448,192,86304,1,0,0:0:0:0:
448,192,86471,128,0,86554:0:0:0:0:
64,192,86638,1,0,0:0:0:85:kick.wav
192,192,86638,1,0,0:0:0:0:
64,192,86971,1,0,0:0:0:85:kick.wav
192,192,86971,1,0,0:0:0:0:
448,192,87138,1,0,0:0:0:0:
64,192,87304,1,0,0:0:0:85:kick.wav
192,192,87304,1,0,0:0:0:0:
320,192,87554,1,0,0:0:0:0:
64,192,87638,1,0,0:0:0:85:kick.wav
192,192,87638,1,0,0:0:0:0:
320,192,87804,1,0,0:0:0:0:
320,192,87971,1,0,0:0:0:85:kick.wav
448,192,87971,1,0,0:0:0:0:
192,192,88138,1,0,0:0:0:0:
320,192,88304,1,0,0:0:0:85:kick.wav
448,192,88304,1,0,0:0:0:0:
320,192,88638,1,0,0:0:0:85:kick.wav
448,192,88638,1,0,0:0:0:0:
192,192,88888,1,0,0:0:0:0:
320,192,88971,1,0,0:0:0:85:kick.wav
448,192,88971,1,0,0:0:0:0:
192,192,89138,1,0,0:0:0:0:
64,192,89304,1,0,0:0:0:85:kick.wav
192,192,89304,1,0,0:0:0:0:
448,192,89471,1,0,0:0:0:0:
64,192,89638,1,0,0:0:0:85:kick.wav
192,192,89638,1,0,0:0:0:0:
320,192,89804,1,0,0:0:0:0:
448,192,89888,1,0,0:0:0:0:
64,192,89971,1,0,0:0:0:85:kick.wav
192,192,89971,1,0,0:0:0:0:
320,192,90221,1,0,0:0:0:0:
64,192,90304,1,0,0:0:0:85:kick.wav
192,192,90304,1,0,0:0:0:0:
320,192,90471,1,0,0:0:0:0:
320,192,90638,1,0,0:0:0:85:kick.wav
448,192,90638,1,0,0:0:0:0:
64,192,90804,1,0,0:0:0:0:
320,192,90971,1,0,0:0:0:85:kick.wav
448,192,90971,1,0,0:0:0:0:
320,192,91304,1,0,0:0:0:85:kick.wav
448,192,91304,1,0,0:0:0:0:
192,192,91554,1,0,0:0:0:0:
320,192,91638,1,0,0:0:0:85:kick.wav
448,192,91638,1,0,0:0:0:0:
192,192,91804,1,0,0:0:0:0:
320,192,91971,1,0,0:0:0:85:kick.wav
448,192,91971,1,0,0:0:0:0:
192,192,92138,1,0,0:0:0:85:kick.wav
320,192,92304,1,0,0:0:0:85:kick.wav
64,192,92471,1,0,0:0:0:85:kick.wav
448,192,92471,1,0,0:0:0:0:
192,192,92638,1,0,0:0:0:85:kick.wav
320,192,92804,1,0,0:0:0:85:kick.wav
64,192,92971,1,0,0:0:0:85:kick.wav
192,192,92971,1,0,0:0:0:0:
320,192,93138,1,0,0:0:0:85:kick.wav
64,192,93304,1,0,0:0:0:0:
192,192,93388,1,0,0:0:0:0:
448,192,93471,1,0,0:0:0:0:
64,192,93554,1,0,0:0:0:0:
192,192,93638,1,0,0:0:0:0:
320,192,93721,1,0,0:0:0:0:
64,192,93804,1,0,0:0:0:0:
448,192,93888,1,0,0:0:0:0:
320,192,93971,1,0,0:0:0:0:
192,192,94054,1,0,0:0:0:0:
320,192,94138,1,0,0:0:0:0:
192,192,94221,1,0,0:0:0:0:
448,192,94304,1,0,0:0:0:0:
64,192,94388,1,0,0:0:0:0:
448,192,94471,1,0,0:0:0:0:
64,192,94554,1,0,0:0:0:0:
448,192,94638,128,0,94888:0:0:0:85:kick.wav
320,192,94638,1,0,0:0:0:0:
64,192,94888,128,0,95138:0:0:0:0:
320,192,95138,128,0,95471:0:0:0:0:
192,192,95554,128,0,95721:0:0:0:0:
448,192,95804,128,0,95971:0:0:0:0:
64,192,95971,128,0,96638:0:0:0:0:
320,192,95971,128,0,96304:0:0:0:0:
192,192,96304,128,0,96638:0:0:0:0:
448,192,96304,128,0,96638:0:0:0:0:
320,192,96638,128,0,96804:0:0:0:0:
192,192,96804,1,0,0:0:0:0:
64,192,96888,1,0,0:0:0:0:
320,192,96971,1,0,0:0:0:95:snare.wav
448,192,96971,1,0,0:0:0:0:
192,192,97304,1,0,0:0:0:85:kick.wav
448,192,97388,1,0,0:0:0:0:
320,192,97471,1,0,0:0:0:0:
192,192,97554,1,0,0:0:0:0:
448,192,97638,128,0,97804:0:0:0:0:
64,192,97804,1,0,0:0:0:0:
320,192,97971,128,0,98138:0:0:0:0:
64,192,98138,1,0,0:0:0:0:
192,192,98221,1,0,0:0:0:0:
448,192,98304,1,0,0:0:0:0:
320,192,98471,1,0,0:0:0:0:
448,192,98638,1,0,0:0:0:0:
192,192,98804,1,0,0:0:0:0:
320,192,98888,1,0,0:0:0:0:
448,192,98971,1,0,0:0:0:0:
64,192,99054,1,0,0:0:0:0:
320,192,99138,1,0,0:0:0:0:
192,192,99221,1,0,0:0:0:0:
448,192,99304,1,0,0:0:0:0:
64,192,99304,1,0,0:0:0:85:kick.wav
64,192,99638,1,0,0:0:0:95:snare.wav
448,192,99638,1,0,0:0:0:85:kick.wav
320,192,99638,1,0,0:0:0:0:
64,192,99971,1,0,0:0:0:85:kick.wav
192,192,99971,1,0,0:0:0:0:
320,192,100054,1,0,0:0:0:0:
192,192,100138,1,0,0:0:0:0:
448,192,100221,1,0,0:0:0:0:
64,192,100304,1,0,0:0:0:95:snare.wav
320,192,100304,1,0,0:0:0:0:
64,192,100471,1,0,0:0:0:0:
192,192,100638,1,0,0:0:0:85:kick.wav
448,192,100638,1,0,0:0:0:0:
320,192,100804,1,0,0:0:0:0:
448,192,100888,1,0,0:0:0:0:
64,192,100971,1,0,0:0:0:95:snare.wav
192,192,100971,1,0,0:0:0:0:
320,192,101138,1,0,0:0:0:0:
192,192,101304,1,0,0:0:0:85:kick.wav
448,192,101304,1,0,0:0:0:0:
64,192,101471,1,0,0:0:0:0:
192,192,101554,1,0,0:0:0:0:
320,192,101638,1,0,0:0:0:95:snare.wav
448,192,101638,1,0,0:0:0:0:
192,192,101804,1,0,0:0:0:0:
64,192,101971,1,0,0:0:0:85:kick.wav
448,192,101971,1,0,0:0:0:0:
320,192,102054,1,0,0:0:0:0:
192,192,102221,128,0,102304:0:0:0:0:
320,192,102304,128,0,102471:0:0:0:0:
64,192,102471,128,0,102638:0:0:0:0:
192,192,102638,1,0,0:0:0:85:kick.wav
448,192,102638,1,0,0:0:0:0:
64,192,102804,1,0,0:0:0:0:
320,192,102971,1,0,0:0:0:95:snare.wav
448,192,102971,1,0,0:0:0:0:
192,192,103138,1,0,0:0:0:0:
320,192,103221,1,0,0:0:0:0:
64,192,103304,1,0,0:0:0:85:kick.wav
448,192,103304,1,0,0:0:0:0:
192,192,103471,1,0,0:0:0:0:
320,192,103554,1,0,0:0:0:0:
64,192,103638,1,0,0:0:0:95:snare.wav
192,192,103638,1,0,0:0:0:0:
320,192,103804,1,0,0:0:0:0:
192,192,103971,1,0,0:0:0:85:kick.wav
448,192,103971,1,0,0:0:0:0:
192,192,104138,1,0,0:0:0:0:
448,192,104221,1,0,0:0:0:0:
64,192,104304,1,0,0:0:0:95:snare.wav
320,192,104304,1,0,0:0:0:0:
320,192,104471,1,0,0:0:0:0:
64,192,104638,1,0,0:0:0:85:kick.wav
192,192,104638,1,0,0:0:0:0:
320,192,104804,1,0,0:0:0:0:
192,192,104888,1,0,0:0:0:0:
64,192,104971,1,0,0:0:0:95:snare.wav
448,192,104971,1,0,0:0:0:0:
448,192,105138,1,0,0:0:0:0:
64,192,105304,1,0,0:0:0:85:kick.wav
192,192,105304,1,0,0:0:0:0:
448,192,105388,1,0,0:0:0:0:
320,192,105471,1,0,0:0:0:0:
192,192,105554,1,0,0:0:0:0:
64,192,105638,1,0,0:0:0:95:snare.wav
448,192,105638,1,0,0:0:0:0:
320,192,105804,1,0,0:0:0:85:kick.wav
448,192,105804,1,0,0:0:0:0:
64,192,105971,1,0,0:0:0:0:
192,192,106054,1,0,0:0:0:0:
320,192,106138,1,0,0:0:0:95:snare.wav
448,192,106138,1,0,0:0:0:0:
64,192,106221,1,0,0:0:0:0:
192,192,106304,1,0,0:0:0:85:kick.wav
448,192,106304,1,0,0:0:0:0:
320,192,106388,1,0,0:0:0:0:
192,192,106471,1,0,0:0:0:0:
64,192,106554,1,0,0:0:0:0:
320,192,106638,1,0,0:0:0:0:
192,192,106804,1,0,0:0:0:0:
64,192,106971,1,0,0:0:0:0:
192,192,107054,1,0,0:0:0:0:
448,192,107138,1,0,0:0:0:0:
320,192,107221,1,0,0:0:0:0:
448,192,107304,1,0,0:0:0:0:
320,192,107388,1,0,0:0:0:0:
192,192,107471,1,0,0:0:0:0:
320,192,107554,1,0,0:0:0:0:
192,192,107638,1,0,0:0:0:0:
64,192,107721,1,0,0:0:0:0:
320,192,107804,1,0,0:0:0:0:
192,192,107888,1,0,0:0:0:0:
64,192,107971,1,0,0:0:0:85:kick.wav
448,192,107971,1,0,0:0:0:0:
320,192,108054,1,0,0:0:0:0:
192,192,108138,1,0,0:0:0:0:
448,192,108221,1,0,0:0:0:0:
64,192,108304,1,0,0:0:0:95:snare.wav
320,192,108304,1,0,0:0:0:0:
64,192,108471,1,0,0:0:0:0:
320,192,108638,1,0,0:0:0:85:kick.wav
448,192,108638,1,0,0:0:0:0:
192,192,108804,1,0,0:0:0:0:
320,192,108888,1,0,0:0:0:0:
64,192,108971,1,0,0:0:0:95:snare.wav
448,192,108971,1,0,0:0:0:0:
64,192,109138,1,0,0:0:0:0:
320,192,109304,1,0,0:0:0:85:kick.wav
448,192,109304,1,0,0:0:0:0:
192,192,109471,1,0,0:0:0:0:
320,192,109554,1,0,0:0:0:0:
64,192,109638,1,0,0:0:0:95:snare.wav
448,192,109638,1,0,0:0:0:0:
192,192,109804,1,0,0:0:0:0:
320,192,109971,1,0,0:0:0:85:kick.wav
448,192,109971,1,0,0:0:0:0:
192,192,110054,1,0,0:0:0:0:
64,192,110138,1,0,0:0:0:0:
320,192,110221,1,0,0:0:0:0:
64,192,110304,1,0,0:0:0:95:snare.wav
448,192,110304,1,0,0:0:0:0:
448,192,110471,1,0,0:0:0:0:
64,192,110638,1,0,0:0:0:85:kick.wav
192,192,110638,1,0,0:0:0:0:
320,192,110721,1,0,0:0:0:0:
448,192,110804,1,0,0:0:0:0:
320,192,110888,1,0,0:0:0:0:
64,192,110971,1,0,0:0:0:95:snare.wav
192,192,110971,1,0,0:0:0:0:
320,192,111138,1,0,0:0:0:0:
192,192,111304,1,0,0:0:0:85:kick.wav
448,192,111304,1,0,0:0:0:0:
64,192,111471,1,0,0:0:0:0:
320,192,111554,1,0,0:0:0:0:
192,192,111638,1,0,0:0:0:95:snare.wav
448,192,111638,1,0,0:0:0:0:
448,192,111804,1,0,0:0:0:0:
64,192,111971,1,0,0:0:0:85:kick.wav
192,192,111971,1,0,0:0:0:0:
320,192,112138,1,0,0:0:0:0:
192,192,112221,1,0,0:0:0:0:
64,192,112304,1,0,0:0:0:95:snare.wav
448,192,112304,1,0,0:0:0:0:
192,192,112471,1,0,0:0:0:0:
320,192,112638,1,0,0:0:0:85:kick.wav
448,192,112638,1,0,0:0:0:0:
320,192,112804,1,0,0:0:0:0:
448,192,112971,128,0,113138:0:0:0:0:
192,192,113054,128,0,113138:0:0:0:0:
320,192,113138,1,0,0:0:0:0:
64,192,113221,1,0,0:0:0:0:
192,192,113304,1,0,0:0:0:85:kick.wav
448,192,113304,1,0,0:0:0:0:
320,192,113388,1,0,0:0:0:0:
64,192,113471,1,0,0:0:0:0:
320,192,113554,1,0,0:0:0:0:
192,192,113638,1,0,0:0:0:0:
448,192,113804,1,0,0:0:0:0:
192,192,113971,1,0,0:0:0:0:
448,192,114138,1,0,0:0:0:0:
320,192,114221,1,0,0:0:0:0:
64,192,114304,128,0,114471:0:0:0:0:
448,192,114471,128,0,114638:0:0:0:0:
192,192,114638,1,0,0:0:0:0:
320,192,114721,1,0,0:0:0:0:
64,192,114804,1,0,0:0:0:0:
320,192,114888,1,0,0:0:0:0:
192,192,114971,1,0,0:0:0:0:
64,192,115054,1,0,0:0:0:0:
448,192,115138,1,0,0:0:0:0:
192,192,115221,1,0,0:0:0:0:
320,192,115304,1,0,0:0:0:0:
448,192,115388,1,0,0:0:0:0:
64,192,115471,1,0,0:0:0:0:
320,192,115554,1,0,0:0:0:0:
64,192,115638,1,0,0:0:0:85:kick.wav
192,192,115638,1,0,0:0:0:0:
448,192,115804,1,0,0:0:0:0:
64,192,115971,1,0,0:0:0:85:kick.wav
320,192,115971,1,0,0:0:0:0:
448,192,116054,1,0,0:0:0:0:
192,192,116138,1,0,0:0:0:0:
320,192,116221,1,0,0:0:0:0:
192,192,116304,1,0,0:0:0:0:
64,192,116471,1,0,0:0:0:85:kick.wav
320,192,116471,1,0,0:0:0:0:
320,192,116638,1,0,0:0:0:95:snare.wav
448,192,116638,1,0,0:0:0:0:
192,192,116721,1,0,0:0:0:0:
64,192,116804,1,0,0:0:0:0:
448,192,116888,1,0,0:0:0:0:
64,192,116971,1,0,0:0:0:85:kick.wav
192,192,116971,1,0,0:0:0:0:
320,192,117054,1,0,0:0:0:0:
448,192,117138,1,0,0:0:0:0:
192,192,117221,1,0,0:0:0:0:
320,192,117304,128,0,117388:0:0:0:85:kick.wav
448,192,117304,1,0,0:0:0:0:
448,192,117471,128,0,117554:0:0:0:0:
64,192,117638,128,0,117721:0:0:0:0:
448,192,117804,128,0,117888:0:0:0:0:
64,192,117971,1,0,0:0:0:0:
192,192,117971,1,0,0:0:0:0:
320,192,118054,1,0,0:0:0:0:
192,192,118138,1,0,0:0:0:0:
320,192,118221,1,0,0:0:0:0:
192,192,118304,1,0,0:0:0:0:
448,192,118304,1,0,0:0:0:0:
64,192,118388,1,0,0:0:0:0:
448,192,118471,1,0,0:0:0:0:
64,192,118554,1,0,0:0:0:0:
448,192,118638,128,0,118804:0:0:0:0:
320,192,118804,1,0,0:0:0:0:
192,192,118888,1,0,0:0:0:0:
64,192,118971,1,0,0:0:0:85:kick.wav
448,192,118971,128,0,119304:0:0:0:0:
64,192,119304,128,0,119471:0:0:0:95:snare.wav
320,192,119304,1,0,0:0:0:0:
64,192,119554,1,0,0:0:0:0:
320,192,119638,1,0,0:0:0:0:
192,192,119721,1,0,0:0:0:0:
320,192,119804,1,0,0:0:0:85:kick.wav
448,192,119804,128,0,120138:0:0:0:0:
64,192,120138,1,0,0:0:0:0:
64,192,120304,1,0,0:0:0:0:
64,192,120471,1,0,0:0:0:0:
320,192,120638,1,0,0:0:0:95:snare.wav
448,192,120638,1,0,0:0:0:0:
192,192,120888,1,0,0:0:0:0:
448,192,120971,128,0,121054:0:0:0:0:
64,192,121138,128,0,121221:0:0:0:0:
192,192,121304,1,0,0:0:0:85:kick.wav
448,192,121304,128,0,121471:0:0:0:0:
64,192,121471,128,0,121638:0:0:0:0:
448,192,121638,128,0,121971:0:0:0:0:
192,192,121804,1,0,0:0:0:0:
64,192,121971,1,0,0:0:0:95:snare.wav
320,192,121971,1,0,0:0:0:0:
320,192,122138,1,0,0:0:0:0:
64,192,122304,1,0,0:0:0:0:
192,192,122388,1,0,0:0:0:0:
64,192,122471,1,0,0:0:0:85:kick.wav
320,192,122471,128,0,122804:0:0:0:0:
192,192,122804,1,0,0:0:0:0:
192,192,122971,1,0,0:0:0:0:
192,192,123138,1,0,0:0:0:0:
320,192,123304,1,0,0:0:0:95:snare.wav
448,192,123304,1,0,0:0:0:0:
192,192,123554,1,0,0:0:0:0:
448,192,123638,128,0,123804:0:0:0:0:
64,192,123804,128,0,123971:0:0:0:0:
192,192,123971,1,0,0:0:0:85:kick.wav
448,192,123971,128,0,124138:0:0:0:0:
192,192,124138,128,0,124304:0:0:0:0:
448,192,124304,128,0,124638:0:0:0:0:
64,192,124471,1,0,0:0:0:0:
192,192,124638,1,0,0:0:0:95:snare.wav
320,192,124638,1,0,0:0:0:0:
320,192,124804,1,0,0:0:0:0:
192,192,124971,1,0,0:0:0:0:
64,192,125054,1,0,0:0:0:0:
192,192,125138,128,0,125471:0:0:0:85:kick.wav
448,192,125138,1,0,0:0:0:0:
320,192,125471,1,0,0:0:0:0:
320,192,125638,1,0,0:0:0:0:
320,192,125804,1,0,0:0:0:0:
64,192,125971,1,0,0:0:0:95:snare.wav
448,192,125971,1,0,0:0:0:0:
192,192,126221,1,0,0:0:0:0:
320,192,126304,128,0,126471:0:0:0:0:
64,192,126471,1,0,0:0:0:0:
192,192,126638,1,0,0:0:0:85:kick.wav
448,192,126638,1,0,0:0:0:0:
64,192,126721,1,0,0:0:0:0:
320,192,126804,1,0,0:0:0:0:
448,192,126888,1,0,0:0:0:0:
192,192,126971,128,0,127304:0:0:0:0:
320,192,127304,1,0,0:0:0:95:snare.wav
448,192,127304,1,0,0:0:0:0:
64,192,127471,1,0,0:0:0:85:kick.wav
320,192,127554,1,0,0:0:0:85:kick.wav
64,192,127638,1,0,0:0:0:85:kick.wav
192,192,127721,1,0,0:0:0:85:kick.wav
320,192,127804,1,0,0:0:0:95:snare.wav
448,192,127804,1,0,0:0:0:0:
