osu file format v14

[General]
AudioFilename: audio.mp3
AudioLeadIn: 0
PreviewTime: 101151
Countdown: 0
SampleSet: Soft
StackLeniency: 0.4
Mode: 0
LetterboxInBreaks: 0
WidescreenStoryboard: 0

[Editor]
Bookmarks: 12901,33568
DistanceSpacing: 1.6
BeatDivisor: 8
GridSize: 32
TimelineZoom: 4.599998

[Metadata]
Title:Freefall
TitleUnicode:フリーフォール
Artist:Zekk
ArtistUnicode:Zekk
Creator:Fursum
Version:Dive
Source:WACCA Lily
Tags:yuuya_ke mezelyus'un Yaz Turnuvası 2021 mezelyus' Summer Tournament MYT2021 ro16 future bass core hardcore trap dubstep dance drum and n dnb d&b furiforu video game electronic instrumental english
BeatmapID:3156883
BeatmapSetID:1544463

[Difficulty]
HPDrainRate:6
CircleSize:4.2
OverallDifficulty:9
ApproachRate:9.4
SliderMultiplier:2
SliderTickRate:1

[Events]
//Background and Video events
0,0,"zek.jpg",0,0
//Break Periods
//Storyboard Layer 0 (Background)
//Storyboard Layer 1 (Fail)
//Storyboard Layer 2 (Pass)
//Storyboard Layer 3 (Foreground)
//Storyboard Layer 4 (Overlay)
//Storyboard Sound Samples

[TimingPoints]
2572,333.333333333333,4,2,0,60,1,0
2572,-100,4,2,0,60,0,0
6570,-133.333333333333,4,2,0,60,0,0
7237,-66.6666666666667,4,2,0,60,0,0
7737,-50,4,2,0,60,0,0
7904,-66.6666666666667,4,2,1,80,0,0
8236,-100,4,2,1,75,0,0
8570,-66.6666666666667,4,2,1,75,0,0
9737,-100,4,2,1,75,0,0
9904,-66.6666666666667,4,2,1,75,0,0
10570,-57.1428571428571,4,2,1,75,0,0
11570,-80,4,2,1,75,0,0
11737,-250,4,2,1,75,0,0
12238,-250,4,2,1,50,0,0
12737,-100,4,2,1,65,0,0
12904,-66.6666666666667,4,2,1,75,0,0
13237,-57.1428571428571,4,2,1,75,0,0
13571,-57.1428571428571,4,2,1,90,0,0
14237,-100,4,2,1,75,0,0
14570,-66.6666666666667,4,2,1,75,0,0
16737,-100,4,2,1,75,0,0
17904,-66.6666666666667,4,2,1,75,0,0
18571,-66.6666666666667,4,2,1,80,0,0
19904,-50,4,2,1,80,0,0
20237,-57.1428571428571,4,2,1,80,0,0
20570,-66.6666666666667,4,2,1,80,0,0
20904,-100,4,2,1,80,0,0
22071,-100,4,2,1,85,0,0
22404,-200,4,2,1,70,0,0
23071,-200,4,2,1,50,0,0
23237,-66.6666666666667,4,2,1,70,0,0
23570,-50,4,2,1,70,0,0
23904,-200,4,2,1,70,0,0
27904,-100,4,2,1,70,0,0
30904,-74.0740740740741,4,2,1,70,0,0
33404,-33.3333333333333,4,2,1,70,0,0
33569,-40,4,2,1,70,0,0
33737,-50,4,2,1,70,0,0
34238,-50,4,2,1,80,0,0
34569,-36.3636363636364,4,2,1,95,0,0
35070,-100,4,2,1,95,0,0
35487,-66.6666666666667,4,2,1,95,0,0
35737,-33.3333333333333,4,2,1,95,0,0
36237,-40,4,2,1,95,0,0
36570,-50,4,2,1,95,0,0
37237,-33.3333333333333,4,2,1,95,0,0
37570,-40,4,2,1,95,0,0
37737,-100,4,2,1,95,0,0
38070,-66.6666666666667,4,2,1,95,0,0
38404,-36.3636363636364,4,2,1,95,0,0
38904,-40,4,2,1,95,0,0
39070,-100,4,2,1,95,0,0
39903,-66.6666666666667,4,2,1,95,0,0
41070,-50,4,2,1,95,0,0
41570,-66.6666666666667,4,2,1,95,0,0
41737,-50,4,2,1,95,0,0
42570,-57.1428571428571,4,2,1,95,0,0
42904,-33.3333333333333,4,2,1,95,0,0
43070,-66.6666666666667,4,2,1,95,0,0
43404,-50,4,2,1,95,0,0
43570,-100,4,2,1,95,0,0
44070,-133.333333333333,4,2,1,75,0,0
44570,-66.6666666666667,4,2,1,95,0,0
44905,-66.6666666666667,4,2,1,100,0,0
45904,-50,4,2,1,100,0,0
46737,-66.6666666666667,4,2,1,100,0,0
47070,-57.1428571428571,4,2,1,100,0,0
49070,-40,4,2,1,100,0,0
49737,-50,4,2,1,100,0,0
49904,-100,4,2,1,95,0,0
50570,-50,4,2,1,95,0,0
51237,-66.6666666666667,4,2,1,95,0,0
51737,-50,4,2,1,95,0,0
52070,-100,4,2,1,80,0,0
52404,-44.4444444444445,4,2,1,95,0,0
52737,-66.6666666666667,4,2,1,95,0,0
53237,-100,4,2,1,85,0,0
53571,-100,4,2,1,75,0,0
54570,-33.3333333333333,4,2,1,85,0,0
55570,-50,4,2,1,95,0,0
55904,-40,4,2,1,85,0,0
56070,-66.6666666666667,4,2,1,85,0,0
56570,-40,4,2,1,85,0,0
56737,-66.6666666666667,4,2,1,85,0,0
60570,-100,4,2,1,85,0,0
61237,-40,4,2,1,85,0,0
61404,-66.6666666666667,4,2,1,85,0,0
61904,-40,4,2,1,85,0,0
62070,-66.6666666666667,4,2,1,85,0,0
62570,-50,4,2,1,85,0,0
62904,-66.6666666666667,4,2,1,85,0,0
64404,-100,4,2,1,85,0,0
65405,-100,4,2,1,50,0,0
65904,-200,4,2,1,85,0,0
66237,-100,4,2,1,85,0,0
66571,-100,4,2,1,60,0,0
67905,-100,4,2,1,75,0,0
68571,-100,4,2,1,85,0,0
69237,-66.6666666666667,4,2,1,85,0,0
69570,-100,4,2,1,85,0,0
69737,-50,4,2,1,85,0,0
70237,-100,4,2,1,85,0,0
70404,-66.6666666666667,4,2,1,85,0,0
71070,-50,4,2,1,85,0,0
71904,-40,4,2,1,85,0,0
72070,-66.6666666666667,4,2,1,85,0,0
72570,-40,4,2,1,85,0,0
72737,-66.6666666666667,4,2,1,85,0,0
74904,-100,4,2,1,70,0,0
75905,-100,4,2,1,70,0,0
76404,-66.6666666666667,4,2,1,85,0,0
77238,-66.6666666666667,4,2,1,90,0,0
77570,-83.3333333333333,4,2,1,85,0,0
77905,-100,4,2,1,85,0,0
78405,-90.9090909090909,4,2,1,85,0,0
79238,-83.3333333333333,4,2,1,85,0,0
80904,-71.4285714285714,4,2,1,85,0,0
82571,-66.6666666666667,4,2,1,85,0,0
83571,-71.4285714285714,4,2,1,85,0,0
83737,-66.6666666666667,4,2,1,85,0,0
86237,-100,4,2,1,85,0,0
87737,-50,4,2,2,95,0,0
90570,-54.054054054054,4,2,2,95,0,0
92237,-57.1428571428571,4,2,2,95,0,0
95737,-133.333333333333,4,2,2,95,0,0
96155,-133.333333333333,4,2,2,50,0,0
97904,-80,4,2,2,95,0,0
98237,-133.333333333333,4,2,1,95,0,0
98571,-133.333333333333,4,2,1,70,0,0
99737,-100,4,2,1,95,0,0
100570,-66.6666666666667,4,2,1,95,0,0
101570,-50,4,2,1,95,0,0
103737,-66.6666666666667,4,2,1,95,0,0
103904,-50,4,2,1,95,0,0
105904,-66.6666666666667,4,2,1,95,0,0
106237,-100,4,2,1,95,0,0
106904,-71.4285714285714,4,2,1,95,0,0
107904,-100,4,2,1,95,0,0
109570,-50,4,2,1,95,0,0
110904,-57.1428571428571,4,2,1,95,0,0
113570,-50,4,2,1,95,0,0
113904,-44.4444444444445,4,2,1,95,0,0
114237,-50,4,2,1,95,0,0
114655,-50,4,2,1,75,0,0
117238,-50,4,2,1,85,0,0
118237,-100,4,2,1,95,0,0
118738,-100,4,2,1,70,0,0
119570,-33.3333333333333,4,2,1,95,0,0
119904,-133.333333333333,4,2,1,80,0,0
120237,-66.6666666666667,4,2,3,85,0,0
121404,-76.9230769230769,4,2,3,85,0,0
122570,-62.5,4,2,3,85,0,0
124070,-74.0740740740741,4,2,3,85,0,0
124570,-62.5,4,2,3,85,0,0
125237,-66.6666666666667,4,2,3,85,0,0
126737,-80,4,2,3,85,0,0
127904,-57.1428571428571,4,2,3,85,0,0
128237,-100,4,2,3,85,0,0
128738,-100,4,2,3,60,0,0
129070,-333.333333333333,4,2,3,85,0,0
129405,-333.333333333333,4,2,3,50,0,0
130405,-333.333333333333,4,2,3,20,0,0

[Colours]
Combo1 : 255,170,66
Combo2 : 238,49,153
Combo3 : 91,232,221

[HitObjects]
64,196,2571,6,0,B|108:173|170:206|155:218|201:260|263:223,1,200,4|0,1:2|3:0,0:0:0:0:
413,135,3071,1,0,3:0:0:0:
318,183,3238,2,0,L|332:120,1,50,2|0,0:0|0:0,0:0:0:0:
281,73,3405,2,0,P|341:219|352:263,1,200,2|0,0:0|0:0,0:0:0:0:
486,17,3905,6,0,P|448:162|438:232,2,200,2|2|2,0:0|0:0|0:0,0:0:0:0:
126,247,4905,5,2,0:0:0:0:
386,31,5071,2,0,P|424:81|425:90,1,50,2|0,0:0|0:0,0:0:0:0:
360,146,5238,2,0,P|299:120|224:113,1,100,2|0,0:0|0:0,0:0:0:0:
198,63,5488,1,2,0:3:0:0:
198,63,5571,2,0,P|176:0|174:-6,1,50
271,108,5738,1,2,0:3:0:0:
93,177,5905,2,0,P|102:144|107:96,1,50,2|0,0:3|0:0,0:0:0:0:
100,50,6071,5,2,0:2:0:0:
100,50,6155,1,0,3:0:0:0:
100,50,6238,1,2,0:0:0:0:
223,215,6405,1,2,0:3:0:0:
178,133,6571,2,0,P|190:85|202:37,1,75.0000028610231,0|2,0:0|0:0,0:0:0:0:
308,256,6905,2,0,P|277:212|203:235,1,112.500004291535,0|0,3:0|0:0,0:0:0:0:
3,334,7238,6,0,B|15:338|15:338|92:314,1,75.0000028610231,8|0,0:0|0:0,0:0:0:0:
149,296,7405,1,8,0:0:0:0:
149,296,7571,1,0,1:0:0:0:
0,154,7738,6,0,B|8:163|8:163|96:184,1,100,8|0,0:0|0:0,0:0:0:0:
222,214,7905,2,0,B|287:217|305:153|295:148|282:143|309:68|379:87,1,225.000008583069,6|0,1:2|0:0,0:0:0:0:
386,95,8238,2,0,P|372:173|373:188,1,50,8|0,0:0|0:0,0:0:0:0:
158,48,8405,1,0,1:0:0:0:
277,282,8571,2,0,P|241:183|206:114,1,150.000005722046,10|0,0:3|0:0,0:0:0:0:
215,138,8821,1,0,3:0:0:0:
209,133,8905,1,0,3:0:0:0:
406,346,9071,6,0,P|469:309|469:276,1,75.0000028610231,2|0,1:2|0:0,0:0:0:0:
489,231,9238,1,0,0:0:0:0:
392,353,9404,2,0,P|400:237|496:235,1,225.000008583069,2|0,1:2|0:0,0:0:0:0:
384,362,9738,2,0,P|300:334|293:335,1,50,2|0,1:2|0:0,0:0:0:0:
161,221,9905,6,0,B|119:216|91:248|91:248|106:305|62:338,1,150.000005722046,8|0,0:3|3:0,0:0:0:0:
16,358,10155,1,0,3:0:0:0:
16,358,10238,1,2,3:2:0:0:
236,192,10404,2,0,P|157:138|151:140,1,75.0000028610231,2|0,0:0|0:0,0:0:0:0:
15,226,10571,6,0,P|129:276|211:325,1,175.00000166893,0|0,1:0|3:0,0:0:0:0:
181,307,10821,1,2,3:3:0:0:
188,314,10905,1,0,3:0:0:0:
76,130,11070,1,0,1:0:0:0:
280,294,11238,5,2,0:3:0:0:
322,303,11321,1,2,0:3:0:0:
364,292,11404,1,2,0:3:0:0:
396,264,11488,1,2,0:3:0:0:
412,223,11571,2,0,P|395:178|389:114,1,62.5,0|0,1:0|1:0,0:0:0:0:
434,33,11738,6,0,B|466:15|466:15|437:104,1,120,4|0,1:3|0:0,0:0:0:0:
308,197,12571,5,0,0:0:0:0:
308,197,12738,2,0,B|282:196|290:178|254:179,1,50,2|0,0:0|0:0,0:0:0:0:
210,103,12905,2,0,B|178:119|175:92|132:118,1,75.0000028610231,2|0,0:0|0:0,0:0:0:0:
63,198,13070,1,2,0:0:0:0:
63,198,13238,6,2,B|136:193|146:103|127:101|113:102|136:10|207:10,1,262.500002503395,2|0,0:1|0:0,0:1:0:0:
288,56,13571,6,0,L|412:80,1,87.500000834465,4|0,1:2|0:0,0:0:0:0:
444,136,13738,1,0,0:0:0:0:
263,181,13905,2,0,B|271:199|288:195|288:195|366:167,1,87.500000834465,0|0,1:0|0:0,0:0:0:0:
448,133,14071,1,0,0:0:0:0:
307,327,14238,2,0,P|311:299|321:263,1,50,0|0,1:0|0:0,0:0:0:0:
233,317,14405,2,0,P|237:289|247:253,1,50
378,347,14571,6,0,P|204:284|103:257,1,225.000008583069,2|0,1:1|0:0,0:0:0:0:
107,181,14905,2,0,P|28:217|55:275,1,150.000005722046,2|0,1:1|0:0,0:0:0:0:
53,273,15155,1,8,0:2:0:0:
66,283,15238,6,0,P|91:341|84:356,1,75.0000028610231,2|0,1:1|0:0,0:0:0:0:
190,181,15405,2,0,P|231:85|237:76,1,75.0000028610231,8|0,0:2|0:0,0:0:0:0:
1,346,15571,1,2,1:1:0:0:
122,104,15738,1,0,3:0:0:0:
128,86,15821,1,0,3:0:0:0:
138,69,15905,6,0,P|217:178|265:270,1,225.000008583069,2|0,1:1|0:0,0:0:0:0:
383,259,16238,2,0,P|376:347|278:338,2,150.000005722046,2|0|0,1:1|0:0|1:0,0:0:0:0:
286,18,16738,6,0,P|273:69|277:80,1,50,8|0,0:0|0:0,0:0:0:0:
224,137,16905,2,0,P|274:184|293:186,1,50,8|0,1:2|0:0,0:0:0:0:
469,54,17071,2,0,B|452:34|421:44|421:44|374:129|374:129|338:149|307:108,1,200,0|0,1:0|0:0,0:0:0:0:
188,227,17571,2,0,P|169:210|157:188,1,50,2|0,0:0|0:0,0:0:0:0:
150,102,17738,1,0,1:0:0:0:
272,267,17905,6,0,B|286:253|306:245|306:245|277:238|240:280,1,75.0000028610231,8|0,1:3|0:0,0:0:0:0:
163,307,18071,1,0,0:0:0:0:
372,198,18238,2,0,B|331:162|293:188|293:188|308:244|308:244|314:254|314:254|346:361,1,225.000008583069,0|0,1:0|0:0,0:0:0:0:
286,384,18571,6,0,P|220:349|219:324,1,75.0000028610231,2|0,1:2|0:0,0:0:0:0:
414,287,18738,1,0,1:0:0:0:
414,287,18905,1,0,1:0:0:0:
163,307,19071,6,0,L|172:188,1,75.0000028610231,2|0,1:2|0:0,0:0:0:0:
96,356,19238,1,0,1:2:0:0:
96,356,19405,1,2,1:2:0:0:
141,158,19571,2,0,P|84:120|61:129,1,75.0000028610231,2|0,1:2|0:0,0:0:0:0:
255,257,19738,5,0,1:0:0:0:
255,257,19821,1,0,0:0:0:0:
255,257,19905,2,0,B|315:250|278:223|355:219,1,100,2|0,1:1|0:0,0:0:0:0:
88,270,20071,1,0,1:0:0:0:
394,149,20238,6,0,P|452:197|444:224,1,87.500000834465,2|0,1:1|0:0,0:0:0:0:
235,165,20405,1,0,1:0:0:0:
482,276,20571,6,0,P|463:362|463:367,1,75.0000028610231,2|0,1:1|0:0,0:0:0:0:
512,128,20738,1,0,1:0:0:0:
369,307,20905,6,0,P|386:372|388:384,1,50,2|0,1:1|0:0,0:0:0:0:
294,334,21071,2,0,P|311:399|313:411,1,50,0|0,1:0|0:0,0:0:0:0:
125,308,21238,5,2,1:1:0:0:
88,310,21321,1,0,1:0:0:0:
57,290,21404,1,0,1:0:0:0:
43,256,21487,1,0,1:0:0:0:
52,220,21571,1,2,1:1:0:0:
89,188,21654,1,0,1:0:0:0:
91,140,21737,1,0,1:0:0:0:
57,105,21820,1,0,1:0:0:0:
8,106,21905,2,0,P|14:130|17:156,1,50,0|0,1:0|1:0,0:0:0:0:
273,240,22071,5,2,1:3:0:0:
293,180,22154,1,0,1:3:0:0:
314,122,22237,1,2,1:3:0:0:
336,63,22320,1,0,1:3:0:0:
359,5,22405,6,0,B|407:-28|461:0|461:0|430:8|426:23,1,150,4|0,1:3|0:0,0:0:0:0:
314,122,23071,5,0,1:0:0:0:
314,122,23126,1,0,1:0:0:0:
314,122,23182,1,0,1:0:0:0:
314,122,23238,2,0,B|396:115|459:89|459:89|417:125|412:150,1,225.000008583069
235,48,23571,6,0,B|103:32|52:5|52:5|121:63|125:92,1,300,8|0,1:3|0:0,0:0:0:0:
107,170,23905,6,0,P|120:214|123:234,1,50,12|0,1:2|0:3,0:0:0:0:
178,150,24238,2,0,P|191:194|194:214,1,50,8|2,0:0|0:3,0:0:0:0:
247,304,24571,5,8,0:0:0:0:
247,304,24655,2,0,P|234:348|231:368,1,50,2|2,0:3|0:3,0:3:0:0:
175,279,24905,2,0,P|162:323|159:343,1,50,8|2,0:0|0:3,0:0:0:0:
449,314,25238,6,0,B|467:298|467:298|460:258,1,50,8|0,0:0|0:0,0:0:0:0:
390,248,25487,1,2,0:3:0:0:
390,248,25571,2,0,B|372:264|372:264|379:304,1,50,8|2,0:0|0:3,0:0:0:0:
255,132,25905,5,8,0:0:0:0:
255,132,25988,2,0,B|259:106|259:106|241:90,1,50,2|2,0:3|0:3,0:0:0:0:
167,116,26238,2,0,B|162:141|162:141|180:157,1,50,8|2,0:0|0:3,0:0:0:0:
182,29,26487,1,2,0:3:0:0:
182,29,26571,6,0,P|135:42|119:48,1,50,8|0,0:0|0:0,0:0:0:0:
240,211,26905,2,0,P|269:217|307:227,1,50,8|2,0:0|0:3,0:0:0:0:
211,116,27238,5,8,0:0:0:0:
211,116,27321,2,0,P|164:129|148:135,1,50,2|2,0:3|0:3,0:0:0:0:
273,296,27571,2,0,P|287:299|306:304,1,25,8|0,0:0|0:0,0:0:0:0:
301,379,27737,2,0,P|315:382|334:387,1,25,2|0,0:3|0:0,0:0:0:0:
472,160,27905,6,0,B|480:116|480:116|443:87|443:87|457:109|455:136,1,133.333333333333,8|2,0:0|0:3,0:0:0:0:
451,272,28238,1,8,0:0:0:0:
174,213,28405,1,2,0:3:0:0:
174,213,28488,1,0,1:0:0:0:
174,213,28571,6,0,B|154:214|154:214|146:218|146:218|105:220,1,50,8|0,0:0|0:0,0:0:0:0:
310,136,28738,2,0,B|330:135|330:135|338:131|338:131|379:129,1,50,2|0,0:0|0:0,0:0:0:0:
88,22,28905,6,0,B|80:5|63:10|63:10|127:-29|164:70,1,150,8|0,1:3|0:0,0:0:0:0:
217,118,29237,5,4,1:2:0:0:
249,310,29405,1,0,0:0:0:0:
249,310,29488,1,2,0:0:0:0:
249,310,29571,2,0,P|253:238|261:179,1,100,0|2,1:0|0:0,0:0:0:0:
17,82,29905,5,0,1:0:0:0:
20,117,29988,1,2,0:2:0:0:
42,146,30071,1,0,0:0:0:0:
78,155,30154,1,2,0:0:0:0:
112,140,30238,1,0,1:0:0:0:
310,132,30405,5,0,0:0:0:0:
341,95,30488,1,2,0:0:0:0:
389,98,30571,1,0,1:0:0:0:
165,311,30738,1,0,0:0:0:0:
165,311,30821,1,2,0:0:0:0:
165,311,30905,2,0,P|171:240|185:158,1,135.000000514984,0|2,1:0|0:0,0:0:0:0:
400,97,31238,5,0,1:0:0:0:
442,122,31321,1,2,0:0:0:0:
466,166,31404,1,0,0:0:0:0:
464,216,31487,1,2,0:0:0:0:
436,258,31571,1,0,1:0:0:0:
247,301,31738,1,0,0:0:0:0:
255,363,31821,1,2,0:0:0:0:
317,378,31904,5,0,1:2:0:0:
361,190,32071,1,2,0:0:0:0:
141,314,32238,5,0,1:2:0:0:
338,284,32404,1,2,0:0:0:0:
209,133,32571,5,0,1:0:0:0:
213,149,32654,1,2,0:3:0:0:
217,165,32737,1,2,0:3:0:0:
221,182,32821,1,2,0:3:0:0:
224,198,32904,5,0,1:0:0:0:
233,148,32988,1,2,0:3:0:0:
243,98,33071,1,2,0:3:0:0:
254,49,33155,1,2,0:3:0:0:
266,0,33238,5,4,1:3:0:0:
157,66,33405,6,0,B|134:71|109:89|109:89|105:64|105:64|124:49|149:35|149:35|169:86,1,150.000005722046,2|0,0:3|0:0,0:0:0:0:
323,151,33571,6,0,B|341:154|362:169|362:169|366:149|366:149|350:136|328:124|328:124|312:167,1,125,2|0,0:3|0:0,0:0:0:0:
142,233,33738,6,0,B|133:244|133:244|101:228|101:228|127:202|127:202|162:223,1,100,2|0,0:3|0:0,0:0:0:0:
288,339,33905,5,0,3:0:0:0:
263,254,34016,5,2,0:3:0:0:
237,175,34127,5,2,0:3:0:0:
186,320,34238,5,8,1:3:0:0:
451,193,34405,6,0,B|464:173|459:145|459:145|492:194|437:223,1,100,2|0,0:0|0:0,0:0:0:0:
496,272,34571,6,2,B|440:302|377:278|353:216|362:209|362:209|370:201|369:132|330:71|266:91|266:91|302:101|309:149,1,412.500003933907,6|0,1:1|0:0,0:1:0:0:
236,174,34905,2,0,P|162:158|96:159,1,137.500001311302,2|0,1:1|0:0,0:0:0:0:
351,11,35071,2,0,P|370:28|386:47,1,50,2|0,0:0|0:0,0:0:0:0:
272,257,35237,5,10,0:3:0:0:
193,67,35404,1,2,0:3:0:0:
178,75,35488,2,0,B|152:104|152:104|194:169,2,75.0000028610231,8|0|0,0:3|0:0|0:0,0:0:0:0:
362,223,35738,6,0,B|360:132|241:124|199:228|259:226|204:328|101:278|101:278|171:278|184:195,1,450.000017166138,6|0,1:1|0:0,0:0:0:0:
32,117,36071,1,2,0:1:0:0:
51,136,36155,1,2,0:3:0:0:
67,158,36238,2,0,P|104:281|115:322,1,125,2|0,0:1|0:0,0:0:0:0:
289,361,36404,5,4,1:2:0:0:
462,175,36571,2,0,B|412:164|412:164|398:227,1,100,2|0,0:3|0:0,0:0:0:0:
319,202,36738,2,0,B|285:239|285:239|332:283,1,100,2|0,0:3|0:0,0:0:0:0:
397,316,36905,2,0,P|364:215|336:79,1,200,8|0,1:3|0:0,0:0:0:0:
386,19,37155,1,2,0:3:0:0:
404,23,37238,6,2,B|425:46|433:81|433:81|380:23|241:-2|116:11|135:136|231:193|281:67,1,450.000017166138,6|0,1:1|0:0,0:1:0:0:
231,280,37571,2,0,P|294:247|315:139,1,125,2|0,0:1|0:0,0:0:0:0:
111,184,37738,2,0,P|142:230|148:252,1,50,2|0,0:0|0:0,0:0:0:0:
338,378,37905,5,10,0:3:0:0:
148,309,38071,1,2,0:3:0:0:
138,329,38155,2,0,B|140:367|140:367|179:388,2,75.0000028610231,8|0|0,0:3|0:0|0:0,0:0:0:0:
417,328,38405,6,2,B|468:337|479:235|411:216|345:231|312:286|318:287|318:287|327:292|274:344|192:302|194:240|245:177,1,412.500003933907,6|0,1:1|0:0,0:1:0:0:
358,122,38738,1,2,0:1:0:0:
374,147,38821,1,2,0:3:0:0:
365,178,38905,2,0,P|318:307|320:324,1,125,10|0,0:1|0:0,0:0:0:0:
148,309,39071,2,0,P|162:341|180:351,1,50,2|0,1:2|0:0,0:0:0:0:
221,215,39238,5,0,0:0:0:0:
209,179,39321,1,2,0:3:0:0:
198,143,39404,1,2,0:3:0:0:
185,108,39488,1,2,0:3:0:0:
172,72,39571,2,0,B|72:51|72:51|104:67|106:92,1,150,8|0,1:3|0:0,0:0:0:0:
308,209,39905,6,0,B|355:200|355:200|436:105|436:105|509:94,1,225.000008583069,2|0,1:3|0:0,0:0:0:0:
486,189,40238,2,0,P|462:264|456:320,1,75.0000028610231,2|0,1:3|0:0,0:0:0:0:
288,115,40405,2,0,P|250:30|239:11,1,75.0000028610231,8|0,3:2|0:0,0:0:0:0:
304,316,40570,5,10,0:3:0:0:
161,257,40738,1,0,3:0:0:0:
166,234,40821,1,8,3:3:0:0:
155,211,40905,1,2,0:3:0:0:
89,238,40988,1,2,0:3:0:0:
59,304,41071,6,0,B|-3:296|-17:182|28:166|46:177|125:132|170:20|98:7|-35:26|86:146,1,400,6|2,1:1|0:1,0:0:0:0:
140,325,41571,2,0,P|202:290|263:276,1,75.0000028610231,2|0,0:1|0:0,0:0:0:0:
423,88,41738,6,0,P|475:121|448:164,1,100,4|0,1:2|0:0,0:0:0:0:
496,227,41905,2,0,P|479:277|428:264,1,100,2|0,0:3|0:0,0:0:0:0:
360,281,42071,1,2,0:3:0:0:
301,54,42238,2,0,B|358:45|358:45|400:215,1,200,10|2,1:3|0:3,0:0:0:0:
49,345,42571,6,0,B|72:219|72:219|68:212|68:212|92:79,1,262.500002503395,4|0,1:2|0:0,0:0:0:0:
45,143,42905,2,0,B|63:217|63:217|69:213|69:213|92:302,1,150.000005722046,8|0,0:3|0:0,0:0:0:0:
189,339,43071,6,0,B|208:232|208:232|205:226|205:226|225:113,1,225.000008583069,4|0,1:2|0:0,0:0:0:0:
191,181,43405,2,0,B|201:223|201:223|204:221|204:221|218:272,1,100,8|0,0:3|0:0,0:0:0:0:
324,341,43571,6,0,B|342:258|342:258|366:238|366:238|386:136,1,200,4|0,1:1|0:0,0:0:0:0:
321,77,44071,2,0,P|327:14|402:68,1,187.500007152558
293,180,44571,6,0,B|253:167|279:153|232:140,1,75.0000028610231,2|0,0:0|0:0,0:0:0:0:
415,308,44738,2,0,P|503:281|517:280,1,75.0000028610231,2|0,0:0|0:0,0:0:0:0:
253,336,44905,5,0,0:0:0:0:
198,340,44988,1,2,0:3:0:0:
158,303,45071,1,2,0:3:0:0:
159,249,45155,1,2,0:3:0:0:
200,212,45238,6,0,B|252:197|342:210|342:210|387:189|375:110,1,225.000008583069,4|0,1:0|0:0,0:0:0:0:
463,60,45571,2,0,B|447:67|447:91|447:91|438:72|420:67,1,75.0000028610231,0|0,1:0|0:0,0:0:0:0:
215,116,45738,1,0,3:0:0:0:
199,106,45821,1,0,3:0:0:0:
183,103,45904,6,0,B|238:46|330:67|330:67|299:86|299:113,1,200,10|0,0:1|0:0,0:0:0:0:
403,237,46155,2,0,P|392:188|377:140,1,100,8|0,0:3|0:1,0:0:0:0:
25,199,46405,6,0,B|74:157|150:179|172:255|142:249|165:321|289:349|312:244,1,300,6|0,1:0|0:0,0:0:0:0:
253,204,46738,2,0,P|98:274|17:321,1,225.000008583069,2|0,0:1|0:0,0:0:0:0:
179,115,47071,6,0,P|152:243|131:373,1,262.500002503395,2|0,1:0|0:0,0:0:0:0:
141,383,47405,1,2,0:1:0:0:
80,141,47571,1,8,0:3:0:0:
403,286,47738,5,0,3:0:0:0:
423,281,47821,1,0,3:0:0:0:
440,272,47905,2,0,P|463:223|336:244,1,262.500002503395,6|0,1:0|0:0,0:0:0:0:
338,237,48238,1,0,0:0:0:0:
134,317,48405,1,2,0:0:0:0:
165,358,48488,1,2,0:2:0:0:
212,365,48571,6,0,P|205:276|183:141,1,175.00000166893,10|0,0:1|0:0,0:0:0:0:
368,64,48821,2,0,P|340:214|335:262,1,175.00000166893,10|0,0:1|0:0,0:0:0:0:
83,245,49071,6,0,B|88:171|215:157|249:246|232:273|218:296|303:369|374:334,1,375,6|0,1:1|0:0,0:0:0:0:
433,281,49405,5,2,0:3:0:0:
427,264,49488,1,2,0:3:0:0:
421,247,49571,1,8,1:3:0:0:
277,88,49738,2,0,P|274:137|323:150,1,100,0|0,1:0|0:0,0:0:0:0:
432,119,49905,6,0,P|455:53|458:48,1,50,2|0,0:3|0:0,0:0:0:0:
362,66,50071,2,0,P|385:0|388:-5,1,50,2|0,0:3|0:0,0:0:0:0:
191,105,50238,1,8,0:3:0:0:
154,111,50321,1,2,0:3:0:0:
117,118,50405,1,2,3:3:0:0:
80,125,50488,1,2,0:3:0:0:
43,132,50571,6,0,B|43:100|43:100|84:93|84:93|84:178|84:178|81:186|81:186|80:258|80:258|121:267|121:267|122:236,1,300,4|0,1:0|0:0,0:0:0:0:
197,301,50905,2,0,P|-6:262|-34:258,1,200,10|0,1:3|0:0,0:0:0:0:
370,68,51238,2,0,P|440:51|486:46,1,75.0000028610231,10|0,0:3|0:0,0:0:0:0:
252,172,51405,1,0,0:0:0:0:
235,176,51488,2,0,B|208:151|208:151|222:79,1,75.0000028610231,8|2,0:3|0:3,0:0:0:0:
274,376,51738,6,0,B|329:334|301:245|301:245|295:251|295:251|252:180|309:105,1,300,6|0,1:2|0:0,0:0:0:0:
423,184,52071,2,0,B|328:188|389:247|276:258,1,150,2|0,0:1|0:0,0:0:0:0:
126,71,52405,6,0,B|132:42|132:42|205:21|205:21|158:251,1,337.500012874604,6|0,1:1|0:0,0:0:0:0:
97,309,52738,2,0,P|71:276|95:236,1,75.0000028610231
290,117,52905,2,0,B|187:134|187:134|178:148|178:148|41:175,1,225.000008583069,10|0,1:1|0:0,0:0:0:0:
13,106,53238,6,0,P|225:168|317:208,1,300,4|0,1:0|1:0,0:0:0:0:
468,80,53905,2,0,P|419:128|415:137,1,50,8|0,0:3|0:0,0:0:0:0:
388,185,54071,1,0,3:0:0:0:
262,286,54238,2,0,B|247:286|247:286|220:244,1,50,0|0,1:0|0:0,0:0:0:0:
306,40,54405,1,2,0:3:0:0:
308,52,54488,1,2,0:3:0:0:
312,63,54571,6,0,B|319:114|319:114|288:119|288:119|296:73,6,100.000003814697,4|0|0|0|0|0|0,1:3|0:0|0:0|0:0|0:0|0:0|0:0,0:0:0:0:
422,308,55071,5,0,0:0:0:0:
405,289,55154,1,0,1:0:0:0:
382,280,55237,1,2,0:3:0:0:
359,362,55405,1,2,1:2:0:0:
131,222,55571,6,0,B|107:178|107:178|220:162|220:162|189:312,1,300,2|0,0:0|0:0,0:0:0:0:
115,358,55905,6,0,B|74:385|74:385|64:360|64:360|137:353,1,125,6|0,1:1|0:0,0:0:0:0:
314,179,56071,2,0,B|363:145|363:145|375:175|375:175|290:184,1,150.000005722046,2|0,0:3|0:0,0:0:0:0:
215,168,56405,2,0,B|202:142|202:142|205:134|205:134|180:79,1,75.0000028610231,2|0,0:1|0:0,0:0:0:0:
301,304,56571,6,0,B|316:339|316:339|269:331|269:331|296:302,1,125,2|0,1:1|0:0,0:0:0:0:
339,61,56738,2,0,B|320:18|320:18|376:27|376:27|344:63,1,150.000005722046,2|0,0:3|0:0,0:0:0:0:
318,187,57071,2,0,B|375:173|375:173|359:209,1,75.0000028610231,8|0,0:3|0:0,0:0:0:0:
139,253,57238,6,0,B|90:236|112:282|37:246,1,75.0000028610231,2|0,1:0|0:0,0:0:0:0:
194,96,57405,1,0,1:0:0:0:
194,96,57488,1,0,1:0:0:0:
194,96,57571,1,8,0:0:0:0:
130,338,57738,1,0,1:0:0:0:
403,272,57905,6,0,B|413:195|413:195|406:184|406:184|421:73,1,150.000005722046,8|0,1:3|0:0,0:0:0:0:
462,56,58155,1,2,0:2:0:0:
462,56,58238,2,0,B|483:63|502:53|502:53|486:76|490:111,1,75.0000028610231,2|0,1:3|0:0,0:0:0:0:
366,189,58405,1,0,0:3:0:0:
44,71,58571,6,0,B|17:49|108:-11|69:204,1,150.000005722046,2|0,3:3|0:0,0:0:0:0:
48,245,58821,1,2,3:3:0:0:
39,252,58905,2,0,P|23:257|40:250,1,75.0000028610231,0|0,1:0|0:0,0:0:0:0:
96,342,59071,2,0,P|176:301|196:296,1,75.0000028610231,2|0,0:3|0:0,0:0:0:0:
217,42,59238,6,0,B|204:9|313:2|172:169,1,150.000005722046,10|0,1:3|0:0,0:0:0:0:
165,219,59488,1,2,3:3:0:0:
156,226,59571,2,0,P|140:231|157:224,1,75.0000028610231,0|0,1:0|0:0,0:0:0:0:
169,311,59738,2,0,P|258:315|278:321,1,75.0000028610231,2|0,0:3|0:0,0:0:0:0:
447,292,59905,5,2,3:0:0:0:
445,304,59988,2,0,B|438:321|393:294|441:226|365:189,1,150.000005722046,2|2,0:3|0:3,0:0:0:0:
290,208,60238,2,0,P|285:229|293:216,1,75.0000028610231,0|0,1:0|0:0,0:0:0:0:
249,320,60405,2,0,P|310:349|335:373,1,75.0000028610231,2|0,0:3|0:0,0:0:0:0:
443,132,60571,6,0,B|459:125|459:125|428:77|428:77|372:93|372:93|387:121,1,150.000005722046,10|0,1:3|0:0,0:0:0:0:
342,275,60905,5,0,3:0:0:0:
303,234,60988,1,0,3:0:0:0:
262,195,61071,1,0,3:0:0:0:
219,159,61155,1,0,3:0:0:0:
174,126,61238,6,0,B|159:106|133:115|133:115|128:148|128:148|144:129|171:129,1,125,6|0,1:0|0:0,0:0:0:0:
447,220,61405,2,0,B|464:243|495:232|495:232|500:194|500:194|482:216|450:216,1,150.000005722046,2|0,0:3|0:0,0:0:0:0:
342,275,61738,2,0,B|316:283|316:283|310:291|310:291|256:307,1,75.0000028610231,2|0,0:1|0:0,0:0:0:0:
113,234,61905,6,0,B|82:225|82:225|60:243|78:267|78:267|116:239,1,125,2|0,1:1|0:0,0:0:0:0:
401,112,62071,2,0,B|446:84|446:84|468:111|441:133|441:133|401:114,1,150.000005722046,2|0,0:3|0:0,0:0:0:0:
290,37,62405,2,0,B|270:48|270:48|285:107,1,75.0000028610231,8|0,0:3|0:0,0:0:0:0:
226,239,62571,6,0,B|189:205|189:205|222:144,1,100,2|0,1:0|0:0,0:0:0:0:
221,159,62738,2,0,B|258:193|258:193|225:254,1,100,0|0,1:0|0:0,0:0:0:0:
188,321,62905,1,8,0:0:0:0:
108,371,63071,2,0,P|61:334|90:293,1,75.0000028610231,0|0,1:0|0:0,0:0:0:0:
299,186,63238,6,0,B|353:169|353:169|361:175|361:175|408:162|408:162|370:191|372:221,1,150.000005722046,8|0,1:3|0:0,0:0:0:0:
432,252,63488,1,2,0:2:0:0:
432,252,63571,2,0,B|440:281|419:296|419:296|421:269|399:233,1,75.0000028610231,2|0,1:3|0:0,0:0:0:0:
351,118,63738,1,0,0:0:0:0:
70,202,63905,6,0,B|55:223|0:158|114:149|169:246,1,150.000005722046,2|0,3:0|0:0,0:0:0:0:
226,301,64155,1,2,3:0:0:0:
218,309,64238,2,0,P|194:312|218:297,1,75.0000028610231,0|0,1:0|0:0,0:0:0:0:
304,264,64405,2,0,P|321:188|319:181,1,50,2|0,0:3|0:0,0:0:0:0:
141,68,64571,6,0,B|126:74|117:23|180:53|179:121,1,100,2|0,1:3|0:0,0:0:0:0:
245,189,64821,1,2,3:0:0:0:
235,181,64905,5,0,1:0:0:0:
258,137,64988,1,0,3:3:0:0:
302,115,65071,1,0,3:3:0:0:
351,121,65155,1,0,3:3:0:0:
389,153,65238,5,4,1:3:0:0:
476,126,65405,1,2,0:0:0:0:
481,33,65571,1,0,0:0:0:0:
473,25,65738,1,2,0:0:0:0:
463,27,65905,2,0,P|426:37|395:41,1,50,8|0,0:3|0:0,0:0:0:0:
174,106,66238,6,2,B|142:100|142:100|122:64|122:64|123:60|123:60|108:34|108:34|63:26,1,150,0|0,0:0|0:0,0:0:0:0:
30,120,66571,6,0,B|41:146|41:146|64:136|64:136|52:108|52:108|30:118,1,100,2|0,1:1|0:0,0:0:0:0:
44,125,67071,1,2,0:0:0:0:
201,30,67238,5,10,0:1:0:0:
217,16,67321,1,8,0:3:0:0:
206,1,67405,1,8,0:3:0:0:
188,11,67488,1,8,0:3:0:0:
201,15,67571,1,0,0:0:0:0:
198,200,67738,5,0,1:0:0:0:
198,200,67821,1,0,1:0:0:0:
211,249,67905,1,10,0:1:0:0:
153,230,67988,1,8,0:3:0:0:
153,170,68070,1,8,0:3:0:0:
211,151,68155,1,8,0:3:0:0:
246,200,68238,1,8,1:3:0:0:
380,338,68405,5,2,0:0:0:0:
380,338,68488,1,0,0:0:0:0:
380,338,68571,2,0,B|432:317|432:317|377:318,1,100,8|2,1:3|0:0,0:0:0:0:
188,343,68905,6,0,B|171:345|173:361|173:361|187:366|196:346,1,50,2|0,1:3|0:0,0:0:0:0:
288,289,69071,1,0,3:3:0:0:
381,48,69238,6,0,B|374:32|341:36|334:60|334:60|310:169,1,150.000005722046,2|0,1:3|0:0,0:0:0:0:
407,234,69488,1,0,0:0:0:0:
416,231,69571,2,0,B|422:231|427:219|421:212|421:212|388:182,1,50,2|0,1:3|0:0,0:0:0:0:
237,105,69738,2,0,B|216:114|216:114|232:212,1,100,2|0,0:3|0:0,0:0:0:0:
295,383,69905,5,8,1:3:0:0:
295,383,69988,1,0,0:0:0:0:
295,383,70071,1,2,0:2:0:0:
316,300,70238,6,0,P|325:271|340:245,1,50,2|0,1:3|0:0,0:0:0:0:
326,309,70405,2,0,P|301:246|282:217,1,75.0000028610231,2|2,0:3|0:3,0:0:0:0:
137,120,70571,5,0,3:0:0:0:
137,120,70655,1,2,0:3:0:0:
137,120,70738,1,2,0:3:0:0:
223,94,70905,6,0,P|259:75|275:34,1,75.0000028610231,2|0,1:3|0:0,0:0:0:0:
218,84,71071,2,0,P|290:79|327:124,1,100,2|2,0:3|0:3,0:0:0:0:
486,220,71238,6,0,P|417:329|416:350,2,100,10|2|2,1:3|0:0|0:0,0:0:0:0:
511,88,71571,5,0,0:0:0:0:
474,55,71654,1,2,0:0:0:0:
425,57,71737,1,0,3:0:0:0:
392,93,71820,1,0,3:0:0:0:
390,142,71905,6,0,B|387:193|387:193|399:177|420:165|420:165|393:141,1,125,6|0,1:1|0:0,0:0:0:0:
137,336,72071,2,0,B|105:307|105:307|126:295|144:275|144:275|137:347,1,150.000005722046,2|0,0:3|0:0,0:0:0:0:
244,346,72405,2,0,B|276:337|276:337|282:330|282:330|326:321,1,75.0000028610231,2|0,0:1|0:0,0:0:0:0:
72,223,72571,6,0,B|46:207|46:207|58:174|58:174|85:195|85:195|74:230,1,125,2|0,1:1|0:0,0:0:0:0:
315,46,72738,2,0,B|345:27|345:27|331:-12|331:-12|299:12|299:12|312:54,1,150.000005722046,2|0,0:3|0:0,0:0:0:0:
199,118,73071,2,0,B|153:101|153:101|171:94|193:79,1,75.0000028610231,8|0,0:3|0:0,0:0:0:0:
353,221,73238,6,0,B|393:213|372:179|456:179,1,75.0000028610231,2|0,1:1|0:0,0:0:0:0:
249,204,73405,1,0,1:0:0:0:
249,204,73488,1,0,1:0:0:0:
249,204,73571,1,8,0:0:0:0:
463,8,73738,1,0,1:0:0:0:
419,190,73905,6,0,B|401:259|401:259|404:267|404:267|385:342,1,150.000005722046,8|0,1:3|0:0,0:0:0:0:
461,380,74155,1,2,0:0:0:0:
470,367,74238,2,0,B|486:351|504:346|504:346|474:334|467:357,1,75.0000028610231,0|0,1:0|0:0,0:0:0:0:
305,309,74404,1,0,3:0:0:0:
305,309,74488,1,0,3:0:0:0:
305,309,74571,6,0,B|290:282|301:242|400:221|505:269,1,225.000008583069,6|0,1:3|0:0,0:0:0:0:
325,127,74905,6,0,B|325:107|343:89|403:109|444:167,1,150,2|0,0:3|0:0,0:0:0:0:
451,0,75238,5,0,3:0:0:0:
457,10,75321,1,0,0:0:0:0:
464,21,75405,1,0,3:0:0:0:
470,32,75487,1,0,0:0:0:0:
476,43,75571,1,0,3:0:0:0:
481,54,75654,1,0,3:0:0:0:
486,66,75737,1,0,3:0:0:0:
490,77,75821,1,0,3:0:0:0:
494,89,75904,5,4,1:3:0:0:
453,164,76071,1,2,0:0:0:0:
370,193,76238,2,0,B|352:186|352:186|346:173|346:173|310:161,1,50,2|0,0:3|0:0,0:0:0:0:
262,108,76405,2,0,B|240:112|232:129|232:129|238:132|238:132|214:167|183:162,1,75.0000028610231,2|0,0:3|0:0,0:0:0:0:
140,220,76571,5,0,3:0:0:0:
140,220,76655,1,2,3:3:0:0:
57,176,76821,1,2,0:3:0:0:
57,176,76905,6,2,B|29:141|76:128|53:70|53:70|108:114|59:178,1,225.000008583069,2|0,0:1|0:0,0:1:0:0:
118,330,77238,6,0,P|195:246|246:269,1,150.000005722046,6|0,1:2|0:0,0:0:0:0:
282,195,77571,2,0,P|349:258|352:289,1,119.999996337891,10|0,0:0|0:0,0:0:0:0:
359,376,77905,2,0,P|268:349|190:339,1,150,10|2,0:0|0:0,0:0:0:0:
199,349,78238,5,10,0:0:0:0:
457,225,78405,2,0,B|381:229|436:282|324:280,1,110.000003356934,2|8,0:0|0:0,0:0:0:0:
287,189,78738,2,0,L|297:135,1,55.0000016784668,2|0,0:0|0:0,0:0:0:0:
368,111,78905,2,0,P|302:86|258:40,1,110.000003356934,10|0,0:0|0:0,0:0:0:0:
32,148,79238,6,0,P|85:75|144:61,1,119.999996337891,10|2,0:0|0:0,0:0:0:0:
122,50,79488,1,2,0:0:0:0:
134,36,79571,2,0,P|184:64|187:80,1,59.9999981689454,8|0,0:0|0:0,0:0:0:0:
138,213,79738,1,2,0:0:0:0:
138,213,79821,1,8,0:2:0:0:
138,213,79905,6,0,P|284:184|320:181,1,179.999994506836,8|0,0:0|0:0,0:0:0:0:
229,271,80238,2,0,P|111:240|5:229,1,179.999994506836,10|0,0:0|0:0,0:0:0:0:
143,322,80571,2,0,P|210:304|355:281,1,179.999994506836,10|2,0:0|0:0,0:0:0:0:
397,338,80905,6,0,P|444:307|444:283,1,69.9999978637696,10|0,0:0|0:0,0:0:0:0:
398,111,81071,2,0,P|340:112|329:205,1,139.999995727539,2|8,0:0|0:0,0:0:0:0:
459,220,81405,2,0,P|376:209|366:222,1,69.9999978637696,2|0,0:0|0:0,0:0:0:0:
192,109,81571,2,0,P|228:204|251:272,1,139.999995727539,10|0,0:0|0:0,0:0:0:0:
32,340,81905,6,0,P|61:261|63:245,1,69.9999978637696,10|0,0:0|0:0,0:0:0:0:
107,373,82071,2,0,P|136:294|138:278,1,69.9999978637696,2|2,0:0|0:0,0:0:0:0:
15,196,82238,1,10,0:0:0:0:
220,382,82405,1,2,0:0:0:0:
221,347,82488,1,8,0:0:0:0:
212,313,82571,6,0,B|264:263|320:312|306:324|351:367|418:323,1,225.000008583069,10|0,0:0|0:0,0:0:0:0:
464,249,82905,2,0,P|488:147|509:85,1,150.000005722046,10|0,0:0|0:0,0:0:0:0:
304,280,83238,2,0,P|252:142|232:103,1,150.000005722046,10|0,0:0|0:0,0:0:0:0:
374,158,83488,1,2,0:0:0:0:
375,144,83571,6,0,P|397:72|404:59,1,69.9999978637696,10|0,0:0|0:0,0:0:0:0:
169,206,83738,2,0,P|108:119|32:41,1,150.000005722046,2|8,0:0|0:0,0:0:0:0:
118,15,84071,2,0,P|192:70|191:73,1,75.0000028610231,2|0,0:0|0:0,0:0:0:0:
324,31,84238,2,0,P|256:75|262:161,1,150.000005722046,10|0,0:0|0:0,0:0:0:0:
449,290,84571,6,0,P|390:231|344:239,1,75.0000028610231,10|0,0:0|0:0,0:0:0:0:
290,233,84739,1,2,0:0:0:0:
256,249,84821,1,2,0:0:0:0:
220,260,84905,1,10,0:0:0:0:
389,89,85071,2,0,P|465:112|486:125,1,75.0000028610231,2|8,0:0|0:0,0:0:0:0:
344,313,85238,5,8,0:0:0:0:
199,180,85405,1,0,3:0:0:0:
225,173,85488,1,0,3:0:0:0:
250,162,85571,1,10,0:0:0:0:
197,86,85738,1,0,3:0:0:0:
197,86,85821,1,0,3:0:0:0:
197,86,85905,5,10,0:0:0:0:
183,51,85988,1,0,3:0:0:0:
154,28,86071,1,0,3:0:0:0:
117,25,86154,1,2,3:2:0:0:
84,41,86238,2,0,P|108:84|119:114,1,50,2|0,0:0|0:0,0:0:0:0:
60,261,86405,1,2,3:3:0:0:
60,261,86488,1,0,3:0:0:0:
60,261,86571,6,0,B|48:237|72:227|72:227|81:251|113:244,1,50,4|0,1:3|0:0,0:0:0:0:
176,180,86738,2,0,P|108:160|99:155,1,50
37,143,86905,2,0,L|17:104,6,25
140,299,87238,5,0,3:3:0:0:
185,320,87321,1,8,0:0:0:0:
220,282,87405,1,0,3:0:0:0:
267,304,87488,1,8,0:0:0:0:
301,265,87571,1,8,1:3:0:0:
164,95,87738,6,0,B|176:66|144:51|144:51|131:81|170:99,1,100
113,163,87905,6,0,B|179:169|176:103|170:101|195:21|278:63,1,200,12|0,1:2|0:2,0:2:0:0:
443,197,88238,2,0,P|290:142|200:127,1,200,10|2,1:2|0:2,0:2:0:0:
66,317,88571,2,0,P|186:293|170:220,1,200,10|0,1:2|0:2,0:2:0:0:
31,141,88821,1,2,0:2:0:0:
13,155,88905,2,0,P|26:228|88:224,1,100,10|0,1:2|0:2,0:2:0:0:
181,344,89071,6,0,P|298:292|425:267,1,200,2|8,0:2|1:2,0:2:0:0:
367,274,89405,2,0,P|279:242|242:212,1,100,2|0,0:2|0:2,0:2:0:0:
400,200,89571,2,0,P|312:168|275:138,1,100,10|0,1:2|0:2,0:2:0:0:
431,123,89738,1,0,3:2:0:0:
431,123,89821,1,0,3:2:0:0:
431,123,89905,2,0,P|343:91|306:61,1,100,10|0,1:2|0:2,0:2:0:0:
153,40,90071,1,0,3:2:0:0:
153,40,90155,1,0,3:2:0:0:
153,40,90238,6,0,P|92:66|90:103,1,100,2|0,1:1|0:2,0:2:0:0:
174,245,90405,1,2,3:2:0:0:
198,275,90488,1,0,3:2:0:0:
221,311,90571,2,0,P|196:207|163:108,1,184.999999294281,10|0,1:1|0:2,0:2:0:0:
313,364,90905,2,0,P|346:264|394:151,1,184.999999294281,10|2,1:1|0:2,0:2:0:0:
284,166,91155,1,2,0:2:0:0:
276,152,91238,6,0,P|330:75|423:98,1,184.999999294281,10|0,1:1|0:2,0:2:0:0:
461,343,91488,2,0,B|409:362|375:311|397:291|348:244|279:280,1,184.999999294281,2|0,1:1|0:2,0:2:0:0:
488,159,91738,2,0,P|459:271|460:276,1,92.4999996471405,2|0,1:1|0:2,0:2:0:0:
223,333,91905,6,0,P|163:238|132:222,1,92.4999996471405,10|0,1:1|0:2,0:2:0:0:
94,212,92071,1,2,0:2:0:0:
272,61,92238,2,0,P|147:90|128:150,1,175.00000166893,10|0,1:2|0:2,0:2:0:0:
94,212,92488,1,0,3:2:0:0:
80,228,92571,6,0,P|-1:208|-30:205,1,87.500000834465,10|0,1:1|0:2,0:2:0:0:
235,172,92738,1,0,0:2:0:0:
235,172,92821,1,0,3:2:0:0:
235,172,92905,1,10,1:1:0:0:
311,355,93071,2,0,P|423:331|427:331,1,87.500000834465,0|0,0:2|0:2,0:2:0:0:
477,123,93238,5,12,1:2:0:0:
304,250,93405,1,0,1:2:0:0:
237,301,93571,1,0,1:2:0:0:
501,268,93738,5,2,1:2:0:0:
308,126,93905,1,0,1:2:0:0:
199,45,94071,1,0,1:2:0:0:
334,351,94238,5,2,1:2:0:0:
387,185,94405,1,0,1:2:0:0:
440,20,94571,5,0,1:0:0:0:
451,15,94654,1,0,1:0:0:0:
462,11,94737,1,0,1:0:0:0:
474,7,94820,1,0,1:0:0:0:
488,7,94905,5,0,1:0:0:0:
475,25,94988,1,0,1:0:0:0:
464,43,95071,1,0,1:0:0:0:
454,63,95154,1,0,1:0:0:0:
443,84,95238,5,0,1:0:0:0:
462,122,95321,1,0,1:0:0:0:
479,163,95404,1,0,1:0:0:0:
492,205,95487,1,0,1:0:0:0:
500,248,95571,5,0,3:0:0:0:
452,228,95655,1,0,3:0:0:0:
402,217,95738,2,0,L|386:189,2,18.7500007152558,0|0|0,3:0|3:0|3:0,3:0:0:0:
474,366,95905,5,6,1:3:0:0:
474,366,96155,1,2,0:0:0:0:
474,366,96405,1,2,0:0:0:0:
378,321,96571,5,2,0:0:0:0:
378,321,96821,1,2,0:0:0:0:
378,321,97071,1,2,0:0:0:0:
285,366,97238,5,2,0:0:0:0:
285,366,97571,2,0,B|246:376|239:345|233:317|178:325,1,112.500004291535
54,343,97905,2,0,B|74:362|91:355|91:355|117:275,1,125
93,96,98155,5,0,3:0:0:0:
120,166,98238,2,0,B|138:200|138:200|157:199|157:199|161:175|161:175|132:153,1,112.500004291535,8|0,1:3|0:0,0:0:0:0:
115,28,98571,5,4,0:3:0:0:
93,60,98654,1,2,0:0:0:0:
93,96,98737,1,2,0:0:0:0:
62,78,98821,1,0,0:0:0:0:
25,84,98904,1,2,0:2:0:0:
180,268,99238,6,0,P|224:245|223:217,1,75.0000028610231,2|0,0:0|0:0,0:0:0:0:
299,201,99488,1,0,0:0:0:0:
303,191,99571,2,0,P|269:155|257:155,1,37.5000014305115,2|0,0:0|0:0,0:0:0:0:
291,80,99738,2,0,P|227:67|224:69,1,50,2|0,0:0|0:0,0:0:0:0:
160,144,99905,5,2,0:0:0:0:
160,144,99988,1,0,3:0:0:0:
160,144,100071,2,0,L|86:129,1,50,2|0,3:3|0:0,0:0:0:0:
291,80,100238,5,2,0:3:0:0:
339,65,100321,1,0,3:0:0:0:
389,54,100404,1,0,3:0:0:0:
439,46,100487,1,0,3:0:0:0:
490,41,100571,2,0,B|446:28|446:28|416:151,1,150.000005722046,8|0,1:3|0:0,0:0:0:0:
407,318,100821,5,0,3:0:0:0:
358,248,100905,2,2,B|306:184|340:139|340:139|344:199|381:189|359:248,1,225.000008583069,2|0,0:1|0:0,0:1:0:0:
256,354,101238,5,4,1:1:0:0:
222,305,101321,1,2,0:0:0:0:
222,245,101404,1,2,0:0:0:0:
169,275,101488,1,0,0:0:0:0:
110,267,101571,6,0,P|92:219|35:113,1,100,10|0,1:2|0:0,0:0:0:0:
148,370,101738,1,2,0:3:0:0:
222,93,101905,2,0,P|255:3|271:-28,1,100,10|0,1:2|0:2,0:2:0:0:
174,175,102071,1,2,3:3:0:0:
174,175,102155,1,8,3:2:0:0:
174,175,102238,6,0,P|277:164|290:133,1,100,2|0,1:2|0:2,0:2:0:0:
348,40,102405,2,0,P|394:23|439:40,1,100,10|0,0:2|0:2,0:2:0:0:
125,87,102571,6,0,L|9:39,1,100,2|0,1:2|0:2,0:2:0:0:
352,178,102738,1,8,0:2:0:0:
75,201,102905,2,2,B|37:217|37:217|19:176|19:176|116:132|226:91,1,300,12|0,1:2|0:2,1:2:0:0:
352,186,103238,5,2,1:2:0:0:
307,114,103321,2,0,P|338:38|354:30,1,100,10|0,0:2|0:2,0:2:0:0:
428,241,103488,1,8,0:2:0:0:
414,258,103571,2,0,P|382:355|379:368,1,100,2|0,0:2|0:2,0:2:0:0:
286,301,103738,2,0,P|311:384|315:389,1,75.0000028610231,10|0,0:2|0:2,0:2:0:0:
469,379,103905,6,0,P|438:342|366:394,1,100,2|0,1:2|0:2,0:2:0:0:
273,219,104071,2,0,P|169:245|165:245,1,100,2|0,0:2|0:2,0:2:0:0:
119,309,104238,2,0,P|71:313|40:276,1,100,10|0,1:2|0:2,0:2:0:0:
34,49,104405,1,0,3:2:0:0:
57,72,104488,1,0,3:2:0:0:
77,93,104571,6,0,P|118:211|122:226,1,100,10|0,1:2|0:2,0:2:0:0:
237,356,104738,1,0,3:2:0:0:
247,335,104821,1,8,3:2:0:0:
258,316,104905,2,0,P|291:191|299:173,1,100,2|0,1:2|0:2,0:2:0:0:
234,126,105071,2,0,P|291:63|311:63,1,100,10|0,0:2|0:2,0:2:0:0:
452,262,105238,6,0,P|362:194|367:180,1,100,2|0,1:2|0:2,0:2:0:0:
336,144,105405,1,8,0:2:0:0:
168,265,105571,2,0,B|150:242|150:242|166:196|225:198,1,100,10|0,1:3|0:2,0:2:0:0:
336,144,105738,2,0,L|444:161,1,100,2|0,0:3|0:2,0:2:0:0:
157,94,105905,2,0,L|54:110,1,75.0000028610231,2|0,1:2|0:2,0:2:0:0:
363,10,106071,1,2,3:3:0:0:
363,10,106155,1,8,3:2:0:0:
363,10,106238,6,0,P|465:46|462:81,1,150,10|0,1:3|0:2,0:2:0:0:
352,220,106571,5,0,1:2:0:0:
322,266,106654,1,2,0:2:0:0:
322,320,106737,1,2,0:2:0:0:
274,293,106821,1,0,0:2:0:0:
218,301,106905,2,0,P|260:363|269:385,1,69.9999978637696,10|0,1:2|0:2,0:2:0:0:
245,174,107071,1,0,1:2:0:0:
408,339,107238,5,2,0:3:0:0:
366,338,107320,1,2,0:3:0:0:
336,310,107404,1,8,0:3:0:0:
334,270,107488,1,2,0:3:0:0:
361,239,107571,5,0,1:2:0:0:
332,197,107654,1,2,0:2:0:0:
328,147,107737,1,2,0:2:0:0:
284,175,107820,1,0,0:2:0:0:
232,173,107905,2,0,P|249:122|260:60,1,100,2|0,0:2|0:2,0:2:0:0:
416,169,108238,6,0,P|469:142|477:141,1,50,2|0,0:2|0:2,0:2:0:0:
257,293,108405,1,2,0:2:0:0:
205,249,108488,1,2,0:3:0:0:
166,255,108571,1,2,0:2:0:0:
138,307,108655,1,2,0:2:0:0:
80,322,108738,1,0,0:2:0:0:
30,290,108821,1,0,0:2:0:0:
21,231,108905,1,10,1:2:0:0:
53,225,108988,1,2,0:2:0:0:
82,210,109071,2,0,L|103:135,1,50,0|0,1:2|0:2,0:2:0:0:
337,17,109238,5,4,1:2:0:0:
294,61,109321,1,2,0:2:0:0:
278,122,109404,1,2,0:2:0:0:
233,79,109488,1,0,0:2:0:0:
169,70,109571,6,0,P|200:156|197:185,1,100,10|0,1:2|0:2,0:2:0:0:
138,307,109738,1,2,0:3:0:0:
370,126,109905,2,0,P|340:228|331:238,1,100,10|0,1:2|0:2,0:2:0:0:
227,360,110071,1,2,3:3:0:0:
227,360,110155,1,8,3:2:0:0:
227,360,110238,2,0,P|371:337|384:334,1,100,2|0,1:2|0:2,0:2:0:0:
107,222,110405,2,0,P|57:214|7:208,1,100,10|0,0:2|0:2,0:2:0:0:
283,90,110571,6,0,P|373:41|394:61,1,100,2|0,1:2|0:2,0:2:0:0:
345,220,110738,1,10,0:2:0:0:
213,31,110905,2,0,P|325:7|361:141,1,262.500002503395,10|0,1:2|0:2,0:2:0:0:
424,359,111238,5,0,1:2:0:0:
353,308,111321,2,0,P|331:210|326:198,1,87.500000834465,10|0,0:2|0:2,0:2:0:0:
502,273,111488,1,10,0:2:0:0:
497,256,111571,2,0,P|436:174|426:168,1,87.500000834465,8|0,1:3|0:2,0:2:0:0:
267,371,111738,2,0,B|221:370|256:337|134:333,1,87.500000834465,10|0,0:2|0:2,0:2:0:0:
34,126,111905,5,2,1:2:0:0:
93,162,111988,1,2,0:2:0:0:
128,221,112071,1,2,0:2:0:0:
160,186,112155,1,0,0:2:0:0:
205,174,112238,6,0,P|207:269|214:279,1,87.500000834465,10|0,1:2|0:2,0:2:0:0:
336,305,112405,1,2,0:3:0:0:
265,84,112571,2,0,P|327:168|339:168,1,87.500000834465,10|0,1:2|0:2,0:2:0:0:
447,240,112738,1,2,3:3:0:0:
440,217,112821,1,8,3:2:0:0:
435,193,112905,2,0,P|468:107|474:99,1,87.500000834465,2|0,1:2|0:2,0:2:0:0:
336,305,113071,2,0,P|375:391|376:398,1,87.500000834465,10|0,0:2|0:2,0:2:0:0:
200,172,113238,6,0,L|69:139,1,87.500000834465,2|0,1:2|0:2,0:2:0:0:
362,86,113405,1,10,0:2:0:0:
147,282,113571,2,0,L|56:211,1,100,10|0,1:2|0:2,0:2:0:0:
313,218,113738,1,2,0:3:0:0:
56,378,113905,2,0,L|-6:262,1,112.500004291535,2|0,1:2|0:2,0:2:0:0:
285,384,114071,1,2,3:3:0:0:
256,361,114155,1,8,3:2:0:0:
248,328,114238,6,0,L|305:121,1,200,6|0,1:2|0:2,0:2:0:0:
211,35,114488,1,2,0:2:0:0:
211,35,114571,5,4,1:3:0:0:
167,66,114654,1,2,0:2:0:0:
153,117,114737,1,2,0:2:0:0:
129,94,114821,1,0,0:2:0:0:
103,94,114904,5,2,0:2:0:0:
100,180,115238,1,2,0:2:0:0:
235,123,115571,5,2,0:3:0:0:
269,244,115738,1,2,0:3:0:0:
6,173,115905,5,2,0:2:0:0:
13,87,116071,1,0,0:2:0:0:
154,273,116238,5,2,0:2:0:0:
100,180,116405,1,0,0:2:0:0:
221,192,116571,5,2,0:2:0:0:
104,94,116738,1,0,0:2:0:0:
228,70,116905,5,10,0:2:0:0:
81,358,117071,1,2,3:2:0:0:
276,269,117238,5,0,1:2:0:0:
352,264,117321,1,2,0:2:0:0:
417,301,117405,1,2,0:2:0:0:
416,263,117488,1,0,0:2:0:0:
438,237,117571,1,2,0:2:0:0:
506,381,117738,1,0,1:2:0:0:
425,303,117905,5,8,1:2:0:0:
425,269,117988,1,2,0:3:0:0:
445,246,118071,1,2,0:0:0:0:
477,236,118155,1,2,0:3:0:0:
504,248,118238,2,0,P|500:327|501:333,1,50,0|2,1:0|0:0,0:0:0:0:
346,251,118405,5,2,0:0:0:0:
314,214,118488,1,0,0:0:0:0:
265,216,118571,1,2,1:2:0:0:
142,269,118738,5,2,0:0:0:0:
63,287,118905,1,0,0:0:0:0:
0,234,119071,1,2,0:0:0:0:
34,88,119238,5,0,3:0:0:0:
34,88,119321,1,0,3:0:0:0:
34,88,119405,1,0,3:0:0:0:
34,88,119488,1,0,3:0:0:0:
34,88,119571,2,0,B|40:44|16:53|14:16|14:16|-10:55|31:88,1,150.000005722046,2|0,0:1|0:0,0:0:0:0:
129,148,119738,5,0,3:0:0:0:
129,148,119821,1,0,3:0:0:0:
129,148,119905,2,0,P|112:110|107:103,1,37.5000014305115,2|0,0:0|0:0,0:0:0:0:
70,199,120071,2,0,P|29:158|17:153,1,37.5000014305115,2|0,0:0|0:0,0:0:0:0:
213,2,120238,6,0,P|206:78|223:175,1,150.000005722046,6|0,1:2|0:0,0:0:0:0:
104,291,120488,1,2,0:0:0:0:
117,267,120571,2,0,P|169:233|210:228,1,75.0000028610231,8|0,1:2|0:0,0:0:0:0:
297,46,120738,2,0,P|294:127|282:145,1,75.0000028610231
129,148,120905,6,0,P|54:130|47:128,1,75.0000028610231,2|0,0:3|0:0,0:0:0:0:
170,347,121071,2,0,B|207:376|256:350|261:301|229:296|268:234|360:235|355:309,1,225.000008583069,2|0,1:3|0:0,0:0:0:0:
418,242,121405,2,0,P|456:272|431:314,1,64.9999970245363,2|0,0:3|0:0,0:0:0:0:
260,337,121571,2,0,P|237:262|225:231,1,64.9999970245363,2|0,0:3|0:0,0:0:0:0:
386,58,121738,1,2,0:3:0:0:
380,72,121821,1,2,0:3:0:0:
376,87,121905,6,0,B|349:90|331:103|331:103|322:75|378:56,1,64.9999970245363,8|0,1:2|0:0,0:0:0:0:
488,179,122071,1,0,0:0:0:0:
479,167,122155,2,0,P|374:171|321:215,1,129.999994049073,2|0,0:0|0:0,0:0:0:0:
272,162,122405,2,0,P|222:128|243:76,1,64.9999970245363,2|0,0:0|0:0,0:0:0:0:
43,339,122571,6,0,P|101:259|92:246,1,80,6|0,1:2|0:0,0:0:0:0:
4,179,122738,2,0,P|35:258|38:278,1,80,2|0,0:0|0:0,0:0:0:0:
211,50,122905,2,0,P|172:206|165:273,1,160,2|0,0:0|0:0,0:0:0:0:
43,78,123155,1,2,0:0:0:0:
65,97,123238,2,0,P|96:179|98:189,1,80,10|0,1:2|0:0,0:0:0:0:
200,293,123405,2,0,P|283:222|297:215,1,80,2|0,0:0|0:0,0:0:0:0:
463,104,123571,6,0,L|350:78,1,80,2|0,0:3|0:0,0:0:0:0:
222,137,123738,2,0,B|170:120|175:36|261:15|315:84|307:197,1,240,2|0,1:3|0:0,0:0:0:0:
357,232,124071,2,0,P|384:213|395:182,1,67.5000002574921,2|0,0:3|0:0,0:0:0:0:
385,86,124238,2,0,L|352:0,1,67.5000002574921,2|0,0:3|0:0,0:0:0:0:
470,221,124405,1,2,0:3:0:0:
478,235,124488,1,2,0:3:0:0:
491,242,124571,6,0,B|508:226|526:222|526:222|493:212|447:271,1,80,8|0,1:2|0:0,0:0:0:0:
407,378,124738,1,0,0:0:0:0:
329,373,124821,2,0,B|363:363|363:363|367:357|367:357|500:323,1,160,10|0,0:3|0:0,0:0:0:0:
394,181,125071,2,0,B|363:187|363:187|344:216|362:236,1,80,2|0,0:0|0:0,0:0:0:0:
209,356,125238,6,0,P|156:269|146:261,1,75.0000028610231,6|0,1:2|0:0,0:2:0:0:
19,274,125405,2,0,P|34:189|41:177,1,75.0000028610231,2|0,0:0|0:0,0:0:0:0:
259,281,125571,2,0,P|164:325|112:381,1,150.000005722046,2|0,0:0|0:0,0:0:0:0:
113,135,125821,1,2,0:0:0:0:
118,161,125905,2,0,P|177:199|198:197,1,75.0000028610231,10|0,1:2|0:0,0:0:0:0:
270,285,126071,2,0,P|341:218|340:200,1,75.0000028610231,2|0,0:0|0:0,0:0:0:0:
238,66,126238,6,0,L|257:171,1,75.0000028610231,2|0,0:3|0:0,0:0:0:0:
140,273,126405,2,0,B|180:225|266:257|247:310|238:310|249:363|327:386|375:363,1,225.000008583069,2|0,1:3|0:0,0:0:0:0:
392,347,126738,2,0,P|413:269|424:242,1,62.5,2|0,0:3|0:0,0:0:0:0:
330,241,126905,2,0,P|370:160|377:149,1,62.5,2|0,0:3|0:0,0:0:0:0:
489,60,127071,1,2,0:3:0:0:
482,73,127155,1,2,0:3:0:0:
472,81,127238,6,0,B|440:61|440:61|435:76|442:87,1,62.5,8|0,1:2|0:0,0:0:0:0:
444,213,127405,1,0,0:0:0:0:
430,206,127488,2,0,P|343:107|307:75,1,125,2|0,0:0|0:0,0:0:0:0:
231,116,127738,2,0,P|294:146|310:132,1,62.5,2|0,0:0|0:0,0:0:0:0:
471,309,127905,6,0,P|351:274|232:249,1,175.00000166893,6|2,1:2|0:0,0:0:0:0:
104,251,128238,2,0,P|188:228|231:212,1,100,2|0,0:0|0:0,0:0:0:0:
228,302,128488,1,2,0:0:0:0:
220,307,128571,2,0,P|164:324|157:324,1,50,8|0,0:2|0:0,0:0:0:0:
28,195,128738,5,8,0:3:0:0:
14,147,128821,1,8,0:3:0:0:
34,103,128904,1,8,0:3:0:0:
78,81,128987,1,8,0:3:0:0:
129,97,129071,6,0,P|114:132|109:166,2,59.9999981689454
221,62,129905,5,0,0:0:0:0:
315,85,130071,1,0,0:0:0:0:
372,162,130238,1,0,0:0:0:0:
366,260,130405,1,2,0:0:0:0:
