osu file format v14

[General]
AudioFilename: audio.mp3
AudioLeadIn: 0
PreviewTime: 122315
Countdown: 0
SampleSet: Normal
StackLeniency: 0.7
Mode: 1
LetterboxInBreaks: 0
WidescreenStoryboard: 1

[Editor]
Bookmarks: 11724,23360,35179,46633,58269,69906,81542,87542,99179,110815,122269,145572,151391,163027
DistanceSpacing: 2.8
BeatDivisor: 4
GridSize: 16
TimelineZoom: 3.099999

[Metadata]
Title:Foresight
TitleUnicode:Foresight
Artist:Zekk
ArtistUnicode:Zekk
Creator:woosungko
Version:Muzukashii
Source:
Tags:fa featured artist TWC2022 world semifinals HR2 electronic instrumental osu!taiko cup #1 o!tfac#1 save death winner 1st first place mg mpg mappers' guild
BeatmapID:3530633
BeatmapSetID:1726306

[Difficulty]
HPDrainRate:6
CircleSize:5
OverallDifficulty:4
ApproachRate:5
SliderMultiplier:1.4
SliderTickRate:1

[Events]
//Background and Video events
0,0,"b.jpg",0,0
//Break Periods
//Storyboard Layer 0 (Background)
//Storyboard Layer 1 (Fail)
//Storyboard Layer 2 (Pass)
//Storyboard Layer 3 (Foreground)
//Storyboard Layer 4 (Overlay)
//Storyboard Sound Samples

[TimingPoints]
187,363.636363636364,4,1,0,60,1,0
187,-90.909090909091,4,1,0,60,0,0
437,-92.630948470896,4,1,0,60,0,0
710,-94.391929947085,4,1,0,60,0,0
892,-95.584477188902,4,1,0,60,0,0
1074,-96.792091067503,4,1,0,60,0,0
1165,-97.401607386957,4,1,0,60,0,0
1619,-100.500315074232,4,1,0,60,0,0
1892,-102.41089891385,4,1,0,60,0,0
2165,-104.357804337191,4,1,0,60,0,0
2346,-105.668970810594,4,1,0,60,0,0
3073,-90.909090909091,4,1,0,60,0,0
3346,-92.630948470896,4,1,0,60,0,0
3619,-94.391929947085,4,1,0,60,0,0
3801,-95.584477188902,4,1,0,60,0,0
3983,-96.792091067503,4,1,0,60,0,0
4074,-97.401607386957,4,1,0,60,0,0
4528,-100.500315074232,4,1,0,60,0,0
4801,-102.406554019457,4,1,0,60,0,0
5074,-104.36234606554,4,1,0,60,0,0
5255,-105.668970810594,4,1,0,60,0,0
5982,-90.909090909091,4,1,0,60,0,0
6254,-92.630948470896,4,1,0,60,0,0
6527,-94.391929947085,4,1,0,60,0,0
6709,-95.584477188902,4,1,0,60,0,0
6891,-96.792091067503,4,1,0,60,0,0
6982,-97.401607386957,4,1,0,60,0,0
7254,-99.246436023279,4,1,0,60,0,0
7436,-100.500315074232,4,1,0,60,0,0
7618,-101.770035627786,4,1,0,60,0,0
7709,-102.41089891385,4,1,0,60,0,0
7800,-103.055797825418,4,1,0,60,0,0
7982,-104.357804337191,4,1,0,60,0,0
8164,-105.676260393701,4,1,0,60,0,0
8891,-111.111111111111,4,1,0,60,0,0
9074,-109.655378101754,4,1,0,62,0,0
9165,-108.934679452022,4,1,0,63,0,0
9255,-108.226559605717,4,1,0,64,0,0
9346,-107.515251718012,4,1,0,64,0,0
9437,-106.808618827952,4,1,0,65,0,0
9619,-105.409255338946,4,1,0,67,0,0
9801,-104.028225746548,4,1,0,69,0,0
9892,-103.344510974619,4,1,0,70,0,0
10074,-101.990532830965,4,1,0,72,0,0
10165,-101.320210585315,4,1,0,73,0,0
10346,-100,4,1,0,75,0,0
10527,-83.3333333333333,4,1,0,60,0,0
11800,-90.9090909090909,4,1,0,85,0,0
11982,-91.7162291054196,4,1,0,85,0,0
12073,-92.1224815624714,4,1,0,85,0,0
12164,-92.5305334944959,4,1,0,85,0,0
12345,-93.3475339079501,4,1,0,85,0,0
12527,-94.1763218696022,4,1,0,85,0,0
13254,-97.5609756097561,4,1,0,85,0,0
13345,-97.131034889915,4,1,0,85,0,0
13436,-96.7029888725553,4,1,0,85,0,0
13527,-96.2768292079271,4,1,0,85,0,0
13618,-95.8525475830769,4,1,0,85,0,0
13800,-95.0095853839066,4,1,0,85,0,0
13982,-94.1740365012017,4,1,0,85,0,0
14164,-93.345835739558,4,1,0,85,0,0
14285,-92.7992535592507,4,1,0,85,0,0
14709,-90.9090909090909,4,1,0,85,0,0
14891,-91.7162291054196,4,1,0,85,0,0
14982,-92.1224815624714,4,1,0,85,0,0
15073,-92.5305334944959,4,1,0,85,0,0
15254,-93.3475339079501,4,1,0,85,0,0
15436,-94.1763218696022,4,1,0,85,0,0
16163,-97.5609756097561,4,1,0,85,0,0
16254,-97.131034889915,4,1,0,85,0,0
16345,-96.7029888725553,4,1,0,85,0,0
16527,-95.8525475830769,4,1,0,85,0,0
16891,-94.1740365012017,4,1,0,85,0,0
17073,-93.345835739558,4,1,0,85,0,0
17194,-92.7992535592507,4,1,0,85,0,0
17618,-90.9090909090909,4,1,0,85,0,0
17800,-91.7162291054196,4,1,0,85,0,0
17891,-92.1224815624714,4,1,0,85,0,0
17982,-92.5305334944959,4,1,0,85,0,0
18163,-93.3475339079501,4,1,0,85,0,0
18345,-94.1763218696022,4,1,0,85,0,0
19072,-97.5609756097561,4,1,0,85,0,0
19163,-97.131034889915,4,1,0,85,0,0
19254,-96.7029888725553,4,1,0,85,0,0
19436,-95.8525475830769,4,1,0,85,0,0
19800,-94.1740365012017,4,1,0,85,0,0
19982,-93.345835739558,4,1,0,85,0,0
20103,-92.7992535592507,4,1,0,85,0,0
20527,-90.9090909090909,4,1,0,85,0,0
20709,-91.7162291054196,4,1,0,85,0,0
20800,-92.1224815624714,4,1,0,85,0,0
20891,-92.5305334944959,4,1,0,85,0,0
20981,-92.9358790722722,4,1,0,85,0,0
21072,-93.3475339079501,4,1,0,85,0,0
21254,-94.1763218696022,4,1,0,85,0,0
21981,-97.5609756097561,4,1,0,85,0,0
22164,-83.3333333333333,4,1,0,85,0,0
23436,-100,4,1,0,85,0,0
23459,-100,4,1,0,85,0,0
23482,-133.333333333333,4,1,0,60,0,0
29074,-129.995523430298,4,1,0,60,0,0
29165,-129.447402554694,4,1,0,60,0,0
29255,-128.907578194105,4,1,0,60,0,0
30345,-122.540016837998,4,1,0,62,0,0
30527,-121.508825353389,4,1,0,63,0,0
30709,-120.486311490224,4,1,0,63,0,0
30891,-119.472402225098,4,1,0,64,0,0
31254,-117.475563041368,4,1,0,65,0,0
31618,-115.50673523902,4,1,0,65,0,0
31800,-114.534729808737,4,1,0,66,0,0
32164,-112.615188803409,4,1,0,67,0,0
32527,-110.732959790703,4,1,0,67,0,0
32709,-109.801126352547,4,1,0,68,0,0
33254,-107.057382546635,4,1,0,69,0,0
33618,-91.1161731207293,4,1,0,80,0,0
33982,-88.2621042307589,4,1,0,80,0,0
34345,-97.828125987557,4,1,0,100,0,0
35073,-90.9090909090909,4,1,0,89,0,0
35436,-94.2980452984626,4,1,0,90,0,0
35618,-96.04444970619,4,1,0,90,0,0
35709,-96.9297435406028,4,1,0,90,0,0
35800,-97.8231976089037,4,1,0,90,0,0
36073,-100.553276863177,4,1,0,90,0,0
36164,-101.480131005289,4,1,0,90,0,0
36345,-103.349127011317,4,1,0,90,0,0
36527,-90.9090909090909,4,1,0,90,0,0
36891,-94.3051748255038,4,1,0,90,0,0
37073,-96.0504998639153,4,1,0,90,0,0
37164,-96.9352381843412,4,1,0,90,0,0
37254,-97.8182694785317,4,1,0,90,0,0
37527,-100.54630902521,4,1,0,90,0,0
37618,-101.472459047313,4,1,0,90,0,0
37800,-103.350430471598,4,1,0,90,0,0
37982,-90.9090909090909,4,1,0,90,0,0
38345,-94.2980452984626,4,1,0,90,0,0
38527,-96.04444970619,4,1,0,90,0,0
38618,-96.9297435406028,4,1,0,90,0,0
38709,-97.8231976089037,4,1,0,90,0,0
38982,-100.553276863177,4,1,0,90,0,0
39073,-101.480131005289,4,1,0,90,0,0
39254,-103.349127011317,4,1,0,90,0,0
39436,-105.263157894737,4,1,0,90,0,0
39800,-99.2874945999736,4,1,0,90,0,0
40164,-93.6510625474279,4,1,0,90,0,0
40891,-83.3333333333333,4,1,0,89,0,0
41254,-86.1582359667103,4,1,0,90,0,0
41436,-87.6104201288232,4,1,0,90,0,0
41527,-88.3456652173694,4,1,0,90,0,0
41618,-89.0870806374748,4,1,0,90,0,0
41891,-91.348868890864,4,1,0,90,0,0
41982,-92.1154878284002,4,1,0,90,0,0
42163,-93.6680805783422,4,1,0,90,0,0
42346,-83.3333333333333,4,1,0,90,0,0
42732,-86.1641692144289,4,1,0,90,0,0
42914,-87.615446888047,4,1,0,90,0,0
43005,-88.3502266969904,4,1,0,90,0,0
43096,-89.0911686769528,4,1,0,90,0,0
43368,-91.3431032784151,4,1,0,90,0,0
43459,-92.1091447740542,4,1,0,90,0,0
43641,-93.6605546763998,4,1,0,90,0,0
43823,-95.2380952380952,4,1,0,90,0,0
44074,-92.8800101550491,4,1,0,90,0,0
44346,-90.58863003782,4,1,0,90,0,0
44528,-89.0870806374748,4,1,0,90,0,0
44801,-86.8812940200695,4,1,0,90,0,0
45074,-84.7301224441126,4,1,0,90,0,0
45255,-83.3333333333333,4,1,0,90,0,0
45982,-105.42628170791,4,1,0,90,0,0
46709,-66.666666666667,4,1,0,90,0,0
46732,-133.333333333333,4,1,0,90,0,0
46755,-133.333333333333,4,1,0,70,0,0
47073,-131.375905721046,4,1,0,70,0,0
47436,-129.45247415386,4,1,0,70,0,0
47800,-127.552020298453,4,1,0,70,0,0
48164,-125.679466449438,4,1,0,70,0,0
48527,-123.839434582185,4,1,0,70,0,0
48891,-122.021384116626,4,1,0,70,0,0
49254,-120.234909033593,4,1,0,70,0,0
49618,-118.469775551819,4,1,0,70,0,0
49982,-116.730555477669,4,1,0,70,0,0
50345,-115.021541682265,4,1,0,70,0,0
50709,-113.33294411954,4,1,0,70,0,0
51073,-111.669136363029,4,1,0,70,0,0
51436,-110.034225145617,4,1,0,70,0,0
51800,-108.418844916142,4,1,0,80,0,0
52164,-106.827179610658,4,1,0,70,0,0
52527,-105.263157894737,4,1,0,70,0,0
52710,-103.735822015366,4,1,0,71,0,0
52801,-102.980484722105,4,1,0,72,0,0
52892,-102.230647307434,4,1,0,72,0,0
53074,-100.747312219196,4,1,0,74,0,0
53255,-99.293473566361,4,1,0,75,0,0
53619,-96.432942722881,4,1,0,77,0,0
53983,-93.654820485048,4,1,0,80,0,0
54165,-92.29591799282,4,1,0,81,0,0
54255,-91.631237086675,4,1,0,82,0,0
54346,-90.964037567217,4,1,0,82,0,0
54528,-89.644177503283,4,1,0,84,0,0
54710,-88.3470271225373,4,1,0,85,0,0
54801,-87.7032900609418,4,1,0,85,0,0
54892,-87.0642435635675,4,1,0,85,0,0
55074,-85.8000858000858,4,1,0,87,0,0
55436,-57.142857142857,4,1,0,40,0,0
56891,-166.666666666667,4,1,0,70,0,0
57255,-163.369197985952,4,1,0,70,0,0
57619,-160.128153805087,4,1,0,70,0,0
58346,-125,4,1,0,70,0,0
58580,-125.803593478161,4,1,0,100,0,0
58709,-127.739759045966,4,1,0,100,0,0
58732,-126.205661333402,4,1,0,100,0,1
58891,-126.8128458728,4,1,0,100,0,1
59073,-127.422951620811,4,1,0,100,0,1
59315,-128.238739805738,4,1,0,100,0,1
59436,-128.648590380328,4,1,0,100,0,1
59618,-129.26752802757,4,1,0,100,0,1
59800,-129.889443428474,4,1,0,100,0,1
60042,-130.721022605914,4,1,0,100,0,1
60164,-131.142264864944,4,1,0,100,0,1
60345,-131.769724804691,4,1,0,100,0,1
60527,-132.403678454764,4,1,0,100,0,1
60770,-133.25486831469,4,1,0,100,0,1
60891,-133.680750418869,4,1,0,100,0,1
61254,-134.966580852324,4,1,0,100,0,1
61497,-135.834246965465,4,1,0,100,0,1
61618,-136.268372755005,4,1,0,100,0,1
61800,-136.923969724837,4,1,0,100,0,1
61982,-137.582720818976,4,1,0,100,0,1
62224,-138.463553955131,4,1,0,100,0,1
62345,-138.906083000833,4,1,0,100,0,1
62527,-139.574370184905,4,1,0,100,0,1
62709,-140.24587254682,4,1,0,100,0,1
62951,-141.143755733117,4,1,0,100,0,1
63073,-141.598584752412,4,1,0,100,0,1
63254,-142.276073733927,4,1,0,100,0,1
63436,-142.960574186481,4,1,0,100,0,1
63679,-143.879631666883,4,1,0,100,0,1
63800,-144.339470478461,4,1,0,100,0,1
64164,-145.731666625978,4,1,0,100,0,1
64406,-146.664671004632,4,1,0,100,0,1
64527,-147.133410792425,4,1,0,100,0,1
64709,-147.841280243907,4,1,0,100,0,1
64891,-148.552555306376,4,1,0,100,0,1
65133,-149.503619599883,4,1,0,100,0,1
65254,-149.981432657693,4,1,0,100,0,1
65436,-150.703004147786,4,1,0,100,0,1
65618,-151.428047170362,4,1,0,100,0,1
65860,-152.397520959635,4,1,0,100,0,1
65982,-152.888614700488,4,1,0,100,0,1
66164,-153.624172853073,4,1,0,100,0,1
66345,-154.359199157075,4,1,0,100,0,1
66588,-155.351535522968,4,1,0,100,0,1
66709,-155.848038500103,4,1,0,100,0,1
67073,-157.351238131352,4,1,0,100,0,1
67194,-157.854132151196,4,1,0,100,0,1
67315,-158.35863341861,4,1,0,100,0,1
67436,-158.864747070352,4,1,0,100,0,1
67800,-160.397043732619,4,1,0,100,0,1
67921,-160.909672136766,4,1,0,100,0,1
68042,-161.423938899541,4,1,0,100,0,1
68164,-161.944119841582,4,1,0,100,0,1
68527,-229.245890186412,4,1,0,100,0,1
68550,-163.501806173826,4,1,0,100,0,0
69982,-105.263157894737,4,1,0,100,0,0
70005,-105.263157894737,4,1,0,100,0,1
70103,-105.623794179451,4,1,0,100,0,1
70224,-105.985666020199,4,1,0,100,0,1
70345,-106.34877765005,4,1,0,100,0,1
70709,-107.448630925674,4,1,0,100,0,1
70830,-107.816754738693,4,1,0,100,0,1
70951,-108.186139760353,4,1,0,100,0,1
71073,-108.559858824069,4,1,0,100,0,1
71436,-109.679478734116,4,1,0,100,0,1
71557,-110.055245531457,4,1,0,100,0,1
71679,-110.43542124905,4,1,0,100,0,1
71800,-110.813777939241,4,1,0,100,0,1
72164,-111.959808005066,4,1,0,100,0,1
72285,-112.343387312431,4,1,0,100,0,1
72406,-112.72828077965,4,1,0,100,0,1
72527,-113.114492909095,4,1,0,100,0,1
72891,-114.284316844034,4,1,0,100,0,1
73012,-114.675860022598,4,1,0,100,0,1
73133,-115.068744645595,4,1,0,100,0,1
73254,-115.462975308874,4,1,0,100,0,1
73618,-116.65708712109,4,1,0,100,0,1
73739,-117.056759516697,4,1,0,100,0,1
73860,-117.457801207799,4,1,0,100,0,1
73982,-117.863548372738,4,1,0,100,0,1
74345,-119.079120839914,4,1,0,100,0,1
74467,-119.490468704316,4,1,0,100,0,1
74588,-119.899848391893,4,1,0,100,0,1
74709,-120.31063063258,4,1,0,100,0,1
75073,-121.554876632558,4,1,0,100,0,1
75194,-121.971329073986,4,1,0,100,0,1
75315,-122.389208300095,4,1,0,100,0,1
75436,-122.808519199115,4,1,0,100,0,1
75800,-124.078598226822,4,1,0,100,0,1
75921,-124.503697051254,4,1,0,100,0,1
76042,-124.930252283263,4,1,0,100,0,1
76164,-125.361812342772,4,1,0,100,0,1
76527,-126.654717313164,4,1,0,100,0,1
76648,-127.08864203675,4,1,0,100,0,1
76770,-127.527658055032,4,1,0,100,0,1
76891,-127.964573512625,4,1,0,100,0,1
77254,-129.284321767988,4,1,0,100,0,1
77376,-129.730922559839,4,1,0,100,0,1
77497,-130.175386500122,4,1,0,100,0,1
77618,-130.621373193734,4,1,0,100,0,1
77982,-131.972252332621,4,1,0,100,0,1
78103,-132.424395168904,4,1,0,100,0,1
78224,-132.878087066756,4,1,0,100,0,1
78345,-133.333333333333,4,1,0,100,0,1
78709,-100,4,1,0,85,0,1
78732,-105.263157894737,4,1,0,85,0,0
78891,-103.350430471598,4,1,0,85,0,0
78982,-102.407140002792,4,1,0,85,0,0
79073,-101.472459047313,4,1,0,85,0,0
79254,-99.6386509991792,4,1,0,85,0,0
79436,-97.8281259875572,4,1,0,85,0,0
79618,-96.0504998639153,4,1,0,85,0,0
79709,-95.1738366450758,4,1,0,85,0,0
79800,-94.3051748255038,4,1,0,85,0,0
79982,-92.5915639321933,4,1,0,85,0,0
80164,-83.3333333333333,4,1,0,85,0,0
80527,-81.6845989929757,4,1,0,85,0,0
80891,-80.0640769025435,4,1,0,85,0,0
81618,-76.9230769230769,4,1,0,100,0,0
81860,-78.3020020954414,4,1,0,100,0,0
81982,-79.0065069834836,4,1,0,100,0,0
82345,-81.1404084775569,4,1,0,100,0,0
82467,-81.8704512971582,4,1,0,100,0,0
82588,-82.600997860018,4,1,0,100,0,0
82709,-83.3380632373226,4,1,0,100,0,0
82891,-84.4591118353442,4,1,0,100,0,0
83073,-85.5952405769439,4,1,0,100,0,0
83194,-86.3590241864135,4,1,0,100,0,0
83315,-87.1296231912037,4,1,0,100,0,0
83436,-87.9070984064627,4,1,0,100,0,0
83800,-76.9230769230769,4,1,0,100,0,0
84164,-92.7334404361974,4,1,0,100,0,0
84527,-95.2380952380952,4,1,0,100,0,0
84770,-93.554050803834,4,1,0,100,0,0
84891,-92.7266323461032,4,1,0,100,0,0
85133,-102.91739122674,4,1,0,100,0,0
85254,-90.2880261939237,4,1,0,100,0,0
85376,-89.4829234471512,4,1,0,100,0,0
85497,-88.6915111900044,4,1,0,100,0,0
85618,-87.9070984064627,4,1,0,100,0,0
85800,-86.7402837516171,4,1,0,100,0,0
85982,-85.5889565427622,4,1,0,100,0,0
86103,-84.8319836291052,4,1,0,100,0,0
86224,-84.0817055977689,4,1,0,100,0,0
86345,-83.3380632373226,4,1,0,100,0,0
86527,-82.231894620061,4,1,0,100,0,0
86709,-81.1404084775569,4,1,0,100,0,0
87436,-76.9230769230769,4,1,0,100,0,0
87482,-133.333333333333,4,1,0,60,0,0
93073,-129.995523430298,4,1,0,60,0,0
93164,-129.447402554694,4,1,0,60,0,0
93254,-128.907578194105,4,1,0,60,0,0
94344,-122.540016837998,4,1,0,62,0,0
94526,-121.508825353389,4,1,0,63,0,0
94708,-120.486311490224,4,1,0,63,0,0
94890,-119.472402225098,4,1,0,64,0,0
95253,-117.475563041368,4,1,0,65,0,0
95617,-115.50673523902,4,1,0,65,0,0
95799,-114.534729808737,4,1,0,66,0,0
96163,-112.615188803409,4,1,0,67,0,0
96526,-110.732959790703,4,1,0,67,0,0
96708,-109.801126352547,4,1,0,68,0,0
97253,-107.057382546635,4,1,0,69,0,0
97618,-91.1161731207293,4,1,0,80,0,0
97982,-88.2621042307589,4,1,0,80,0,0
98344,-97.828125987557,4,1,0,70,0,0
99072,-90.909090909091,4,1,0,89,0,0
99436,-94.2980452984626,4,1,0,90,0,0
99618,-96.04444970619,4,1,0,90,0,0
99709,-96.9297435406028,4,1,0,90,0,0
99800,-97.8231976089037,4,1,0,90,0,0
100073,-100.553276863177,4,1,0,90,0,0
100164,-101.480131005289,4,1,0,90,0,0
100345,-103.349127011317,4,1,0,90,0,0
100527,-90.9090909090909,4,1,0,90,0,0
100891,-94.3051748255038,4,1,0,90,0,0
101073,-96.0504998639153,4,1,0,90,0,0
101164,-96.9352381843412,4,1,0,90,0,0
101254,-97.8182694785317,4,1,0,90,0,0
101527,-100.54630902521,4,1,0,90,0,0
101618,-101.472459047313,4,1,0,90,0,0
101800,-103.350430471598,4,1,0,90,0,0
101982,-90.9090909090909,4,1,0,90,0,0
102345,-94.2980452984626,4,1,0,90,0,0
102527,-96.04444970619,4,1,0,90,0,0
102618,-96.9297435406028,4,1,0,90,0,0
102709,-97.8186442335909,4,1,0,90,0,0
102982,-100.553276863177,4,1,0,90,0,0
103073,-101.480131005289,4,1,0,90,0,0
103254,-103.349127011317,4,1,0,90,0,0
103436,-105.263157894737,4,1,0,90,0,0
103800,-99.2874945999736,4,1,0,90,0,0
104164,-93.6510625474279,4,1,0,90,0,0
104891,-83.3333333333333,4,1,0,90,0,0
105255,-86.1549065219264,4,1,0,90,0,0
105437,-87.6104201288232,4,1,0,90,0,0
105528,-88.3456652173694,4,1,0,90,0,0
105619,-89.0870806374748,4,1,0,90,0,0
105892,-91.348868890864,4,1,0,90,0,0
105983,-92.1154878284002,4,1,0,90,0,0
106164,-93.6680805783422,4,1,0,90,0,0
106347,-83.3333333333333,4,1,0,90,0,0
106710,-86.1641692144289,4,1,0,90,0,0
106892,-87.615446888047,4,1,0,90,0,0
106983,-88.3502266969904,4,1,0,90,0,0
107074,-89.0911686769528,4,1,0,90,0,0
107346,-91.3431032784151,4,1,0,90,0,0
107437,-92.1091447740542,4,1,0,90,0,0
107619,-93.6605546763998,4,1,0,90,0,0
107800,-95.2380952380952,4,1,0,90,0,0
108075,-92.8803108257696,4,1,0,90,0,0
108347,-90.5892154707286,4,1,0,90,0,0
108529,-89.0878486292063,4,1,0,90,0,0
108802,-86.8823242505378,4,1,0,90,0,0
109075,-84.7314014573801,4,1,0,90,0,0
109254,-83.3333333333333,4,1,0,90,0,0
109982,-105.42628170791,4,1,0,90,0,0
110709,-66.666666666667,4,1,0,90,0,0
110732,-133.333333333333,4,1,0,90,0,0
110755,-133.333333333333,4,1,0,70,0,0
111073,-131.375905721046,4,1,0,70,0,0
111436,-129.45247415386,4,1,0,70,0,0
111800,-127.552020298453,4,1,0,70,0,0
112164,-125.679466449438,4,1,0,70,0,0
112527,-123.839434582185,4,1,0,70,0,0
112891,-122.021384116626,4,1,0,70,0,0
113254,-120.234909033593,4,1,0,70,0,0
113618,-118.469775551819,4,1,0,70,0,0
113982,-116.730555477669,4,1,0,70,0,0
114345,-115.021541682265,4,1,0,70,0,0
114709,-113.33294411954,4,1,0,70,0,0
115073,-111.669136363029,4,1,0,70,0,0
115436,-110.034225145617,4,1,0,70,0,0
115800,-108.418844916142,4,1,0,80,0,0
116527,-105.263157894737,4,1,0,100,0,0
116710,-103.735822015366,4,1,0,71,0,0
116801,-102.980484722105,4,1,0,72,0,0
116892,-102.230647307434,4,1,0,72,0,0
117074,-100.747312219196,4,1,0,74,0,0
117255,-99.293473566361,4,1,0,75,0,0
117619,-96.432942722881,4,1,0,77,0,0
117983,-93.654820485048,4,1,0,80,0,0
118165,-92.29591799282,4,1,0,81,0,0
118255,-91.631237086675,4,1,0,82,0,0
118346,-90.964037567217,4,1,0,82,0,0
118528,-89.644177503283,4,1,0,84,0,0
118710,-88.3470271225373,4,1,0,85,0,0
118801,-87.7032900609418,4,1,0,85,0,0
118892,-87.0642435635675,4,1,0,85,0,0
119074,-85.8000858000858,4,1,0,87,0,0
119436,-57.142857142857,4,1,0,40,0,0
120891,-166.666666666667,4,1,0,70,0,0
121255,-163.369197985952,4,1,0,70,0,0
121619,-160.128153805087,4,1,0,70,0,0
122346,-71.428571428571,4,1,0,100,0,0
122368,-76.9230769230769,4,1,0,100,0,1
122528,-78.1118477143315,4,1,0,100,0,1
122619,-78.7131047005851,4,1,0,100,0,1
122801,-79.9295386174263,4,1,0,100,0,1
122892,-80.5447870708685,4,1,0,100,0,1
123074,-81.7895278442182,4,1,0,100,0,1
123255,-83.046506843664,4,1,0,100,0,1
123346,-83.6857478024276,4,1,0,100,0,1
123800,-76.9230769230769,4,1,0,100,0,1
123983,-78.1118477143315,4,1,0,100,0,1
124074,-78.7131047005851,4,1,0,100,0,1
124256,-79.9295386174263,4,1,0,100,0,1
124347,-80.5447870708685,4,1,0,100,0,1
124529,-81.7895278442182,4,1,0,100,0,1
124710,-83.046506843664,4,1,0,100,0,1
124801,-83.6857478024276,4,1,0,100,0,1
125255,-76.9230769230769,4,1,0,100,0,1
125438,-78.1118477143315,4,1,0,100,0,1
125529,-78.7131047005851,4,1,0,100,0,1
125711,-79.9295386174263,4,1,0,100,0,1
125802,-80.5447870708685,4,1,0,100,0,1
125984,-81.7895278442182,4,1,0,100,0,1
126165,-83.046506843664,4,1,0,100,0,1
126256,-83.6857478024276,4,1,0,100,0,1
126709,-76.9230769230769,4,1,0,100,0,1
126892,-78.1118477143315,4,1,0,100,0,1
126983,-78.7131047005851,4,1,0,100,0,1
127165,-79.9295386174263,4,1,0,100,0,1
127256,-80.5447870708685,4,1,0,100,0,1
127438,-81.7895278442182,4,1,0,100,0,1
127710,-83.6857478024276,4,1,0,100,0,1
128164,-76.9230769230769,4,1,0,100,0,1
128347,-78.1118477143315,4,1,0,100,0,1
128438,-78.7131047005851,4,1,0,100,0,1
128620,-79.9295386174263,4,1,0,100,0,1
128711,-80.5447870708685,4,1,0,100,0,1
128893,-81.7895278442182,4,1,0,100,0,1
129074,-83.046506843664,4,1,0,100,0,1
129165,-83.6857478024276,4,1,0,100,0,1
129618,-76.9230769230769,4,1,0,100,0,1
129801,-78.1118477143315,4,1,0,100,0,1
129892,-78.7131047005851,4,1,0,100,0,1
130074,-79.9295386174263,4,1,0,100,0,1
130165,-80.5447870708685,4,1,0,100,0,1
130347,-81.7895278442182,4,1,0,100,0,1
130528,-83.046506843664,4,1,0,100,0,1
130619,-83.6857478024276,4,1,0,100,0,1
131073,-76.9230769230769,4,1,0,100,0,1
131256,-78.1118477143315,4,1,0,100,0,1
131347,-78.7131047005851,4,1,0,100,0,1
131529,-79.9295386174263,4,1,0,100,0,1
131620,-80.5447870708685,4,1,0,100,0,1
131801,-81.7661488143908,4,1,0,100,0,1
131823,-81.7661488143908,4,1,0,100,0,0
132527,-100,4,1,0,100,0,0
132891,-97.3115137302453,4,1,0,100,0,0
133254,-94.7023971975992,4,1,0,100,0,0
133982,-66.666666666667,4,1,0,100,0,0
134005,-76.9230769230769,4,1,0,100,0,1
134165,-78.1118477143315,4,1,0,100,0,1
134256,-78.7131047005851,4,1,0,100,0,1
134438,-79.9295386174263,4,1,0,100,0,1
134529,-80.5447870708685,4,1,0,100,0,1
134711,-81.7895278442182,4,1,0,100,0,1
134892,-83.046506843664,4,1,0,100,0,1
134983,-83.6857478024276,4,1,0,100,0,1
135437,-76.9230769230769,4,1,0,100,0,1
135620,-78.1118477143315,4,1,0,100,0,1
135711,-78.7131047005851,4,1,0,100,0,1
135893,-79.9295386174263,4,1,0,100,0,1
135984,-80.5447870708685,4,1,0,100,0,1
136166,-81.7895278442182,4,1,0,100,0,1
136347,-83.046506843664,4,1,0,100,0,1
136438,-83.6857478024276,4,1,0,100,0,1
136892,-76.9230769230769,4,1,0,100,0,1
137075,-78.1118477143315,4,1,0,100,0,1
137166,-78.7131047005851,4,1,0,100,0,1
137348,-79.9295386174263,4,1,0,100,0,1
137439,-80.5447870708685,4,1,0,100,0,1
137621,-81.7895278442182,4,1,0,100,0,1
137802,-83.046506843664,4,1,0,100,0,1
137893,-83.6857478024276,4,1,0,100,0,1
138346,-76.9230769230769,4,1,0,100,0,1
138529,-78.1118477143315,4,1,0,100,0,1
138620,-78.7131047005851,4,1,0,100,0,1
138802,-79.9295386174263,4,1,0,100,0,1
138893,-80.5447870708685,4,1,0,100,0,1
139075,-81.7895278442182,4,1,0,100,0,1
139346,-83.6857478024276,4,1,0,100,0,1
139801,-76.9230769230769,4,1,0,100,0,1
139984,-78.1118477143315,4,1,0,100,0,1
140075,-78.7131047005851,4,1,0,100,0,1
140257,-79.9295386174263,4,1,0,100,0,1
140348,-80.5447870708685,4,1,0,100,0,1
140530,-81.7895278442182,4,1,0,100,0,1
140711,-83.046506843664,4,1,0,100,0,1
140802,-83.6857478024276,4,1,0,100,0,1
141255,-76.9230769230769,4,1,0,100,0,1
141438,-78.1118477143315,4,1,0,100,0,1
141529,-78.7131047005851,4,1,0,100,0,1
141711,-79.9295386174263,4,1,0,100,0,1
141802,-80.5447870708685,4,1,0,100,0,1
141984,-81.7895278442182,4,1,0,100,0,1
142165,-83.046506843664,4,1,0,100,0,1
142256,-83.6857478024276,4,1,0,100,0,1
142710,-76.9230769230769,4,1,0,100,0,1
142893,-78.1118477143315,4,1,0,100,0,1
142984,-78.7131047005851,4,1,0,100,0,1
143166,-79.9295386174263,4,1,0,100,0,1
143257,-80.5447870708685,4,1,0,100,0,1
143437,-81.7661488143908,4,1,0,100,0,1
143459,-81.7661488143908,4,1,0,100,0,0
144165,-83.682008368201,4,1,0,100,0,0
144187,-100,4,1,0,100,0,0
144528,-93.6598255738489,4,1,0,100,0,0
144892,-87.7058019307029,4,1,0,100,0,0
145618,-76.9230769230769,4,1,0,90,0,0
145739,-77.9332369256259,4,1,0,90,0,0
145860,-78.9566624301746,4,1,0,90,0,0
146103,-81.0527479393582,4,1,0,90,0,0
146345,-83.1955079551172,4,1,0,90,0,0
146467,-84.2971267161745,4,1,0,90,0,0
146588,-85.4041233307748,4,1,0,90,0,0
147073,-89.9891054570449,4,1,0,90,0,0
147194,-91.1708495920172,4,1,0,90,0,0
147315,-92.3681124855487,4,1,0,90,0,0
147557,-94.8100123988402,4,1,0,90,0,0
147800,-97.326961406031,4,1,0,90,0,0
148527,-105.263157894737,4,1,0,85,0,0
148686,-103.350430471598,4,1,0,85,0,0
148777,-102.407140002792,4,1,0,85,0,0
149049,-99.6386509991792,4,1,0,85,0,0
149231,-97.8281259875572,4,1,0,85,0,0
149413,-96.0504998639153,4,1,0,85,0,0
149504,-95.1738366450758,4,1,0,85,0,0
149777,-92.5915639321933,4,1,0,85,0,0
149959,-90.9090909090909,4,1,0,85,0,0
151436,-90.9090909090909,4,1,0,85,0,0
151618,-91.7156719176033,4,1,0,85,0,0
151709,-92.1216420799686,4,1,0,85,0,0
151800,-92.5294092282718,4,1,0,85,0,0
151982,-93.3503663346082,4,1,0,85,0,0
152164,-94.178607293463,4,1,0,85,0,0
152891,-97.5609756097561,4,1,0,85,0,0
152982,-97.13073984774,4,1,0,85,0,0
153073,-96.7024013895359,4,1,0,85,0,0
153254,-95.8560383565803,4,1,0,85,0,0
153618,-94.1763218696022,4,1,0,85,0,0
153800,-93.3475339079501,4,1,0,85,0,0
153921,-92.8005669645522,4,1,0,85,0,0
154346,-90.9090909090909,4,1,0,85,0,0
154528,-91.7156719176033,4,1,0,85,0,0
154619,-92.1216420799686,4,1,0,85,0,0
154710,-92.5294092282718,4,1,0,85,0,0
154892,-93.3503663346082,4,1,0,85,0,0
155074,-94.178607293463,4,1,0,85,0,0
155801,-97.5609756097561,4,1,0,85,0,0
155892,-97.13073984774,4,1,0,85,0,0
155983,-96.7024013895359,4,1,0,85,0,0
156164,-95.8560383565803,4,1,0,85,0,0
156528,-94.1763218696022,4,1,0,85,0,0
156710,-93.3475339079501,4,1,0,85,0,0
156831,-92.8005669645522,4,1,0,85,0,0
157255,-90.9090909090909,4,1,0,85,0,0
157437,-91.7156719176033,4,1,0,85,0,0
157528,-92.1216420799686,4,1,0,85,0,0
157619,-92.5294092282718,4,1,0,85,0,0
157801,-93.3503663346082,4,1,0,85,0,0
157983,-94.178607293463,4,1,0,85,0,0
158710,-97.5609756097561,4,1,0,85,0,0
158801,-97.13073984774,4,1,0,85,0,0
158892,-96.7024013895359,4,1,0,85,0,0
159073,-95.8560383565803,4,1,0,85,0,0
159437,-94.1763218696022,4,1,0,85,0,0
159619,-93.3475339079501,4,1,0,85,0,0
159740,-92.8005669645522,4,1,0,85,0,0
160164,-90.9090909090909,4,1,0,85,0,0
160346,-91.7156719176033,4,1,0,85,0,0
160437,-92.1216420799686,4,1,0,85,0,0
160528,-92.5294092282718,4,1,0,85,0,0
160710,-93.3503663346082,4,1,0,85,0,0
160892,-94.178607293463,4,1,0,85,0,0
161618,-97.5609756097561,4,1,0,85,0,0
161800,-83.3333333333333,4,1,0,85,0,0
163074,-90.9090909090909,4,1,0,70,0,0
163255,-91.5276178316158,4,1,0,70,0,0
163346,-91.8401779079967,4,1,0,70,0,0
163437,-92.1538053540269,4,1,0,70,0,0
163619,-92.7842769474377,4,1,0,70,0,0
163801,-93.4190619213819,4,1,0,70,0,0
163983,-94.058189785915,4,1,0,70,0,0
164074,-94.3793915792122,4,1,0,70,0,0
164346,-95.3460212483167,4,1,0,70,0,0
164528,-95.9983324329809,4,1,0,70,0,0
164710,-96.6551064140584,4,1,0,70,0,0
164801,-96.9851764864485,4,1,0,70,0,0
164892,-97.3163737238352,4,1,0,70,0,0
165256,-98.6525115044969,4,1,0,70,0,0
165983,-101.376275890323,4,1,0,70,0,0
166165,-102.069843149419,4,1,0,70,0,0
166255,-102.414567347592,4,1,0,70,0,0
166346,-102.764305555042,4,1,0,70,0,0
166528,-103.467369039183,4,1,0,70,0,0
166710,-104.175242542329,4,1,0,70,0,0
166892,-104.887958972294,4,1,0,70,0,0
166983,-105.246143630045,4,1,0,70,0,0
167255,-106.324070106253,4,1,0,70,0,0
167437,-107.051487771105,4,1,0,70,0,0
167619,-107.783882074441,4,1,0,70,0,0
167710,-108.151956096381,4,1,0,70,0,0
167801,-108.521287064006,4,1,0,70,0,0
168165,-110.011266459084,4,1,0,70,0,0
168892,-113.0486424473,4,1,0,70,0,0
169074,-113.822066371172,4,1,0,70,0,0
169165,-114.210760347937,4,1,0,70,0,0
169255,-114.59648850788,4,1,0,70,0,0
169437,-115.380502042983,4,1,0,70,0,0
169619,-116.169879418037,4,1,0,70,0,0
169801,-116.96465732983,4,1,0,70,0,0
169892,-117.364083023352,4,1,0,70,0,0
170346,-119.377292746284,4,1,0,70,0,0
170528,-120.194014222794,4,1,0,70,0,0
170619,-120.604467932352,4,1,0,70,0,0
170710,-121.01632331111,4,1,0,70,0,0
171074,-122.6778574956,4,1,0,70,0,0
171801,-126.064954023403,4,1,0,70,0,0
171983,-126.927429231356,4,1,0,70,0,0
172074,-127.360877057436,4,1,0,70,0,0
172165,-127.79580507593,4,1,0,70,0,0
172346,-128.665301682208,4,1,0,70,0,0
172528,-129.545567206313,4,1,0,70,0,0
172710,-130.431855079745,4,1,0,70,0,0
172801,-130.877270262091,4,1,0,70,0,0
173255,-116.959064327486,4,1,0,80,0,0
173618,-113.784314444378,4,1,0,80,0,0
173982,-125.23947137752,4,1,0,70,0,0
174164,-123.293973204662,4,1,0,70,0,0
174345,-121.389138620748,4,1,0,70,0,0
174709,-100,4,1,0,90,0,0

[HitObjects]
9,137,187,5,6,0:0:0:0:
271,121,459,1,0,0:0:0:0:
271,121,732,1,0,0:0:0:0:
285,118,914,1,2,0:0:0:0:
290,142,1641,1,0,0:0:0:0:
289,138,1914,1,0,0:0:0:0:
289,138,2187,1,0,0:0:0:0:
280,129,2368,1,2,0:0:0:0:
275,131,3096,1,0,0:0:0:0:
275,131,3368,1,2,0:0:0:0:
275,131,3641,1,0,0:0:0:0:
298,131,3823,1,2,0:0:0:0:
305,115,4550,1,0,0:0:0:0:
315,121,4823,1,0,0:0:0:0:
315,121,5096,1,2,0:0:0:0:
309,123,5277,1,2,0:0:0:0:
309,130,6005,1,0,0:0:0:0:
309,130,6277,1,0,0:0:0:0:
277,135,6550,1,0,0:0:0:0:
327,134,6732,1,2,0:0:0:0:
316,136,7277,1,0,0:0:0:0:
319,132,7459,1,0,0:0:0:0:
320,146,7641,1,2,0:0:0:0:
448,64,7732,1,8,0:0:0:0:
324,145,7823,1,2,0:0:0:0:
314,131,8005,1,0,0:0:0:0:
332,131,8187,1,2,0:0:0:0:
314,139,8914,1,0,0:0:0:0:
328,141,9096,1,2,0:0:0:0:
448,64,9187,1,8,0:0:0:0:
328,141,9277,1,2,0:0:0:0:
299,155,9459,1,0,0:0:0:0:
319,140,9641,1,2,0:0:0:0:
64,64,10187,1,0,0:0:0:0:
286,134,10368,1,2,0:0:0:0:
256,192,10550,12,2,11277,0:0:0:0:
286,169,11823,5,0,0:0:0:0:
292,153,12005,1,2,0:0:0:0:
292,153,12096,1,2,0:0:0:0:
292,153,12187,1,2,0:0:0:0:
266,142,12368,1,0,0:0:0:0:
287,131,12550,1,2,0:0:0:0:
288,125,13277,1,0,0:0:0:0:
286,138,13368,1,0,0:0:0:0:
64,64,13459,1,0,0:0:0:0:
294,127,13641,1,2,0:0:0:0:
285,134,14005,1,2,0:0:0:0:
297,134,14187,1,2,0:0:0:0:
288,129,14308,1,2,0:0:0:0:
286,127,14732,1,0,0:0:0:0:
292,132,14914,1,2,0:0:0:0:
292,131,15005,1,2,0:0:0:0:
292,131,15096,1,2,0:0:0:0:
292,131,15277,1,2,0:0:0:0:
279,129,15459,1,0,0:0:0:0:
213,102,16187,1,0,0:0:0:0:
256,109,16277,1,0,0:0:0:0:
271,115,16368,1,0,0:0:0:0:
258,100,16550,1,0,0:0:0:0:
270,125,16914,1,2,0:0:0:0:
262,116,17096,1,2,0:0:0:0:
276,120,17217,1,2,0:0:0:0:
260,143,17641,1,0,0:0:0:0:
448,64,17823,1,8,0:0:0:0:
268,135,17914,1,2,0:0:0:0:
306,135,18005,1,2,0:0:0:0:
215,153,18187,1,0,0:0:0:0:
64,64,18368,1,0,0:0:0:0:
287,123,19096,1,0,0:0:0:0:
284,128,19187,1,0,0:0:0:0:
263,121,19277,1,0,0:0:0:0:
292,125,19459,1,2,0:0:0:0:
271,117,19823,1,2,0:0:0:0:
268,117,20005,1,2,0:0:0:0:
274,115,20126,1,2,0:0:0:0:
274,115,20550,1,0,0:0:0:0:
293,125,20732,1,2,0:0:0:0:
294,125,20823,1,2,0:0:0:0:
286,117,20914,1,2,0:0:0:0:
64,64,21096,1,0,0:0:0:0:
286,117,21277,1,2,0:0:0:0:
271,106,22005,1,0,0:0:0:0:
256,192,22187,12,0,22914,0:0:0:0:
20,163,23459,5,4,0:0:0:0:
176,107,24550,1,2,0:0:0:0:
176,107,24732,1,2,0:0:0:0:
176,107,24914,1,2,0:0:0:0:
176,107,25096,1,2,0:0:0:0:
172,103,25459,1,2,0:0:0:0:
229,115,25641,1,0,0:0:0:0:
222,111,26005,1,0,0:0:0:0:
236,120,26368,1,0,0:0:0:0:
229,115,26550,1,2,0:0:0:0:
269,137,27823,1,2,0:0:0:0:
256,138,28550,1,0,0:0:0:0:
237,107,29096,1,8,0:0:0:0:
237,107,29187,1,8,0:0:0:0:
255,111,29277,1,2,0:0:0:0:
293,146,30368,1,2,0:0:0:0:
293,146,30550,1,2,0:0:0:0:
293,146,30732,1,2,0:0:0:0:
293,146,30914,1,2,0:0:0:0:
293,146,31277,1,0,0:0:0:0:
288,143,31641,1,0,0:0:0:0:
239,126,31823,1,2,0:0:0:0:
250,108,32187,1,0,0:0:0:0:
271,111,32550,1,2,0:0:0:0:
219,131,32732,1,0,0:0:0:0:
267,129,33277,1,2,0:0:0:0:
23,115,33641,1,4,0:0:0:0:
23,115,34005,1,4,0:0:0:0:
270,159,34368,1,0,0:0:0:0:
245,153,35096,1,2,0:0:0:0:
275,140,35459,1,2,0:0:0:0:
275,140,35641,1,0,0:0:0:0:
275,140,35732,1,0,0:0:0:0:
249,146,35823,1,0,0:0:0:0:
282,113,36096,1,8,0:0:0:0:
275,140,36187,1,2,0:0:0:0:
275,140,36368,1,2,0:0:0:0:
282,140,36550,1,0,0:0:0:0:
284,140,36914,1,2,0:0:0:0:
277,125,37096,1,0,0:0:0:0:
305,147,37187,1,0,0:0:0:0:
305,147,37277,1,0,0:0:0:0:
329,174,37550,1,8,0:0:0:0:
319,131,37641,1,2,0:0:0:0:
396,187,37823,1,0,0:0:0:0:
329,174,38005,1,8,0:0:0:0:
270,125,38368,1,2,0:0:0:0:
247,117,38550,1,0,0:0:0:0:
367,142,38641,1,0,0:0:0:0:
247,117,38732,1,0,0:0:0:0:
243,117,39005,1,2,0:0:0:0:
324,164,39096,1,2,0:0:0:0:
242,115,39277,1,2,0:0:0:0:
208,118,39459,1,0,0:0:0:0:
264,141,39823,1,0,0:0:0:0:
264,166,40187,1,0,0:0:0:0:
220,103,40914,1,0,0:0:0:0:
261,120,41277,1,2,0:0:0:0:
311,203,41459,1,0,0:0:0:0:
311,203,41550,1,0,0:0:0:0:
266,117,41641,1,0,0:0:0:0:
260,128,41914,1,2,0:0:0:0:
260,128,42005,1,2,0:0:0:0:
261,120,42187,1,2,0:0:0:0:
253,103,42368,1,0,0:0:0:0:
253,106,42732,1,2,0:0:0:0:
258,109,42914,1,0,0:0:0:0:
258,107,43005,1,0,0:0:0:0:
258,107,43096,1,0,0:0:0:0:
344,134,43368,1,2,0:0:0:0:
253,106,43459,1,2,0:0:0:0:
296,71,43641,1,0,0:0:0:0:
338,106,43823,1,2,0:0:0:0:
338,106,44096,1,0,0:1:0:0:
296,71,44368,1,0,0:1:0:0:
296,71,44550,1,2,0:1:0:0:
296,71,44823,1,2,0:1:0:0:
338,106,45096,1,0,0:1:0:0:
43,107,45277,1,6,0:0:0:0:
296,71,46005,1,2,0:1:0:0:
23,143,46732,1,4,0:0:0:0:
300,126,47096,1,2,0:0:0:0:
300,126,47459,1,2,0:0:0:0:
300,126,47823,1,2,0:0:0:0:
300,126,48187,1,2,0:0:0:0:
300,126,48550,1,2,0:0:0:0:
300,126,48914,1,2,0:0:0:0:
300,126,49277,1,2,0:0:0:0:
300,126,49641,1,2,0:0:0:0:
300,126,50005,1,2,0:0:0:0:
300,126,50368,1,2,0:0:0:0:
300,126,50732,1,2,0:0:0:0:
300,126,51096,1,2,0:0:0:0:
300,126,51459,1,2,0:0:0:0:
300,126,51823,1,0,0:0:0:0:
300,126,52550,1,0,0:0:0:0:
300,126,52732,1,2,0:0:0:0:
300,126,52823,1,2,0:0:0:0:
300,126,52914,1,2,0:0:0:0:
300,126,53096,1,0,0:0:0:0:
300,126,53277,1,2,0:0:0:0:
300,126,53641,1,0,0:0:0:0:
333,112,54005,1,2,0:0:0:0:
403,114,54187,1,0,0:0:0:0:
403,114,54277,1,0,0:0:0:0:
316,124,54368,1,0,0:0:0:0:
336,133,54550,1,2,0:0:0:0:
363,135,54732,1,0,0:0:0:0:
331,149,54823,1,0,0:0:0:0:
331,149,54914,1,0,0:0:0:0:
290,130,55096,1,2,0:0:0:0:
317,120,56914,1,2,0:0:0:0:
317,120,57277,1,2,0:0:0:0:
317,120,57641,1,2,0:0:0:0:
305,129,58368,1,2,0:0:0:0:
317,120,58611,1,2,0:0:0:0:
306,121,58732,1,2,0:0:0:0:
317,120,58914,1,0,0:0:0:0:
306,121,59096,1,2,0:0:0:0:
317,120,59338,1,2,0:0:0:0:
309,127,59459,1,0,0:0:0:0:
312,129,59641,1,0,0:0:0:0:
309,127,59823,1,2,0:0:0:0:
309,124,60065,1,2,0:0:0:0:
304,122,60187,1,2,0:0:0:0:
303,134,60368,1,0,0:0:0:0:
304,122,60550,1,2,0:0:0:0:
304,126,60793,1,2,0:0:0:0:
309,124,60914,1,0,0:0:0:0:
304,122,61277,1,2,0:0:0:0:
340,128,61520,1,2,0:0:0:0:
304,126,61641,1,2,0:0:0:0:
332,130,61823,1,0,0:0:0:0:
340,128,62005,1,2,0:0:0:0:
340,128,62247,1,2,0:0:0:0:
330,135,62368,1,0,0:0:0:0:
361,116,62550,1,0,0:0:0:0:
339,132,62732,1,2,0:0:0:0:
380,123,62974,1,2,0:0:0:0:
343,129,63096,1,2,0:0:0:0:
274,108,63277,1,0,0:0:0:0:
382,124,63459,1,2,0:0:0:0:
328,96,63702,1,2,0:0:0:0:
340,112,63823,1,0,0:0:0:0:
348,112,64187,1,2,0:0:0:0:
248,115,64429,1,2,0:0:0:0:
272,117,64550,1,2,0:0:0:0:
266,109,64732,1,0,0:0:0:0:
238,96,64914,1,2,0:0:0:0:
280,113,65156,1,2,0:0:0:0:
216,111,65277,1,0,0:0:0:0:
263,71,65459,1,0,0:0:0:0:
216,111,65641,1,2,0:0:0:0:
263,71,65883,1,2,0:0:0:0:
259,102,66005,1,2,0:0:0:0:
264,108,66187,1,0,0:0:0:0:
259,102,66368,1,2,0:0:0:0:
254,112,66611,1,2,0:0:0:0:
268,95,66732,1,0,0:0:0:0:
269,114,67096,1,2,0:0:0:0:
287,117,67217,1,0,0:0:0:0:
269,105,67338,1,0,0:0:0:0:
269,105,67459,1,0,0:0:0:0:
271,101,67823,1,2,0:0:0:0:
269,114,67944,1,0,0:0:0:0:
280,100,68065,1,0,0:0:0:0:
280,100,68187,1,0,0:0:0:0:
309,103,68550,1,2,0:0:0:0:
265,95,70005,1,0,0:0:0:0:
276,90,70126,1,2,0:0:0:0:
276,90,70247,1,2,0:0:0:0:
273,87,70368,1,0,0:0:0:0:
266,101,70732,1,0,0:0:0:0:
257,94,70853,1,0,0:0:0:0:
266,94,70974,1,2,0:0:0:0:
270,108,71096,1,0,0:0:0:0:
208,96,71459,1,0,0:0:0:0:
257,102,71580,1,2,0:0:0:0:
283,115,71702,1,0,0:0:0:0:
259,106,71823,1,0,0:0:0:0:
263,106,72187,1,0,0:0:0:0:
275,102,72308,1,0,0:0:0:0:
275,102,72429,1,0,0:0:0:0:
267,108,72550,1,2,0:0:0:0:
275,113,72914,1,0,0:0:0:0:
263,106,73035,1,2,0:0:0:0:
288,102,73156,1,0,0:0:0:0:
263,101,73277,1,2,0:0:0:0:
288,100,73641,1,2,0:0:0:0:
286,102,73762,1,0,0:0:0:0:
288,100,73883,1,0,0:0:0:0:
288,100,74005,1,2,0:0:0:0:
288,101,74368,1,2,0:0:0:0:
288,100,74490,1,2,0:0:0:0:
296,98,74611,1,0,0:0:0:0:
287,107,74732,1,2,0:0:0:0:
256,108,75096,1,2,0:0:0:0:
274,124,75217,1,2,0:0:0:0:
283,111,75338,1,2,0:0:0:0:
273,108,75459,1,0,0:0:0:0:
271,124,75823,1,0,0:0:0:0:
263,108,75944,1,2,0:0:0:0:
265,103,76065,1,2,0:0:0:0:
265,115,76187,1,0,0:0:0:0:
265,120,76550,1,0,0:0:0:0:
265,120,76671,1,0,0:0:0:0:
265,120,76793,1,2,0:0:0:0:
265,120,76914,1,0,0:0:0:0:
268,108,77277,1,0,0:0:0:0:
268,108,77399,1,2,0:0:0:0:
268,108,77520,1,0,0:0:0:0:
268,115,77641,1,0,0:0:0:0:
265,115,78005,1,0,0:0:0:0:
276,122,78126,1,0,0:0:0:0:
268,115,78247,1,0,0:0:0:0:
268,113,78368,1,2,0:0:0:0:
40,117,78732,1,4,0:0:0:0:
274,130,78914,1,2,0:0:0:0:
277,115,79005,1,2,0:0:0:0:
281,117,79277,1,2,0:0:0:0:
281,117,79459,1,0,0:0:0:0:
281,120,79641,1,2,0:0:0:0:
282,115,79732,1,2,0:0:0:0:
282,115,80005,1,2,0:0:0:0:
17,104,80187,1,4,0:0:0:0:
25,106,80550,1,4,0:0:0:0:
25,106,80914,1,4,0:0:0:0:
53,111,81641,1,4,0:0:0:0:
278,125,81883,1,2,0:0:0:0:
278,125,82005,1,0,0:0:0:0:
278,125,82368,1,2,0:0:0:0:
278,125,82490,1,2,0:0:0:0:
278,125,82611,1,2,0:0:0:0:
278,125,82732,1,2,0:0:0:0:
259,140,83096,1,0,0:0:0:0:
259,140,83217,1,2,0:0:0:0:
259,140,83338,1,2,0:0:0:0:
259,140,83459,1,2,0:0:0:0:
27,134,83823,1,6,0:0:0:0:
311,140,84187,1,2,0:0:0:0:
37,128,84550,1,4,0:0:0:0:
274,150,84793,1,2,0:0:0:0:
274,150,84914,1,0,0:0:0:0:
243,156,85277,1,2,0:0:0:0:
258,156,85399,1,2,0:0:0:0:
258,156,85520,1,2,0:0:0:0:
258,154,85641,1,2,0:0:0:0:
272,154,86005,1,0,0:0:0:0:
282,165,86126,1,2,0:0:0:0:
281,164,86247,1,2,0:0:0:0:
271,159,86368,1,0,0:0:0:0:
270,160,86550,1,2,0:0:0:0:
290,148,86732,1,0,0:0:0:0:
47,124,87459,1,4,0:0:0:0:
332,139,88550,1,2,0:0:0:0:
332,139,88732,1,2,0:0:0:0:
332,139,88914,1,2,0:0:0:0:
332,139,89096,1,2,0:0:0:0:
333,146,89459,1,2,0:0:0:0:
333,147,89641,1,0,0:0:0:0:
331,147,90005,1,0,0:0:0:0:
333,146,90368,1,0,0:0:0:0:
333,147,90550,1,2,0:0:0:0:
312,141,91823,1,2,0:0:0:0:
312,141,92550,1,0,0:0:0:0:
312,141,93096,1,2,0:0:0:0:
312,141,93187,1,2,0:0:0:0:
312,141,93277,1,2,0:0:0:0:
277,130,94368,1,2,0:0:0:0:
277,130,94550,1,2,0:0:0:0:
277,130,94732,1,2,0:0:0:0:
277,130,94914,1,2,0:0:0:0:
300,126,95277,1,0,0:0:0:0:
300,126,95641,1,0,0:0:0:0:
300,126,95823,1,2,0:0:0:0:
314,128,96187,1,0,0:0:0:0:
313,126,96550,1,2,0:0:0:0:
313,126,96732,1,0,0:0:0:0:
313,126,97277,1,2,0:0:0:0:
46,128,97641,1,4,0:0:0:0:
144,137,98005,1,4,0:0:0:0:
239,143,98368,1,0,0:0:0:0:
239,143,99096,1,2,0:0:0:0:
240,131,99459,1,2,0:0:0:0:
240,131,99641,1,0,0:0:0:0:
240,131,99732,1,0,0:0:0:0:
240,131,99823,1,0,0:0:0:0:
251,125,100096,1,2,0:0:0:0:
251,126,100187,1,2,0:0:0:0:
251,125,100368,1,2,0:0:0:0:
251,125,100550,1,0,0:0:0:0:
274,120,100914,1,0,0:0:0:0:
274,121,101096,1,2,0:0:0:0:
272,121,101187,1,2,0:0:0:0:
274,121,101277,1,2,0:0:0:0:
274,120,101550,1,0,0:0:0:0:
274,120,101641,1,0,0:0:0:0:
274,120,101823,1,2,0:0:0:0:
274,121,102005,1,0,0:0:0:0:
289,122,102368,1,2,0:0:0:0:
289,122,102550,1,0,0:0:0:0:
289,122,102641,1,0,0:0:0:0:
289,122,102732,1,0,0:0:0:0:
289,122,103005,1,2,0:0:0:0:
289,122,103096,1,2,0:0:0:0:
289,126,103277,1,2,0:0:0:0:
289,126,103459,1,0,0:0:0:0:
289,122,103823,1,0,0:0:0:0:
289,122,104187,1,0,0:0:0:0:
282,121,104914,1,0,0:0:0:0:
295,128,105277,1,2,0:0:0:0:
295,126,105459,1,0,0:0:0:0:
295,126,105550,1,0,0:0:0:0:
295,128,105641,1,0,0:0:0:0:
294,130,105914,1,2,0:0:0:0:
294,130,106005,1,2,0:0:0:0:
295,128,106187,1,2,0:0:0:0:
295,126,106368,1,0,0:0:0:0:
304,123,106732,1,0,0:0:0:0:
304,123,106914,1,2,0:0:0:0:
304,123,107005,1,2,0:0:0:0:
304,123,107096,1,2,0:0:0:0:
306,123,107368,1,0,0:0:0:0:
306,119,107459,1,0,0:0:0:0:
304,123,107641,1,0,0:0:0:0:
304,123,107823,1,2,0:0:0:0:
314,106,108096,1,0,0:0:0:0:
321,119,108368,1,0,0:0:0:0:
321,119,108550,1,2,0:0:0:0:
316,116,108823,1,2,0:0:0:0:
304,122,109096,1,0,0:0:0:0:
62,118,109277,1,6,0:0:0:0:
282,141,110005,1,2,0:0:0:0:
21,98,110732,1,4,0:0:0:0:
329,132,111096,1,2,0:0:0:0:
336,132,111459,1,2,0:0:0:0:
336,132,111823,1,2,0:0:0:0:
336,132,112187,1,2,0:0:0:0:
336,132,112550,1,2,0:0:0:0:
336,132,112914,1,2,0:0:0:0:
336,132,113277,1,2,0:0:0:0:
336,132,113641,1,2,0:0:0:0:
336,132,114005,1,2,0:0:0:0:
336,132,114368,1,2,0:0:0:0:
336,132,114732,1,2,0:0:0:0:
382,125,115096,1,2,0:0:0:0:
382,125,115459,1,2,0:0:0:0:
346,116,115823,1,0,0:0:0:0:
312,117,116550,1,0,0:0:0:0:
320,124,116732,1,2,0:0:0:0:
320,124,116823,1,2,0:0:0:0:
312,117,116914,1,2,0:0:0:0:
321,124,117096,1,0,0:0:0:0:
312,117,117277,1,2,0:0:0:0:
312,117,117641,1,0,0:0:0:0:
342,112,118005,1,2,0:0:0:0:
365,120,118187,1,0,0:0:0:0:
342,112,118277,1,0,0:0:0:0:
365,120,118368,1,0,0:0:0:0:
355,118,118550,1,2,0:0:0:0:
355,118,118732,1,0,0:0:0:0:
338,155,118823,1,0,0:0:0:0:
338,155,118914,1,0,0:0:0:0:
343,121,119096,1,2,0:0:0:0:
272,133,120914,1,2,0:0:0:0:
272,133,121277,1,2,0:0:0:0:
272,133,121641,1,2,0:0:0:0:
288,136,122368,1,6,0:0:0:0:
291,130,122550,1,0,0:0:0:0:
288,136,122641,1,0,0:0:0:0:
291,130,122823,1,0,0:0:0:0:
288,136,122914,1,0,0:0:0:0:
288,136,123096,1,2,0:0:0:0:
298,187,123277,1,2,0:0:0:0:
298,187,123368,1,2,0:0:0:0:
327,138,123823,1,0,0:0:0:0:
355,161,124005,1,2,0:0:0:0:
355,161,124096,1,2,0:0:0:0:
355,161,124277,1,2,0:0:0:0:
296,124,124368,1,2,0:0:0:0:
287,166,124550,1,0,0:0:0:0:
364,147,124732,1,0,0:0:0:0:
378,143,124823,1,0,0:0:0:0:
307,124,125277,1,2,0:0:0:0:
306,124,125459,1,0,0:0:0:0:
348,166,125550,1,0,0:0:0:0:
303,125,125732,1,0,0:0:0:0:
348,166,125823,1,0,0:0:0:0:
307,124,126005,1,2,0:0:0:0:
349,147,126187,1,2,0:0:0:0:
349,147,126277,1,2,0:0:0:0:
331,105,126732,1,0,0:0:0:0:
327,174,126914,1,2,0:0:0:0:
317,126,127005,1,2,0:0:0:0:
327,174,127187,1,2,0:0:0:0:
317,126,127277,1,2,0:0:0:0:
333,157,127459,1,0,0:0:0:0:
288,149,127732,1,0,0:0:0:0:
266,191,128187,1,8,0:0:0:0:
251,182,128368,1,0,0:0:0:0:
253,177,128459,1,0,0:0:0:0:
251,180,128641,1,0,0:0:0:0:
249,171,128732,1,0,0:0:0:0:
284,172,128914,1,8,0:0:0:0:
271,152,129096,1,0,0:0:0:0:
271,152,129187,1,0,0:0:0:0:
269,157,129641,1,0,0:0:0:0:
285,159,129823,1,2,0:0:0:0:
269,157,129914,1,2,0:0:0:0:
285,159,130096,1,2,0:0:0:0:
273,172,130187,1,2,0:0:0:0:
289,167,130368,1,0,0:0:0:0:
271,169,130550,1,2,0:0:0:0:
277,154,130641,1,8,0:0:0:0:
280,175,131096,1,8,0:0:0:0:
273,159,131277,1,0,0:0:0:0:
280,175,131368,1,0,0:0:0:0:
272,158,131550,1,0,0:0:0:0:
227,156,131641,1,0,0:0:0:0:
253,130,131823,1,8,0:0:0:0:
307,138,132550,1,2,0:0:0:0:
305,139,132914,1,2,0:0:0:0:
303,131,133277,1,2,0:0:0:0:
284,129,134005,1,2,0:0:0:0:
283,130,134187,1,0,0:0:0:0:
283,130,134277,1,0,0:0:0:0:
283,131,134459,1,2,0:0:0:0:
283,131,134550,1,2,0:0:0:0:
283,131,134732,1,0,0:0:0:0:
284,129,134914,1,0,0:0:0:0:
271,129,135005,1,0,0:0:0:0:
271,129,135459,1,0,0:0:0:0:
271,129,135641,1,2,0:0:0:0:
271,129,135732,1,2,0:0:0:0:
271,129,135914,1,0,0:0:0:0:
271,129,136005,1,0,0:0:0:0:
271,129,136187,1,2,0:0:0:0:
271,129,136368,1,2,0:0:0:0:
271,129,136459,1,2,0:0:0:0:
271,129,136914,1,2,0:0:0:0:
271,129,137096,1,0,0:0:0:0:
271,129,137187,1,0,0:0:0:0:
271,129,137368,1,2,0:0:0:0:
271,129,137459,1,2,0:0:0:0:
271,129,137641,1,0,0:0:0:0:
280,138,137823,1,2,0:0:0:0:
282,138,137914,1,2,0:0:0:0:
282,138,138368,1,0,0:0:0:0:
283,139,138550,1,2,0:0:0:0:
280,139,138641,1,2,0:0:0:0:
282,138,138823,1,0,0:0:0:0:
282,138,138914,1,0,0:0:0:0:
282,138,139096,1,2,0:0:0:0:
288,149,139368,1,0,0:0:0:0:
305,147,139823,1,8,0:0:0:0:
271,151,140005,1,0,0:0:0:0:
305,147,140096,1,0,0:0:0:0:
289,158,140277,1,2,0:0:0:0:
240,158,140368,1,8,0:0:0:0:
269,157,140550,1,0,0:0:0:0:
269,132,140732,1,2,0:0:0:0:
269,132,140823,1,2,0:0:0:0:
291,146,141277,1,0,0:0:0:0:
323,151,141459,1,2,0:0:0:0:
291,146,141550,1,8,0:0:0:0:
323,151,141732,1,0,0:0:0:0:
245,132,141823,1,0,0:0:0:0:
274,132,142005,1,8,0:0:0:0:
291,146,142187,1,0,0:0:0:0:
279,132,142277,1,0,0:0:0:0:
282,147,142732,1,8,0:0:0:0:
320,127,142914,1,0,0:0:0:0:
282,147,143005,1,0,0:0:0:0:
320,127,143187,1,2,0:0:0:0:
282,147,143277,1,8,0:0:0:0:
313,142,143459,1,0,0:0:0:0:
43,125,144187,1,6,0:0:0:0:
51,124,144550,1,6,0:0:0:0:
41,117,144914,1,6,0:0:0:0:
274,131,145641,1,0,0:0:0:0:
272,131,145762,1,0,0:0:0:0:
272,132,145883,1,0,0:0:0:0:
271,132,146126,1,0,0:0:0:0:
274,131,146368,1,2,0:0:0:0:
274,131,146490,1,2,0:0:0:0:
272,131,146611,1,2,0:0:0:0:
273,142,147096,1,0,0:0:0:0:
273,143,147217,1,0,0:0:0:0:
272,143,147338,1,0,0:0:0:0:
269,140,147580,1,0,0:0:0:0:
273,142,147823,1,2,0:0:0:0:
14,128,148550,1,4,0:0:0:0:
270,135,148732,1,2,0:0:0:0:
270,135,148823,1,2,0:0:0:0:
270,135,149096,1,2,0:0:0:0:
270,135,149277,1,0,0:0:0:0:
270,135,149459,1,2,0:0:0:0:
270,135,149550,1,2,0:0:0:0:
270,135,149823,1,2,0:0:0:0:
54,145,150005,1,4,0:0:0:0:
349,133,151459,1,0,0:0:0:0:
328,125,151641,1,2,0:0:0:0:
328,125,151732,1,2,0:0:0:0:
328,125,151823,1,2,0:0:0:0:
328,125,152005,1,0,0:0:0:0:
328,125,152187,1,2,0:0:0:0:
340,113,152914,1,0,0:0:0:0:
340,113,153005,1,0,0:0:0:0:
340,113,153096,1,0,0:0:0:0:
337,109,153277,1,2,0:0:0:0:
340,110,153641,1,2,0:0:0:0:
326,107,153823,1,2,0:0:0:0:
336,108,153944,1,2,0:0:0:0:
334,128,154368,1,0,0:0:0:0:
329,113,154550,1,2,0:0:0:0:
330,113,154641,1,2,0:0:0:0:
332,113,154732,1,2,0:0:0:0:
332,113,154914,1,2,0:0:0:0:
332,113,155096,1,0,0:0:0:0:
312,106,155823,1,0,0:0:0:0:
315,102,155914,1,0,0:0:0:0:
322,107,156005,1,0,0:0:0:0:
317,106,156187,1,0,0:0:0:0:
325,108,156550,1,2,0:0:0:0:
325,108,156732,1,2,0:0:0:0:
323,107,156853,1,2,0:0:0:0:
321,105,157277,1,0,0:0:0:0:
325,108,157459,1,2,0:0:0:0:
325,108,157550,1,2,0:0:0:0:
325,108,157641,1,2,0:0:0:0:
325,108,157823,1,0,0:0:0:0:
325,108,158005,1,0,0:0:0:0:
309,94,158732,1,0,0:0:0:0:
302,96,158823,1,0,0:0:0:0:
280,115,158914,1,0,0:0:0:0:
266,109,159096,1,2,0:0:0:0:
285,101,159459,1,2,0:0:0:0:
299,111,159641,1,2,0:0:0:0:
299,111,159762,1,2,0:0:0:0:
292,97,160187,1,0,0:0:0:0:
292,109,160368,1,8,0:0:0:0:
296,101,160459,1,2,0:0:0:0:
296,101,160550,1,2,0:0:0:0:
296,101,160732,1,0,0:0:0:0:
296,101,160914,1,2,0:0:0:0:
64,64,161641,1,0,0:0:0:0:
256,192,161823,12,0,162550,0:0:0:0:
286,169,163096,5,0,0:0:0:0:
292,153,163277,1,2,0:0:0:0:
286,169,163368,1,2,0:0:0:0:
292,153,163459,1,2,0:0:0:0:
266,142,163641,1,0,0:0:0:0:
287,131,163823,1,2,0:0:0:0:
281,135,164005,1,0,0:0:0:0:
328,130,164096,1,0,0:0:0:0:
279,120,164368,1,2,0:0:0:0:
288,125,164550,1,0,0:0:0:0:
287,131,164732,1,2,0:0:0:0:
286,138,164823,1,2,0:0:0:0:
294,127,164914,1,2,0:0:0:0:
285,134,165278,1,2,0:0:0:0:
286,127,166005,1,0,0:0:0:0:
292,132,166187,1,2,0:0:0:0:
292,131,166277,1,2,0:0:0:0:
292,131,166368,1,2,0:0:0:0:
279,129,166550,1,2,0:0:0:0:
292,131,166732,1,0,0:0:0:0:
283,116,166914,1,2,0:0:0:0:
280,119,167005,1,2,0:0:0:0:
263,108,167277,1,0,0:0:0:0:
213,102,167459,1,0,0:0:0:0:
256,109,167641,1,2,0:0:0:0:
271,115,167732,1,2,0:0:0:0:
254,111,167823,1,2,0:0:0:0:
270,125,168187,1,2,0:0:0:0:
260,143,168914,1,0,0:0:0:0:
272,136,169096,1,2,0:0:0:0:
272,134,169187,1,2,0:0:0:0:
306,135,169277,1,2,0:0:0:0:
215,153,169459,1,0,0:0:0:0:
194,138,169641,1,0,0:0:0:0:
306,135,169823,1,2,0:0:0:0:
284,126,169914,1,2,0:0:0:0:
287,123,170368,1,0,0:0:0:0:
263,121,170550,1,2,0:0:0:0:
345,123,170641,1,2,0:0:0:0:
292,125,170732,1,2,0:0:0:0:
271,117,171096,1,2,0:0:0:0:
274,115,171823,1,0,0:0:0:0:
293,125,172005,1,2,0:0:0:0:
294,125,172096,1,2,0:0:0:0:
304,114,172187,1,2,0:0:0:0:
292,126,172368,1,0,0:0:0:0:
286,117,172550,1,2,0:0:0:0:
280,107,172732,1,2,0:0:0:0:
335,107,172823,1,2,0:0:0:0:
25,126,173277,1,4,0:0:0:0:
25,126,173641,1,4,0:0:0:0:
296,123,174005,1,0,0:0:0:0:
301,118,174187,1,0,0:0:0:0:
276,138,174368,1,2,0:0:0:0:
10,143,174732,1,4,0:0:0:0:
