osu file format v14

[General]
AudioFilename: audio.mp3
AudioLeadIn: 0
PreviewTime: 122315
Countdown: 0
SampleSet: Normal
StackLeniency: 0.7
Mode: 1
LetterboxInBreaks: 0
WidescreenStoryboard: 1

[Editor]
Bookmarks: 11724,23360,35179,46633,58269,69906,81542,87542,99179,110815,122269,145572,151391,163027
DistanceSpacing: 2.8
BeatDivisor: 6
GridSize: 16
TimelineZoom: 3.099999

[Metadata]
Title:Foresight
TitleUnicode:Foresight
Artist:Zekk
ArtistUnicode:Zekk
Creator:woosungko
Version:Inner Oni
Source:
Tags:fa featured artist TWC2022 world semifinals HR2 electronic instrumental osu!taiko cup #1 o!tfac#1 save death winner 1st first place mg mpg mappers' guild
BeatmapID:3577149
BeatmapSetID:1726306

[Difficulty]
HPDrainRate:6
CircleSize:5
OverallDifficulty:6
ApproachRate:5
SliderMultiplier:1.4
SliderTickRate:1

[Events]
//Background and Video events
0,0,"b.jpg",0,0
//Break Periods
//Storyboard Layer 0 (Background)
//Storyboard Layer 1 (Fail)
//Storyboard Layer 2 (Pass)
//Storyboard Layer 3 (Foreground)
//Storyboard Layer 4 (Overlay)
//Storyboard Sound Samples

[TimingPoints]
187,363.636363636364,4,1,0,60,1,0
187,-90.909090909091,4,1,0,60,0,0
437,-92.630948470896,4,1,0,60,0,0
710,-94.391929947085,4,1,0,60,0,0
892,-95.584477188902,4,1,0,60,0,0
1074,-96.792091067503,4,1,0,60,0,0
1165,-97.401607386957,4,1,0,60,0,0
1346,-98.625375200706,4,1,0,60,0,0
1437,-99.246436023279,4,1,0,60,0,0
1619,-100.500315074232,4,1,0,60,0,0
1892,-102.41089891385,4,1,0,60,0,0
2165,-104.357804337191,4,1,0,60,0,0
2346,-105.668970810594,4,1,0,60,0,0
2619,-107.677814542384,4,1,0,60,0,0
3073,-90.909090909091,4,1,0,60,0,0
3346,-92.630948470896,4,1,0,60,0,0
3619,-94.391929947085,4,1,0,60,0,0
3801,-95.584477188902,4,1,0,60,0,0
3983,-96.792091067503,4,1,0,60,0,0
4074,-97.401607386957,4,1,0,60,0,0
4255,-98.625375200706,4,1,0,60,0,0
4346,-99.246436023279,4,1,0,60,0,0
4528,-100.500315074232,4,1,0,60,0,0
4801,-102.406554019457,4,1,0,60,0,0
4891,-103.054377925568,4,1,0,60,0,0
4982,-103.706299965995,4,1,0,60,0,0
5074,-104.36234606554,4,1,0,60,0,0
5255,-105.668970810594,4,1,0,60,0,0
5528,-107.677814542384,4,1,0,60,0,0
5982,-90.909090909091,4,1,0,60,0,0
6254,-92.630948470896,4,1,0,60,0,0
6345,-93.214261365128,4,1,0,60,0,0
6436,-93.801247480225,4,1,0,60,0,0
6527,-94.391929947085,4,1,0,60,0,0
6709,-95.584477188902,4,1,0,60,0,0
6891,-96.792091067503,4,1,0,60,0,0
6982,-97.401607386957,4,1,0,60,0,0
7164,-98.632178880758,4,1,0,60,0,0
7254,-99.246436023279,4,1,0,60,0,0
7436,-100.500315074232,4,1,0,60,0,0
7618,-101.770035627786,4,1,0,60,0,0
7709,-102.41089891385,4,1,0,60,0,0
7800,-103.055797825418,4,1,0,60,0,0
7891,-103.704757775515,4,1,0,60,0,0
7982,-104.357804337191,4,1,0,60,0,0
8164,-105.676260393701,4,1,0,60,0,0
8345,-107.003992138757,4,1,0,60,0,0
8436,-107.677814542384,4,1,0,60,0,0
8527,-108.355880120706,4,1,0,60,0,0
8709,-109.724847849673,4,1,0,60,0,0
8891,-111.111111111111,4,1,0,60,0,0
8983,-109.724374130165,4,1,0,61,0,0
9074,-108.354944504307,4,1,0,62,0,0
9165,-107.002606226794,4,1,0,63,0,0
9255,-105.681730417989,4,1,0,64,0,0
9346,-104.362755543959,4,1,0,64,0,0
9437,-103.060242311043,4,1,0,65,0,0
9528,-101.77398526754,4,1,0,66,0,0
9619,-100.503781525921,4,1,0,67,0,0
9801,-98.010735027428,4,1,0,69,0,0
9892,-96.787499030297,4,1,0,70,0,0
10074,-94.386636775247,4,1,0,72,0,0
10165,-93.208631817736,4,1,0,73,0,0
10346,-90.909090909091,4,1,0,75,0,0
10527,-66.666666666667,4,1,0,60,0,0
11800,-83.333333333333,4,1,0,85,0,0
11891,-83.788378844763,4,1,0,85,0,0
11982,-84.245909153203,4,1,0,85,0,0
12073,-84.705937827001,4,1,0,85,0,0
12164,-85.168478508597,4,1,0,85,0,0
12254,-85.628420520346,4,1,0,85,0,0
12345,-86.09599846125,4,1,0,85,0,0
12436,-86.566129633072,4,1,0,85,0,0
12527,-87.038827977849,4,1,0,85,0,0
12648,-87.671361208051,4,1,0,85,0,0
12709,-87.991982335478,4,1,0,85,0,0
12830,-88.631442380053,4,1,0,85,0,0
13012,-89.602037314408,4,1,0,85,0,0
13073,-89.929719077615,4,1,0,85,0,0
13254,-90.909090909091,4,1,0,85,0,0
13345,-90.415711992255,4,1,0,85,0,0
13391,-90.167331445641,4,1,0,85,0,0
13436,-89.92501072573,4,1,0,85,0,0
13527,-89.436972577458,4,1,0,85,0,0
13618,-88.951583094249,4,1,0,85,0,0
13709,-88.468827901352,4,1,0,85,0,0
13800,-87.988692702031,4,1,0,85,0,0
13921,-87.354304709342,4,1,0,85,0,0
13982,-87.036225484705,4,1,0,85,0,0
14164,-86.09406861263,4,1,0,85,0,0
14285,-85.473340633928,4,1,0,85,0,0
14345,-85.167203463154,4,1,0,85,0,0
14527,-84.24527853395,4,1,0,85,0,0
14709,-83.333333333333,4,1,0,85,0,0
14800,-83.788065246962,4,1,0,85,0,0
14891,-84.24527853395,4,1,0,85,0,0
14982,-84.704986734613,4,1,0,85,0,0
15073,-85.167203463154,4,1,0,85,0,0
15164,-85.631942408064,4,1,0,85,0,0
15254,-86.09406861263,4,1,0,85,0,0
15345,-86.563865259498,4,1,0,85,0,0
15436,-87.036225484705,4,1,0,85,0,0
15557,-87.668303509482,4,1,0,85,0,0
15618,-87.988692702031,4,1,0,85,0,0
15739,-88.627687773062,4,1,0,85,0,0
15921,-89.597570907139,4,1,0,85,0,0
15982,-89.92501072573,4,1,0,85,0,0
16164,-90.909090909091,4,1,0,85,0,0
16254,-90.42078445774,4,1,0,85,0,0
16300,-90.17221937634,4,1,0,85,0,0
16345,-89.929719077615,4,1,0,85,0,0
16436,-89.441320619802,4,1,0,85,0,0
16527,-88.955574600538,4,1,0,85,0,0
16618,-88.472466614721,4,1,0,85,0,0
16709,-87.991982335478,4,1,0,85,0,0
16830,-87.357135881041,4,1,0,85,0,0
16891,-87.038827977849,4,1,0,85,0,0
17012,-86.410858362056,4,1,0,85,0,0
17073,-86.09599846125,4,1,0,85,0,0
17194,-85.474831192215,4,1,0,85,0,0
17254,-85.168478508597,4,1,0,85,0,0
17376,-84.548943336798,4,1,0,85,0,0
17436,-84.245909153203,4,1,0,85,0,0
17618,-83.333333333333,4,1,0,85,0,0
17709,-83.788378844763,4,1,0,85,0,0
17800,-84.245909153203,4,1,0,85,0,0
17891,-84.705937827001,4,1,0,85,0,0
17982,-85.168478508597,4,1,0,85,0,0
18072,-85.628420520346,4,1,0,85,0,0
18163,-86.09599846125,4,1,0,85,0,0
18254,-86.566129633072,4,1,0,85,0,0
18345,-87.038827977849,4,1,0,85,0,0
18466,-87.671361208051,4,1,0,85,0,0
18527,-87.991982335478,4,1,0,85,0,0
18648,-88.631442380053,4,1,0,85,0,0
18830,-89.602037314408,4,1,0,85,0,0
18891,-89.929719077615,4,1,0,85,0,0
19072,-90.909090909091,4,1,0,85,0,0
19163,-90.415711992255,4,1,0,85,0,0
19209,-90.167331445641,4,1,0,85,0,0
19254,-89.92501072573,4,1,0,85,0,0
19345,-89.436972577458,4,1,0,85,0,0
19436,-88.951583094249,4,1,0,85,0,0
19527,-88.468827901352,4,1,0,85,0,0
19618,-87.988692702031,4,1,0,85,0,0
19739,-87.354304709342,4,1,0,85,0,0
19800,-87.03977717817,4,1,0,85,0,0
19914,-86.410885688235,4,1,0,85,0,0
19982,-86.095566078347,4,1,0,85,0,0
20103,-85.473340633928,4,1,0,85,0,0
20345,-84.24527853395,4,1,0,85,0,0
20527,-83.333333333333,4,1,0,85,0,0
20618,-83.788065246962,4,1,0,85,0,0
20709,-84.24527853395,4,1,0,85,0,0
20800,-84.704986734613,4,1,0,85,0,0
20891,-85.167203463154,4,1,0,85,0,0
20982,-85.631942408064,4,1,0,85,0,0
21072,-86.09406861263,4,1,0,85,0,0
21163,-86.563865259498,4,1,0,85,0,0
21254,-87.036225484705,4,1,0,85,0,0
21375,-87.668303509482,4,1,0,85,0,0
21436,-87.988692702031,4,1,0,85,0,0
21557,-88.627687773062,4,1,0,85,0,0
21800,-89.92501072573,4,1,0,85,0,0
21982,-90.909090909091,4,1,0,85,0,0
22164,-66.666666666667,4,1,0,60,0,0
23436,-66.666666666667,4,1,0,85,0,0
23459,-66.666666666667,4,1,0,85,0,0
23482,-133.333333333333,4,1,0,60,0,0
29074,-129.995523430298,4,1,0,60,0,0
29165,-129.447402554694,4,1,0,60,0,0
29255,-128.907578194105,4,1,0,60,0,0
30345,-122.540016837998,4,1,0,62,0,0
30527,-121.508825353389,4,1,0,63,0,0
30709,-120.486311490224,4,1,0,63,0,0
30891,-119.472402225098,4,1,0,64,0,0
31254,-117.475563041368,4,1,0,65,0,0
31618,-115.50673523902,4,1,0,65,0,0
31800,-114.534729808737,4,1,0,66,0,0
32164,-112.615188803409,4,1,0,67,0,0
32527,-110.732959790703,4,1,0,67,0,0
32709,-109.801126352547,4,1,0,68,0,0
33073,-107.960918017339,4,1,0,69,0,0
33254,-107.057382546635,4,1,0,69,0,0
33436,-106.156479608188,4,1,0,70,0,0
33618,-87.145969498911,4,1,0,80,0,0
33982,-84.531634273248,4,1,0,80,0,0
34345,-97.828125987557,4,1,0,100,0,0
34436,-96.935238184341,4,1,0,72,0,0
34527,-96.050499863915,4,1,0,74,0,0
34618,-95.173836645076,4,1,0,77,0,0
34709,-94.305174825504,4,1,0,79,0,0
34800,-93.44444137557,4,1,0,82,0,0
34891,-92.591563932193,4,1,0,84,0,0
34982,-91.746470792759,4,1,0,87,0,0
35073,-90.9090909090909,4,1,0,89,0,0
35436,-94.2980452984626,4,1,0,90,0,0
35527,-95.1672415753458,4,1,0,90,0,0
35618,-96.04444970619,4,1,0,90,0,0
35709,-96.9297435406028,4,1,0,90,0,0
35800,-97.8231976089037,4,1,0,90,0,0
35982,-99.6348880097116,4,1,0,90,0,0
36073,-100.553276863177,4,1,0,90,0,0
36164,-101.480131005289,4,1,0,90,0,0
36345,-103.349127011317,4,1,0,90,0,0
36527,-90.9090909090909,4,1,0,90,0,0
36891,-94.3051748255038,4,1,0,90,0,0
36982,-95.1738366450757,4,1,0,90,0,0
37073,-96.0504998639153,4,1,0,90,0,0
37164,-96.9352381843412,4,1,0,90,0,0
37254,-97.8182694785317,4,1,0,90,0,0
37345,-98.7192910408142,4,1,0,90,0,0
37527,-100.54630902521,4,1,0,90,0,0
37618,-101.472459047313,4,1,0,90,0,0
37800,-103.350430471598,4,1,0,90,0,0
37982,-90.9090909090909,4,1,0,90,0,0
38345,-94.2980452984626,4,1,0,90,0,0
38436,-95.1672415753458,4,1,0,90,0,0
38527,-96.04444970619,4,1,0,90,0,0
38618,-96.9297435406028,4,1,0,90,0,0
38709,-97.8231976089037,4,1,0,90,0,0
38891,-99.6348880097116,4,1,0,90,0,0
38982,-100.553276863177,4,1,0,90,0,0
39073,-101.480131005289,4,1,0,90,0,0
39254,-103.349127011317,4,1,0,90,0,0
39436,-105.263157894737,4,1,0,90,0,0
39618,-102.231674255339,4,1,0,90,0,0
39709,-100.748830293822,4,1,0,90,0,0
39800,-99.2874945999736,4,1,0,90,0,0
39891,-97.8473552019423,4,1,0,90,0,0
39982,-96.4281046529461,4,1,0,90,0,0
40164,-93.6510625474279,4,1,0,90,0,0
40345,-90.9686014894974,4,1,0,90,0,0
40527,-88.3487881319118,4,1,0,90,0,0
40709,-85.8044230269784,4,1,0,90,0,0
40800,-84.5598520905845,4,1,0,90,0,0
40891,-83.3333333333333,4,1,0,89,0,0
41254,-86.1582359667103,4,1,0,90,0,0
41345,-86.8812940200695,4,1,0,90,0,0
41436,-87.6104201288232,4,1,0,90,0,0
41527,-88.3456652173694,4,1,0,90,0,0
41618,-89.0870806374748,4,1,0,90,0,0
41800,-90.58863003782,4,1,0,90,0,0
41891,-91.348868890864,4,1,0,90,0,0
41982,-92.1154878284002,4,1,0,90,0,0
42163,-93.6680805783422,4,1,0,90,0,0
42346,-83.3333333333333,4,1,0,90,0,0
42732,-86.1641692144289,4,1,0,90,0,0
42823,-86.8867780013708,4,1,0,90,0,0
42914,-87.615446888047,4,1,0,90,0,0
43005,-88.3502266969904,4,1,0,90,0,0
43096,-89.0911686769528,4,1,0,90,0,0
43187,-89.8383245064796,4,1,0,90,0,0
43368,-91.3431032784151,4,1,0,90,0,0
43459,-92.1091447740542,4,1,0,90,0,0
43641,-93.6605546763998,4,1,0,90,0,0
43732,-94.4460312894289,4,1,0,90,0,0
43823,-95.2380952380952,4,1,0,90,0,0
43983,-93.6594787523942,4,1,0,90,0,0
44074,-92.8800101550491,4,1,0,90,0,0
44255,-91.348868890864,4,1,0,90,0,0
44346,-90.58863003782,4,1,0,90,0,0
44528,-89.0870806374748,4,1,0,90,0,0
44710,-87.6104201288232,4,1,0,90,0,0
44801,-86.8812940200695,4,1,0,90,0,0
44983,-85.4411954681587,4,1,0,90,0,0
45074,-84.7301224441126,4,1,0,90,0,0
45255,-66.6666666666667,4,1,0,90,0,0
45982,-105.42628170791,4,1,0,90,0,0
46709,-66.666666666667,4,1,0,90,0,0
46732,-133.333333333333,4,1,0,90,0,0
46733,-66.666666666667,4,1,0,90,0,0
46755,-133.333333333333,4,1,0,70,0,0
47073,-131.375905721046,4,1,0,70,0,0
47436,-129.45247415386,4,1,0,70,0,0
47800,-127.552020298453,4,1,0,70,0,0
48164,-125.679466449438,4,1,0,70,0,0
48527,-123.839434582185,4,1,0,70,0,0
48891,-122.021384116626,4,1,0,70,0,0
49254,-120.234909033593,4,1,0,70,0,0
49618,-118.469775551819,4,1,0,70,0,0
49982,-116.730555477669,4,1,0,70,0,0
50345,-115.021541682265,4,1,0,70,0,0
50709,-113.33294411954,4,1,0,70,0,0
51073,-111.669136363029,4,1,0,70,0,0
51436,-110.034225145617,4,1,0,70,0,0
51800,-108.418844916142,4,1,0,80,0,0
52164,-106.827179610658,4,1,0,70,0,0
52527,-105.263157894737,4,1,0,70,0,0
52619,-104.496699527515,4,1,0,70,0,0
52710,-103.735822015366,4,1,0,71,0,0
52801,-102.980484722105,4,1,0,72,0,0
52892,-102.230647307434,4,1,0,72,0,0
52983,-101.486269724789,4,1,0,73,0,0
53074,-100.747312219196,4,1,0,74,0,0
53165,-100.013735325154,4,1,0,74,0,0
53255,-99.293473566361,4,1,0,75,0,0
53346,-98.570482586919,4,1,0,75,0,0
53437,-97.852755961091,4,1,0,76,0,0
53528,-97.140255357251,4,1,0,77,0,0
53619,-96.432942722881,4,1,0,77,0,0
53710,-95.730780282536,4,1,0,78,0,0
53801,-95.033730535828,4,1,0,79,0,0
53892,-94.341756255421,4,1,0,79,0,0
53983,-93.654820485048,4,1,0,80,0,0
54074,-92.972886537529,4,1,0,80,0,0
54165,-92.29591799282,4,1,0,81,0,0
54255,-91.631237086675,4,1,0,82,0,0
54346,-90.964037567217,4,1,0,82,0,0
54437,-90.301696163975,4,1,0,83,0,0
54528,-89.644177503283,4,1,0,84,0,0
54619,-88.991446469042,4,1,0,84,0,0
54710,-88.343468200847,4,1,0,85,0,0
54801,-87.700208092123,4,1,0,85,0,0
54892,-87.06163178828,4,1,0,86,0,0
54983,-86.427705184873,4,1,0,87,0,0
55074,-85.798394425785,4,1,0,87,0,0
55165,-85.173665901417,4,1,0,88,0,0
55255,-84.560276808354,4,1,0,89,0,0
55346,-83.944563457257,4,1,0,89,0,0
55436,-57.142857142857,4,1,0,40,0,0
56891,-166.666666666667,4,1,0,70,0,0
57255,-163.369197985952,4,1,0,70,0,0
57619,-160.128153805087,4,1,0,70,0,0
57801,-158.531823914259,4,1,0,70,0,0
57892,-157.739636647386,4,1,0,70,0,0
57983,-156.951407958987,4,1,0,70,0,0
58165,-155.386747292023,4,1,0,70,0,0
58346,-125,4,1,0,70,0,0
58580,-126.903553299492,4,1,0,100,0,0
58709,-127.739759045966,4,1,0,100,0,0
58732,-127.739759045966,4,1,0,100,0,1
58800,-128.43403073065,4,1,0,100,0,1
58891,-129.132075815063,4,1,0,100,0,1
58982,-129.833914807813,4,1,0,100,0,1
59073,-130.539568328971,4,1,0,100,0,1
59194,-131.483798654581,4,1,0,100,0,1
59315,-132.434858870308,4,1,0,100,0,1
59436,-133.392798378719,4,1,0,100,0,1
59527,-134.117794601874,4,1,0,100,0,1
59618,-134.846731214091,4,1,0,100,0,1
59709,-135.579629631572,4,1,0,100,0,1
59800,-136.316511386917,4,1,0,100,0,1
59921,-137.302528006862,4,1,0,100,0,1
60042,-138.295676769237,4,1,0,100,0,1
60164,-139.304306548412,4,1,0,100,0,1
60254,-140.053089718829,4,1,0,100,0,1
60345,-140.81428494317,4,1,0,100,0,1
60436,-141.579617299872,4,1,0,100,0,1
60527,-142.349109274444,4,1,0,100,0,1
60648,-143.378761413799,4,1,0,100,0,1
60770,-144.424463577753,4,1,0,100,0,1
60891,-145.469127353003,4,1,0,100,0,1
61012,-146.521347482462,4,1,0,100,0,1
61133,-147.581178623419,4,1,0,100,0,1
61254,-148.648675828513,4,1,0,100,0,1
61376,-149.732812979999,4,1,0,100,0,1
61497,-150.815873576601,4,1,0,100,0,1
61618,-151.906768262689,4,1,0,100,0,1
61709,-152.732388795437,4,1,0,100,0,1
61800,-153.56249661517,4,1,0,100,0,1
61891,-154.397116110507,4,1,0,100,0,1
61982,-155.236271802618,4,1,0,100,0,1
62103,-156.35914050325,4,1,0,100,0,1
62224,-157.490131236859,4,1,0,100,0,1
62345,-158.629302752451,4,1,0,100,0,1
62436,-159.491460580873,4,1,0,100,0,1
62527,-160.358304278225,4,1,0,100,0,1
62618,-161.229859312427,4,1,0,100,0,1
62709,-162.106151289821,4,1,0,100,0,1
62830,-163.278711809019,4,1,0,100,0,1
62951,-164.459753796442,4,1,0,100,0,1
63073,-165.659205645045,4,1,0,100,0,1
63164,-166.559571331075,4,1,0,100,0,1
63254,-167.45485595633,4,1,0,100,0,1
63345,-168.364981087469,4,1,0,100,0,1
63436,-169.280052792116,4,1,0,100,0,1
63557,-170.504504208749,4,1,0,100,0,1
63679,-171.748042144611,4,1,0,100,0,1
63800,-172.990345239626,4,1,0,100,0,1
63891,-173.930556019109,4,1,0,100,0,1
63982,-174.875876889035,4,1,0,100,0,1
64073,-175.826335622988,4,1,0,100,0,1
64164,-176.781960145506,4,1,0,100,0,1
64285,-178.060675020443,4,1,0,100,0,1
64406,-179.348639208658,4,1,0,100,0,1
64527,-180.645919613101,4,1,0,100,0,1
64618,-181.627738804539,4,1,0,100,0,1
64709,-182.614894230125,4,1,0,100,0,1
64800,-183.607414892544,4,1,0,100,0,1
64891,-184.605329952115,4,1,0,100,0,1
65012,-185.940633515941,4,1,0,100,0,1
65133,-187.285595715343,4,1,0,100,0,1
65254,-188.640286414018,4,1,0,100,0,1
65345,-189.665555370419,4,1,0,100,0,1
65436,-190.696396712511,4,1,0,100,0,1
65527,-191.732840726479,4,1,0,100,0,1
65618,-192.774917863109,4,1,0,100,0,1
65739,-194.169314411169,4,1,0,100,0,1
65860,-195.573797031395,4,1,0,100,0,1
65982,-197.000172463515,4,1,0,100,0,1
66073,-198.070877799432,4,1,0,100,0,1
66164,-199.147402469932,4,1,0,100,0,1
66254,-200.217851956359,4,1,0,100,0,1
66345,-201.306045533831,4,1,0,100,0,1
66467,-202.77422788773,4,1,0,100,0,1
66588,-204.240952327489,4,1,0,100,0,1
66709,-205.718286007902,4,1,0,100,0,1
66830,-207.206305668665,4,1,0,100,0,1
66951,-208.705088604555,4,1,0,100,0,1
67073,-210.227234287988,4,1,0,100,0,1
67194,-211.74786847136,4,1,0,100,0,1
67315,-213.279501840102,4,1,0,100,0,1
67436,-214.822213954492,4,1,0,100,0,1
67618,-217.163697710976,4,1,0,100,0,1
67800,-219.530702786141,4,1,0,100,0,1
67921,-221.118631638876,4,1,0,100,0,1
68042,-222.71804643872,4,1,0,100,0,1
68164,-224.342392616746,4,1,0,100,0,1
68345,-226.774134852669,4,1,0,100,0,1
68527,-229.245890186412,4,1,0,100,0,1
68550,-229.245890186412,4,1,0,100,0,0
68709,-231.744586751499,4,1,0,100,0,0
68891,-234.270518197522,4,1,0,100,0,0
69073,-236.823981374747,4,1,0,100,0,0
69254,-239.406272444338,4,1,0,100,0,0
69376,-234.301321519652,4,1,0,100,0,0
69436,-231.830767287543,4,1,0,100,0,0
69557,-226.92743996548,4,1,0,100,0,0
69618,-224.494972969544,4,1,0,100,0,0
69739,-219.746801070246,4,1,0,100,0,0
69800,-217.391304347826,4,1,0,100,0,0
69982,-105.263157894737,4,1,0,100,0,0
70005,-105.263157894737,4,1,0,100,0,1
70103,-105.863111495873,4,1,0,100,0,1
70164,-106.166862685677,4,1,0,100,0,1
70224,-106.466484568083,4,1,0,100,0,1
70345,-107.073296600844,4,1,0,100,0,1
70436,-107.531936918216,4,1,0,100,0,1
70527,-107.992541786484,4,1,0,100,0,1
70618,-108.455119620651,4,1,0,100,0,1
70709,-108.919678871767,4,1,0,100,0,1
70830,-109.540473030718,4,1,0,100,0,1
70891,-109.854775610196,4,1,0,100,0,1
70951,-110.164805442735,4,1,0,100,0,1
71073,-110.797900336949,4,1,0,100,0,1
71164,-111.272494710971,4,1,0,100,0,1
71254,-111.743873233332,4,1,0,100,0,1
71345,-112.222519610264,4,1,0,100,0,1
71436,-112.701453848755,4,1,0,100,0,1
71557,-113.346337571257,4,1,0,100,0,1
71618,-113.672841972699,4,1,0,100,0,1
71679,-114.000286899671,4,1,0,100,0,1
71800,-114.652602614079,4,1,0,100,0,1
71891,-115.137761716204,4,1,0,100,0,1
71982,-115.630945556166,4,1,0,100,0,1
72073,-116.126241911574,4,1,0,100,0,1
72164,-116.623659831227,4,1,0,100,0,1
72285,-117.288363285815,4,1,0,100,0,1
72345,-117.619372032828,4,1,0,100,0,1
72406,-117.9568552571,4,1,0,100,0,1
72527,-118.629157337957,4,1,0,100,0,1
72648,-119.305291244331,4,1,0,100,0,1
72709,-119.647611847356,4,1,0,100,0,1
72770,-119.990914664951,4,1,0,100,0,1
72830,-120.329550495511,4,1,0,100,0,1
72891,-120.674809987841,4,1,0,100,0,1
73012,-121.362603212618,4,1,0,100,0,1
73073,-121.710826825194,4,1,0,100,0,1
73133,-122.054316555605,4,1,0,100,0,1
73254,-122.749972359747,4,1,0,100,0,1
73345,-123.275762524687,4,1,0,100,0,1
73436,-123.803804871785,4,1,0,100,0,1
73527,-124.334109048091,4,1,0,100,0,1
73618,-124.866684741978,4,1,0,100,0,1
73739,-125.578369805121,4,1,0,100,0,1
73800,-125.938689643665,4,1,0,100,0,1
73860,-126.29411115942,4,1,0,100,0,1
73982,-127.019897917025,4,1,0,100,0,1
74073,-127.563977983135,4,1,0,100,0,1
74164,-128.110388574802,4,1,0,100,0,1
74254,-128.653096688091,4,1,0,100,0,1
74345,-129.204172436846,4,1,0,100,0,1
74467,-129.94668272906,4,1,0,100,0,1
74527,-130.313415518432,4,1,0,100,0,1
74588,-130.68732154152,4,1,0,100,0,1
74709,-131.432181668746,4,1,0,100,0,1
74800,-131.995161416518,4,1,0,100,0,1
74891,-132.560552645195,4,1,0,100,0,1
74982,-133.128365684173,4,1,0,100,0,1
75073,-133.69861090709,4,1,0,100,0,1
75194,-134.460634056356,4,1,0,100,0,1
75254,-134.840106024033,4,1,0,100,0,1
75315,-135.227000401681,4,1,0,100,0,1
75436,-135.997734697368,4,1,0,100,0,1
75527,-136.580270644085,4,1,0,100,0,1
75618,-137.165301839198,4,1,0,100,0,1
75709,-137.752838970911,4,1,0,100,0,1
75800,-138.342892773215,4,1,0,100,0,1
75921,-139.131386281969,4,1,0,100,0,1
75982,-139.530593555636,4,1,0,100,0,1
76042,-139.924373856163,4,1,0,100,0,1
76164,-140.728490981487,4,1,0,100,0,1
76254,-141.324652578342,4,1,0,100,0,1
76345,-141.930005972407,4,1,0,100,0,1
76436,-142.537952351666,4,1,0,100,0,1
76527,-143.148502822974,4,1,0,100,0,1
76648,-143.96438619075,4,1,0,100,0,1
76709,-144.377460707236,4,1,0,100,0,1
76770,-144.791720451269,4,1,0,100,0,1
76891,-145.616969435213,4,1,0,100,0,1
76982,-146.240708641876,4,1,0,100,0,1
77073,-146.867119587961,4,1,0,100,0,1
77164,-147.496213717663,4,1,0,100,0,1
77254,-148.1210451053,4,1,0,100,0,1
77376,-148.972266845356,4,1,0,100,0,1
77436,-149.392693237257,4,1,0,100,0,1
77497,-149.821343101007,4,1,0,100,0,1
77618,-150.675258717052,4,1,0,100,0,1
77709,-151.320664720901,4,1,0,100,0,1
77800,-151.968835272251,4,1,0,100,0,1
77891,-152.619782212829,4,1,0,100,0,1
77982,-153.273517435088,4,1,0,100,0,1
78103,-154.147108923156,4,1,0,100,0,1
78164,-154.589400549377,4,1,0,100,0,1
78224,-155.025679497636,4,1,0,100,0,1
78345,-155.909257537127,4,1,0,100,0,1
78527,-157.247768995515,4,1,0,100,0,1
78709,-100,4,1,0,85,0,1
78732,-100,4,1,0,85,0,0
78891,-98.371930944242,4,1,0,85,0,0
78982,-97.56786333666,4,1,0,85,0,0
79073,-96.770367976987,4,1,0,85,0,0
79254,-95.203465625052,4,1,0,85,0,0
79345,-94.425296262065,4,1,0,85,0,0
79436,-93.653487461201,4,1,0,85,0,0
79618,-92.128744012208,4,1,0,85,0,0
79709,-91.375706656161,4,1,0,85,0,0
79800,-90.628824439486,4,1,0,85,0,0
79982,-89.15332459319,4,1,0,85,0,0
80164,-71.672932984278,4,1,0,85,0,0
80527,-69.775163323808,4,1,0,85,0,0
80891,-67.911929829288,4,1,0,85,0,0
81254,-79.490321811497,4,1,0,85,0,0
81618,-57.142857142857,4,1,0,100,0,0
81860,-79.312598122577,4,1,0,100,0,0
81982,-80.545232621556,4,1,0,100,0,0
82224,-83.047271652838,4,1,0,100,0,0
82345,-84.327288043895,4,1,0,100,0,0
82467,-85.637858204357,4,1,0,100,0,0
82588,-86.957803580224,4,1,0,100,0,0
82709,-88.298093413925,4,1,0,100,0,0
82891,-90.353071835398,4,1,0,100,0,0
83073,-92.455876162838,4,1,0,100,0,0
83194,-93.880908371393,4,1,0,100,0,0
83315,-95.327904752262,4,1,0,100,0,0
83436,-96.797203841556,4,1,0,100,0,0
83618,-99.049983686086,4,1,0,100,0,0
83664,-99.627620284485,4,1,0,100,0,0
83709,-100.195959019978,4,1,0,100,0,0
83800,-50,4,1,0,100,0,0
84164,-106.127808671204,4,1,0,100,0,0
84527,-57.142857142857,4,1,0,100,0,0
84550,-111.111111111111,4,1,0,100,0,0
84551,-57.142857142857,4,1,0,100,0,0
84770,-107.7499463622,4,1,0,100,0,0
84891,-106.114393972477,4,1,0,100,0,0
85133,-102.91739122674,4,1,0,100,0,0
85254,-101.355192906946,4,1,0,100,0,0
85376,-99.804090459769,4,1,0,100,0,0
85497,-98.289149393285,4,1,0,100,0,0
85618,-96.797203841556,4,1,0,100,0,0
85800,-94.595660926495,4,1,0,100,0,0
85982,-92.444189614894,4,1,0,100,0,0
86103,-91.04096557307,4,1,0,100,0,0
86224,-89.659041276744,4,1,0,100,0,0
86345,-88.298093413925,4,1,0,100,0,0
86527,-86.289853152284,4,1,0,100,0,0
86581,-85.6324602875681,4,1,0,100,0,0
86641,-84.9811896560583,4,1,0,100,0,0
86709,-84.3241420018551,4,1,0,100,0,0
86891,-82.409359259058,4,1,0,100,0,0
87073,-80.535051595083,4,1,0,100,0,0
87164,-79.613944760592,4,1,0,100,0,0
87254,-78.713322409457,4,1,0,100,0,0
87345,-77.813051312576,4,1,0,100,0,0
87436,-66.666666666667,4,1,0,100,0,0
87482,-133.333333333333,4,1,0,60,0,0
93073,-129.995523430298,4,1,0,60,0,0
93164,-129.447402554694,4,1,0,60,0,0
93254,-128.907578194105,4,1,0,60,0,0
94344,-122.540016837998,4,1,0,62,0,0
94526,-121.508825353389,4,1,0,63,0,0
94708,-120.486311490224,4,1,0,63,0,0
94890,-119.472402225098,4,1,0,64,0,0
95253,-117.475563041368,4,1,0,65,0,0
95617,-115.50673523902,4,1,0,65,0,0
95799,-114.534729808737,4,1,0,66,0,0
96163,-112.615188803409,4,1,0,67,0,0
96526,-110.732959790703,4,1,0,67,0,0
96708,-109.801126352547,4,1,0,68,0,0
97072,-107.960918017339,4,1,0,69,0,0
97253,-107.057382546635,4,1,0,69,0,0
97435,-106.156479608188,4,1,0,70,0,0
97617,-87.145969498911,4,1,0,80,0,0
97981,-84.531634273248,4,1,0,80,0,0
98344,-97.828125987557,4,1,0,70,0,0
98435,-96.935238184341,4,1,0,72,0,0
98526,-96.050499863915,4,1,0,74,0,0
98617,-95.173836645076,4,1,0,77,0,0
98708,-94.305174825504,4,1,0,79,0,0
98799,-93.44444137557,4,1,0,82,0,0
98890,-92.591563932193,4,1,0,84,0,0
98981,-91.746470792759,4,1,0,87,0,0
99072,-90.909090909091,4,1,0,89,0,0
99436,-94.2980452984626,4,1,0,90,0,0
99527,-95.1672415753458,4,1,0,90,0,0
99618,-96.04444970619,4,1,0,90,0,0
99709,-96.9297435406028,4,1,0,90,0,0
99800,-97.8231976089037,4,1,0,90,0,0
99982,-99.6348880097116,4,1,0,90,0,0
100073,-100.553276863177,4,1,0,90,0,0
100164,-101.480131005289,4,1,0,90,0,0
100345,-103.349127011317,4,1,0,90,0,0
100527,-90.9090909090909,4,1,0,90,0,0
100891,-94.3051748255038,4,1,0,90,0,0
100982,-95.1738366450757,4,1,0,90,0,0
101073,-96.0504998639153,4,1,0,90,0,0
101164,-96.9352381843412,4,1,0,90,0,0
101254,-97.8182694785317,4,1,0,90,0,0
101345,-98.7192910408142,4,1,0,90,0,0
101527,-100.54630902521,4,1,0,90,0,0
101618,-101.472459047313,4,1,0,90,0,0
101800,-103.350430471598,4,1,0,90,0,0
101982,-90.9090909090909,4,1,0,90,0,0
102345,-94.2980452984626,4,1,0,90,0,0
102527,-96.04444970619,4,1,0,90,0,0
102618,-96.9297435406028,4,1,0,90,0,0
102709,-97.8186442335909,4,1,0,90,0,0
102800,-98.7208435187948,4,1,0,90,0,0
102891,-99.6313639533725,4,1,0,90,0,0
102982,-100.553276863177,4,1,0,90,0,0
103073,-101.480131005289,4,1,0,90,0,0
103254,-103.349127011317,4,1,0,90,0,0
103436,-105.263157894737,4,1,0,90,0,0
103527,-103.734774716373,4,1,0,90,0,0
103709,-100.748830293822,4,1,0,90,0,0
103800,-99.2874945999736,4,1,0,90,0,0
103891,-97.8473552019423,4,1,0,90,0,0
103982,-96.4281046529461,4,1,0,90,0,0
104164,-93.6510625474279,4,1,0,90,0,0
104345,-90.9686014894974,4,1,0,90,0,0
104527,-88.3487881319118,4,1,0,90,0,0
104709,-85.8044230269784,4,1,0,90,0,0
104891,-83.3333333333333,4,1,0,90,0,0
104982,-84.0318701343274,4,1,0,90,0,0
105073,-84.7362623792695,4,1,0,90,0,0
105255,-86.1549065219264,4,1,0,90,0,0
105346,-86.8812940200695,4,1,0,90,0,0
105437,-87.6104201288232,4,1,0,90,0,0
105528,-88.3456652173694,4,1,0,90,0,0
105619,-89.0870806374748,4,1,0,90,0,0
105801,-90.58863003782,4,1,0,90,0,0
105892,-91.348868890864,4,1,0,90,0,0
105983,-92.1154878284002,4,1,0,90,0,0
106164,-93.6680805783422,4,1,0,90,0,0
106347,-83.3333333333333,4,1,0,90,0,0
106527,-84.7369307594731,4,1,0,90,0,0
106710,-86.1641692144289,4,1,0,90,0,0
106801,-86.8867780013708,4,1,0,90,0,0
106892,-87.615446888047,4,1,0,90,0,0
106983,-88.3502266969904,4,1,0,90,0,0
107074,-89.0911686769528,4,1,0,90,0,0
107165,-89.8383245064796,4,1,0,90,0,0
107346,-91.3431032784151,4,1,0,90,0,0
107437,-92.1091447740542,4,1,0,90,0,0
107619,-93.6605546763998,4,1,0,90,0,0
107800,-95.2380952380952,4,1,0,90,0,0
107984,-93.6596808816267,4,1,0,90,0,0
108075,-92.8803108257696,4,1,0,90,0,0
108256,-91.3493606650521,4,1,0,90,0,0
108347,-90.5892154707286,4,1,0,90,0,0
108437,-89.8353956706087,4,1,0,90,0,0
108529,-89.0878486292063,4,1,0,90,0,0
108711,-87.6113644669424,4,1,0,90,0,0
108802,-86.8823242505378,4,1,0,90,0,0
108891,-86.159350594566,4,1,0,90,0,0
109075,-84.7314014573801,4,1,0,90,0,0
109254,-66.666666666667,4,1,0,90,0,0
109982,-105.42628170791,4,1,0,90,0,0
110709,-66.666666666667,4,1,0,90,0,0
110732,-133.333333333333,4,1,0,90,0,0
110733,-66.666666666667,4,1,0,90,0,0
110755,-133.333333333333,4,1,0,70,0,0
111073,-131.375905721046,4,1,0,70,0,0
111436,-129.45247415386,4,1,0,70,0,0
111800,-127.552020298453,4,1,0,70,0,0
112164,-125.679466449438,4,1,0,70,0,0
112527,-123.839434582185,4,1,0,70,0,0
112891,-122.021384116626,4,1,0,70,0,0
113254,-120.234909033593,4,1,0,70,0,0
113618,-118.469775551819,4,1,0,70,0,0
113982,-116.730555477669,4,1,0,70,0,0
114345,-115.021541682265,4,1,0,70,0,0
114709,-113.33294411954,4,1,0,70,0,0
115073,-111.669136363029,4,1,0,70,0,0
115436,-110.034225145617,4,1,0,70,0,0
115800,-108.418844916142,4,1,0,80,0,0
116164,-106.827179610658,4,1,0,70,0,0
116527,-105.263157894737,4,1,0,100,0,0
116619,-104.496699527515,4,1,0,70,0,0
116710,-103.735822015366,4,1,0,71,0,0
116801,-102.980484722105,4,1,0,72,0,0
116892,-102.230647307434,4,1,0,72,0,0
116983,-101.486269724789,4,1,0,73,0,0
117074,-100.747312219196,4,1,0,74,0,0
117165,-100.013735325154,4,1,0,74,0,0
117255,-99.293473566361,4,1,0,75,0,0
117346,-98.570482586919,4,1,0,75,0,0
117437,-97.852755961091,4,1,0,76,0,0
117528,-97.140255357251,4,1,0,77,0,0
117619,-96.432942722881,4,1,0,77,0,0
117710,-95.730780282536,4,1,0,78,0,0
117801,-95.033730535828,4,1,0,79,0,0
117892,-94.341756255421,4,1,0,79,0,0
117983,-93.654820485048,4,1,0,80,0,0
118074,-92.972886537529,4,1,0,80,0,0
118165,-92.29591799282,4,1,0,81,0,0
118255,-91.631237086675,4,1,0,82,0,0
118346,-90.964037567217,4,1,0,82,0,0
118437,-90.301696163975,4,1,0,83,0,0
118528,-89.644177503283,4,1,0,84,0,0
118619,-88.991446469042,4,1,0,84,0,0
118710,-88.343468200847,4,1,0,85,0,0
118801,-87.700208092123,4,1,0,85,0,0
118892,-87.06163178828,4,1,0,86,0,0
118983,-86.427705184873,4,1,0,87,0,0
119074,-85.798394425785,4,1,0,87,0,0
119165,-85.173665901417,4,1,0,88,0,0
119255,-84.560276808354,4,1,0,89,0,0
119346,-83.944563457257,4,1,0,89,0,0
119436,-57.142857142857,4,1,0,40,0,0
120891,-166.666666666667,4,1,0,70,0,0
121255,-163.369197985952,4,1,0,70,0,0
121619,-160.128153805087,4,1,0,70,0,0
121801,-158.531823914259,4,1,0,70,0,0
121892,-157.739636647386,4,1,0,70,0,0
121983,-156.951407958987,4,1,0,70,0,0
122165,-155.386747292023,4,1,0,70,0,0
122346,-71.428571428571,4,1,0,100,0,0
122368,-71.428571428571,4,1,0,100,0,1
122437,-72.947639555769,4,1,0,100,0,1
122528,-74.499013634617,4,1,0,100,0,1
122619,-76.083380714297,4,1,0,100,0,1
122710,-77.701442455432,4,1,0,100,0,1
122801,-79.35391544083,4,1,0,100,0,1
122892,-81.041531492833,4,1,0,100,0,1
122983,-82.765037997413,4,1,0,100,0,1
123074,-84.525198235167,4,1,0,100,0,1
123165,-86.322791719344,4,1,0,100,0,1
123255,-88.138230007275,4,1,0,100,0,1
123346,-90.012661671158,4,1,0,100,0,1
123437,-91.926956786602,4,1,0,100,0,1
123528,-93.881963127789,4,1,0,100,0,1
123619,-95.878546498475,4,1,0,100,0,1
123710,-97.917591115425,4,1,0,100,0,1
123800,-71.428571428571,4,1,0,100,0,1
123891,-72.947639555769,4,1,0,100,0,1
123982,-74.499013634617,4,1,0,100,0,1
124073,-76.083380714297,4,1,0,100,0,1
124164,-77.701442455432,4,1,0,100,0,1
124255,-79.35391544083,4,1,0,100,0,1
124346,-81.041531492833,4,1,0,100,0,1
124437,-82.765037997413,4,1,0,100,0,1
124528,-84.525198235167,4,1,0,100,0,1
124619,-86.322791719344,4,1,0,100,0,1
124709,-88.138230007275,4,1,0,100,0,1
124800,-90.012661671158,4,1,0,100,0,1
124891,-91.926956786602,4,1,0,100,0,1
124982,-93.881963127789,4,1,0,100,0,1
125073,-95.878546498475,4,1,0,100,0,1
125164,-97.917591115425,4,1,0,100,0,1
125255,-71.428571428571,4,1,0,100,0,1
125346,-72.947639555769,4,1,0,100,0,1
125437,-74.499013634617,4,1,0,100,0,1
125528,-76.083380714297,4,1,0,100,0,1
125619,-77.701442455432,4,1,0,100,0,1
125710,-79.35391544083,4,1,0,100,0,1
125801,-81.041531492833,4,1,0,100,0,1
125892,-82.765037997413,4,1,0,100,0,1
125983,-84.525198235167,4,1,0,100,0,1
126074,-86.322791719344,4,1,0,100,0,1
126164,-88.138230007275,4,1,0,100,0,1
126255,-90.012661671158,4,1,0,100,0,1
126346,-91.926956786602,4,1,0,100,0,1
126437,-93.881963127789,4,1,0,100,0,1
126528,-95.878546498475,4,1,0,100,0,1
126619,-97.917591115425,4,1,0,100,0,1
126709,-71.4285714285714,4,1,0,100,0,1
126800,-72.9475705145497,4,1,0,100,0,1
126891,-74.4988726156528,4,1,0,100,0,1
126982,-76.083164687387,4,1,0,100,0,1
127073,-77.7011482940457,4,1,0,100,0,1
127164,-79.3535399193793,4,1,0,100,0,1
127255,-81.0223333513925,4,1,0,100,0,1
127346,-82.765037997413,4,1,0,100,0,1
127437,-84.5050148791569,4,1,0,100,0,1
127618,-88.1373967441261,4,1,0,100,0,1
127709,-90.0117254954538,4,1,0,100,0,1
127800,-91.9259136980227,4,1,0,100,0,1
127854,-93.2102306403827,4,1,0,100,0,1
127915,-94.5343488383749,4,1,0,100,0,1
127982,-95.8772770853308,4,1,0,100,0,1
128073,-72.947478887265,4,1,0,100,0,1
128164,-71.428571428571,4,1,0,100,0,1
128255,-72.947639555769,4,1,0,100,0,1
128346,-74.499013634617,4,1,0,100,0,1
128437,-76.083380714297,4,1,0,100,0,1
128528,-77.701442455432,4,1,0,100,0,1
128619,-79.35391544083,4,1,0,100,0,1
128710,-81.041531492833,4,1,0,100,0,1
128801,-82.765037997413,4,1,0,100,0,1
128892,-84.525198235167,4,1,0,100,0,1
128983,-86.322791719344,4,1,0,100,0,1
129073,-88.138230007275,4,1,0,100,0,1
129164,-90.012661671158,4,1,0,100,0,1
129255,-91.926956786602,4,1,0,100,0,1
129346,-93.881963127789,4,1,0,100,0,1
129437,-95.878546498475,4,1,0,100,0,1
129528,-97.917591115425,4,1,0,100,0,1
129618,-71.428571428571,4,1,0,100,0,1
129709,-72.947639555769,4,1,0,100,0,1
129800,-74.499013634617,4,1,0,100,0,1
129891,-76.083380714297,4,1,0,100,0,1
129982,-77.701442455432,4,1,0,100,0,1
130073,-79.35391544083,4,1,0,100,0,1
130164,-81.041531492833,4,1,0,100,0,1
130255,-82.765037997413,4,1,0,100,0,1
130346,-84.525198235167,4,1,0,100,0,1
130437,-86.322791719344,4,1,0,100,0,1
130527,-88.138230007275,4,1,0,100,0,1
130618,-90.012661671158,4,1,0,100,0,1
130709,-91.926956786602,4,1,0,100,0,1
130800,-93.881963127789,4,1,0,100,0,1
130891,-95.878546498475,4,1,0,100,0,1
130982,-97.917591115425,4,1,0,100,0,1
131073,-71.428571428571,4,1,0,100,0,1
131164,-72.947639555769,4,1,0,100,0,1
131255,-74.499013634617,4,1,0,100,0,1
131346,-76.083380714297,4,1,0,100,0,1
131437,-77.701442455432,4,1,0,100,0,1
131528,-79.35391544083,4,1,0,100,0,1
131619,-81.041531492833,4,1,0,100,0,1
131710,-82.765037997413,4,1,0,100,0,1
131801,-84.525198235167,4,1,0,100,0,1
131823,-84.525198235167,4,1,0,100,0,0
131982,-88.138230007275,4,1,0,100,0,0
132073,-90.012661671158,4,1,0,100,0,0
132520,-100,4,1,0,100,0,0
132596,-99.0225772895918,4,1,0,100,0,0
132641,-98.0547081307318,4,1,0,100,0,0
132732,-97.0804052825435,4,1,0,100,0,0
132823,-95.6449012175972,4,1,0,100,0,0
132914,-94.2306235980339,4,1,0,100,0,0
132959,-93.3095920828274,4,1,0,100,0,0
133005,-92.3824382208386,4,1,0,100,0,0
133096,-91.4644968552783,4,1,0,100,0,0
133277,-88.7941042367434,4,1,0,100,0,0
133368,-87.474689896199,4,1,0,100,0,0
133414,-86.818881269615,4,1,0,100,0,0
133459,-86.1875657575328,4,1,0,100,0,0
133550,-84.9131314303101,4,1,0,100,0,0
133641,-83.6575418498921,4,1,0,100,0,0
133687,-82.8262938369143,4,1,0,100,0,0
133732,-82.0167308307629,4,1,0,100,0,0
133777,-81.813244752605,4,1,0,100,0,0
133823,-81.2017864393017,4,1,0,100,0,0
133914,-80,4,1,0,100,0,0
133982,-66.666666666667,4,1,0,100,0,0
134005,-66.666666666667,4,1,0,100,0,1
134073,-68.061548004595,4,1,0,100,0,1
134164,-69.485614751727,4,1,0,100,0,1
134255,-70.923336896511,4,1,0,100,0,1
134346,-72.407281482419,4,1,0,100,0,1
134437,-73.922274967468,4,1,0,100,0,1
134528,-75.468966994608,4,1,0,100,0,1
134619,-77.048020799411,4,1,0,100,0,1
134710,-78.660113494472,4,1,0,100,0,1
134801,-80.305936359763,4,1,0,100,0,1
134891,-81.98619513906,4,1,0,100,0,1
134982,-83.701610342568,4,1,0,100,0,1
135073,-85.452917555889,4,1,0,100,0,1
135164,-87.240867755442,4,1,0,100,0,1
135255,-89.045962636596,4,1,0,100,0,1
135346,-90.909090909091,4,1,0,100,0,1
135436,-66.666666666667,4,1,0,100,0,1
135527,-68.061548004595,4,1,0,100,0,1
135618,-69.485614751727,4,1,0,100,0,1
135709,-70.923336896511,4,1,0,100,0,1
135800,-72.407281482419,4,1,0,100,0,1
135891,-73.922274967468,4,1,0,100,0,1
135982,-75.468966994608,4,1,0,100,0,1
136073,-77.048020799411,4,1,0,100,0,1
136164,-78.660113494472,4,1,0,100,0,1
136255,-80.305936359763,4,1,0,100,0,1
136345,-81.98619513906,4,1,0,100,0,1
136436,-83.701610342568,4,1,0,100,0,1
136527,-85.452917555889,4,1,0,100,0,1
136618,-87.240867755442,4,1,0,100,0,1
136709,-89.045962636596,4,1,0,100,0,1
136800,-90.909090909091,4,1,0,100,0,1
136891,-66.666666666667,4,1,0,100,0,1
136982,-68.061548004595,4,1,0,100,0,1
137073,-69.485614751727,4,1,0,100,0,1
137164,-70.923336896511,4,1,0,100,0,1
137255,-72.407281482419,4,1,0,100,0,1
137346,-73.922274967468,4,1,0,100,0,1
137437,-75.468966994608,4,1,0,100,0,1
137528,-77.048020799411,4,1,0,100,0,1
137619,-78.660113494472,4,1,0,100,0,1
137710,-80.305936359763,4,1,0,100,0,1
137800,-81.98619513906,4,1,0,100,0,1
137891,-83.701610342568,4,1,0,100,0,1
137982,-85.452917555889,4,1,0,100,0,1
138073,-87.240867755442,4,1,0,100,0,1
138164,-89.045962636596,4,1,0,100,0,1
138255,-90.909090909091,4,1,0,100,0,1
138346,-66.666666666667,4,1,0,100,0,1
138437,-68.061548004595,4,1,0,100,0,1
138528,-69.485614751727,4,1,0,100,0,1
138619,-70.923336896511,4,1,0,100,0,1
138710,-72.407281482419,4,1,0,100,0,1
138801,-73.922274967468,4,1,0,100,0,1
138892,-75.468966994608,4,1,0,100,0,1
138983,-77.048020799411,4,1,0,100,0,1
139074,-78.65963973885,4,1,0,100,0,1
139255,-83.9941597255284,4,1,0,100,0,1
139346,-86.8113239295537,4,1,0,100,0,1
139437,-89.7229758238942,4,1,0,100,0,1
139490,-91.7292149598752,4,1,0,100,0,1
139551,-93.7463227733057,4,1,0,100,0,1
139619,-95.84252544464,4,1,0,100,0,1
139800,-66.666666666667,4,1,0,100,0,1
139891,-68.061548004595,4,1,0,100,0,1
139982,-69.485614751727,4,1,0,100,0,1
140073,-70.923336896511,4,1,0,100,0,1
140164,-72.407281482419,4,1,0,100,0,1
140255,-73.922274967468,4,1,0,100,0,1
140346,-75.468966994608,4,1,0,100,0,1
140437,-77.048020799411,4,1,0,100,0,1
140528,-78.660113494472,4,1,0,100,0,1
140619,-80.305936359763,4,1,0,100,0,1
140709,-81.98619513906,4,1,0,100,0,1
140800,-83.701610342568,4,1,0,100,0,1
140891,-85.452917555889,4,1,0,100,0,1
140982,-87.240867755442,4,1,0,100,0,1
141073,-89.045962636596,4,1,0,100,0,1
141164,-90.909090909091,4,1,0,100,0,1
141255,-66.666666666667,4,1,0,100,0,1
141346,-68.061548004595,4,1,0,100,0,1
141437,-69.485614751727,4,1,0,100,0,1
141528,-70.923336896511,4,1,0,100,0,1
141619,-72.407281482419,4,1,0,100,0,1
141710,-73.922274967468,4,1,0,100,0,1
141801,-75.468966994608,4,1,0,100,0,1
141892,-77.048020799411,4,1,0,100,0,1
141983,-78.660113494472,4,1,0,100,0,1
142074,-80.305936359763,4,1,0,100,0,1
142164,-81.98619513906,4,1,0,100,0,1
142255,-83.701610342568,4,1,0,100,0,1
142346,-85.452917555889,4,1,0,100,0,1
142437,-87.240867755442,4,1,0,100,0,1
142528,-89.045962636596,4,1,0,100,0,1
142619,-90.909090909091,4,1,0,100,0,1
142709,-66.666666666667,4,1,0,100,0,1
142800,-68.061548004595,4,1,0,100,0,1
142891,-69.485614751727,4,1,0,100,0,1
142982,-70.923336896511,4,1,0,100,0,1
143073,-72.407281482419,4,1,0,100,0,1
143164,-73.922274967468,4,1,0,100,0,1
143255,-75.468966994608,4,1,0,100,0,1
143346,-77.048020799411,4,1,0,100,0,1
143437,-78.660113494472,4,1,0,100,0,1
143459,-78.660113494472,4,1,0,100,0,0
143618,-81.98619513906,4,1,0,100,0,0
143709,-83.701610342568,4,1,0,100,0,0
144165,-83.682008368201,4,1,0,100,0,0
144187,-83.682008368201,4,1,0,100,0,0
144346,-97.080231952666,4,1,0,100,0,0
144437,-95.644644595644,4,1,0,100,0,0
144528,-79.603261809183,4,1,0,100,0,0
144710,-91.464005142441,4,1,0,100,0,0
144801,-90.111468516147,4,1,0,100,0,0
144892,-75.677692423486,4,1,0,100,0,0
145255,-83.656642366966,4,1,0,100,0,0
145618,-71.428571428571,4,1,0,90,0,0
145739,-72.435284005667,4,1,0,90,0,0
145860,-73.456185165742,4,1,0,90,0,0
146103,-75.550094015182,4,1,0,90,0,0
146224,-76.614895233024,4,1,0,90,0,0
146345,-77.694703733759,4,1,0,90,0,0
146467,-78.798844845509,4,1,0,90,0,0
146527,-79.347607412738,4,1,0,90,0,0
146588,-79.90943387984,4,1,0,90,0,0
146830,-82.177790401941,4,1,0,90,0,0
146951,-83.336002214118,4,1,0,90,0,0
147073,-84.520313392507,4,1,0,90,0,0
147194,-85.711540667679,4,1,0,90,0,0
147315,-86.919557071572,4,1,0,90,0,0
147557,-89.386907102832,4,1,0,90,0,0
147679,-90.657209378809,4,1,0,90,0,0
147800,-91.934929919214,4,1,0,90,0,0
147921,-93.23065862235,4,1,0,90,0,0
148042,-94.544649294834,4,1,0,90,0,0
148164,-95.888249684124,4,1,0,90,0,0
148406,-98.610190336223,4,1,0,90,0,0
148527,-83.333333333333,4,1,0,90,0,0
148709,-82.199653641013,4,1,0,90,0,0
148800,-81.637475275081,4,1,0,90,0,0
148891,-81.078395618932,4,1,0,90,0,0
149072,-79.975563923401,4,1,0,90,0,0
149163,-79.425704841165,4,1,0,90,0,0
149254,-78.878916269588,4,1,0,90,0,0
149436,-77.794520992134,4,1,0,90,0,0
149527,-77.256899148622,4,1,0,90,0,0
149618,-76.722317544774,4,1,0,90,0,0
149800,-75.662243487084,4,1,0,90,0,0
149982,-62.687009344773,4,1,0,90,0,0
151436,-83.333333333333,4,1,0,85,0,0
151527,-83.788065246962,4,1,0,85,0,0
151618,-84.24527853395,4,1,0,85,0,0
151709,-84.704986734613,4,1,0,85,0,0
151800,-85.167203463154,4,1,0,85,0,0
151891,-85.631942408064,4,1,0,85,0,0
151982,-86.099217332532,4,1,0,85,0,0
152073,-86.569042074847,4,1,0,85,0,0
152164,-87.041430548811,4,1,0,85,0,0
152285,-87.673546374017,4,1,0,85,0,0
152345,-87.988692702031,4,1,0,85,0,0
152467,-88.632988012059,4,1,0,85,0,0
152648,-89.597570907139,4,1,0,85,0,0
152709,-89.92501072573,4,1,0,85,0,0
152891,-90.909090909091,4,1,0,85,0,0
152982,-90.415373590094,4,1,0,85,0,0
153027,-90.17221937634,4,1,0,85,0,0
153073,-89.924337595798,4,1,0,85,0,0
153164,-89.435968364224,4,1,0,85,0,0
153254,-88.955574600538,4,1,0,85,0,0
153345,-88.472466614721,4,1,0,85,0,0
153436,-87.991982335478,4,1,0,85,0,0
153557,-87.357135881041,4,1,0,85,0,0
153618,-87.038827977849,4,1,0,85,0,0
153739,-86.410858362056,4,1,0,85,0,0
153800,-86.09599846125,4,1,0,85,0,0
153921,-85.474831192215,4,1,0,85,0,0
154164,-84.240867796098,4,1,0,85,0,0
154345,-83.333333333333,4,1,0,85,0,0
154437,-83.788065246962,4,1,0,85,0,0
154528,-84.24527853395,4,1,0,85,0,0
154619,-84.704986734613,4,1,0,85,0,0
154710,-85.167203463154,4,1,0,85,0,0
154801,-85.631942408064,4,1,0,85,0,0
154892,-86.099217332532,4,1,0,85,0,0
154983,-86.569042074847,4,1,0,85,0,0
155074,-87.041430548811,4,1,0,85,0,0
155195,-87.673546374017,4,1,0,85,0,0
155255,-87.988692702031,4,1,0,85,0,0
155377,-88.632988012059,4,1,0,85,0,0
155558,-89.597570907139,4,1,0,85,0,0
155619,-89.92501072573,4,1,0,85,0,0
155801,-90.909090909091,4,1,0,85,0,0
155892,-90.415373590094,4,1,0,85,0,0
155937,-90.17221937634,4,1,0,85,0,0
155983,-89.924337595798,4,1,0,85,0,0
156074,-89.435968364224,4,1,0,85,0,0
156165,-88.950251412474,4,1,0,85,0,0
156255,-88.472466614721,4,1,0,85,0,0
156346,-87.991982335478,4,1,0,85,0,0
156468,-87.351908345103,4,1,0,85,0,0
156528,-87.038827977849,4,1,0,85,0,0
156649,-86.410858362056,4,1,0,85,0,0
156710,-86.09599846125,4,1,0,85,0,0
156831,-85.474831192215,4,1,0,85,0,0
156892,-85.163381944044,4,1,0,85,0,0
157013,-84.548943336798,4,1,0,85,0,0
157074,-84.240867796098,4,1,0,85,0,0
157255,-83.333333333333,4,1,0,85,0,0
157346,-83.788065246962,4,1,0,85,0,0
157437,-84.24527853395,4,1,0,85,0,0
157528,-84.704986734613,4,1,0,85,0,0
157619,-85.167203463154,4,1,0,85,0,0
157710,-85.631942408064,4,1,0,85,0,0
157801,-86.099217332532,4,1,0,85,0,0
157892,-86.569042074847,4,1,0,85,0,0
157983,-87.041430548811,4,1,0,85,0,0
158104,-87.673546374017,4,1,0,85,0,0
158164,-87.988692702031,4,1,0,85,0,0
158286,-88.632988012059,4,1,0,85,0,0
158467,-89.597570907139,4,1,0,85,0,0
158528,-89.92501072573,4,1,0,85,0,0
158710,-90.909090909091,4,1,0,85,0,0
158801,-90.415373590094,4,1,0,85,0,0
158846,-90.17221937634,4,1,0,85,0,0
158892,-89.924337595798,4,1,0,85,0,0
158983,-89.435968364224,4,1,0,85,0,0
159073,-88.955574600538,4,1,0,85,0,0
159164,-88.472466614721,4,1,0,85,0,0
159255,-87.991982335478,4,1,0,85,0,0
159376,-87.357135881041,4,1,0,85,0,0
159437,-87.038827977849,4,1,0,85,0,0
159558,-86.410858362056,4,1,0,85,0,0
159619,-86.09599846125,4,1,0,85,0,0
159740,-85.474831192215,4,1,0,85,0,0
159983,-84.240867796098,4,1,0,85,0,0
160164,-83.333333333333,4,1,0,85,0,0
160256,-83.788065246962,4,1,0,85,0,0
160347,-84.24527853395,4,1,0,85,0,0
160438,-84.704986734613,4,1,0,85,0,0
160529,-85.167203463154,4,1,0,85,0,0
160620,-85.631942408064,4,1,0,85,0,0
160711,-86.099217332532,4,1,0,85,0,0
160802,-86.569042074847,4,1,0,85,0,0
160893,-87.041430548811,4,1,0,85,0,0
161014,-87.673546374017,4,1,0,85,0,0
161074,-87.988692702031,4,1,0,85,0,0
161196,-88.632988012059,4,1,0,85,0,0
161438,-89.92501072573,4,1,0,85,0,0
161620,-90.9090909090909,4,1,0,85,0,0
162346,-117.647058823529,4,1,0,85,0,0
162528,-115.426770919281,4,1,0,85,0,0
162649,-113.973884221826,4,1,0,85,0,0
162710,-113.248385281244,4,1,0,85,0,0
162831,-111.822918111254,4,1,0,85,0,0
162892,-111.111111111111,4,1,0,85,0,0
163074,-83.333333333333,4,1,0,70,0,0
163165,-83.684152630473,4,1,0,70,0,0
163255,-84.032569383105,4,1,0,70,0,0
163346,-84.386332346238,4,1,0,70,0,0
163437,-84.741584591861,4,1,0,70,0,0
163528,-85.0983323896,4,1,0,70,0,0
163619,-85.45658203548,4,1,0,70,0,0
163710,-85.816339852027,4,1,0,70,0,0
163801,-86.177612188387,4,1,0,70,0,0
163983,-86.904725950876,4,1,0,70,0,0
164074,-87.270580209391,4,1,0,70,0,0
164165,-87.63797465271,4,1,0,70,0,0
164255,-88.002853038593,4,1,0,70,0,0
164346,-88.373330227184,4,1,0,70,0,0
164528,-89.118970109904,4,1,0,70,0,0
164619,-89.494145963373,4,1,0,70,0,0
164710,-89.870901243992,4,1,0,70,0,0
164801,-90.249242600884,4,1,0,70,0,0
164892,-86.9565217391304,4,1,0,70,0,0
164945,-85.7449850965544,4,1,0,70,0,0
165005,-84.5305591174746,4,1,0,70,0,0
165074,-83.3333333333333,4,1,0,70,0,0
165256,-92.164975214749,4,1,0,70,0,0
165438,-92.942606669096,4,1,0,70,0,0
165528,-93.329570749856,4,1,0,70,0,0
165619,-93.722472522809,4,1,0,70,0,0
165801,-94.513245182847,4,1,0,70,0,0
165983,-95.310689896907,4,1,0,70,0,0
166074,-95.711931847781,4,1,0,70,0,0
166165,-96.114862959685,4,1,0,70,0,0
166255,-96.515034645476,4,1,0,70,0,0
166346,-96.921346684889,4,1,0,70,0,0
166437,-97.32936922955,4,1,0,70,0,0
166528,-97.739109480399,4,1,0,70,0,0
166619,-98.15057466869,4,1,0,70,0,0
166710,-98.563772056119,4,1,0,70,0,0
166892,-99.395392628157,4,1,0,70,0,0
166983,-99.813830489525,4,1,0,70,0,0
167074,-100.23402990381,4,1,0,70,0,0
167165,-100.655998286854,4,1,0,70,0,0
167255,-101.075076869282,4,1,0,70,0,0
167437,-101.927886288922,4,1,0,70,0,0
167528,-102.356985522043,4,1,0,70,0,0
167619,-102.787891190661,4,1,0,70,0,0
167710,-103.220610899564,4,1,0,70,0,0
167801,-100,4,1,0,70,0,0
167854,-98.7153326678156,4,1,0,70,0,0
167914,-97.4261715883719,4,1,0,70,0,0
167983,-96.1538461538461,4,1,0,70,0,0
168165,-105.411688464589,4,1,0,70,0,0
168347,-106.301087549381,4,1,0,70,0,0
168437,-106.743669311412,4,1,0,70,0,0
168528,-107.193042179914,4,1,0,70,0,0
168710,-108.097471233272,4,1,0,70,0,0
168892,-109.009531303493,4,1,0,70,0,0
168983,-109.468443069334,4,1,0,70,0,0
169074,-109.929286776412,4,1,0,70,0,0
169165,-110.392070557875,4,1,0,70,0,0
169255,-110.851685019289,4,1,0,70,0,0
169346,-111.318351941991,4,1,0,70,0,0
169437,-111.786983453834,4,1,0,70,0,0
169528,-112.25758782541,4,1,0,70,0,0
169619,-112.730173362123,4,1,0,70,0,0
169801,-113.681321327563,4,1,0,70,0,0
169892,-114.159900542515,4,1,0,70,0,0
170074,-115.123111667783,4,1,0,70,0,0
170165,-115.607760577221,4,1,0,70,0,0
170346,-116.577805943168,4,1,0,70,0,0
170437,-117.068578870484,4,1,0,70,0,0
170528,-117.561417869161,4,1,0,70,0,0
170619,-118.056331637012,4,1,0,70,0,0
170710,-118.553328908465,4,1,0,70,0,0
170801,-119.052418454719,4,1,0,70,0,0
170892,-119.553609083899,4,1,0,70,0,0
171074,-120.562329009095,4,1,0,70,0,0
171255,-121.573947329346,4,1,0,70,0,0
171346,-122.085753170376,4,1,0,70,0,0
171437,-122.599713627791,4,1,0,70,0,0
171619,-123.634134712251,4,1,0,70,0,0
171801,-124.677283606494,4,1,0,70,0,0
171892,-125.202153970542,4,1,0,70,0,0
171983,-125.729233950417,4,1,0,70,0,0
172074,-126.25853284823,4,1,0,70,0,0
172165,-126.790060005249,4,1,0,70,0,0
172255,-127.317947061334,4,1,0,70,0,0
172346,-127.85393417375,4,1,0,70,0,0
172437,-128.392177701629,4,1,0,70,0,0
172528,-128.932687144103,4,1,0,70,0,0
172710,-130.020541969464,4,1,0,70,0,0
172801,-130.567906551233,4,1,0,70,0,0
172983,-131.669558353622,4,1,0,70,0,0
173074,-132.223865016616,4,1,0,70,0,0
173255,-99.750623441397,4,1,0,80,0,0
173618,-97.432103002914,4,1,0,80,0,0
173982,-125.23947137752,4,1,0,70,0,0
174164,-123.293973204662,4,1,0,70,0,0
174345,-121.389138620748,4,1,0,70,0,0
174436,-120.442605199238,4,1,0,70,0,0
174527,-119.50345238466,4,1,0,70,0,0
174709,-66.666666666667,4,1,0,90,0,0

[HitObjects]
9,137,187,5,6,0:0:0:0:
271,121,459,1,0,0:0:0:0:
271,121,732,1,0,0:0:0:0:
285,118,914,1,2,0:0:0:0:
285,134,1096,1,0,0:0:0:0:
279,118,1187,1,2,0:0:0:0:
282,119,1368,1,2,0:0:0:0:
285,134,1459,1,0,0:0:0:0:
290,142,1641,1,0,0:0:0:0:
289,138,1914,1,0,0:0:0:0:
289,138,2187,1,0,0:0:0:0:
280,129,2368,1,2,0:0:0:0:
277,138,2641,1,2,0:0:0:0:
275,131,3096,1,0,0:0:0:0:
275,131,3368,1,0,0:0:0:0:
275,131,3641,1,0,0:0:0:0:
298,131,3823,1,2,0:0:0:0:
303,138,4005,1,0,0:0:0:0:
298,131,4096,1,2,0:0:0:0:
298,131,4277,1,2,0:0:0:0:
336,132,4368,1,0,0:0:0:0:
305,115,4550,1,0,0:0:0:0:
315,121,4823,1,0,0:0:0:0:
309,123,4914,1,2,0:0:0:0:
309,123,5005,1,2,0:0:0:0:
315,121,5096,1,0,0:0:0:0:
309,123,5277,1,2,0:0:0:0:
325,129,5550,1,2,0:0:0:0:
309,130,6005,1,0,0:0:0:0:
309,130,6277,1,0,0:0:0:0:
327,138,6368,1,2,0:0:0:0:
327,138,6459,1,2,0:0:0:0:
277,135,6550,1,0,0:0:0:0:
327,134,6732,1,2,0:0:0:0:
311,136,6914,1,0,0:0:0:0:
319,142,7005,1,2,0:0:0:0:
319,142,7187,1,2,0:0:0:0:
316,136,7277,1,0,0:0:0:0:
319,132,7459,1,0,0:0:0:0:
320,146,7641,1,2,0:0:0:0:
311,136,7732,1,0,0:0:0:0:
324,145,7823,1,2,0:0:0:0:
324,137,7914,1,2,0:0:0:0:
314,131,8005,1,0,0:0:0:0:
332,131,8187,1,2,0:0:0:0:
315,141,8368,1,0,0:0:0:0:
332,131,8459,1,2,0:0:0:0:
315,141,8550,1,0,0:0:0:0:
304,142,8732,1,2,0:0:0:0:
314,139,8914,1,0,0:0:0:0:
314,139,9005,1,0,0:0:0:0:
328,141,9096,1,2,0:0:0:0:
315,141,9187,1,0,0:0:0:0:
328,141,9277,1,2,0:0:0:0:
328,141,9368,1,2,0:0:0:0:
299,155,9459,1,0,0:0:0:0:
319,140,9641,1,2,0:0:0:0:
297,130,9823,1,2,0:0:0:0:
293,140,9914,1,0,0:0:0:0:
297,130,10096,1,2,0:0:0:0:
293,140,10187,1,0,0:0:0:0:
286,134,10368,1,2,0:0:0:0:
256,192,10550,12,2,11641,0:0:0:0:
286,169,11823,5,0,0:0:0:0:
286,169,11914,1,0,0:0:0:0:
292,153,12005,1,2,0:0:0:0:
286,169,12096,1,0,0:0:0:0:
292,153,12187,1,2,0:0:0:0:
292,153,12277,1,2,0:0:0:0:
266,142,12368,1,0,0:0:0:0:
287,131,12550,1,2,0:0:0:0:
294,112,12671,1,0,0:0:0:0:
294,112,12732,1,0,0:0:0:0:
284,114,12853,1,2,0:0:0:0:
292,129,13035,1,2,0:0:0:0:
279,120,13096,1,0,0:0:0:0:
288,125,13277,1,0,0:0:0:0:
288,129,13368,1,2,0:0:0:0:
287,131,13459,1,2,0:0:0:0:
286,138,13550,1,0,0:0:0:0:
294,127,13641,1,2,0:0:0:0:
286,138,13823,1,0,0:0:0:0:
292,129,13944,1,2,0:0:0:0:
285,134,14005,1,2,0:0:0:0:
297,134,14187,1,2,0:0:0:0:
288,129,14308,1,2,0:0:0:0:
284,136,14368,1,0,0:0:0:0:
292,120,14550,1,2,0:0:0:0:
286,127,14732,1,0,0:0:0:0:
285,127,14823,1,0,0:0:0:0:
292,132,14914,1,2,0:0:0:0:
292,131,15005,1,2,0:0:0:0:
285,127,15096,1,0,0:0:0:0:
292,131,15187,1,2,0:0:0:0:
279,129,15277,1,0,0:0:0:0:
292,131,15459,1,2,0:0:0:0:
283,116,15580,1,0,0:0:0:0:
283,116,15641,1,0,0:0:0:0:
280,119,15762,1,2,0:0:0:0:
275,103,15944,1,0,0:0:0:0:
276,119,16005,1,2,0:0:0:0:
213,102,16187,1,0,0:0:0:0:
256,109,16277,1,2,0:0:0:0:
256,109,16368,1,2,0:0:0:0:
271,115,16459,1,0,0:0:0:0:
254,111,16550,1,2,0:0:0:0:
258,100,16732,1,0,0:0:0:0:
272,125,16853,1,2,0:0:0:0:
270,125,16914,1,2,0:0:0:0:
262,116,17096,1,2,0:0:0:0:
276,120,17217,1,2,0:0:0:0:
272,128,17277,1,0,0:0:0:0:
254,131,17459,1,2,0:0:0:0:
260,143,17641,1,0,0:0:0:0:
306,135,17732,1,2,0:0:0:0:
272,136,17823,1,0,0:0:0:0:
272,134,17914,1,0,0:0:0:0:
306,135,18005,1,2,0:0:0:0:
268,135,18096,1,2,0:0:0:0:
215,153,18187,1,0,0:0:0:0:
194,138,18368,1,2,0:0:0:0:
305,137,18490,1,0,0:0:0:0:
306,135,18550,1,0,0:0:0:0:
306,135,18671,1,2,0:0:0:0:
291,128,18853,1,2,0:0:0:0:
295,126,18914,1,0,0:0:0:0:
287,123,19096,1,0,0:0:0:0:
263,121,19187,1,2,0:0:0:0:
263,121,19277,1,2,0:0:0:0:
284,128,19368,1,0,0:0:0:0:
292,125,19459,1,2,0:0:0:0:
284,128,19641,1,0,0:0:0:0:
271,117,19762,1,2,0:0:0:0:
271,117,19823,1,2,0:0:0:0:
265,120,19944,1,0,0:0:0:0:
268,117,20005,1,2,0:0:0:0:
274,115,20126,1,2,0:0:0:0:
274,115,20368,1,2,0:0:0:0:
274,115,20550,1,0,0:0:0:0:
271,117,20641,1,0,0:0:0:0:
293,125,20732,1,2,0:0:0:0:
294,125,20823,1,2,0:0:0:0:
260,117,20914,1,0,0:0:0:0:
260,117,21005,1,0,0:0:0:0:
286,117,21096,1,2,0:0:0:0:
286,117,21277,1,2,0:0:0:0:
279,111,21399,1,0,0:0:0:0:
279,112,21459,1,0,0:0:0:0:
280,107,21580,1,2,0:0:0:0:
292,102,21823,1,2,0:0:0:0:
271,106,22005,1,0,0:0:0:0:
256,192,22187,12,0,23096,0:0:0:0:
20,163,23459,5,4,0:0:0:0:
176,107,24550,1,2,0:0:0:0:
176,107,24732,1,2,0:0:0:0:
176,107,24914,1,2,0:0:0:0:
176,107,25096,1,2,0:0:0:0:
172,103,25459,1,2,0:0:0:0:
229,115,25641,1,0,0:0:0:0:
222,111,26005,1,0,0:0:0:0:
236,120,26368,1,0,0:0:0:0:
229,115,26550,1,2,0:0:0:0:
269,137,27823,1,2,0:0:0:0:
256,138,28550,1,0,0:0:0:0:
237,107,29096,1,0,0:0:0:0:
237,107,29187,1,0,0:0:0:0:
255,111,29277,1,2,0:0:0:0:
293,146,30368,1,2,0:0:0:0:
293,146,30550,1,2,0:0:0:0:
293,146,30732,1,2,0:0:0:0:
293,146,30914,1,2,0:0:0:0:
293,146,31277,1,0,0:0:0:0:
288,143,31641,1,0,0:0:0:0:
239,126,31823,1,2,0:0:0:0:
250,108,32187,1,0,0:0:0:0:
271,111,32550,1,2,0:0:0:0:
219,131,32732,1,0,0:0:0:0:
243,121,33096,1,0,0:0:0:0:
267,129,33277,1,2,0:0:0:0:
263,131,33459,1,2,0:0:0:0:
23,115,33641,1,4,0:0:0:0:
23,115,34005,1,4,0:0:0:0:
270,159,34368,1,0,0:0:0:0:
270,159,34459,1,0,0:0:0:0:
282,151,34550,1,2,0:0:0:0:
270,159,34641,1,2,0:0:0:0:
281,151,34732,1,0,0:0:0:0:
281,151,34823,1,2,0:0:0:0:
281,151,34914,1,0,0:0:0:0:
245,153,35096,1,2,0:0:0:0:
275,140,35459,1,2,0:0:0:0:
249,146,35550,1,0,0:0:0:0:
275,140,35641,1,2,0:0:0:0:
275,140,35732,1,2,0:0:0:0:
249,146,35823,1,0,0:0:0:0:
275,140,36005,1,2,0:0:0:0:
282,113,36096,1,0,0:0:0:0:
275,140,36187,1,2,0:0:0:0:
275,140,36368,1,2,0:0:0:0:
282,140,36550,1,0,0:0:0:0:
284,140,36914,1,2,0:0:0:0:
284,140,37005,1,2,0:0:0:0:
277,125,37096,1,0,0:0:0:0:
281,125,37187,1,0,0:0:0:0:
285,140,37277,1,2,0:0:0:0:
289,129,37368,1,0,0:0:0:0:
289,129,37550,1,0,0:0:0:0:
319,131,37641,1,2,0:0:0:0:
277,124,37823,1,2,0:0:0:0:
267,122,38005,1,0,0:0:0:0:
270,125,38368,1,2,0:0:0:0:
263,117,38459,1,2,0:0:0:0:
247,117,38550,1,0,0:0:0:0:
263,117,38641,1,2,0:0:0:0:
247,117,38732,1,0,0:0:0:0:
247,117,38914,1,0,0:0:0:0:
247,117,39005,1,0,0:0:0:0:
243,117,39096,1,2,0:0:0:0:
242,115,39277,1,2,0:0:0:0:
208,118,39459,1,0,0:0:0:0:
264,117,39641,1,0,0:0:0:0:
213,130,39732,1,0,0:0:0:0:
248,122,39823,1,2,0:0:0:0:
248,122,39914,1,2,0:0:0:0:
213,130,40005,1,0,0:0:0:0:
251,122,40187,1,2,0:0:0:0:
220,103,40368,1,0,0:0:0:0:
261,120,40550,1,2,0:0:0:0:
261,120,40732,1,2,0:0:0:0:
271,119,40823,1,2,0:0:0:0:
220,103,40914,1,0,0:0:0:0:
261,120,41277,1,2,0:0:0:0:
266,117,41368,1,0,0:0:0:0:
255,109,41459,1,2,0:0:0:0:
266,117,41550,1,2,0:0:0:0:
266,117,41641,1,0,0:0:0:0:
260,128,41823,1,2,0:0:0:0:
259,128,41914,1,0,0:0:0:0:
260,128,42005,1,2,0:0:0:0:
261,120,42187,1,2,0:0:0:0:
253,103,42368,1,0,0:0:0:0:
253,106,42732,1,2,0:0:0:0:
257,107,42823,1,2,0:0:0:0:
258,109,42914,1,0,0:0:0:0:
258,107,43005,1,0,0:0:0:0:
258,107,43096,1,2,0:0:0:0:
258,107,43187,1,0,0:0:0:0:
344,134,43368,1,0,0:0:0:0:
253,106,43459,1,2,0:0:0:0:
296,71,43641,1,0,0:0:0:0:
296,71,43732,1,0,0:0:0:0:
338,106,43823,1,2,0:0:0:0:
296,71,44005,1,2,0:1:0:0:
338,106,44096,1,0,0:1:0:0:
338,106,44277,1,2,0:1:0:0:
296,71,44368,1,0,0:1:0:0:
296,71,44550,1,2,0:1:0:0:
296,71,44732,1,0,0:1:0:0:
296,71,44823,1,2,0:1:0:0:
338,106,45005,1,0,0:1:0:0:
338,106,45096,1,2,0:1:0:0:
43,107,45277,1,6,0:0:0:0:
296,71,46005,1,2,0:1:0:0:
23,143,46733,1,4,0:0:0:0:
300,126,47096,1,2,0:0:0:0:
300,126,47459,1,2,0:0:0:0:
300,126,47823,1,2,0:0:0:0:
300,126,48187,1,2,0:0:0:0:
300,126,48550,1,2,0:0:0:0:
300,126,48914,1,2,0:0:0:0:
300,126,49277,1,2,0:0:0:0:
300,126,49641,1,2,0:0:0:0:
300,126,50005,1,2,0:0:0:0:
300,126,50368,1,2,0:0:0:0:
300,126,50732,1,2,0:0:0:0:
300,126,51096,1,2,0:0:0:0:
300,126,51459,1,2,0:0:0:0:
300,126,51823,1,0,0:0:0:0:
300,126,52187,1,2,0:0:0:0:
300,126,52550,1,0,0:0:0:0:
300,126,52641,1,0,0:0:0:0:
300,126,52732,1,2,0:0:0:0:
300,126,52823,1,2,0:0:0:0:
300,126,52914,1,0,0:0:0:0:
300,126,53096,1,2,0:0:0:0:
300,126,53277,1,0,0:0:0:0:
300,126,53368,1,2,0:0:0:0:
300,126,53459,1,2,0:0:0:0:
300,126,53550,1,2,0:0:0:0:
300,126,53641,1,0,0:0:0:0:
300,126,53823,1,2,0:0:0:0:
300,126,54005,1,0,0:0:0:0:
300,126,54096,1,0,0:0:0:0:
300,126,54187,1,2,0:0:0:0:
300,126,54277,1,0,0:0:0:0:
300,126,54368,1,2,0:0:0:0:
300,126,54459,1,2,0:0:0:0:
300,126,54550,1,0,0:0:0:0:
279,119,54732,1,0,0:0:0:0:
279,119,54823,1,0,0:0:0:0:
279,119,54914,1,0,0:0:0:0:
279,119,55005,1,0,0:0:0:0:
293,123,55096,1,2,0:0:0:0:
293,123,55187,1,2,0:0:0:0:
289,120,55277,1,2,0:0:0:0:
289,120,55368,1,2,0:0:0:0:
317,120,56914,1,2,0:0:0:0:
317,120,57277,1,2,0:0:0:0:
317,120,57641,1,2,0:0:0:0:
317,120,57823,1,0,0:0:0:0:
308,118,57914,1,0,0:0:0:0:
317,120,58005,1,2,0:0:0:0:
248,108,58187,1,0,0:0:0:0:
305,129,58368,1,2,0:0:0:0:
317,120,58611,1,0,0:0:0:0:
306,121,58732,1,2,0:0:0:0:
308,118,58823,1,2,0:0:0:0:
317,120,58914,1,0,0:0:0:0:
316,121,59005,1,0,0:0:0:0:
306,121,59096,1,2,0:0:0:0:
317,120,59338,1,0,0:0:0:0:
309,127,59459,1,2,0:0:0:0:
313,128,59550,1,0,0:0:0:0:
312,129,59641,1,0,0:0:0:0:
312,129,59732,1,0,0:0:0:0:
309,127,59823,1,2,0:0:0:0:
309,124,60065,1,0,0:0:0:0:
304,122,60187,1,2,0:0:0:0:
303,134,60277,1,0,0:0:0:0:
304,122,60368,1,2,0:0:0:0:
303,134,60459,1,0,0:0:0:0:
304,122,60550,1,2,0:0:0:0:
304,126,60793,1,0,0:0:0:0:
309,124,60914,1,2,0:0:0:0:
323,135,61035,1,2,0:0:0:0:
327,137,61156,1,0,0:0:0:0:
304,122,61277,1,2,0:0:0:0:
304,126,61520,1,0,0:0:0:0:
340,128,61641,1,2,0:0:0:0:
340,128,61732,1,2,0:0:0:0:
332,130,61823,1,0,0:0:0:0:
332,131,61914,1,0,0:0:0:0:
340,128,62005,1,2,0:0:0:0:
330,135,62247,1,0,0:0:0:0:
340,128,62368,1,2,0:0:0:0:
361,116,62459,1,0,0:0:0:0:
361,116,62550,1,0,0:0:0:0:
362,116,62641,1,0,0:0:0:0:
339,132,62732,1,2,0:0:0:0:
343,129,62974,1,0,0:0:0:0:
380,123,63096,1,2,0:0:0:0:
274,108,63187,1,0,0:0:0:0:
380,123,63277,1,2,0:0:0:0:
274,108,63368,1,0,0:0:0:0:
382,124,63459,1,2,0:0:0:0:
340,112,63702,1,0,0:0:0:0:
328,96,63823,1,2,0:0:0:0:
348,112,63914,1,0,0:0:0:0:
348,112,64005,1,0,0:0:0:0:
352,101,64096,1,2,0:0:0:0:
348,112,64187,1,2,0:0:0:0:
248,115,64429,1,0,0:0:0:0:
272,117,64550,1,2,0:0:0:0:
230,96,64641,1,2,0:0:0:0:
266,109,64732,1,0,0:0:0:0:
269,108,64823,1,0,0:0:0:0:
238,96,64914,1,2,0:0:0:0:
280,113,65156,1,0,0:0:0:0:
216,111,65277,1,2,0:0:0:0:
263,71,65368,1,0,0:0:0:0:
263,71,65459,1,0,0:0:0:0:
263,71,65550,1,0,0:0:0:0:
216,111,65641,1,2,0:0:0:0:
263,71,65883,1,0,0:0:0:0:
259,102,66005,1,2,0:0:0:0:
224,101,66096,1,0,0:0:0:0:
259,102,66187,1,2,0:0:0:0:
264,108,66277,1,0,0:0:0:0:
259,102,66368,1,2,0:0:0:0:
254,112,66611,1,0,0:0:0:0:
268,95,66732,1,2,0:0:0:0:
268,95,66853,1,2,0:0:0:0:
254,112,66974,1,0,0:0:0:0:
269,114,67096,1,2,0:0:0:0:
269,105,67217,1,0,0:0:0:0:
269,105,67338,1,0,0:0:0:0:
269,105,67459,1,0,0:0:0:0:
281,105,67641,1,0,0:0:0:0:
271,101,67823,1,2,0:0:0:0:
280,100,67944,1,0,0:0:0:0:
280,100,68065,1,0,0:0:0:0:
280,100,68187,1,0,0:0:0:0:
280,100,68368,1,0,0:0:0:0:
309,103,68550,1,2,0:0:0:0:
288,102,68732,1,2,0:0:0:0:
288,102,68914,1,2,0:0:0:0:
288,102,69096,1,2,0:0:0:0:
292,98,69277,1,0,0:0:0:0:
265,95,70005,1,0,0:0:0:0:
276,90,70126,1,2,0:0:0:0:
269,92,70187,1,0,0:0:0:0:
276,90,70247,1,2,0:0:0:0:
273,87,70368,1,0,0:0:0:0:
269,88,70550,1,2,0:0:0:0:
258,109,70641,1,2,0:0:0:0:
266,101,70732,1,0,0:0:0:0:
265,95,70853,1,2,0:0:0:0:
269,108,70914,1,0,0:0:0:0:
266,94,70974,1,2,0:0:0:0:
270,108,71096,1,0,0:0:0:0:
253,105,71277,1,2,0:0:0:0:
253,105,71368,1,0,0:0:0:0:
208,96,71459,1,0,0:0:0:0:
257,102,71580,1,2,0:0:0:0:
271,115,71641,1,0,0:0:0:0:
257,102,71702,1,2,0:0:0:0:
259,106,71823,1,0,0:0:0:0:
263,106,72005,1,0,0:0:0:0:
263,106,72096,1,2,0:0:0:0:
263,106,72187,1,0,0:0:0:0:
267,108,72308,1,2,0:0:0:0:
267,108,72368,1,2,0:0:0:0:
267,108,72429,1,0,0:0:0:0:
267,108,72550,1,2,0:0:0:0:
275,113,72914,1,0,0:0:0:0:
263,106,73035,1,2,0:0:0:0:
263,101,73096,1,2,0:0:0:0:
263,101,73156,1,2,0:0:0:0:
288,102,73277,1,0,0:0:0:0:
288,101,73459,1,2,0:0:0:0:
288,100,73550,1,2,0:0:0:0:
288,100,73641,1,0,0:0:0:0:
288,100,73762,1,2,0:0:0:0:
288,100,73823,1,2,0:0:0:0:
288,100,73883,1,2,0:0:0:0:
288,100,74005,1,0,0:0:0:0:
288,102,74187,1,2,0:0:0:0:
288,102,74277,1,0,0:0:0:0:
288,101,74368,1,0,0:0:0:0:
288,100,74490,1,2,0:0:0:0:
288,100,74550,1,2,0:0:0:0:
288,100,74611,1,2,0:0:0:0:
287,107,74732,1,0,0:0:0:0:
256,108,74914,1,0,0:0:0:0:
288,100,75005,1,2,0:0:0:0:
256,108,75096,1,0,0:0:0:0:
270,94,75217,1,2,0:0:0:0:
270,93,75277,1,2,0:0:0:0:
283,111,75338,1,0,0:0:0:0:
273,108,75459,1,2,0:0:0:0:
271,124,75823,1,0,0:0:0:0:
263,108,75944,1,2,0:0:0:0:
267,111,76005,1,0,0:0:0:0:
265,103,76065,1,2,0:0:0:0:
265,115,76187,1,0,0:0:0:0:
265,115,76368,1,2,0:0:0:0:
263,118,76459,1,2,0:0:0:0:
265,120,76550,1,0,0:0:0:0:
265,120,76671,1,2,0:0:0:0:
265,120,76732,1,0,0:0:0:0:
265,120,76793,1,2,0:0:0:0:
265,120,76914,1,0,0:0:0:0:
265,115,77096,1,2,0:0:0:0:
265,120,77187,1,0,0:0:0:0:
268,108,77277,1,0,0:0:0:0:
268,108,77399,1,2,0:0:0:0:
268,113,77459,1,0,0:0:0:0:
268,108,77520,1,2,0:0:0:0:
268,115,77641,1,0,0:0:0:0:
268,115,77823,1,0,0:0:0:0:
266,118,77914,1,2,0:0:0:0:
265,115,78005,1,0,0:0:0:0:
268,115,78126,1,2,0:0:0:0:
268,115,78187,1,2,0:0:0:0:
268,115,78247,1,0,0:0:0:0:
268,113,78368,1,2,0:0:0:0:
40,117,78732,1,4,0:0:0:0:
274,130,78914,1,2,0:0:0:0:
277,115,79005,1,2,0:0:0:0:
277,115,79096,1,0,0:0:0:0:
281,117,79277,1,2,0:0:0:0:
281,117,79368,1,2,0:0:0:0:
281,117,79459,1,0,0:0:0:0:
281,120,79641,1,2,0:0:0:0:
282,115,79732,1,2,0:0:0:0:
282,115,79823,1,0,0:0:0:0:
282,115,80005,1,2,0:0:0:0:
17,104,80187,1,4,0:0:0:0:
25,106,80550,1,4,0:0:0:0:
25,106,80914,1,4,0:0:0:0:
302,141,81277,1,2,0:0:0:0:
53,111,81641,1,4,0:0:0:0:
278,125,81883,1,2,0:0:0:0:
278,125,82005,1,0,0:0:0:0:
278,125,82247,1,0,0:0:0:0:
278,125,82368,1,2,0:0:0:0:
278,125,82490,1,2,0:0:0:0:
278,125,82611,1,2,0:0:0:0:
278,125,82732,1,2,0:0:0:0:
248,136,82914,1,2,0:0:0:0:
259,140,83096,1,0,0:0:0:0:
259,140,83217,1,2,0:0:0:0:
259,140,83338,1,2,0:0:0:0:
259,140,83459,1,2,0:0:0:0:
300,140,83641,1,0,0:0:0:0:
27,134,83823,1,6,0:0:0:0:
311,140,84187,1,2,0:0:0:0:
37,128,84551,1,4,0:0:0:0:
274,150,84793,1,2,0:0:0:0:
274,150,84914,1,0,0:0:0:0:
251,154,85156,1,0,0:0:0:0:
243,156,85277,1,2,0:0:0:0:
258,156,85399,1,2,0:0:0:0:
258,156,85520,1,2,0:0:0:0:
258,154,85641,1,2,0:0:0:0:
255,153,85823,1,2,0:0:0:0:
272,154,86005,1,0,0:0:0:0:
282,165,86126,1,2,0:0:0:0:
281,164,86247,1,2,0:0:0:0:
271,159,86368,1,0,0:0:0:0:
270,160,86550,1,2,0:0:0:0:
270,161,86611,1,2,0:0:0:0:
272,165,86671,1,2,0:0:0:0:
290,148,86732,1,0,0:0:0:0:
284,141,86914,1,0,0:0:0:0:
284,144,87096,1,0,0:0:0:0:
284,144,87187,1,0,0:0:0:0:
284,144,87277,1,2,0:0:0:0:
284,144,87368,1,2,0:0:0:0:
47,124,87459,1,4,0:0:0:0:
332,139,88550,1,2,0:0:0:0:
332,139,88732,1,2,0:0:0:0:
332,139,88914,1,2,0:0:0:0:
332,139,89096,1,2,0:0:0:0:
333,146,89459,1,2,0:0:0:0:
333,147,89641,1,0,0:0:0:0:
331,147,90005,1,0,0:0:0:0:
333,146,90368,1,0,0:0:0:0:
333,147,90550,1,2,0:0:0:0:
312,141,91823,1,2,0:0:0:0:
312,141,92550,1,0,0:0:0:0:
312,141,93096,1,0,0:0:0:0:
312,141,93187,1,0,0:0:0:0:
312,141,93277,1,2,0:0:0:0:
277,130,94368,1,2,0:0:0:0:
277,130,94550,1,2,0:0:0:0:
277,130,94732,1,2,0:0:0:0:
277,130,94914,1,2,0:0:0:0:
300,126,95277,1,0,0:0:0:0:
300,126,95641,1,0,0:0:0:0:
300,126,95823,1,2,0:0:0:0:
314,128,96187,1,0,0:0:0:0:
313,126,96550,1,2,0:0:0:0:
313,126,96732,1,0,0:0:0:0:
314,128,97096,1,0,0:0:0:0:
313,126,97277,1,2,0:0:0:0:
322,130,97459,1,2,0:0:0:0:
46,128,97641,1,4,0:0:0:0:
144,137,98005,1,4,0:0:0:0:
239,143,98368,1,0,0:0:0:0:
239,143,98459,1,0,0:0:0:0:
239,143,98550,1,2,0:0:0:0:
239,143,98641,1,0,0:0:0:0:
239,143,98732,1,2,0:0:0:0:
239,143,98823,1,2,0:0:0:0:
239,143,98914,1,0,0:0:0:0:
239,143,99096,1,2,0:0:0:0:
240,131,99459,1,2,0:0:0:0:
240,131,99550,1,2,0:0:0:0:
240,131,99641,1,0,0:0:0:0:
240,131,99732,1,0,0:0:0:0:
240,131,99823,1,2,0:0:0:0:
251,125,100005,1,0,0:0:0:0:
251,125,100096,1,2,0:0:0:0:
251,126,100187,1,0,0:0:0:0:
251,125,100368,1,2,0:0:0:0:
251,125,100550,1,0,0:0:0:0:
274,120,100914,1,0,0:0:0:0:
274,121,101005,1,2,0:0:0:0:
274,121,101096,1,2,0:0:0:0:
272,121,101187,1,0,0:0:0:0:
274,121,101277,1,2,0:0:0:0:
272,122,101368,1,0,0:0:0:0:
274,120,101550,1,0,0:0:0:0:
274,120,101641,1,2,0:0:0:0:
274,120,101823,1,2,0:0:0:0:
274,121,102005,1,0,0:0:0:0:
289,122,102368,1,2,0:0:0:0:
289,122,102550,1,2,0:0:0:0:
289,122,102641,1,2,0:0:0:0:
289,122,102732,1,0,0:0:0:0:
289,122,102823,1,2,0:0:0:0:
289,122,102914,1,0,0:0:0:0:
289,122,103005,1,0,0:0:0:0:
289,122,103096,1,2,0:0:0:0:
289,126,103277,1,0,0:0:0:0:
289,126,103459,1,2,0:0:0:0:
290,109,103550,1,0,0:0:0:0:
289,122,103732,1,0,0:0:0:0:
289,122,103823,1,2,0:0:0:0:
289,122,103914,1,2,0:0:0:0:
289,122,104005,1,0,0:0:0:0:
282,121,104187,1,2,0:0:0:0:
282,121,104368,1,0,0:0:0:0:
282,121,104550,1,2,0:0:0:0:
285,128,104732,1,2,0:0:0:0:
282,121,104914,1,0,0:0:0:0:
285,128,105005,1,2,0:0:0:0:
283,128,105096,1,0,0:0:0:0:
295,128,105277,1,2,0:0:0:0:
295,128,105368,1,2,0:0:0:0:
295,126,105459,1,0,0:0:0:0:
295,126,105550,1,0,0:0:0:0:
295,128,105641,1,2,0:0:0:0:
294,130,105823,1,0,0:0:0:0:
294,130,105914,1,2,0:0:0:0:
294,130,106005,1,2,0:0:0:0:
295,128,106187,1,0,0:0:0:0:
295,126,106368,1,2,0:0:0:0:
302,136,106550,1,2,0:0:0:0:
304,123,106732,1,0,0:0:0:0:
304,123,106823,1,2,0:0:0:0:
304,123,106914,1,2,0:0:0:0:
304,123,107005,1,0,0:0:0:0:
304,123,107096,1,2,0:0:0:0:
304,123,107187,1,0,0:0:0:0:
306,123,107368,1,0,0:0:0:0:
306,119,107459,1,2,0:0:0:0:
304,123,107641,1,0,0:0:0:0:
304,123,107823,1,2,0:0:0:0:
313,100,108005,1,0,0:0:0:0:
314,106,108096,1,2,0:0:0:0:
321,119,108277,1,0,0:0:0:0:
321,119,108368,1,2,0:0:0:0:
321,119,108459,1,2,0:0:0:0:
321,119,108550,1,0,0:0:0:0:
316,116,108732,1,2,0:0:0:0:
316,116,108823,1,0,0:0:0:0:
316,116,108914,1,2,0:0:0:0:
304,122,109096,1,0,0:0:0:0:
62,118,109277,1,6,0:0:0:0:
282,141,110005,1,2,0:0:0:0:
21,98,110733,1,4,0:0:0:0:
329,132,111096,1,2,0:0:0:0:
336,132,111459,1,2,0:0:0:0:
336,132,111823,1,2,0:0:0:0:
336,132,112187,1,2,0:0:0:0:
336,132,112550,1,2,0:0:0:0:
336,132,112914,1,2,0:0:0:0:
336,132,113277,1,2,0:0:0:0:
336,132,113641,1,2,0:0:0:0:
336,132,114005,1,2,0:0:0:0:
336,132,114368,1,2,0:0:0:0:
336,132,114732,1,2,0:0:0:0:
382,125,115096,1,2,0:0:0:0:
382,125,115459,1,2,0:0:0:0:
346,116,115823,1,0,0:0:0:0:
312,117,116187,1,2,0:0:0:0:
312,117,116550,1,0,0:0:0:0:
312,117,116641,1,0,0:0:0:0:
320,124,116732,1,2,0:0:0:0:
320,124,116823,1,2,0:0:0:0:
312,117,116914,1,0,0:0:0:0:
321,124,117096,1,2,0:0:0:0:
312,117,117277,1,0,0:0:0:0:
356,112,117368,1,2,0:0:0:0:
356,112,117459,1,2,0:0:0:0:
356,112,117550,1,2,0:0:0:0:
312,117,117641,1,0,0:0:0:0:
356,112,117823,1,2,0:0:0:0:
342,112,118005,1,0,0:0:0:0:
342,112,118096,1,0,0:0:0:0:
365,120,118187,1,2,0:0:0:0:
342,112,118277,1,0,0:0:0:0:
365,120,118368,1,2,0:0:0:0:
365,116,118459,1,2,0:0:0:0:
355,118,118550,1,0,0:0:0:0:
355,118,118732,1,0,0:0:0:0:
355,118,118823,1,0,0:0:0:0:
355,118,118914,1,0,0:0:0:0:
355,118,119005,1,0,0:0:0:0:
343,121,119096,1,2,0:0:0:0:
344,121,119187,1,2,0:0:0:0:
344,121,119277,1,2,0:0:0:0:
344,121,119368,1,2,0:0:0:0:
272,133,120914,1,2,0:0:0:0:
272,133,121277,1,2,0:0:0:0:
272,133,121641,1,2,0:0:0:0:
266,128,121823,1,0,0:0:0:0:
266,128,121914,1,0,0:0:0:0:
272,133,122005,1,2,0:0:0:0:
266,128,122187,1,0,0:0:0:0:
288,136,122368,1,2,0:0:0:0:
291,130,122459,1,0,0:0:0:0:
291,130,122550,1,0,0:0:0:0:
288,136,122641,1,2,0:0:0:0:
291,130,122732,1,0,0:0:0:0:
291,130,122823,1,0,0:0:0:0:
288,136,122914,1,2,0:0:0:0:
288,136,123096,1,2,0:0:0:0:
299,134,123277,1,0,0:0:0:0:
259,110,123368,1,2,0:0:0:0:
317,124,123459,1,2,0:0:0:0:
300,120,123550,1,0,0:0:0:0:
301,135,123641,1,2,0:0:0:0:
296,124,123823,1,2,0:0:0:0:
291,130,123914,1,0,0:0:0:0:
293,127,124005,1,0,0:0:0:0:
296,124,124096,1,2,0:0:0:0:
293,127,124187,1,0,0:0:0:0:
293,127,124277,1,0,0:0:0:0:
296,124,124368,1,2,0:0:0:0:
296,124,124550,1,2,0:0:0:0:
302,126,124732,1,0,0:0:0:0:
303,125,124823,1,2,0:0:0:0:
299,124,124914,1,0,0:0:0:0:
296,124,125005,1,0,0:0:0:0:
302,143,125096,1,2,0:0:0:0:
307,124,125277,1,2,0:0:0:0:
306,124,125368,1,0,0:0:0:0:
306,124,125459,1,0,0:0:0:0:
307,124,125550,1,2,0:0:0:0:
302,126,125641,1,0,0:0:0:0:
303,125,125732,1,0,0:0:0:0:
307,124,125823,1,2,0:0:0:0:
307,124,126005,1,2,0:0:0:0:
307,124,126187,1,2,0:0:0:0:
313,123,126277,1,2,0:0:0:0:
313,123,126368,1,0,0:0:0:0:
307,124,126459,1,0,0:0:0:0:
313,123,126550,1,2,0:0:0:0:
317,126,126732,1,2,0:0:0:0:
319,131,126823,1,0,0:0:0:0:
315,132,126914,1,0,0:0:0:0:
317,126,127005,1,2,0:0:0:0:
315,132,127096,1,0,0:0:0:0:
315,132,127187,1,0,0:0:0:0:
317,126,127277,1,2,0:0:0:0:
317,126,127459,1,2,0:0:0:0:
330,123,127641,1,0,0:0:0:0:
64,64,127732,1,0,0:0:0:0:
448,64,127823,1,8,0:0:0:0:
319,135,127883,1,2,0:0:0:0:
340,126,127944,1,2,0:0:0:0:
345,123,128005,1,0,0:0:0:0:
322,122,128187,1,0,0:0:0:0:
319,120,128277,1,2,0:0:0:0:
319,120,128368,1,2,0:0:0:0:
330,123,128459,1,0,0:0:0:0:
319,120,128550,1,2,0:0:0:0:
319,120,128641,1,2,0:0:0:0:
323,124,128732,1,0,0:0:0:0:
323,124,128914,1,0,0:0:0:0:
322,122,129096,1,2,0:0:0:0:
319,120,129187,1,0,0:0:0:0:
319,120,129277,1,0,0:0:0:0:
319,121,129368,1,2,0:0:0:0:
311,126,129459,1,0,0:0:0:0:
312,127,129641,1,0,0:0:0:0:
327,120,129732,1,2,0:0:0:0:
323,124,129823,1,2,0:0:0:0:
311,128,129914,1,0,0:0:0:0:
327,121,130005,1,2,0:0:0:0:
327,121,130096,1,2,0:0:0:0:
311,128,130187,1,0,0:0:0:0:
311,126,130368,1,0,0:0:0:0:
312,127,130550,1,2,0:0:0:0:
316,135,130641,1,0,0:0:0:0:
311,128,130732,1,2,0:0:0:0:
318,128,130823,1,2,0:0:0:0:
298,128,130914,1,0,0:0:0:0:
313,101,131096,1,0,0:0:0:0:
315,138,131187,1,2,0:0:0:0:
315,136,131277,1,2,0:0:0:0:
315,136,131368,1,0,0:0:0:0:
315,136,131459,1,2,0:0:0:0:
316,135,131550,1,2,0:0:0:0:
316,134,131641,1,0,0:0:0:0:
316,134,131823,1,0,0:0:0:0:
315,138,132005,1,2,0:0:0:0:
315,138,132096,1,0,0:0:0:0:
307,138,132550,1,2,0:0:0:0:
307,138,132611,1,2,0:0:0:0:
307,137,132671,1,2,0:0:0:0:
311,142,132732,1,0,0:0:0:0:
305,137,132823,1,0,0:0:0:0:
305,139,132914,1,2,0:0:0:0:
305,139,132974,1,2,0:0:0:0:
305,139,133035,1,2,0:0:0:0:
307,138,133096,1,0,0:0:0:0:
303,131,133277,1,2,0:0:0:0:
307,138,133459,1,0,0:0:0:0:
307,138,133550,1,2,0:0:0:0:
299,130,133641,1,0,0:0:0:0:
299,131,133702,1,2,0:0:0:0:
299,130,133762,1,2,0:0:0:0:
299,130,133823,1,0,0:0:0:0:
284,129,134005,1,2,0:0:0:0:
284,130,134096,1,0,0:0:0:0:
283,130,134187,1,0,0:0:0:0:
283,130,134277,1,2,0:0:0:0:
283,130,134368,1,0,0:0:0:0:
283,131,134459,1,0,0:0:0:0:
283,131,134550,1,2,0:0:0:0:
283,131,134732,1,2,0:0:0:0:
284,129,134914,1,0,0:0:0:0:
271,129,135005,1,2,0:0:0:0:
271,129,135096,1,2,0:0:0:0:
271,129,135187,1,0,0:0:0:0:
271,129,135277,1,2,0:0:0:0:
271,129,135459,1,2,0:0:0:0:
271,129,135550,1,0,0:0:0:0:
271,129,135641,1,0,0:0:0:0:
271,129,135732,1,2,0:0:0:0:
271,129,135823,1,0,0:0:0:0:
271,129,135914,1,0,0:0:0:0:
271,129,136005,1,2,0:0:0:0:
271,129,136187,1,2,0:0:0:0:
271,129,136368,1,0,0:0:0:0:
271,129,136459,1,2,0:0:0:0:
271,129,136550,1,0,0:0:0:0:
271,129,136641,1,0,0:0:0:0:
271,129,136732,1,2,0:0:0:0:
271,129,136914,1,2,0:0:0:0:
271,129,137005,1,0,0:0:0:0:
271,129,137096,1,0,0:0:0:0:
271,129,137187,1,2,0:0:0:0:
271,129,137277,1,0,0:0:0:0:
271,129,137368,1,0,0:0:0:0:
271,129,137459,1,2,0:0:0:0:
271,129,137641,1,2,0:0:0:0:
280,138,137823,1,2,0:0:0:0:
282,138,137914,1,2,0:0:0:0:
282,138,138005,1,0,0:0:0:0:
282,138,138096,1,0,0:0:0:0:
282,138,138187,1,2,0:0:0:0:
282,138,138368,1,2,0:0:0:0:
282,138,138459,1,0,0:0:0:0:
283,139,138550,1,0,0:0:0:0:
280,139,138641,1,2,0:0:0:0:
280,138,138732,1,0,0:0:0:0:
282,138,138823,1,0,0:0:0:0:
282,138,138914,1,2,0:0:0:0:
282,138,139096,1,2,0:0:0:0:
287,131,139277,1,0,0:0:0:0:
64,64,139369,1,0,0:0:0:0:
448,64,139460,1,8,0:0:0:0:
287,131,139520,1,2,0:0:0:0:
287,131,139580,1,2,0:0:0:0:
287,131,139641,1,0,0:0:0:0:
282,138,139823,1,0,0:0:0:0:
288,130,139914,1,2,0:0:0:0:
288,130,140005,1,2,0:0:0:0:
286,138,140096,1,0,0:0:0:0:
292,136,140187,1,2,0:0:0:0:
292,136,140277,1,2,0:0:0:0:
271,127,140368,1,0,0:0:0:0:
279,131,140550,1,0,0:0:0:0:
282,138,140732,1,2,0:0:0:0:
278,136,140823,1,0,0:0:0:0:
278,136,140914,1,0,0:0:0:0:
279,136,141005,1,2,0:0:0:0:
279,137,141096,1,0,0:0:0:0:
279,137,141277,1,0,0:0:0:0:
278,138,141368,1,2,0:0:0:0:
279,137,141459,1,2,0:0:0:0:
278,136,141550,1,0,0:0:0:0:
282,138,141641,1,2,0:0:0:0:
278,136,141732,1,2,0:0:0:0:
278,136,141823,1,0,0:0:0:0:
279,137,142005,1,0,0:0:0:0:
279,137,142187,1,2,0:0:0:0:
278,138,142277,1,0,0:0:0:0:
279,137,142368,1,2,0:0:0:0:
278,136,142459,1,2,0:0:0:0:
275,140,142550,1,0,0:0:0:0:
275,140,142732,1,0,0:0:0:0:
275,140,142823,1,2,0:0:0:0:
275,140,142914,1,2,0:0:0:0:
275,140,143005,1,0,0:0:0:0:
274,140,143096,1,2,0:0:0:0:
271,141,143187,1,2,0:0:0:0:
270,141,143277,1,0,0:0:0:0:
275,140,143459,1,0,0:0:0:0:
267,129,143641,1,2,0:0:0:0:
266,129,143732,1,0,0:0:0:0:
43,125,144187,1,6,0:0:0:0:
275,125,144368,1,0,0:0:0:0:
275,124,144459,1,0,0:0:0:0:
51,124,144550,1,6,0:0:0:0:
274,131,144732,1,0,0:0:0:0:
272,131,144823,1,0,0:0:0:0:
41,117,144914,1,6,0:0:0:0:
275,125,145277,1,2,0:0:0:0:
274,131,145641,1,0,0:0:0:0:
272,131,145762,1,2,0:0:0:0:
272,132,145883,1,0,0:0:0:0:
271,132,146126,1,0,0:0:0:0:
274,131,146247,1,2,0:0:0:0:
274,131,146368,1,2,0:0:0:0:
274,131,146490,1,2,0:0:0:0:
274,131,146550,1,2,0:0:0:0:
272,131,146611,1,0,0:0:0:0:
275,140,146853,1,0,0:0:0:0:
273,142,146974,1,2,0:0:0:0:
273,142,147096,1,0,0:0:0:0:
273,143,147217,1,0,0:0:0:0:
272,143,147338,1,0,0:0:0:0:
269,140,147580,1,0,0:0:0:0:
270,141,147702,1,2,0:0:0:0:
273,142,147823,1,0,0:0:0:0:
273,142,147944,1,2,0:0:0:0:
273,143,148065,1,2,0:0:0:0:
272,143,148187,1,2,0:0:0:0:
269,140,148429,1,2,0:0:0:0:
14,128,148550,1,4,0:0:0:0:
270,135,148732,1,2,0:0:0:0:
270,135,148823,1,2,0:0:0:0:
270,135,148914,1,0,0:0:0:0:
270,135,149096,1,2,0:0:0:0:
270,135,149187,1,2,0:0:0:0:
270,135,149277,1,0,0:0:0:0:
270,135,149459,1,2,0:0:0:0:
270,135,149550,1,2,0:0:0:0:
270,135,149641,1,0,0:0:0:0:
270,135,149823,1,2,0:0:0:0:
54,145,150005,1,4,0:0:0:0:
328,125,151459,1,2,0:0:0:0:
328,125,151550,1,2,0:0:0:0:
328,125,151641,1,0,0:0:0:0:
328,125,151732,1,2,0:0:0:0:
328,125,151823,1,0,0:0:0:0:
328,125,151914,1,0,0:0:0:0:
328,125,152005,1,2,0:0:0:0:
328,125,152187,1,2,0:0:0:0:
331,115,152308,1,0,0:0:0:0:
331,115,152368,1,0,0:0:0:0:
331,115,152490,1,2,0:0:0:0:
322,112,152671,1,2,0:0:0:0:
322,112,152732,1,0,0:0:0:0:
340,113,152914,1,0,0:0:0:0:
340,113,153005,1,2,0:0:0:0:
340,113,153096,1,2,0:0:0:0:
339,111,153187,1,0,0:0:0:0:
337,109,153277,1,2,0:0:0:0:
337,109,153459,1,0,0:0:0:0:
336,108,153580,1,2,0:0:0:0:
340,110,153641,1,2,0:0:0:0:
329,106,153762,1,0,0:0:0:0:
326,107,153823,1,2,0:0:0:0:
336,108,153944,1,2,0:0:0:0:
337,109,154187,1,2,0:0:0:0:
332,113,154368,1,2,0:0:0:0:
332,113,154459,1,2,0:0:0:0:
329,113,154550,1,0,0:0:0:0:
330,113,154641,1,0,0:0:0:0:
332,113,154732,1,2,0:0:0:0:
330,113,154823,1,0,0:0:0:0:
332,113,154914,1,2,0:0:0:0:
332,113,155096,1,2,0:0:0:0:
319,106,155217,1,0,0:0:0:0:
317,98,155277,1,0,0:0:0:0:
318,109,155399,1,2,0:0:0:0:
321,105,155580,1,0,0:0:0:0:
320,108,155641,1,2,0:0:0:0:
312,106,155823,1,0,0:0:0:0:
323,107,155914,1,2,0:0:0:0:
322,107,156005,1,2,0:0:0:0:
319,106,156096,1,0,0:0:0:0:
317,106,156187,1,2,0:0:0:0:
321,105,156368,1,0,0:0:0:0:
325,108,156490,1,2,0:0:0:0:
325,108,156550,1,2,0:0:0:0:
325,108,156732,1,2,0:0:0:0:
323,107,156853,1,2,0:0:0:0:
325,108,156914,1,0,0:0:0:0:
325,108,157096,1,2,0:0:0:0:
328,111,157277,1,2,0:0:0:0:
325,108,157368,1,0,0:0:0:0:
325,108,157459,1,2,0:0:0:0:
325,108,157550,1,2,0:0:0:0:
325,108,157641,1,0,0:0:0:0:
323,107,157732,1,2,0:0:0:0:
325,108,157823,1,0,0:0:0:0:
325,108,158005,1,2,0:0:0:0:
306,104,158126,1,0,0:0:0:0:
305,105,158187,1,0,0:0:0:0:
289,97,158308,1,2,0:0:0:0:
304,96,158490,1,2,0:0:0:0:
304,96,158550,1,0,0:0:0:0:
309,94,158732,1,0,0:0:0:0:
302,96,158823,1,2,0:0:0:0:
302,96,158914,1,2,0:0:0:0:
300,98,159005,1,0,0:0:0:0:
266,109,159096,1,2,0:0:0:0:
266,109,159277,1,0,0:0:0:0:
285,101,159399,1,2,0:0:0:0:
285,101,159459,1,2,0:0:0:0:
299,111,159580,1,0,0:0:0:0:
299,111,159641,1,2,0:0:0:0:
299,111,159762,1,2,0:0:0:0:
299,111,160005,1,2,0:0:0:0:
293,96,160187,1,2,0:0:0:0:
296,101,160277,1,2,0:0:0:0:
296,101,160368,1,0,0:0:0:0:
296,101,160459,1,2,0:0:0:0:
296,101,160550,1,0,0:0:0:0:
296,101,160641,1,0,0:0:0:0:
296,101,160732,1,2,0:0:0:0:
296,101,160914,1,2,0:0:0:0:
287,98,161035,1,0,0:0:0:0:
287,98,161096,1,0,0:0:0:0:
288,98,161217,1,2,0:0:0:0:
288,98,161459,1,2,0:0:0:0:
64,64,161641,1,0,0:0:0:0:
275,124,162368,1,2,0:0:0:0:
274,118,162550,1,2,0:0:0:0:
274,118,162671,1,2,0:0:0:0:
275,124,162732,1,0,0:0:0:0:
275,124,162853,1,0,0:0:0:0:
279,130,162914,1,2,0:0:0:0:
286,169,163096,1,0,0:0:0:0:
286,169,163187,1,0,0:0:0:0:
292,153,163277,1,2,0:0:0:0:
286,169,163368,1,0,0:0:0:0:
292,153,163459,1,2,0:0:0:0:
266,142,163641,1,0,0:0:0:0:
287,131,163823,1,2,0:0:0:0:
289,124,164005,1,2,0:0:0:0:
286,121,164096,1,0,0:0:0:0:
287,121,164187,1,0,0:0:0:0:
292,129,164277,1,2,0:0:0:0:
279,120,164368,1,0,0:0:0:0:
288,125,164550,1,0,0:0:0:0:
288,129,164641,1,2,0:0:0:0:
287,131,164732,1,2,0:0:0:0:
286,138,164823,1,0,0:0:0:0:
294,127,164914,1,2,0:0:0:0:
294,127,164974,1,2,0:0:0:0:
279,124,165035,1,2,0:0:0:0:
286,138,165096,1,0,0:0:0:0:
285,134,165278,1,2,0:0:0:0:
297,134,165460,1,2,0:0:0:0:
284,142,165550,1,2,0:0:0:0:
284,136,165641,1,0,0:0:0:0:
292,120,165823,1,2,0:0:0:0:
286,127,166005,1,0,0:0:0:0:
285,127,166096,1,0,0:0:0:0:
292,132,166187,1,2,0:0:0:0:
292,131,166277,1,2,0:0:0:0:
285,127,166368,1,0,0:0:0:0:
279,129,166550,1,0,0:0:0:0:
292,131,166732,1,2,0:0:0:0:
283,116,166914,1,2,0:0:0:0:
280,119,167005,1,0,0:0:0:0:
264,119,167096,1,2,0:0:0:0:
262,109,167187,1,2,0:0:0:0:
263,108,167277,1,0,0:0:0:0:
213,102,167459,1,0,0:0:0:0:
256,109,167550,1,2,0:0:0:0:
256,109,167641,1,2,0:0:0:0:
271,115,167732,1,0,0:0:0:0:
254,111,167823,1,2,0:0:0:0:
285,118,167883,1,2,0:0:0:0:
285,118,167944,1,2,0:0:0:0:
258,100,168005,1,0,0:0:0:0:
270,125,168187,1,2,0:0:0:0:
262,116,168369,1,2,0:0:0:0:
277,114,168459,1,2,0:0:0:0:
272,128,168550,1,0,0:0:0:0:
254,131,168732,1,2,0:0:0:0:
260,143,168914,1,0,0:0:0:0:
306,135,169005,1,2,0:0:0:0:
272,136,169096,1,0,0:0:0:0:
272,134,169187,1,0,0:0:0:0:
306,135,169277,1,2,0:0:0:0:
215,153,169459,1,0,0:0:0:0:
194,138,169641,1,2,0:0:0:0:
306,135,169823,1,2,0:0:0:0:
284,126,169914,1,0,0:0:0:0:
291,128,170096,1,2,0:0:0:0:
295,126,170187,1,0,0:0:0:0:
287,123,170368,1,0,0:0:0:0:
263,121,170459,1,2,0:0:0:0:
263,121,170550,1,2,0:0:0:0:
284,128,170641,1,0,0:0:0:0:
292,125,170732,1,2,0:0:0:0:
292,125,170823,1,2,0:0:0:0:
284,128,170914,1,0,0:0:0:0:
271,117,171096,1,2,0:0:0:0:
268,117,171277,1,2,0:0:0:0:
278,118,171368,1,2,0:0:0:0:
276,120,171459,1,0,0:0:0:0:
274,115,171641,1,2,0:0:0:0:
274,115,171823,1,0,0:0:0:0:
271,117,171914,1,0,0:0:0:0:
293,125,172005,1,2,0:0:0:0:
294,125,172096,1,2,0:0:0:0:
260,117,172187,1,0,0:0:0:0:
286,117,172368,1,2,0:0:0:0:
286,117,172550,1,2,0:0:0:0:
280,107,172732,1,2,0:0:0:0:
272,125,172823,1,0,0:0:0:0:
317,125,173005,1,2,0:0:0:0:
295,104,173096,1,0,0:0:0:0:
25,126,173277,1,4,0:0:0:0:
25,126,173641,1,4,0:0:0:0:
296,123,174005,1,0,0:0:0:0:
301,118,174187,1,0,0:0:0:0:
276,138,174368,1,2,0:0:0:0:
276,138,174459,1,2,0:0:0:0:
296,123,174550,1,0,0:0:0:0:
10,143,174732,1,4,0:0:0:0:
